<?xml version="1.0" standalone="no"?>
<!DOCTYPE svg PUBLIC "-//W3C//DTD SVG 1.1//EN" "http://www.w3.org/Graphics/SVG/1.1/DTD/svg11.dtd" >
<svg xmlns="http://www.w3.org/2000/svg" xmlns:xlink="http://www.w3.org/1999/xlink" version="1.1">
<metadata>
Created by FontForge 20150318 at Tue Apr 28 08:56:42 2015
 By uniteet7
The AW Conqueror Didot typeface is not inspired by the Didot dynasty of the early 19th century but rather the spectacular interpretations of them appearing in the 1960s and 70s. Decades in which large type sizes were all the rage in advertising and publishing, contrasted typefaces were everywhere. This new font is an ode to the heyday of dry-transfer alphabets and Herb Lubalin, the typographer who mastered the a^ "tight but not touchinga^" art of glyphs set ascloseasthis without overlapping.
</metadata>
<defs>
<font id="AWConquerorDidot-Light" horiz-adv-x="500" >
  <font-face 
    font-family="AW Conqueror Didot Light"
    font-weight="300"
    font-stretch="normal"
    units-per-em="1000"
    panose-1="2 8 3 3 8 5 2 2 2 4"
    ascent="761"
    descent="-239"
    x-height="449"
    cap-height="674"
    bbox="-393 -421 1316 1095"
    underline-thickness="10"
    underline-position="-193"
    stemh="90"
    stemv="90"
    unicode-range="U+000D-FB06"
  />
<missing-glyph 
d="M490 -100h-480v260h340v-140h-90v50h-160v-80h390v-90zM490 490h-480v210h90v-120h150v100h90v-100h150v-90zM490 280h-390v-90h-90v270h90v-90h390v-90z" />
    <glyph glyph-name="f_f" unicode="ff" horiz-adv-x="608" 
d="M283 689c52 0 103 -20 127 -53c27 32 68 51 121 51c76 0 122 -41 122 -91c0 -29 -21 -50 -53 -50c-27 0 -50 21 -50 50c0 31 22 44 22 59c0 16 -14 28 -42 28c-58 0 -71 -30 -71 -107v-127h115v-4h-115v-308c0 -130 8 -131 55 -133l30 -1v-3h-233v3l20 1
c37 2 45 3 45 133v308h-193v-308c0 -130 8 -131 45 -133l20 -1v-3h-213v3l20 1c37 2 45 3 45 133v308h-71v4h71v81c0 89 77 159 183 159zM376 449v81c0 6 0 13 1 19c-25 0 -46 19 -46 46c0 28 20 40 20 55c0 21 -35 35 -68 35c-66 0 -100 -28 -100 -109v-127h193z" />
    <glyph glyph-name="fi" unicode="fi" horiz-adv-x="538" 
d="M339 445h-156v-308c0 -130 8 -131 45 -133l20 -1v-3h-213v3l20 1c37 2 45 3 45 133v308h-71v4h71v81c0 89 87 159 203 159c81 0 164 -44 164 -104c0 -29 -21 -50 -53 -50c-27 0 -50 21 -50 50c0 31 22 44 22 61c0 25 -40 39 -83 39c-76 0 -120 -28 -120 -109v-127h284
v-312c0 -130 8 -131 45 -133l20 -1v-3h-213v3l20 1c37 2 45 3 45 133v175c0 130 -8 133 -45 133z" />
    <glyph glyph-name="f_f_i" unicode="ffi" horiz-adv-x="813" 
d="M524 0h-213v3l20 1c37 2 45 3 45 133v308h-193v-308c0 -130 8 -131 45 -133l20 -1v-3h-213v3l20 1c37 2 45 3 45 133v308h-71v4h71v81c0 89 77 159 183 159c57 0 113 -24 133 -63c36 38 94 63 163 63c81 0 164 -44 164 -104c0 -29 -21 -50 -53 -50c-27 0 -50 21 -50 50
c0 31 22 44 22 61c0 25 -40 39 -83 39c-76 0 -120 -28 -120 -109v-127h284v-312c0 -130 8 -131 45 -133l20 -1v-3h-213v3l20 1c37 2 45 3 45 133v175c0 130 -8 133 -45 133h-156v-308c0 -130 8 -131 45 -133l20 -1v-3zM376 530c0 6 0 12 1 19c-25 0 -46 19 -46 46
c0 28 20 40 20 55c0 21 -35 35 -68 35c-66 0 -100 -28 -100 -109v-127h193v81z" />
    <glyph glyph-name="fl" unicode="fl" horiz-adv-x="538" 
d="M376 445h-193v-308c0 -130 8 -131 45 -133l20 -1v-3h-213v3l20 1c37 2 45 3 45 133v308h-71v4h71v81c0 89 77 159 183 159c25 0 51 -5 73 -15h103v-537c0 -130 8 -131 45 -133l20 -1v-3h-213v3l20 1c37 2 45 3 45 133v308zM376 449v100h-7c-25 0 -45 19 -45 46
c0 28 20 40 20 55c0 21 -25 35 -61 35c-66 0 -100 -28 -100 -109v-127h193z" />
    <glyph glyph-name="f_f_l" unicode="ffl" horiz-adv-x="813" 
d="M98 445h-71v4h71v81c0 89 77 159 183 159c55 0 109 -23 131 -60c32 37 84 60 145 60c25 0 51 -5 73 -15h103v-537c0 -130 8 -131 45 -133l20 -1v-3h-213v3l20 1c37 2 45 3 45 133v308h-193v-308c0 -130 8 -131 45 -133l20 -1v-3h-213v3l20 1c37 2 45 3 45 133v308h-193
v-308c0 -130 8 -131 45 -133l20 -1v-3h-213v3l20 1c37 2 45 3 45 133v308zM374 530c0 6 0 12 1 19c-25 0 -46 19 -46 46c0 28 20 40 20 55c0 21 -35 35 -68 35c-66 0 -100 -28 -100 -109v-127h193v81zM650 449v100h-7c-25 0 -45 19 -45 46c0 28 20 40 20 55
c0 21 -25 35 -61 35c-66 0 -100 -28 -100 -109v-127h193z" />
    <glyph glyph-name=".notdef" 
d="M490 -100h-480v260h340v-140h-90v50h-160v-80h390v-90zM490 490h-480v210h90v-120h150v100h90v-100h150v-90zM490 280h-390v-90h-90v270h90v-90h390v-90z" />
    <glyph glyph-name=".null" horiz-adv-x="0" 
 />
    <glyph glyph-name=".null" horiz-adv-x="0" 
 />
    <glyph glyph-name="CR" unicode="&#xd;" horiz-adv-x="250" 
 />
    <glyph glyph-name="space" unicode=" " horiz-adv-x="250" 
 />
    <glyph glyph-name="space" unicode="&#xa0;" horiz-adv-x="250" 
 />
    <glyph glyph-name="nbspace" 
 />
    <glyph glyph-name="A" unicode="A" horiz-adv-x="675" 
d="M459 163l-45 117h-235l-19 -50c-19 -49 -29 -102 -29 -146c0 -45 9 -77 56 -80l21 -1v-3h-203v3l11 1c41 4 60 18 140 226l174 454h11l211 -516c59 -144 69 -159 110 -164l8 -1v-3h-239v3l26 1c64 2 47 43 2 159zM296 585l-115 -301h231z" />
    <glyph glyph-name="B" unicode="B" horiz-adv-x="682" 
d="M31 0v3l21 1c49 2 58 14 58 151v364c0 137 -9 149 -58 151l-21 1v3h303c129 0 231 -50 231 -161c0 -103 -110 -149 -209 -167c99 -11 246 -49 246 -180c0 -119 -114 -166 -271 -166h-300zM201 344v-189c0 -135 3 -151 47 -151h83c102 0 170 44 170 169
c0 107 -57 171 -175 171h-125zM201 519v-171h124c77 0 139 49 139 165c0 110 -63 157 -130 157h-86c-44 0 -47 -16 -47 -151z" />
    <glyph glyph-name="C" unicode="C" horiz-adv-x="682" 
d="M602 -13h-2c-26 33 -51 55 -72 55c-12 0 -20 -5 -36 -16c-37 -25 -75 -39 -123 -39c-208 0 -314 171 -314 349c0 180 106 351 314 351c45 0 84 -12 117 -34c10 -7 20 -14 32 -14c18 0 38 19 62 48h2v-194h-3l-11 34c-27 84 -93 156 -197 156c-161 0 -213 -173 -213 -346
s52 -346 213 -346c129 0 196 119 217 186l11 34h3v-224z" />
    <glyph glyph-name="D" unicode="D" horiz-adv-x="742" 
d="M12 0v3l21 1c49 2 58 14 58 151v364c0 137 -9 149 -58 151l-21 1v3h328c221 0 338 -152 338 -336c0 -185 -123 -338 -337 -338h-329zM340 670h-111c-44 0 -47 -16 -47 -151v-364c0 -135 3 -151 47 -151h111c169 0 235 163 235 333c0 177 -79 333 -235 333z" />
    <glyph glyph-name="E" unicode="E" horiz-adv-x="626" 
d="M391 232h-3l-6 22c-23 84 -75 90 -124 90h-57v-189c0 -135 3 -151 47 -151h75c98 0 154 19 204 173l11 34h3v-211h-510v3l21 1c49 2 58 14 58 151v364c0 137 -9 149 -58 151l-21 1v3h490v-181h-3l-11 34c-42 129 -113 143 -204 143h-55c-44 0 -47 -16 -47 -151v-171h57
c49 0 101 6 124 90l6 22h3v-228z" />
    <glyph glyph-name="F" unicode="F" horiz-adv-x="611" 
d="M310 0h-279v3l21 1c49 2 58 14 58 151v364c0 137 -9 149 -58 151l-21 1v3h510v-201h-3l-11 34c-51 156 -113 163 -204 163h-75c-44 0 -47 -16 -47 -151v-191h77c49 0 101 6 124 90l6 22h3v-248h-3l-6 22c-28 102 -75 110 -124 110h-77v-169c0 -137 9 -147 88 -151l21 -1
v-3z" />
    <glyph glyph-name="G" unicode="G" horiz-adv-x="694" 
d="M486 30c23 17 25 30 25 83v53c0 137 -9 147 -98 151l-21 1v3h289v-3l-21 -1c-49 -2 -58 -14 -58 -151v-179h-2c-26 33 -51 55 -72 55c-12 0 -20 -5 -36 -16c-37 -25 -85 -39 -133 -39c-208 0 -314 171 -314 349c0 180 106 351 314 351c45 0 84 -12 117 -34
c10 -7 20 -14 32 -14c18 0 38 19 62 48h2v-194h-3l-11 34c-27 84 -93 156 -197 156c-161 0 -213 -173 -213 -346s52 -346 213 -346c43 0 93 16 125 39z" />
    <glyph glyph-name="H" unicode="H" horiz-adv-x="779" 
d="M669 519v-364c0 -137 9 -149 58 -151l21 -1v-3h-249v3l21 1c49 2 58 14 58 151v189h-377v-189c0 -137 9 -149 58 -151l21 -1v-3h-249v3l21 1c49 2 58 14 58 151v364c0 137 -9 149 -58 151l-21 1v3h249v-3l-21 -1c-49 -2 -58 -14 -58 -151v-171h377v171
c0 137 -9 149 -58 151l-21 1v3h249v-3l-21 -1c-49 -2 -58 -14 -58 -151z" />
    <glyph glyph-name="I" unicode="I" horiz-adv-x="311" 
d="M201 519v-364c0 -137 9 -149 58 -151l21 -1v-3h-249v3l21 1c49 2 58 14 58 151v364c0 137 -9 149 -58 151l-21 1v3h249v-3l-21 -1c-49 -2 -58 -14 -58 -151z" />
    <glyph glyph-name="J" unicode="J" horiz-adv-x="512" 
d="M402 519v-294c0 -126 -63 -238 -225 -238c-107 0 -153 55 -153 104c0 31 22 53 55 53c29 0 53 -22 53 -53c0 -33 -23 -50 -23 -66s3 -34 68 -34c126 0 134 115 134 226v302c0 137 -9 149 -58 151l-21 1v3h249v-3l-21 -1c-49 -2 -58 -14 -58 -151z" />
    <glyph glyph-name="K" unicode="K" horiz-adv-x="684" 
d="M407 485l-33 -35c-35 -37 -94 -106 -130 -113c125 0 200 -54 251 -137c12 -19 43 -72 53 -89c37 -61 67 -105 104 -107l18 -1v-3h-166c-9 19 -21 44 -42 83c-20 37 -50 97 -68 128c-61 105 -81 123 -149 123h-44v-179c0 -137 9 -149 58 -151l21 -1v-3h-249v3l21 1
c49 2 58 14 58 151v364c0 137 -9 149 -58 151l-21 1v3h249v-3l-21 -1c-49 -2 -58 -14 -58 -151v-181h20c41 0 63 21 150 113l32 34c88 94 103 181 35 185l-21 1v3h263v-3l-21 -1c-48 -2 -104 -28 -252 -185z" />
    <glyph glyph-name="L" unicode="L" horiz-adv-x="606" 
d="M201 519v-364c0 -135 3 -151 47 -151h80c98 0 145 22 204 203l11 34h3v-241h-515v3l21 1c49 2 58 14 58 151v364c0 137 -9 149 -58 151l-21 1v3h249v-3l-21 -1c-49 -2 -58 -14 -58 -151z" />
    <glyph glyph-name="M" unicode="M" horiz-adv-x="847" 
d="M119 240v279c0 137 -21 149 -70 151l-18 1v3h169l244 -389l215 389h157v-3l-21 -1c-49 -2 -58 -14 -58 -151v-364c0 -137 9 -149 58 -151l21 -1v-3h-249v3l21 1c49 2 58 14 58 151v489l-243 -444h-13l-267 419v-379c0 -82 28 -232 104 -236l21 -1v-3h-217v3l11 1
c55 5 77 82 77 236z" />
    <glyph glyph-name="N" unicode="N" horiz-adv-x="780" 
d="M196 674l461 -559v319c0 82 -28 232 -104 236l-21 1v3h217v-3l-11 -1c-55 -5 -77 -82 -77 -236v-443h-14l-524 623v-374c0 -82 28 -232 104 -236l21 -1v-3h-217v3l11 1c55 5 77 82 77 236v279c0 137 -21 149 -70 151l-18 1v3h165z" />
    <glyph glyph-name="O" unicode="O" horiz-adv-x="750" 
d="M602 337c0 180 -55 346 -227 346s-227 -164 -227 -346c0 -180 55 -346 227 -346s227 164 227 346zM705 338c0 -183 -118 -351 -330 -351s-330 168 -330 351s118 349 330 349s330 -166 330 -349z" />
    <glyph glyph-name="P" unicode="P" horiz-adv-x="641" 
d="M359 285h-158v-130c0 -137 9 -147 88 -151l21 -1v-3h-279v3l21 1c49 2 58 14 58 151v364c0 137 -9 149 -58 151l-21 1v3h324c142 0 236 -83 236 -204c0 -107 -78 -185 -232 -185zM201 289h158c95 0 121 88 121 180c0 90 -32 201 -125 201h-107c-44 0 -47 -16 -47 -151
v-230z" />
    <glyph glyph-name="Q" unicode="Q" horiz-adv-x="750" 
d="M705 338c0 -142 -71 -275 -202 -327c43 -56 88 -110 155 -110c47 0 76 29 76 91h5c0 -96 -46 -165 -117 -165c-95 0 -140 86 -181 166c-21 -4 -43 -6 -66 -6c-212 0 -330 168 -330 351s118 349 330 349s330 -166 330 -349zM602 337c0 180 -55 346 -227 346
s-227 -164 -227 -346c0 -119 23 -231 89 -294c3 63 29 100 93 100c71 0 116 -58 161 -117c82 57 111 179 111 311zM375 -9c23 0 43 3 62 8c-34 68 -66 132 -124 132c-53 0 -71 -44 -73 -91c33 -30 78 -49 135 -49z" />
    <glyph glyph-name="R" unicode="R" horiz-adv-x="688" 
d="M201 338h159c98 0 119 74 119 164c0 109 -44 168 -118 168h-113c-44 0 -47 -16 -47 -151v-181zM568 111c37 -61 67 -105 104 -107l18 -1v-3h-166c-9 19 -21 44 -42 83c-20 37 -50 97 -68 128c-61 107 -81 123 -149 123h-64v-179c0 -137 9 -149 58 -151l21 -1v-3h-249v3
l21 1c49 2 58 14 58 151v364c0 137 -9 149 -58 151l-21 1v3h330c120 0 220 -57 220 -170c0 -73 -52 -127 -121 -152c-48 -17 -96 -20 -153 -18c113 -29 163 -64 208 -134c12 -19 43 -72 53 -89z" />
    <glyph glyph-name="S" unicode="S" horiz-adv-x="657" 
d="M560 171c0 -110 -98 -184 -230 -184c-45 0 -88 9 -134 39c-15 10 -24 15 -37 15c-22 0 -45 -22 -70 -54h-2v224h3l12 -37c26 -79 89 -183 227 -183c89 0 156 40 156 132c0 203 -370 162 -370 387c0 106 88 177 197 177c42 0 79 -11 114 -34c13 -9 23 -14 33 -14
c17 0 38 20 61 48h2v-194h-3l-11 35c-30 101 -110 155 -193 155s-130 -43 -130 -110c0 -207 375 -166 375 -402z" />
    <glyph glyph-name="T" unicode="T" horiz-adv-x="630" 
d="M439 3v-3h-249v3l21 1c49 2 58 14 58 151v364c0 135 -3 151 -47 151h-26c-31 0 -101 -7 -152 -163l-11 -34h-3v201h569v-201h-3l-11 34c-51 156 -121 163 -152 163h-26c-44 0 -47 -16 -47 -151v-364c0 -137 9 -149 58 -151z" />
    <glyph glyph-name="U" unicode="U" horiz-adv-x="779" 
d="M655 223v211c0 82 -28 232 -104 236l-21 1v3h218v-3l-11 -1c-55 -5 -78 -82 -78 -236v-211c0 -138 -98 -234 -268 -234c-172 0 -281 89 -281 234v296c0 137 -9 149 -58 151l-21 1v3h249v-3l-21 -1c-49 -2 -58 -14 -58 -151v-295c0 -134 77 -219 226 -219
c148 0 228 96 228 218z" />
    <glyph glyph-name="V" unicode="V" horiz-adv-x="675" 
d="M218 511l164 -414l133 347c19 49 29 102 29 146c0 45 -9 77 -56 80l-21 1v3h203v-3l-11 -1c-41 -4 -60 -18 -140 -226l-174 -454h-11l-211 516c-59 144 -69 159 -110 164l-8 1v3h239v-3l-26 -1c-64 -2 -46 -43 0 -159z" />
    <glyph glyph-name="W" unicode="W" horiz-adv-x="940" 
d="M202 511l111 -385l182 560h14l191 -566l90 324c14 51 19 102 19 146c0 45 -9 77 -56 80l-21 1v3h198v-3l-11 -1c-36 -3 -64 -12 -124 -226l-128 -456h-13l-195 571l-186 -571h-13l-147 518c-41 143 -54 159 -95 164l-8 1v3h234v-3l-21 -1c-61 -3 -55 -40 -21 -159z" />
    <glyph glyph-name="X" unicode="X" horiz-adv-x="682" 
d="M411 163l-109 155l-55 -77c-71 -100 -90 -149 -90 -186c0 -30 5 -49 40 -51l21 -1v-3h-208v3l11 1c38 2 92 59 222 240l56 78l-129 184c-86 123 -111 159 -151 164l-8 1v3h237v-3l-21 -1c-65 -5 -30 -58 41 -159l94 -134l39 56c71 100 90 149 90 186c0 30 -5 49 -40 51
l-21 1v3h208v-3l-11 -1c-38 -2 -94 -57 -222 -240l-40 -57l144 -205c85 -122 114 -162 155 -164l8 -1v-3h-237v3l21 1c64 3 25 57 -45 159z" />
    <glyph glyph-name="Y" unicode="Y" horiz-adv-x="642" 
d="M363 337l70 107c29 44 67 113 67 157c0 37 -9 66 -56 69l-21 1v3h218v-3l-21 -1c-38 -2 -63 -40 -183 -228l-72 -111v-176c0 -137 9 -149 58 -151l21 -1v-3h-249v3l21 1c49 2 58 14 58 151v173l-116 178c-81 125 -98 162 -139 164l-18 1v3h247v-3l-21 -1
c-65 -5 -36 -54 29 -159z" />
    <glyph glyph-name="Z" unicode="Z" horiz-adv-x="620" 
d="M439 670h-131c-91 0 -153 -7 -204 -163l-11 -34h-3v201h450v-13l-378 -657h182c96 0 152 19 202 173l11 34h3v-211h-490v13z" />
    <glyph glyph-name="Agrave" unicode="&#xc0;" horiz-adv-x="675" 
d="M459 163l-45 117h-235l-19 -50c-19 -49 -29 -102 -29 -146c0 -45 9 -77 56 -80l21 -1v-3h-203v3l11 1c41 4 60 18 140 226l174 454h11l211 -516c59 -144 69 -159 110 -164l8 -1v-3h-239v3l26 1c64 2 47 43 2 159zM296 585l-115 -301h231zM337 697h-4l-146 123h87z" />
    <glyph glyph-name="Aacute" unicode="&#xc1;" horiz-adv-x="675" 
d="M459 163l-45 117h-235l-19 -50c-19 -49 -29 -102 -29 -146c0 -45 9 -77 56 -80l21 -1v-3h-203v3l11 1c41 4 60 18 140 226l174 454h11l211 -516c59 -144 69 -159 110 -164l8 -1v-3h-239v3l26 1c64 2 47 43 2 159zM296 585l-115 -301h231zM340 697h-4l63 123h87z" />
    <glyph glyph-name="Acircumflex" unicode="&#xc2;" horiz-adv-x="675" 
d="M459 163l-45 117h-235l-19 -50c-19 -49 -29 -102 -29 -146c0 -45 9 -77 56 -80l21 -1v-3h-203v3l11 1c41 4 60 18 140 226l174 454h11l211 -516c59 -144 69 -159 110 -164l8 -1v-3h-239v3l26 1c64 2 47 43 2 159zM296 585l-115 -301h231zM239 697h-4l58 123h87l58 -123
h-4l-98 91z" />
    <glyph glyph-name="Atilde" unicode="&#xc3;" horiz-adv-x="675" 
d="M459 163l-45 117h-235l-19 -50c-19 -49 -29 -102 -29 -146c0 -45 9 -77 56 -80l21 -1v-3h-203v3l11 1c41 4 60 18 140 226l174 454h11l211 -516c59 -144 69 -159 110 -164l8 -1v-3h-239v3l26 1c64 2 47 43 2 159zM296 585l-115 -301h231zM389 720c-29 0 -91 32 -119 32
c-23 0 -30 -8 -35 -22c-3 -9 -5 -17 -7 -31h-4c10 95 40 108 65 108c29 0 91 -32 119 -32c23 0 30 8 35 22c3 9 5 17 7 31h4c-10 -95 -40 -108 -65 -108z" />
    <glyph glyph-name="Adieresis" unicode="&#xc4;" horiz-adv-x="675" 
d="M459 163l-45 117h-235l-19 -50c-19 -49 -29 -102 -29 -146c0 -45 9 -77 56 -80l21 -1v-3h-203v3l11 1c41 4 60 18 140 226l174 454h11l211 -516c59 -144 69 -159 110 -164l8 -1v-3h-239v3l26 1c64 2 47 43 2 159zM296 585l-115 -301h231zM302 769c0 -31 -21 -51 -48 -51
c-26 0 -47 20 -47 51c0 32 21 51 47 51s48 -19 48 -51zM462 769c0 -31 -21 -51 -48 -51c-26 0 -47 20 -47 51c0 32 21 51 47 51s48 -19 48 -51z" />
    <glyph glyph-name="Aring" unicode="&#xc5;" horiz-adv-x="675" 
d="M459 163l-45 117h-235l-19 -50c-19 -49 -29 -102 -29 -146c0 -45 9 -77 56 -80l21 -1v-3h-203v3l11 1c41 4 60 18 140 226l174 454h11l211 -516c59 -144 69 -159 110 -164l8 -1v-3h-239v3l26 1c64 2 47 43 2 159zM296 585l-115 -301h231zM378 784c0 42 -12 72 -42 72
s-41 -30 -41 -72c0 -41 11 -73 41 -73s42 30 42 73zM423 784c0 -44 -35 -77 -87 -77s-87 34 -87 77c0 44 35 77 87 77s87 -34 87 -77z" />
    <glyph glyph-name="AE" unicode="&#xc6;" horiz-adv-x="972" 
d="M736 207h-3l-6 22c-23 84 -75 90 -124 90h-37v-164c0 -135 3 -151 47 -151h55c98 0 154 19 204 173l11 34h3v-211h-490v3l21 1c49 2 58 14 58 151v164h-212l-51 -89c-40 -71 -76 -135 -76 -167c0 -24 4 -56 51 -59l21 -1v-3h-203v3l11 1c41 4 81 32 191 226l246 431
c-9 7 -20 8 -36 9l-41 1v3h490v-181h-3l-11 34c-42 129 -113 143 -204 143h-35c-44 0 -47 -16 -47 -151v-196h37c49 0 101 6 124 90l6 22h3v-228zM475 519c0 85 -4 123 -18 139l-192 -335h210v196z" />
    <glyph glyph-name="Ccedilla" unicode="&#xc7;" horiz-adv-x="682" 
d="M328 -205c46 0 61 32 61 75c0 49 -13 81 -64 120c-179 22 -270 181 -270 346c0 180 106 351 314 351c45 0 84 -12 117 -34c10 -7 20 -14 32 -14c18 0 38 19 62 48h2v-194h-3l-11 34c-27 84 -93 156 -197 156c-161 0 -213 -173 -213 -346s52 -346 213 -346
c129 0 196 119 217 186l11 34h3v-224h-2c-26 33 -51 55 -72 55c-12 0 -20 -5 -36 -16c-37 -25 -75 -39 -123 -39c-14 0 -27 1 -39 3c69 -49 110 -76 110 -123c0 -45 -46 -75 -112 -75c-36 0 -75 20 -75 53c0 16 11 27 27 27c14 0 26 -11 26 -27c0 -15 -11 -18 -11 -27
c0 -10 11 -23 33 -23z" />
    <glyph glyph-name="Egrave" unicode="&#xc8;" horiz-adv-x="626" 
d="M391 232h-3l-6 22c-23 84 -75 90 -124 90h-57v-189c0 -135 3 -151 47 -151h75c98 0 154 19 204 173l11 34h3v-211h-510v3l21 1c49 2 58 14 58 151v364c0 137 -9 149 -58 151l-21 1v3h490v-181h-3l-11 34c-42 129 -113 143 -204 143h-55c-44 0 -47 -16 -47 -151v-171h57
c49 0 101 6 124 90l6 22h3v-228zM320 697h-4l-146 123h87z" />
    <glyph glyph-name="Eacute" unicode="&#xc9;" horiz-adv-x="626" 
d="M391 232h-3l-6 22c-23 84 -75 90 -124 90h-57v-189c0 -135 3 -151 47 -151h75c98 0 154 19 204 173l11 34h3v-211h-510v3l21 1c49 2 58 14 58 151v364c0 137 -9 149 -58 151l-21 1v3h490v-181h-3l-11 34c-42 129 -113 143 -204 143h-55c-44 0 -47 -16 -47 -151v-171h57
c49 0 101 6 124 90l6 22h3v-228zM309 697h-4l63 123h87z" />
    <glyph glyph-name="Ecircumflex" unicode="&#xca;" horiz-adv-x="626" 
d="M391 232h-3l-6 22c-23 84 -75 90 -124 90h-57v-189c0 -135 3 -151 47 -151h75c98 0 154 19 204 173l11 34h3v-211h-510v3l21 1c49 2 58 14 58 151v364c0 137 -9 149 -58 151l-21 1v3h490v-181h-3l-11 34c-42 129 -113 143 -204 143h-55c-44 0 -47 -16 -47 -151v-171h57
c49 0 101 6 124 90l6 22h3v-228zM221 697h-4l58 123h87l58 -123h-4l-98 91z" />
    <glyph glyph-name="Edieresis" unicode="&#xcb;" horiz-adv-x="626" 
d="M391 232h-3l-6 22c-23 84 -75 90 -124 90h-57v-189c0 -135 3 -151 47 -151h75c98 0 154 19 204 173l11 34h3v-211h-510v3l21 1c49 2 58 14 58 151v364c0 137 -9 149 -58 151l-21 1v3h490v-181h-3l-11 34c-42 129 -113 143 -204 143h-55c-44 0 -47 -16 -47 -151v-171h57
c49 0 101 6 124 90l6 22h3v-228zM279 769c0 -31 -21 -51 -48 -51c-26 0 -47 20 -47 51c0 32 21 51 47 51s48 -19 48 -51zM439 769c0 -31 -21 -51 -48 -51c-26 0 -47 20 -47 51c0 32 21 51 47 51s48 -19 48 -51z" />
    <glyph glyph-name="Igrave" unicode="&#xcc;" horiz-adv-x="311" 
d="M201 519v-364c0 -137 9 -149 58 -151l21 -1v-3h-249v3l21 1c49 2 58 14 58 151v364c0 137 -9 149 -58 151l-21 1v3h249v-3l-21 -1c-49 -2 -58 -14 -58 -151zM163 697h-4l-146 123h87z" />
    <glyph glyph-name="Iacute" unicode="&#xcd;" horiz-adv-x="311" 
d="M201 519v-364c0 -137 9 -149 58 -151l21 -1v-3h-249v3l21 1c49 2 58 14 58 151v364c0 137 -9 149 -58 151l-21 1v3h249v-3l-21 -1c-49 -2 -58 -14 -58 -151zM149 697h-4l63 123h87z" />
    <glyph glyph-name="Icircumflex" unicode="&#xce;" horiz-adv-x="311" 
d="M201 519v-364c0 -137 9 -149 58 -151l21 -1v-3h-249v3l21 1c49 2 58 14 58 151v364c0 137 -9 149 -58 151l-21 1v3h249v-3l-21 -1c-49 -2 -58 -14 -58 -151zM59 697h-4l58 123h87l58 -123h-4l-98 91z" />
    <glyph glyph-name="Idieresis" unicode="&#xcf;" horiz-adv-x="311" 
d="M201 519v-364c0 -137 9 -149 58 -151l21 -1v-3h-249v3l21 1c49 2 58 14 58 151v364c0 137 -9 149 -58 151l-21 1v3h249v-3l-21 -1c-49 -2 -58 -14 -58 -151zM122 769c0 -31 -21 -51 -48 -51c-26 0 -47 20 -47 51c0 32 21 51 47 51s48 -19 48 -51zM282 769
c0 -31 -21 -51 -48 -51c-26 0 -47 20 -47 51c0 32 21 51 47 51s48 -19 48 -51z" />
    <glyph glyph-name="Lslash" unicode="&#x141;" horiz-adv-x="587" 
d="M201 383l156 77l2 -3l-158 -78v-224c0 -135 3 -151 47 -151h80c98 0 145 22 204 203l11 34h3v-241h-515v3l21 1c49 2 58 14 58 151v179l-97 -48l-2 4l99 48v181c0 137 -9 149 -58 151l-21 1v3h249v-3l-21 -1c-49 -2 -58 -14 -58 -151v-136z" />
    <glyph glyph-name="Ntilde" unicode="&#xd1;" horiz-adv-x="780" 
d="M196 674l461 -559v319c0 82 -28 232 -104 236l-21 1v3h217v-3l-11 -1c-55 -5 -77 -82 -77 -236v-443h-14l-524 623v-374c0 -82 28 -232 104 -236l21 -1v-3h-217v3l11 1c55 5 77 82 77 236v279c0 137 -21 149 -70 151l-18 1v3h165zM447 720c-29 0 -91 32 -119 32
c-23 0 -30 -8 -35 -22c-3 -9 -5 -17 -7 -31h-4c10 95 40 108 65 108c29 0 91 -32 119 -32c23 0 30 8 35 22c3 9 5 17 7 31h4c-10 -95 -40 -108 -65 -108z" />
    <glyph glyph-name="Ograve" unicode="&#xd2;" horiz-adv-x="750" 
d="M602 337c0 180 -55 346 -227 346s-227 -164 -227 -346c0 -180 55 -346 227 -346s227 164 227 346zM705 338c0 -183 -118 -351 -330 -351s-330 168 -330 351s118 349 330 349s330 -166 330 -349zM380 697h-4l-146 123h87z" />
    <glyph glyph-name="Oacute" unicode="&#xd3;" horiz-adv-x="750" 
d="M602 337c0 180 -55 346 -227 346s-227 -164 -227 -346c0 -180 55 -346 227 -346s227 164 227 346zM705 338c0 -183 -118 -351 -330 -351s-330 168 -330 351s118 349 330 349s330 -166 330 -349zM365 697h-4l63 123h87z" />
    <glyph glyph-name="Ocircumflex" unicode="&#xd4;" horiz-adv-x="750" 
d="M602 337c0 180 -55 346 -227 346s-227 -164 -227 -346c0 -180 55 -346 227 -346s227 164 227 346zM705 338c0 -183 -118 -351 -330 -351s-330 168 -330 351s118 349 330 349s330 -166 330 -349zM276 697h-4l58 123h87l58 -123h-4l-98 91z" />
    <glyph glyph-name="Otilde" unicode="&#xd5;" horiz-adv-x="750" 
d="M602 337c0 180 -55 346 -227 346s-227 -164 -227 -346c0 -180 55 -346 227 -346s227 164 227 346zM705 338c0 -183 -118 -351 -330 -351s-330 168 -330 351s118 349 330 349s330 -166 330 -349zM430 720c-29 0 -91 32 -119 32c-23 0 -30 -8 -35 -22c-3 -9 -5 -17 -7 -31
h-4c10 95 40 108 65 108c29 0 91 -32 119 -32c23 0 30 8 35 22c3 9 5 17 7 31h4c-10 -95 -40 -108 -65 -108z" />
    <glyph glyph-name="Odieresis" unicode="&#xd6;" horiz-adv-x="750" 
d="M602 337c0 180 -55 346 -227 346s-227 -164 -227 -346c0 -180 55 -346 227 -346s227 164 227 346zM705 338c0 -183 -118 -351 -330 -351s-330 168 -330 351s118 349 330 349s330 -166 330 -349zM341 769c0 -31 -21 -51 -48 -51c-26 0 -47 20 -47 51c0 32 21 51 47 51
s48 -19 48 -51zM501 769c0 -31 -21 -51 -48 -51c-26 0 -47 20 -47 51c0 32 21 51 47 51s48 -19 48 -51z" />
    <glyph glyph-name="Oslash" unicode="&#xd8;" horiz-adv-x="732" 
d="M120 -62l63 107c-90 65 -138 176 -138 293c0 183 118 349 330 349c63 0 118 -15 164 -41l56 95l4 -2l-56 -95c105 -61 162 -179 162 -306c0 -183 -118 -351 -330 -351c-75 0 -138 21 -189 56l-63 -107zM602 337c0 110 -21 214 -76 279l-319 -538c36 -53 90 -87 168 -87
c172 0 227 164 227 346zM148 337c0 -97 16 -190 57 -255l318 538c-35 39 -83 63 -148 63c-172 0 -227 -164 -227 -346z" />
    <glyph glyph-name="OE" unicode="&#x152;" horiz-adv-x="1057" 
d="M375 4h108c49 0 58 14 58 151v364c0 137 -9 151 -58 151h-108c-172 0 -227 -164 -227 -333c0 -167 55 -333 227 -333zM972 0h-597c-212 0 -330 169 -330 338c0 170 118 336 330 336h577v-181h-3l-11 34c-42 129 -113 143 -204 143h-55c-44 0 -47 -16 -47 -151v-171h57
c49 0 101 6 124 90l6 22h3v-228h-3l-6 22c-23 84 -75 90 -124 90h-57v-189c0 -135 3 -151 47 -151h75c98 0 154 19 204 173l11 34h3v-211z" />
    <glyph glyph-name="Scaron" unicode="&#x160;" horiz-adv-x="657" 
d="M563 171c0 -110 -98 -184 -230 -184c-45 0 -88 9 -134 39c-15 10 -24 15 -37 15c-22 0 -45 -22 -70 -54h-2v224h3l12 -37c26 -79 89 -183 227 -183c89 0 156 40 156 132c0 203 -370 162 -370 387c0 106 88 177 197 177c42 0 79 -11 114 -34c13 -9 23 -14 33 -14
c17 0 38 20 61 48h2v-194h-3l-11 35c-30 101 -110 155 -193 155s-130 -43 -130 -110c0 -207 375 -166 375 -402zM433 831h4l-58 -123h-87l-58 123h4l97 -92z" />
    <glyph glyph-name="germandbls.cap" unicode="&#xe0aa;" horiz-adv-x="1284" 
d="M560 171c0 -110 -98 -184 -230 -184c-45 0 -88 9 -134 39c-15 10 -24 15 -37 15c-22 0 -45 -22 -70 -54h-2v224h3l12 -37c26 -79 89 -183 227 -183c89 0 156 40 156 132c0 203 -370 162 -370 387c0 106 88 177 197 177c42 0 79 -11 114 -34c13 -9 23 -14 33 -14
c17 0 38 20 61 48h2v-194h-3l-11 35c-30 101 -110 155 -193 155s-130 -43 -130 -110c0 -207 375 -166 375 -402zM1187 171c0 -110 -98 -184 -230 -184c-45 0 -88 9 -134 39c-15 10 -24 15 -37 15c-22 0 -45 -22 -70 -54h-2v224h3l12 -37c26 -79 89 -183 227 -183
c89 0 156 40 156 132c0 203 -370 162 -370 387c0 106 88 177 197 177c42 0 79 -11 114 -34c13 -9 23 -14 33 -14c17 0 38 20 61 48h2v-194h-3l-11 35c-30 101 -110 155 -193 155s-130 -43 -130 -110c0 -207 375 -166 375 -402z" />
    <glyph glyph-name="Ugrave" unicode="&#xd9;" horiz-adv-x="779" 
d="M655 223v211c0 82 -28 232 -104 236l-21 1v3h218v-3l-11 -1c-55 -5 -78 -82 -78 -236v-211c0 -138 -98 -234 -268 -234c-172 0 -281 89 -281 234v296c0 137 -9 149 -58 151l-21 1v3h249v-3l-21 -1c-49 -2 -58 -14 -58 -151v-295c0 -134 77 -219 226 -219
c148 0 228 96 228 218zM411 697h-4l-146 123h87z" />
    <glyph glyph-name="Uacute" unicode="&#xda;" horiz-adv-x="779" 
d="M655 223v211c0 82 -28 232 -104 236l-21 1v3h218v-3l-11 -1c-55 -5 -78 -82 -78 -236v-211c0 -138 -98 -234 -268 -234c-172 0 -281 89 -281 234v296c0 137 -9 149 -58 151l-21 1v3h249v-3l-21 -1c-49 -2 -58 -14 -58 -151v-295c0 -134 77 -219 226 -219
c148 0 228 96 228 218zM402 697h-4l63 123h87z" />
    <glyph glyph-name="Ucircumflex" unicode="&#xdb;" horiz-adv-x="779" 
d="M655 223v211c0 82 -28 232 -104 236l-21 1v3h218v-3l-11 -1c-55 -5 -78 -82 -78 -236v-211c0 -138 -98 -234 -268 -234c-172 0 -281 89 -281 234v296c0 137 -9 149 -58 151l-21 1v3h249v-3l-21 -1c-49 -2 -58 -14 -58 -151v-295c0 -134 77 -219 226 -219
c148 0 228 96 228 218zM307 697h-4l58 123h87l58 -123h-4l-98 91z" />
    <glyph glyph-name="Udieresis" unicode="&#xdc;" horiz-adv-x="779" 
d="M655 223v211c0 82 -28 232 -104 236l-21 1v3h218v-3l-11 -1c-55 -5 -78 -82 -78 -236v-211c0 -138 -98 -234 -268 -234c-172 0 -281 89 -281 234v296c0 137 -9 149 -58 151l-21 1v3h249v-3l-21 -1c-49 -2 -58 -14 -58 -151v-295c0 -134 77 -219 226 -219
c148 0 228 96 228 218zM370 769c0 -31 -21 -51 -48 -51c-26 0 -47 20 -47 51c0 32 21 51 47 51s48 -19 48 -51zM530 769c0 -31 -21 -51 -48 -51c-26 0 -47 20 -47 51c0 32 21 51 47 51s48 -19 48 -51z" />
    <glyph glyph-name="Yacute" unicode="&#xdd;" horiz-adv-x="642" 
d="M363 337l70 107c29 44 67 113 67 157c0 37 -9 66 -56 69l-21 1v3h218v-3l-21 -1c-38 -2 -63 -40 -183 -228l-72 -111v-176c0 -137 9 -149 58 -151l21 -1v-3h-249v3l21 1c49 2 58 14 58 151v173l-116 178c-81 125 -98 162 -139 164l-18 1v3h247v-3l-21 -1
c-65 -5 -36 -54 29 -159zM339 697h-4l-146 123h87z" />
    <glyph glyph-name="Ydieresis" unicode="&#x178;" horiz-adv-x="642" 
d="M363 337l70 107c29 44 67 113 67 157c0 37 -9 66 -56 69l-21 1v3h218v-3l-21 -1c-38 -2 -63 -40 -183 -228l-72 -111v-176c0 -137 9 -149 58 -151l21 -1v-3h-249v3l21 1c49 2 58 14 58 151v173l-116 178c-81 125 -98 162 -139 164l-18 1v3h247v-3l-21 -1
c-65 -5 -36 -54 29 -159zM304 769c0 -31 -21 -51 -48 -51c-26 0 -47 20 -47 51c0 32 21 51 47 51s48 -19 48 -51zM464 769c0 -31 -21 -51 -48 -51c-26 0 -47 20 -47 51c0 32 21 51 47 51s48 -19 48 -51z" />
    <glyph glyph-name="Zcaron" unicode="&#x17d;" horiz-adv-x="620" 
d="M439 670h-131c-91 0 -153 -7 -204 -163l-11 -34h-3v201h450v-13l-378 -657h182c96 0 152 19 202 173l11 34h3v-211h-490v13zM418 831h4l-58 -123h-87l-58 123h4l97 -92z" />
    <glyph glyph-name="Eth" unicode="&#xd0;" horiz-adv-x="742" 
d="M10 347v4h100v168c0 137 -9 149 -58 151l-21 1v3h328c221 0 338 -152 338 -336c0 -185 -123 -338 -337 -338h-329v3l21 1c49 2 58 14 58 151v192h-100zM359 670h-111c-44 0 -47 -16 -47 -151v-168h179v-4h-179v-192c0 -135 3 -151 47 -151h111c169 0 235 163 235 333
c0 177 -79 333 -235 333z" />
    <glyph glyph-name="Thorn" unicode="&#xde;" horiz-adv-x="641" 
d="M201 182v-27c0 -137 9 -149 58 -151l21 -1v-3h-249v3l21 1c49 2 58 14 58 151v364c0 137 -9 149 -58 151l-21 1v3h249v-3l-21 -1c-49 -2 -58 -20 -58 -66h154c142 0 236 -70 236 -205c0 -121 -78 -217 -232 -217h-158zM201 186h158c95 0 121 105 121 212
c0 105 -32 202 -125 202h-154v-414z" />
    <glyph glyph-name="a" unicode="a" horiz-adv-x="506" 
d="M136 112c0 -90 51 -111 102 -111c44 0 86 31 108 73v134c-34 16 -64 24 -105 24c-50 0 -105 -22 -105 -120zM494 0h-146v69c-23 -38 -63 -80 -137 -80c-98 0 -168 46 -168 128c0 81 62 120 185 120c48 0 79 -7 118 -24v137c0 68 -37 107 -110 107c-56 0 -75 -12 -75 -28
c0 -15 22 -28 22 -59c0 -29 -23 -50 -50 -50c-32 0 -53 21 -53 50c0 50 55 91 155 91c98 0 194 -49 194 -157v-167c0 -130 8 -131 45 -133l20 -1v-3z" />
    <glyph glyph-name="b" unicode="b" horiz-adv-x="539" 
d="M407 229c0 143 -45 228 -148 228c-28 0 -54 -3 -87 -13v-440h82c107 0 153 111 153 225zM172 674v-225c32 9 64 12 87 12c154 0 245 -105 245 -232c0 -164 -125 -229 -251 -229h-229v3l20 1c37 2 45 3 45 133v400c0 130 -8 131 -45 133l-20 1v3h148z" />
    <glyph glyph-name="c" unicode="c" horiz-adv-x="486" 
d="M270 457c-126 0 -139 -115 -139 -226c0 -104 12 -232 149 -232c85 0 138 37 158 120l5 -1c-19 -85 -80 -131 -183 -131c-149 0 -225 116 -225 236c0 126 73 238 235 238c107 0 163 -55 163 -104c0 -31 -22 -53 -55 -53c-29 0 -53 22 -53 53c0 33 23 50 23 66
s-13 34 -78 34z" />
    <glyph glyph-name="d" unicode="d" horiz-adv-x="539" 
d="M132 229c0 -114 45 -225 151 -225h84v440c-33 9 -59 13 -87 13c-103 0 -148 -85 -148 -228zM450 674v-537c0 -130 8 -131 45 -133l20 -1v-3h-231c-128 0 -249 65 -249 229c0 127 91 232 245 232c23 0 55 -3 87 -12v88c0 130 -8 131 -45 133l-20 1v3h148z" />
    <glyph glyph-name="e" unicode="e" horiz-adv-x="507" 
d="M447 118c-19 -85 -82 -131 -185 -131c-149 0 -227 116 -227 236c0 165 100 238 212 238c144 0 201 -87 201 -206h-317v-24c0 -104 14 -232 151 -232c85 0 140 37 160 120zM247 457c-100 0 -115 -80 -116 -198h223c0 96 -10 198 -107 198z" />
    <glyph glyph-name="f" unicode="f" horiz-adv-x="333" 
d="M29 449h71v81c0 93 57 157 155 157c76 0 122 -41 122 -91c0 -29 -21 -50 -53 -50c-27 0 -50 21 -50 50c0 31 22 44 22 59c0 16 -14 28 -42 28c-58 0 -71 -30 -71 -107v-127h115v-4h-115v-308c0 -130 8 -131 55 -133l30 -1v-3h-233v3l20 1c37 2 45 3 45 133v308h-71v4z
" />
    <glyph glyph-name="g" unicode="g" horiz-adv-x="539" 
d="M132 220c0 -143 45 -228 148 -228c30 0 54 4 87 13v440h-83c-107 0 -152 -111 -152 -225zM450 312v-320c0 -127 -65 -200 -218 -200c-107 0 -173 54 -173 102c0 31 21 52 52 52c27 0 50 -21 50 -52c0 -32 -22 -40 -22 -63c0 -15 28 -35 93 -35c119 0 135 73 135 196v8
c-32 -9 -62 -12 -87 -12c-154 0 -245 105 -245 232c0 164 125 229 250 229h230v-3l-20 -1c-37 -2 -45 -3 -45 -133z" />
    <glyph glyph-name="h" unicode="h" horiz-adv-x="554" 
d="M89 137v400c0 130 -8 131 -45 133l-20 1v3h148v-292c23 38 61 79 135 79c88 0 170 -56 170 -160v-164c0 -130 8 -131 45 -133l20 -1v-3h-213v3l20 1c37 2 45 3 45 133v165c0 102 -43 147 -103 147c-58 0 -95 -32 -119 -74v-238c0 -130 8 -131 45 -133l20 -1v-3h-213v3
l20 1c37 2 45 3 45 133z" />
    <glyph glyph-name="i" unicode="i" horiz-adv-x="243" 
d="M172 449v-312c0 -130 8 -131 45 -133l20 -1v-3h-213v3l20 1c37 2 45 3 45 133v175c0 130 -8 131 -45 133l-20 1v3h148zM177 626c0 -31 -21 -51 -48 -51c-26 0 -47 20 -47 51c0 32 21 51 47 51s48 -19 48 -51z" />
    <glyph glyph-name="j" unicode="j" horiz-adv-x="243" 
d="M172 449v-500c0 -93 -59 -157 -145 -157c-62 0 -101 39 -101 85c0 26 19 45 48 45c24 0 45 -19 45 -45c0 -28 -20 -40 -20 -54s7 -27 29 -27c45 0 61 30 61 107v409c0 130 -8 131 -45 133l-20 1v3h148zM177 626c0 -31 -21 -51 -48 -51c-26 0 -47 20 -47 51
c0 32 21 51 47 51s48 -19 48 -51z" />
    <glyph glyph-name="k" unicode="k" horiz-adv-x="511" 
d="M172 674v-439h10c28 0 55 26 102 77l12 13c47 50 60 117 22 120l-14 1v3h166v-3l-14 -1c-28 -2 -58 -18 -157 -123l-12 -13c-24 -25 -65 -68 -87 -75c84 0 120 -46 156 -93c10 -13 39 -55 47 -66c29 -39 51 -69 72 -71l12 -1v-3h-133c-6 13 -13 31 -28 56s-44 72 -58 93
c-45 68 -50 82 -80 82h-16v-94c0 -130 8 -131 45 -133l20 -1v-3h-213v3l20 1c37 2 45 3 45 133v400c0 130 -8 131 -45 133l-20 1v3h148z" />
    <glyph glyph-name="l" unicode="l" horiz-adv-x="243" 
d="M163 674v-537c0 -130 8 -131 45 -133l20 -1v-3h-213v3l20 1c37 2 45 3 45 133v400c0 130 -8 131 -45 133l-20 1v3h148z" />
    <glyph glyph-name="m" unicode="m" horiz-adv-x="868" 
d="M89 137v175c0 130 -8 131 -45 133l-20 1v3h146v-69c23 38 65 81 139 81c71 0 136 -34 161 -97c27 55 77 97 148 97c91 0 173 -56 173 -160v-164c0 -130 8 -131 45 -133l20 -1v-3h-213v3l20 1c37 2 45 3 45 133v165c0 102 -43 147 -106 147c-62 0 -105 -38 -130 -91
c6 -17 10 -36 10 -57v-164c0 -130 8 -131 45 -133l20 -1v-3h-213v3l20 1c37 2 45 3 45 133v165c0 102 -43 147 -106 147c-59 0 -97 -32 -121 -74v-238c0 -130 8 -131 45 -133l20 -1v-3h-213v3l20 1c37 2 45 3 45 133z" />
    <glyph glyph-name="n" unicode="n" horiz-adv-x="567" 
d="M89 137v175c0 130 -8 131 -45 133l-20 1v3h146v-69c24 38 63 80 142 80c94 0 178 -55 178 -159v-164c0 -130 8 -131 45 -133l20 -1v-3h-213v3l20 1c37 2 45 3 45 133v165c0 102 -46 146 -111 146c-63 0 -99 -31 -124 -73v-238c0 -130 8 -131 45 -133l20 -1v-3h-213v3
l20 1c37 2 45 3 45 133z" />
    <glyph glyph-name="o" unicode="o" horiz-adv-x="522" 
d="M390 223c0 130 -24 234 -129 234s-129 -102 -129 -233c0 -129 24 -233 129 -233s129 101 129 232zM488 224c0 -124 -83 -237 -227 -237c-143 0 -226 114 -226 238s83 236 226 236c144 0 227 -113 227 -237z" />
    <glyph glyph-name="p" unicode="p" horiz-adv-x="539" 
d="M407 220c0 114 -45 225 -152 225h-83v-440c33 -9 59 -13 87 -13c103 0 148 85 148 228zM172 0v-71c0 -130 8 -131 45 -133l20 -1v-3h-213v3l20 1c37 2 45 3 45 133v383c0 130 -8 131 -45 133l-20 1v3h230c126 0 250 -65 250 -229c0 -127 -93 -232 -245 -232
c-23 0 -55 3 -87 12z" />
    <glyph glyph-name="q" unicode="q" horiz-adv-x="539" 
d="M132 220c0 -143 46 -228 148 -228c27 0 54 4 87 13v440h-83c-107 0 -152 -111 -152 -225zM367 -71v72c-32 -9 -61 -13 -87 -13c-154 0 -245 105 -245 232c0 164 124 229 250 229h230v-3l-20 -1c-37 -2 -45 -3 -45 -133v-383c0 -130 8 -131 45 -133l20 -1v-3h-213v3l20 1
c37 2 45 3 45 133z" />
    <glyph glyph-name="r" unicode="r" horiz-adv-x="376" 
d="M308 441c0 7 -7 16 -29 16c-42 0 -79 -24 -107 -82v-238c0 -130 8 -131 55 -133l30 -1v-3h-233v3l20 1c37 2 45 3 45 133v175c0 130 -8 131 -45 133l-20 1v3h146v-69c28 55 64 81 112 81c47 0 87 -30 87 -77c0 -39 -26 -53 -50 -53c-26 0 -48 19 -48 45c0 41 37 44 37 65
z" />
    <glyph glyph-name="s" unicode="s" horiz-adv-x="418" 
d="M53 115c17 -54 60 -124 154 -124c61 0 105 26 105 89c0 126 -251 88 -251 259c0 72 60 122 135 122c30 0 54 -7 79 -23c6 -4 14 -9 21 -9c12 0 24 13 40 32h3v-131h-5l-7 23c-21 69 -72 104 -129 104s-87 -28 -87 -74c0 -129 253 -91 254 -269c0 -75 -67 -127 -157 -127
c-33 0 -60 7 -92 26c-11 6 -17 11 -25 11c-15 0 -30 -15 -47 -37h-4v151h6z" />
    <glyph glyph-name="t" unicode="t" horiz-adv-x="362" 
d="M308 98h4c0 -61 -16 -110 -91 -110c-72 0 -121 54 -121 150v307h-71v4h71v161h83v-161h115v-4h-115v-307c0 -53 2 -138 61 -138c43 0 64 34 64 98z" />
    <glyph glyph-name="u" unicode="u" horiz-adv-x="547" 
d="M523 0h-146v69c-23 -38 -57 -81 -131 -81c-87 0 -169 56 -169 160v164c0 130 -8 131 -43 133l-20 1v3h146v-302c0 -102 43 -147 102 -147s89 32 113 74v238c0 130 -8 131 -45 133l-20 1v3h148v-312c0 -130 8 -131 45 -133l20 -1v-3z" />
    <glyph glyph-name="v" unicode="v" horiz-adv-x="463" 
d="M217 -13l-134 349c-34 87 -44 105 -74 109l-7 1v3h192v-3l-18 -1c-44 -3 -35 -28 -6 -106l104 -276l85 231c21 57 17 148 -27 151l-17 1v3h147v-3l-8 -1c-27 -4 -39 -11 -91 -151l-113 -307h-33z" />
    <glyph glyph-name="w" unicode="w" horiz-adv-x="766" 
d="M245 -13h-33l-129 349c-32 88 -44 105 -74 109l-7 1v3h192v-3l-18 -1c-44 -3 -34 -28 -6 -106l98 -269l130 389h33l147 -392l76 227c19 58 26 148 -18 151l-17 1v3h146v-3l-8 -1c-27 -4 -52 -9 -99 -151l-103 -307h-33l-148 386z" />
    <glyph glyph-name="x" unicode="x" horiz-adv-x="492" 
d="M275 110l-61 92l-52 -77c-34 -51 -57 -119 -23 -121l17 -1v-3h-144v3l5 1c27 5 84 37 140 121l54 81l-86 130c-52 78 -73 104 -108 109l-7 1v3h212v-3l-18 -1c-49 -3 -34 -42 8 -106l58 -88l48 73c33 50 57 119 23 121l-17 1v3h147v-3l-8 -1c-27 -3 -85 -36 -140 -121
l-50 -77l89 -134c52 -79 78 -104 113 -109l7 -1v-3h-212v3l18 1c36 2 24 50 -13 106z" />
    <glyph glyph-name="y" unicode="y" horiz-adv-x="463" 
d="M329 -208h-184v3l11 1c55 5 79 41 79 186v16l-152 338c-38 85 -54 106 -74 109l-8 1v3h196v-3l-18 -1c-44 -3 -40 -30 -6 -106l104 -233l75 188c29 72 29 148 -15 151l-17 1v3h142v-3l-8 -1c-27 -4 -46 -23 -97 -151l-118 -296v-16c0 -145 24 -181 79 -186l11 -1v-3z" />
    <glyph glyph-name="z" unicode="z" horiz-adv-x="456" 
d="M397 449v-9l-257 -436h126c83 0 109 38 133 114l8 25h3v-143h-357v9l254 436h-95c-79 0 -108 -33 -135 -106l-8 -22h-3v132h331z" />
    <glyph glyph-name="agrave" unicode="&#xe0;" horiz-adv-x="506" 
d="M136 112c0 -90 51 -111 102 -111c44 0 86 31 108 73v134c-34 16 -64 24 -105 24c-50 0 -105 -22 -105 -120zM494 0h-146v69c-23 -38 -63 -80 -137 -80c-98 0 -168 46 -168 128c0 81 62 120 185 120c48 0 79 -7 118 -24v137c0 68 -37 107 -110 107c-56 0 -75 -12 -75 -28
c0 -15 22 -28 22 -59c0 -29 -23 -50 -50 -50c-32 0 -53 21 -53 50c0 50 55 91 155 91c98 0 194 -49 194 -157v-167c0 -130 8 -131 45 -133l20 -1v-3zM260 487h-4l-146 187h77z" />
    <glyph glyph-name="aacute" unicode="&#xe1;" horiz-adv-x="506" 
d="M136 112c0 -90 51 -111 102 -111c44 0 86 31 108 73v134c-34 16 -64 24 -105 24c-50 0 -105 -22 -105 -120zM494 0h-146v69c-23 -38 -63 -80 -137 -80c-98 0 -168 46 -168 128c0 81 62 120 185 120c48 0 79 -7 118 -24v137c0 68 -37 107 -110 107c-56 0 -75 -12 -75 -28
c0 -15 22 -28 22 -59c0 -29 -23 -50 -50 -50c-32 0 -53 21 -53 50c0 50 55 91 155 91c98 0 194 -49 194 -157v-167c0 -130 8 -131 45 -133l20 -1v-3zM229 487h-4l73 187h77z" />
    <glyph glyph-name="acircumflex" unicode="&#xe2;" horiz-adv-x="506" 
d="M136 112c0 -90 51 -111 102 -111c44 0 86 31 108 73v134c-34 16 -64 24 -105 24c-50 0 -105 -22 -105 -120zM494 0h-146v69c-23 -38 -63 -80 -137 -80c-98 0 -168 46 -168 128c0 81 62 120 185 120c48 0 79 -7 118 -24v137c0 68 -37 107 -110 107c-56 0 -75 -12 -75 -28
c0 -15 22 -28 22 -59c0 -29 -23 -50 -50 -50c-32 0 -53 21 -53 50c0 50 55 91 155 91c98 0 194 -49 194 -157v-167c0 -130 8 -131 45 -133l20 -1v-3zM136 487h-4l88 187h67l88 -187h-4l-118 145z" />
    <glyph glyph-name="atilde" unicode="&#xe3;" horiz-adv-x="506" 
d="M136 112c0 -90 51 -111 102 -111c44 0 86 31 108 73v134c-34 16 -64 24 -105 24c-50 0 -105 -22 -105 -120zM494 0h-146v69c-23 -38 -63 -80 -137 -80c-98 0 -168 46 -168 128c0 81 62 120 185 120c48 0 79 -7 118 -24v137c0 68 -37 107 -110 107c-56 0 -75 -12 -75 -28
c0 -15 22 -28 22 -59c0 -29 -23 -50 -50 -50c-32 0 -53 21 -53 50c0 50 55 91 155 91c98 0 194 -49 194 -157v-167c0 -130 8 -131 45 -133l20 -1v-3zM308 556c-32 0 -98 32 -133 32c-28 0 -38 -16 -43 -31c-4 -12 -6 -22 -9 -37h-4c10 91 35 123 75 123c33 0 96 -32 132 -32
c28 0 38 16 43 31c4 12 6 22 9 37h4c-10 -91 -34 -123 -74 -123z" />
    <glyph glyph-name="adieresis" unicode="&#xe4;" horiz-adv-x="506" 
d="M136 112c0 -90 51 -111 102 -111c44 0 86 31 108 73v134c-34 16 -64 24 -105 24c-50 0 -105 -22 -105 -120zM494 0h-146v69c-23 -38 -63 -80 -137 -80c-98 0 -168 46 -168 128c0 81 62 120 185 120c48 0 79 -7 118 -24v137c0 68 -37 107 -110 107c-56 0 -75 -12 -75 -28
c0 -15 22 -28 22 -59c0 -29 -23 -50 -50 -50c-32 0 -53 21 -53 50c0 50 55 91 155 91c98 0 194 -49 194 -157v-167c0 -130 8 -131 45 -133l20 -1v-3zM218 636c0 -31 -21 -51 -48 -51c-26 0 -47 20 -47 51c0 32 21 51 47 51s48 -19 48 -51zM378 636c0 -31 -21 -51 -48 -51
c-26 0 -47 20 -47 51c0 32 21 51 47 51s48 -19 48 -51z" />
    <glyph glyph-name="aring" unicode="&#xe5;" horiz-adv-x="506" 
d="M136 112c0 -90 51 -111 102 -111c44 0 86 31 108 73v134c-34 16 -64 24 -105 24c-50 0 -105 -22 -105 -120zM494 0h-146v69c-23 -38 -63 -80 -137 -80c-98 0 -168 46 -168 128c0 81 62 120 185 120c48 0 79 -7 118 -24v137c0 68 -37 107 -110 107c-56 0 -75 -12 -75 -28
c0 -15 22 -28 22 -59c0 -29 -23 -50 -50 -50c-32 0 -53 21 -53 50c0 50 55 91 155 91c98 0 194 -49 194 -157v-167c0 -130 8 -131 45 -133l20 -1v-3zM303 591c0 44 -17 92 -58 92s-57 -47 -57 -92c0 -43 16 -92 57 -92s58 47 58 92zM351 591c0 -54 -41 -96 -106 -96
c-64 0 -106 43 -106 96c0 54 42 96 106 96c65 0 106 -43 106 -96z" />
    <glyph glyph-name="ae" unicode="&#xe6;" horiz-adv-x="813" 
d="M753 118c-19 -85 -82 -131 -185 -131c-86 0 -146 35 -182 89c-54 -73 -113 -87 -175 -87c-98 0 -168 46 -168 128c0 81 62 120 185 120c48 0 79 -7 118 -24v137c0 68 -37 107 -110 107c-56 0 -75 -12 -75 -28c0 -15 22 -28 22 -59c0 -29 -23 -50 -50 -50
c-32 0 -53 21 -53 50c0 50 55 91 155 91c64 0 128 -22 164 -67c38 46 93 67 154 67c144 0 201 -87 201 -206h-317v-24c0 -104 14 -232 151 -232c85 0 140 37 160 120zM241 -1c37 0 93 11 142 80c-23 36 -35 80 -37 129c-34 16 -64 24 -105 24c-50 0 -105 -22 -105 -120
c0 -90 54 -113 105 -113zM553 457c-100 0 -115 -80 -116 -198h223c0 96 -10 198 -107 198z" />
    <glyph glyph-name="ccedilla" unicode="&#xe7;" horiz-adv-x="486" 
d="M230 -205c46 0 61 32 61 75c0 49 -12 80 -63 119c-128 15 -193 122 -193 234c0 126 73 238 235 238c107 0 163 -55 163 -104c0 -31 -22 -53 -55 -53c-29 0 -53 22 -53 53c0 33 23 50 23 66s-13 34 -78 34c-126 0 -139 -115 -139 -226c0 -104 12 -232 149 -232
c85 0 138 37 158 120l5 -1c-19 -85 -80 -131 -183 -131c-9 0 -19 1 -27 2c68 -49 109 -75 109 -122c0 -45 -46 -75 -112 -75c-36 0 -75 20 -75 53c0 16 11 27 27 27c14 0 26 -11 26 -27c0 -15 -11 -18 -11 -27c0 -10 11 -23 33 -23z" />
    <glyph glyph-name="egrave" unicode="&#xe8;" horiz-adv-x="507" 
d="M447 118c-19 -85 -82 -131 -185 -131c-149 0 -227 116 -227 236c0 165 100 238 212 238c144 0 201 -87 201 -206h-317v-24c0 -104 14 -232 151 -232c85 0 140 37 160 120zM247 457c-100 0 -115 -80 -116 -198h223c0 96 -10 198 -107 198zM261 487h-4l-146 187h77z" />
    <glyph glyph-name="eacute" unicode="&#xe9;" horiz-adv-x="507" 
d="M447 118c-19 -85 -82 -131 -185 -131c-149 0 -227 116 -227 236c0 165 100 238 212 238c144 0 201 -87 201 -206h-317v-24c0 -104 14 -232 151 -232c85 0 140 37 160 120zM247 457c-100 0 -115 -80 -116 -198h223c0 96 -10 198 -107 198zM250 487h-4l73 187h77z" />
    <glyph glyph-name="ecircumflex" unicode="&#xea;" horiz-adv-x="507" 
d="M447 118c-19 -85 -82 -131 -185 -131c-149 0 -227 116 -227 236c0 165 100 238 212 238c144 0 201 -87 201 -206h-317v-24c0 -104 14 -232 151 -232c85 0 140 37 160 120zM247 457c-100 0 -115 -80 -116 -198h223c0 96 -10 198 -107 198zM140 487h-4l88 187h67l88 -187
h-4l-118 145z" />
    <glyph glyph-name="edieresis" unicode="&#xeb;" horiz-adv-x="507" 
d="M447 118c-19 -85 -82 -131 -185 -131c-149 0 -227 116 -227 236c0 165 100 238 212 238c144 0 201 -87 201 -206h-317v-24c0 -104 14 -232 151 -232c85 0 140 37 160 120zM247 457c-100 0 -115 -80 -116 -198h223c0 96 -10 198 -107 198zM234 636c0 -31 -21 -51 -48 -51
c-26 0 -47 20 -47 51c0 32 21 51 47 51s48 -19 48 -51zM394 636c0 -31 -21 -51 -48 -51c-26 0 -47 20 -47 51c0 32 21 51 47 51s48 -19 48 -51z" />
    <glyph glyph-name="igrave" unicode="&#xec;" horiz-adv-x="243" 
d="M183 449v-312c0 -130 8 -131 45 -133l20 -1v-3h-213v3l20 1c37 2 45 3 45 133v175c0 130 -8 131 -45 133l-20 1v3h148zM137 487h-4l-146 187h77z" />
    <glyph glyph-name="iacute" unicode="&#xed;" horiz-adv-x="243" 
d="M183 449v-312c0 -130 8 -131 45 -133l20 -1v-3h-213v3l20 1c37 2 45 3 45 133v175c0 130 -8 131 -45 133l-20 1v3h148zM129 487h-4l73 187h77z" />
    <glyph glyph-name="icircumflex" unicode="&#xee;" horiz-adv-x="243" 
d="M183 449v-312c0 -130 8 -131 45 -133l20 -1v-3h-213v3l20 1c37 2 45 3 45 133v175c0 130 -8 131 -45 133l-20 1v3h148zM17 487h-4l88 187h67l88 -187h-4l-118 145z" />
    <glyph glyph-name="idieresis" unicode="&#xef;" horiz-adv-x="243" 
d="M183 449v-312c0 -130 8 -131 45 -133l20 -1v-3h-213v3l20 1c37 2 45 3 45 133v175c0 130 -8 131 -45 133l-20 1v3h148zM102 636c0 -31 -21 -51 -48 -51c-26 0 -47 20 -47 51c0 32 21 51 47 51s48 -19 48 -51zM262 636c0 -31 -21 -51 -48 -51c-26 0 -47 20 -47 51
c0 32 21 51 47 51s48 -19 48 -51z" />
    <glyph glyph-name="dotlessi" unicode="&#x131;" horiz-adv-x="243" 
d="M172 449v-312c0 -130 8 -131 45 -133l20 -1v-3h-213v3l20 1c37 2 45 3 45 133v175c0 130 -8 131 -45 133l-20 1v3h148z" />
    <glyph glyph-name="lslash" unicode="&#x142;" horiz-adv-x="243" 
d="M10 345l70 38v154c0 130 -8 131 -45 133l-20 1v3h148v-245l70 38v-4l-70 -39v-287c0 -130 8 -131 45 -133l20 -1v-3h-213v3l20 1c37 2 45 3 45 133v241l-70 -38v5z" />
    <glyph glyph-name="ntilde" unicode="&#xf1;" horiz-adv-x="567" 
d="M89 137v175c0 130 -8 131 -45 133l-20 1v3h146v-69c24 38 63 80 142 80c94 0 178 -55 178 -159v-164c0 -130 8 -131 45 -133l20 -1v-3h-213v3l20 1c37 2 45 3 45 133v165c0 102 -46 146 -111 146c-63 0 -99 -31 -124 -73v-238c0 -130 8 -131 45 -133l20 -1v-3h-213v3
l20 1c37 2 45 3 45 133zM346 556c-32 0 -98 32 -133 32c-28 0 -38 -16 -43 -31c-4 -12 -6 -22 -9 -37h-4c10 91 35 123 75 123c33 0 96 -32 132 -32c28 0 38 16 43 31c4 12 6 22 9 37h4c-10 -91 -34 -123 -74 -123z" />
    <glyph glyph-name="ograve" unicode="&#xf2;" horiz-adv-x="522" 
d="M390 223c0 130 -24 234 -129 234s-129 -102 -129 -233c0 -129 24 -233 129 -233s129 101 129 232zM488 224c0 -124 -83 -237 -227 -237c-143 0 -226 114 -226 238s83 236 226 236c144 0 227 -113 227 -237zM270 487h-4l-146 187h77z" />
    <glyph glyph-name="oacute" unicode="&#xf3;" horiz-adv-x="522" 
d="M390 223c0 130 -24 234 -129 234s-129 -102 -129 -233c0 -129 24 -233 129 -233s129 101 129 232zM488 224c0 -124 -83 -237 -227 -237c-143 0 -226 114 -226 238s83 236 226 236c144 0 227 -113 227 -237zM249 487h-4l73 187h77z" />
    <glyph glyph-name="ocircumflex" unicode="&#xf4;" horiz-adv-x="522" 
d="M390 223c0 130 -24 234 -129 234s-129 -102 -129 -233c0 -129 24 -233 129 -233s129 101 129 232zM488 224c0 -124 -83 -237 -227 -237c-143 0 -226 114 -226 238s83 236 226 236c144 0 227 -113 227 -237zM146 487h-4l88 187h67l88 -187h-4l-118 145z" />
    <glyph glyph-name="otilde" unicode="&#xf5;" horiz-adv-x="522" 
d="M390 223c0 130 -24 234 -129 234s-129 -102 -129 -233c0 -129 24 -233 129 -233s129 101 129 232zM488 224c0 -124 -83 -237 -227 -237c-143 0 -226 114 -226 238s83 236 226 236c144 0 227 -113 227 -237zM319 556c-32 0 -98 32 -133 32c-28 0 -38 -16 -43 -31
c-4 -12 -6 -22 -9 -37h-4c10 91 35 123 75 123c33 0 96 -32 132 -32c28 0 38 16 43 31c4 12 6 22 9 37h4c-10 -91 -34 -123 -74 -123z" />
    <glyph glyph-name="odieresis" unicode="&#xf6;" horiz-adv-x="522" 
d="M390 223c0 130 -24 234 -129 234s-129 -102 -129 -233c0 -129 24 -233 129 -233s129 101 129 232zM488 224c0 -124 -83 -237 -227 -237c-143 0 -226 114 -226 238s83 236 226 236c144 0 227 -113 227 -237zM228 636c0 -31 -21 -51 -48 -51c-26 0 -47 20 -47 51
c0 32 21 51 47 51s48 -19 48 -51zM388 636c0 -31 -21 -51 -48 -51c-26 0 -47 20 -47 51c0 32 21 51 47 51s48 -19 48 -51z" />
    <glyph glyph-name="oslash" unicode="&#xf8;" horiz-adv-x="522" 
d="M70 -56l56 85c-59 45 -91 118 -91 196c0 124 83 236 226 236c49 0 91 -13 125 -36l55 83h6l-56 -86c63 -43 97 -119 97 -198c0 -124 -83 -237 -227 -237c-52 0 -96 15 -131 40l-55 -83h-5zM390 223c0 63 -6 120 -24 162l-211 -321c19 -45 51 -73 106 -73
c105 0 129 101 129 232zM132 224c0 -60 5 -114 21 -155l211 322c-19 41 -52 66 -103 66c-105 0 -129 -102 -129 -233z" />
    <glyph glyph-name="oe" unicode="&#x153;" horiz-adv-x="870" 
d="M810 118c-19 -85 -82 -131 -185 -131c-84 0 -145 46 -183 99c-38 -53 -100 -99 -181 -99c-143 0 -226 114 -226 238s83 236 226 236c79 0 139 -44 178 -95c39 58 103 95 171 95c144 0 201 -87 201 -206h-317v-24c0 -104 14 -232 151 -232c85 0 140 37 160 120zM390 223
c0 130 -24 234 -129 234s-129 -102 -129 -233c0 -129 24 -233 129 -233s129 101 129 232zM610 457c-100 0 -115 -80 -116 -198h223c0 96 -10 198 -107 198z" />
    <glyph glyph-name="scaron" unicode="&#x161;" horiz-adv-x="418" 
d="M53 115c17 -54 60 -124 154 -124c61 0 105 26 105 89c0 126 -251 88 -251 259c0 72 60 122 135 122c30 0 54 -7 79 -23c6 -4 14 -9 21 -9c12 0 24 13 40 32h3v-131h-5l-7 23c-21 69 -72 104 -129 104s-87 -28 -87 -74c0 -129 253 -91 254 -269c0 -75 -67 -127 -157 -127
c-33 0 -60 7 -92 26c-11 6 -17 11 -25 11c-15 0 -30 -15 -47 -37h-4v151h6zM333 684h4l-88 -187h-67l-88 187h4l117 -146z" />
    <glyph glyph-name="germandbls" unicode="&#xdf;" horiz-adv-x="587" 
d="M291 383c0 -129 253 -91 254 -269c0 -75 -69 -127 -170 -127c-108 0 -144 51 -144 85c0 33 23 45 44 45c23 0 42 -17 42 -38c0 -36 -34 -38 -34 -56c0 -6 12 -32 92 -32c67 0 117 26 117 89c0 126 -251 90 -251 257c0 113 175 113 175 237c0 62 -32 109 -109 109
s-124 -44 -124 -137v-546h-148v3l20 1c37 2 45 3 45 133v363c0 101 86 187 211 187c80 0 174 -23 174 -102c0 -111 -194 -105 -194 -202z" />
    <glyph glyph-name="ugrave" unicode="&#xf9;" horiz-adv-x="547" 
d="M523 0h-146v69c-23 -38 -57 -81 -131 -81c-87 0 -169 56 -169 160v164c0 130 -8 131 -43 133l-20 1v3h146v-302c0 -102 43 -147 102 -147s89 32 113 74v238c0 130 -8 131 -45 133l-20 1v3h148v-312c0 -130 8 -131 45 -133l20 -1v-3zM255 487h-4l-146 187h77z" />
    <glyph glyph-name="uacute" unicode="&#xfa;" horiz-adv-x="547" 
d="M523 0h-146v69c-23 -38 -57 -81 -131 -81c-87 0 -169 56 -169 160v164c0 130 -8 131 -43 133l-20 1v3h146v-302c0 -102 43 -147 102 -147s89 32 113 74v238c0 130 -8 131 -45 133l-20 1v3h148v-312c0 -130 8 -131 45 -133l20 -1v-3zM262 487h-4l73 187h77z" />
    <glyph glyph-name="ucircumflex" unicode="&#xfb;" horiz-adv-x="547" 
d="M523 0h-146v69c-23 -38 -57 -81 -131 -81c-87 0 -169 56 -169 160v164c0 130 -8 131 -43 133l-20 1v3h146v-302c0 -102 43 -147 102 -147s89 32 113 74v238c0 130 -8 131 -45 133l-20 1v3h148v-312c0 -130 8 -131 45 -133l20 -1v-3zM138 487h-4l88 187h67l88 -187h-4
l-118 145z" />
    <glyph glyph-name="udieresis" unicode="&#xfc;" horiz-adv-x="547" 
d="M523 0h-146v69c-23 -38 -57 -81 -131 -81c-87 0 -169 56 -169 160v164c0 130 -8 131 -43 133l-20 1v3h146v-302c0 -102 43 -147 102 -147s89 32 113 74v238c0 130 -8 131 -45 133l-20 1v3h148v-312c0 -130 8 -131 45 -133l20 -1v-3zM213 636c0 -31 -21 -51 -48 -51
c-26 0 -47 20 -47 51c0 32 21 51 47 51s48 -19 48 -51zM373 636c0 -31 -21 -51 -48 -51c-26 0 -47 20 -47 51c0 32 21 51 47 51s48 -19 48 -51z" />
    <glyph glyph-name="yacute" unicode="&#xfd;" horiz-adv-x="463" 
d="M329 -208h-184v3l11 1c55 5 79 41 79 186v16l-152 338c-38 85 -54 106 -74 109l-8 1v3h196v-3l-18 -1c-44 -3 -40 -30 -6 -106l104 -233l75 188c29 72 29 148 -15 151l-17 1v3h142v-3l-8 -1c-27 -4 -46 -23 -97 -151l-118 -296v-16c0 -145 24 -181 79 -186l11 -1v-3z
M256 487h-4l73 187h77z" />
    <glyph glyph-name="ydieresis" unicode="&#xff;" horiz-adv-x="463" 
d="M329 -208h-184v3l11 1c55 5 79 41 79 186v16l-152 338c-38 85 -54 106 -74 109l-8 1v3h196v-3l-18 -1c-44 -3 -40 -30 -6 -106l104 -233l75 188c29 72 29 148 -15 151l-17 1v3h142v-3l-8 -1c-27 -4 -46 -23 -97 -151l-118 -296v-16c0 -145 24 -181 79 -186l11 -1v-3z
M222 636c0 -31 -21 -51 -48 -51c-26 0 -47 20 -47 51c0 32 21 51 47 51s48 -19 48 -51zM382 636c0 -31 -21 -51 -48 -51c-26 0 -47 20 -47 51c0 32 21 51 47 51s48 -19 48 -51z" />
    <glyph glyph-name="zcaron" unicode="&#x17e;" horiz-adv-x="456" 
d="M397 449v-9l-257 -436h126c83 0 109 38 133 114l8 25h3v-143h-357v9l254 436h-95c-79 0 -108 -33 -135 -106l-8 -22h-3v132h331zM348 684h4l-88 -187h-67l-88 187h4l117 -146z" />
    <glyph glyph-name="eth" unicode="&#xf0;" horiz-adv-x="523" 
d="M114 533v4l135 24l-16 21c-43 57 -66 87 -97 88l-25 1v3h149l65 -92c1 -3 3 -5 5 -7l118 21v-4l-116 -21c126 -179 156 -246 156 -347c0 -133 -82 -237 -227 -237s-226 107 -226 239s81 236 226 236c24 0 47 -6 65 -13c-21 35 -46 70 -75 108zM390 223
c0 88 -23 154 -61 220c-19 8 -41 15 -68 15c-112 0 -129 -118 -129 -233c0 -105 23 -234 129 -234s129 125 129 232z" />
    <glyph glyph-name="thorn" unicode="&#xfe;" horiz-adv-x="546" 
d="M172 444v-439c33 -9 59 -13 87 -13c103 0 148 84 148 232c0 147 -45 233 -148 233c-28 0 -54 -3 -87 -13zM504 224c0 -131 -93 -236 -245 -236c-23 0 -55 3 -87 12v-71c0 -130 8 -131 45 -133l20 -1v-3h-213v3l20 1c37 2 45 3 45 133v608c0 130 -8 131 -45 133l-20 1v3
h148v-225c32 9 64 12 87 12c154 0 245 -106 245 -237z" />
    <glyph glyph-name="grave" unicode="`" 
d="M325 487h-4l-146 187h77z" />
    <glyph glyph-name="grave" unicode="&#x300;" 
d="M325 487h-4l-146 187h77z" />
    <glyph glyph-name="grave" unicode="&#x2cb;" 
d="M325 487h-4l-146 187h77z" />
    <glyph glyph-name="grave.cap" unicode="&#xe01a;" 
d="M325 697h-4l-146 123h87z" />
    <glyph glyph-name="acute" unicode="&#xb4;" 
d="M179 487h-4l73 187h77z" />
    <glyph glyph-name="acute" unicode="&#x301;" 
d="M179 487h-4l73 187h77z" />
    <glyph glyph-name="acute" unicode="&#x2ca;" 
d="M179 487h-4l73 187h77z" />
    <glyph glyph-name="acute.cap" unicode="&#xe01b;" 
d="M179 697h-4l63 123h87z" />
    <glyph glyph-name="circumflex" unicode="&#x2c6;" 
d="M132 487h-4l88 187h67l88 -187h-4l-118 145z" />
    <glyph glyph-name="circumflex" unicode="&#x302;" 
d="M132 487h-4l88 187h67l88 -187h-4l-118 145z" />
    <glyph glyph-name="circumflex.cap" unicode="&#xe01c;" 
d="M152 697h-4l58 123h87l58 -123h-4l-98 91z" />
    <glyph glyph-name="caron" unicode="&#x2c7;" 
d="M367 684h4l-88 -187h-67l-88 187h4l117 -146z" />
    <glyph glyph-name="caron" unicode="&#x30c;" 
d="M367 684h4l-88 -187h-67l-88 187h4l117 -146z" />
    <glyph glyph-name="caron.cap" unicode="&#xe01d;" 
d="M347 831h4l-58 -123h-87l-58 123h4l97 -92z" />
    <glyph glyph-name="caronSlovak" unicode="&#x315;" 
d="M490 -100h-480v260h340v-140h-90v50h-160v-80h390v-90zM490 490h-480v210h90v-120h150v100h90v-100h150v-90zM490 280h-390v-90h-90v270h90v-90h390v-90z" />
    <glyph glyph-name="caronSlovak" unicode="&#xe01e;" 
d="M490 -100h-480v260h340v-140h-90v50h-160v-80h390v-90zM490 490h-480v210h90v-120h150v100h90v-100h150v-90zM490 280h-390v-90h-90v270h90v-90h390v-90z" />
    <glyph glyph-name="tilde" unicode="&#x2dc;" 
d="M307 556c-32 0 -98 32 -133 32c-28 0 -38 -16 -43 -31c-4 -12 -6 -22 -9 -37h-4c10 91 35 123 75 123c33 0 96 -32 132 -32c28 0 38 16 43 31c4 12 6 22 9 37h4c-10 -91 -34 -123 -74 -123z" />
    <glyph glyph-name="tilde" unicode="&#x303;" 
d="M307 556c-32 0 -98 32 -133 32c-28 0 -38 -16 -43 -31c-4 -12 -6 -22 -9 -37h-4c10 91 35 123 75 123c33 0 96 -32 132 -32c28 0 38 16 43 31c4 12 6 22 9 37h4c-10 -91 -34 -123 -74 -123z" />
    <glyph glyph-name="tilde.cap" unicode="&#xe01f;" 
d="M300 720c-29 0 -91 32 -119 32c-23 0 -30 -8 -35 -22c-3 -9 -5 -17 -7 -31h-4c10 95 40 108 65 108c29 0 91 -32 119 -32c23 0 30 8 35 22c3 9 5 17 7 31h4c-10 -95 -40 -108 -65 -108z" />
    <glyph glyph-name="dieresis" unicode="&#xa8;" 
d="M217 636c0 -31 -21 -51 -48 -51c-26 0 -47 20 -47 51c0 32 21 51 47 51s48 -19 48 -51zM377 636c0 -31 -21 -51 -48 -51c-26 0 -47 20 -47 51c0 32 21 51 47 51s48 -19 48 -51z" />
    <glyph glyph-name="dieresis" unicode="&#x308;" 
d="M217 636c0 -31 -21 -51 -48 -51c-26 0 -47 20 -47 51c0 32 21 51 47 51s48 -19 48 -51zM377 636c0 -31 -21 -51 -48 -51c-26 0 -47 20 -47 51c0 32 21 51 47 51s48 -19 48 -51z" />
    <glyph glyph-name="dieresis.cap" unicode="&#xe020;" 
d="M217 769c0 -31 -21 -51 -48 -51c-26 0 -47 20 -47 51c0 32 21 51 47 51s48 -19 48 -51zM377 769c0 -31 -21 -51 -48 -51c-26 0 -47 20 -47 51c0 32 21 51 47 51s48 -19 48 -51z" />
    <glyph glyph-name="macron" unicode="&#xaf;" 
d="M376 599h-252v51h252v-51z" />
    <glyph glyph-name="macron" unicode="&#x304;" 
d="M376 599h-252v51h252v-51z" />
    <glyph glyph-name="macron" unicode="&#x2c9;" 
d="M376 599h-252v51h252v-51z" />
    <glyph glyph-name="macron.cap" unicode="&#xe021;" 
d="M376 749h-252v51h252v-51z" />
    <glyph glyph-name="breve" unicode="&#x2d8;" 
d="M250 597c70 0 109 16 112 77h4c-3 -103 -52 -134 -116 -134s-113 31 -116 134h4c3 -61 42 -77 112 -77z" />
    <glyph glyph-name="breve" unicode="&#x306;" 
d="M250 597c70 0 109 16 112 77h4c-3 -103 -52 -134 -116 -134s-113 31 -116 134h4c3 -61 42 -77 112 -77z" />
    <glyph glyph-name="breve.cap" unicode="&#xe022;" 
d="M250 764c70 0 109 16 112 67h4c-3 -93 -52 -124 -116 -124s-113 31 -116 124h4c3 -51 42 -67 112 -67z" />
    <glyph glyph-name="ring" unicode="&#x2da;" 
d="M308 591c0 44 -17 92 -58 92s-57 -47 -57 -92c0 -43 16 -92 57 -92s58 47 58 92zM356 591c0 -54 -41 -96 -106 -96c-64 0 -106 43 -106 96c0 54 42 96 106 96c65 0 106 -43 106 -96z" />
    <glyph glyph-name="ring" unicode="&#x30a;" 
d="M308 591c0 44 -17 92 -58 92s-57 -47 -57 -92c0 -43 16 -92 57 -92s58 47 58 92zM356 591c0 -54 -41 -96 -106 -96c-64 0 -106 43 -106 96c0 54 42 96 106 96c65 0 106 -43 106 -96z" />
    <glyph glyph-name="ring.cap" unicode="&#xe023;" 
d="M292 784c0 42 -12 72 -42 72s-41 -30 -41 -72c0 -41 11 -73 41 -73s42 30 42 73zM337 784c0 -44 -35 -77 -87 -77s-87 34 -87 77c0 44 35 77 87 77s87 -34 87 -77z" />
    <glyph glyph-name="hungarumlaut" unicode="&#x2dd;" 
d="M99 487h-4l73 187h77zM259 487h-4l73 187h77z" />
    <glyph glyph-name="hungarumlaut" unicode="&#x30b;" 
d="M99 487h-4l73 187h77zM259 487h-4l73 187h77z" />
    <glyph glyph-name="hungarumlaut.cap" unicode="&#xe024;" 
d="M99 697h-4l63 123h87zM259 697h-4l63 123h87z" />
    <glyph glyph-name="dotaccent" unicode="&#x2d9;" 
d="M297 636c0 -31 -21 -51 -48 -51c-26 0 -47 20 -47 51c0 32 21 51 47 51s48 -19 48 -51z" />
    <glyph glyph-name="dotaccent" unicode="&#x307;" 
d="M297 636c0 -31 -21 -51 -48 -51c-26 0 -47 20 -47 51c0 32 21 51 47 51s48 -19 48 -51z" />
    <glyph glyph-name="dotaccent.cap" unicode="&#xe025;" 
d="M297 769c0 -31 -21 -51 -48 -51c-26 0 -47 20 -47 51c0 32 21 51 47 51s48 -19 48 -51z" />
    <glyph glyph-name="cedilla" unicode="&#xb8;" 
d="M231 -205c46 0 61 32 61 75c0 50 -13 82 -68 123h4c72 -51 115 -78 115 -126c0 -45 -46 -75 -112 -75c-36 0 -75 20 -75 53c0 16 11 27 27 27c14 0 26 -11 26 -27c0 -15 -11 -18 -11 -27c0 -10 11 -23 33 -23z" />
    <glyph glyph-name="cedilla" unicode="&#x327;" 
d="M231 -205c46 0 61 32 61 75c0 50 -13 82 -68 123h4c72 -51 115 -78 115 -126c0 -45 -46 -75 -112 -75c-36 0 -75 20 -75 53c0 16 11 27 27 27c14 0 26 -11 26 -27c0 -15 -11 -18 -11 -27c0 -10 11 -23 33 -23z" />
    <glyph glyph-name="ogonek" unicode="&#x2db;" 
d="M275 -203c17 0 30 8 39 20l3 -2c-8 -12 -21 -22 -45 -22c-51 0 -90 26 -90 75c0 48 45 77 128 134l5 -2c-58 -46 -82 -70 -82 -121c0 -42 3 -82 42 -82z" />
    <glyph glyph-name="ogonek" unicode="&#x328;" 
d="M275 -203c17 0 30 8 39 20l3 -2c-8 -12 -21 -22 -45 -22c-51 0 -90 26 -90 75c0 48 45 77 128 134l5 -2c-58 -46 -82 -70 -82 -121c0 -42 3 -82 42 -82z" />
    <glyph glyph-name="commaaccent" unicode="&#x326;" 
d="M490 -100h-480v260h340v-140h-90v50h-160v-80h390v-90zM490 490h-480v210h90v-120h150v100h90v-100h150v-90zM490 280h-390v-90h-90v270h90v-90h390v-90z" />
    <glyph glyph-name="commaaccent.alt" unicode="&#x2bb;" 
d="M490 -100h-480v260h340v-140h-90v50h-160v-80h390v-90zM490 490h-480v210h90v-120h150v100h90v-100h150v-90zM490 280h-390v-90h-90v270h90v-90h390v-90z" />
    <glyph glyph-name="commaaccent.alt" unicode="&#xe026;" 
d="M490 -100h-480v260h340v-140h-90v50h-160v-80h390v-90zM490 490h-480v210h90v-120h150v100h90v-100h150v-90zM490 280h-390v-90h-90v270h90v-90h390v-90z" />
    <glyph glyph-name="commaaccent.alt" unicode="&#x312;" 
d="M490 -100h-480v260h340v-140h-90v50h-160v-80h390v-90zM490 490h-480v210h90v-120h150v100h90v-100h150v-90zM490 280h-390v-90h-90v270h90v-90h390v-90z" />
    <glyph glyph-name="comma" unicode="," horiz-adv-x="250" 
d="M117 21c-30 0 -46 18 -46 41c0 28 16 48 46 48s65 -25 65 -98c0 -54 -29 -111 -126 -111v4c74 0 114 35 114 92c0 16 -7 29 -24 29c-13 0 -18 -5 -29 -5z" />
    <glyph glyph-name="semicolon" unicode=";" horiz-adv-x="250" 
d="M172 394c0 -33 -21 -56 -50 -56c-30 0 -51 22 -51 56c0 32 21 54 50 54c30 0 51 -22 51 -54zM117 22c-30 0 -46 18 -46 41c0 28 16 48 46 48s65 -25 65 -98c0 -54 -29 -111 -126 -111v4c74 0 114 35 114 92c0 16 -7 29 -24 29c-13 0 -18 -5 -29 -5z" />
    <glyph glyph-name="colon" unicode=":" horiz-adv-x="250" 
d="M177 395c0 -33 -21 -56 -50 -56c-30 0 -51 22 -51 56c0 32 21 54 50 54c30 0 51 -22 51 -54zM177 56c0 -33 -21 -56 -50 -56c-30 0 -51 22 -51 56c0 32 21 54 50 54c30 0 51 -22 51 -54z" />
    <glyph glyph-name="period" unicode="." horiz-adv-x="250" 
d="M179 56c0 -33 -21 -56 -50 -56c-30 0 -51 22 -51 56c0 32 21 54 50 54c30 0 51 -22 51 -54z" />
    <glyph glyph-name="ellipsis" unicode="&#x2026;" horiz-adv-x="1000" 
d="M221 56c0 -33 -21 -56 -50 -56c-30 0 -51 22 -51 56c0 32 21 54 50 54c30 0 51 -22 51 -54zM551 56c0 -33 -21 -56 -50 -56c-30 0 -51 22 -51 56c0 32 21 54 50 54c30 0 51 -22 51 -54zM881 56c0 -33 -21 -56 -50 -56c-30 0 -51 22 -51 56c0 32 21 54 50 54
c30 0 51 -22 51 -54z" />
    <glyph glyph-name="hyphen" unicode="-" horiz-adv-x="250" 
d="M230 203h-210v59h210v-59z" />
    <glyph glyph-name="hyphen.cap" unicode="&#xe027;" horiz-adv-x="250" 
d="M230 307h-210v59h210v-59z" />
    <glyph glyph-name="exclam" unicode="!" horiz-adv-x="250" 
d="M176 56c0 -33 -21 -56 -50 -56c-30 0 -51 22 -51 56c0 32 21 54 50 54c30 0 51 -22 51 -54zM126 248v-61h-4v61c0 145 -45 262 -45 379c0 27 17 47 47 47s48 -20 48 -47c0 -117 -46 -234 -46 -379z" />
    <glyph glyph-name="exclamdown" unicode="&#xa1;" horiz-adv-x="250" 
d="M74 404c0 33 21 56 50 56c30 0 51 -22 51 -56c0 -32 -21 -54 -50 -54c-30 0 -51 22 -51 54zM124 212v61h4v-61c0 -145 45 -262 45 -379c0 -27 -17 -47 -47 -47s-48 20 -48 47c0 117 46 234 46 379z" />
    <glyph glyph-name="exclamdown.cap" unicode="&#xe028;" horiz-adv-x="250" 
d="M74 642c0 33 21 56 50 56c30 0 51 -22 51 -56c0 -32 -21 -54 -50 -54c-30 0 -51 22 -51 54zM124 450v61h4v-61c0 -145 45 -262 45 -379c0 -27 -17 -47 -47 -47s-48 20 -48 47c0 117 46 234 46 379z" />
    <glyph glyph-name="question" unicode="?" horiz-adv-x="439" 
d="M184 687c95 0 202 -51 202 -168c0 -95 -77 -146 -196 -203c-42 -20 -58 -36 -58 -65c0 -41 40 -58 80 -58h11v-4h-11c-35 0 -85 14 -85 62c0 30 18 48 62 69c87 42 97 121 97 196c0 105 -33 167 -112 167c-51 0 -73 -24 -73 -40c0 -15 22 -28 22 -59
c0 -29 -23 -50 -50 -50c-32 0 -53 21 -53 50c0 56 70 103 164 103zM230 56c0 -33 -21 -56 -50 -56c-30 0 -51 22 -51 56c0 32 21 54 50 54c30 0 51 -22 51 -54z" />
    <glyph glyph-name="questiondown" unicode="&#xbf;" horiz-adv-x="439" 
d="M255 -226c-95 0 -202 51 -202 168c0 95 77 146 196 203c42 20 58 36 58 65c0 41 -40 58 -80 58h-11v4h11c35 0 85 -14 85 -62c0 -30 -18 -48 -62 -69c-87 -42 -97 -121 -97 -196c0 -105 33 -167 112 -167c51 0 73 24 73 40c0 15 -22 28 -22 59c0 29 23 50 50 50
c32 0 53 -21 53 -50c0 -56 -70 -103 -164 -103zM209 405c0 33 21 56 50 56c30 0 51 -22 51 -56c0 -32 -21 -54 -50 -54c-30 0 -51 22 -51 54z" />
    <glyph glyph-name="questiondown.cap" unicode="&#xe029;" horiz-adv-x="439" 
d="M255 12c-95 0 -202 51 -202 168c0 95 77 146 196 203c42 20 58 36 58 65c0 41 -40 58 -80 58h-11v4h11c35 0 85 -14 85 -62c0 -30 -18 -48 -62 -69c-87 -42 -97 -121 -97 -196c0 -105 33 -167 112 -167c51 0 73 24 73 40c0 15 -22 28 -22 59c0 29 23 50 50 50
c32 0 53 -21 53 -50c0 -56 -70 -103 -164 -103zM209 643c0 33 21 56 50 56c30 0 51 -22 51 -56c0 -32 -21 -54 -50 -54c-30 0 -51 22 -51 54z" />
    <glyph glyph-name="quoteleft" unicode="&#x2018;" horiz-adv-x="250" 
d="M134 563c30 0 46 -18 46 -41c0 -28 -16 -48 -46 -48s-65 25 -65 98c0 54 29 111 126 111v-4c-74 0 -114 -35 -114 -92c0 -16 7 -29 24 -29c13 0 18 5 29 5z" />
    <glyph glyph-name="quoteright" unicode="&#x2019;" horiz-adv-x="250" 
d="M116 585c-30 0 -46 18 -46 41c0 28 16 48 46 48s65 -25 65 -98c0 -54 -29 -111 -126 -111v4c74 0 114 35 114 92c0 16 -7 29 -24 29c-13 0 -18 -5 -29 -5z" />
    <glyph glyph-name="quotedblleft" unicode="&#x201c;" horiz-adv-x="410" 
d="M294 563c30 0 46 -18 46 -41c0 -28 -16 -48 -46 -48s-65 25 -65 98c0 54 29 111 126 111v-4c-74 0 -114 -35 -114 -92c0 -16 7 -29 24 -29c13 0 18 5 29 5zM144 563c30 0 46 -18 46 -41c0 -28 -16 -48 -46 -48s-65 25 -65 98c0 54 29 111 126 111v-4
c-74 0 -114 -35 -114 -92c0 -16 7 -29 24 -29c13 0 18 5 29 5z" />
    <glyph glyph-name="quotedblright" unicode="&#x201d;" horiz-adv-x="410" 
d="M119 585c-30 0 -46 18 -46 41c0 28 16 48 46 48s65 -25 65 -98c0 -54 -29 -111 -126 -111v4c74 0 114 35 114 92c0 16 -7 29 -24 29c-13 0 -18 -5 -29 -5zM269 585c-30 0 -46 18 -46 41c0 28 16 48 46 48s65 -25 65 -98c0 -54 -29 -111 -126 -111v4c74 0 114 35 114 92
c0 16 -7 29 -24 29c-13 0 -18 -5 -29 -5z" />
    <glyph glyph-name="quotesinglbase" unicode="&#x201a;" horiz-adv-x="250" 
d="M117 21c-30 0 -46 18 -46 41c0 28 16 48 46 48s65 -25 65 -98c0 -54 -29 -111 -126 -111v4c74 0 114 35 114 92c0 16 -7 29 -24 29c-13 0 -18 -5 -29 -5z" />
    <glyph glyph-name="quotedblbase" unicode="&#x201e;" horiz-adv-x="410" 
d="M119 22c-30 0 -46 18 -46 41c0 28 16 48 46 48s65 -25 65 -98c0 -54 -29 -111 -126 -111v4c74 0 114 35 114 92c0 16 -7 29 -24 29c-13 0 -18 -5 -29 -5zM269 22c-30 0 -46 18 -46 41c0 28 16 48 46 48s65 -25 65 -98c0 -54 -29 -111 -126 -111v4c74 0 114 35 114 92
c0 16 -7 29 -24 29c-13 0 -18 -5 -29 -5z" />
    <glyph glyph-name="quotesingle" unicode="'" horiz-adv-x="250" 
d="M154 634l-27 -172h-4l-29 172c-4 23 11 40 30 40c21 0 34 -16 30 -40z" />
    <glyph glyph-name="quotedbl" unicode="&#x22;" horiz-adv-x="410" 
d="M154 634l-27 -172h-4l-29 172c-4 23 11 40 30 40c21 0 34 -16 30 -40zM315 634l-27 -172h-4l-29 172c-4 23 11 40 30 40c21 0 34 -16 30 -40z" />
    <glyph glyph-name="guilsinglleft" unicode="&#x2039;" horiz-adv-x="250" 
d="M127 233c9 -53 43 -139 73 -185h-4c-46 65 -109 133 -166 185c57 52 120 120 166 185h4c-30 -46 -64 -132 -73 -185z" />
    <glyph glyph-name="guilsinglright" unicode="&#x203a;" horiz-adv-x="250" 
d="M123 233c-9 53 -43 139 -73 185h4c46 -65 109 -133 166 -185c-57 -52 -120 -120 -166 -185h-4c30 46 64 132 73 185z" />
    <glyph glyph-name="guilsinglleft.cap" unicode="&#xe02a;" horiz-adv-x="250" 
d="M127 337c9 -53 43 -139 73 -185h-4c-46 65 -109 133 -166 185c57 52 120 120 166 185h4c-30 -46 -64 -132 -73 -185z" />
    <glyph glyph-name="guilsinglright.cap" unicode="&#xe02b;" horiz-adv-x="250" 
d="M123 337c-9 53 -43 139 -73 185h4c46 -65 109 -133 166 -185c-57 -52 -120 -120 -166 -185h-4c30 46 64 132 73 185z" />
    <glyph glyph-name="guillemotleft" unicode="&#xab;" horiz-adv-x="410" 
d="M127 233c9 -53 43 -139 73 -185h-4c-46 65 -109 133 -166 185c57 52 120 120 166 185h4c-30 -46 -64 -132 -73 -185zM287 233c9 -53 43 -139 73 -185h-4c-46 65 -109 133 -166 185c57 52 120 120 166 185h4c-30 -46 -64 -132 -73 -185z" />
    <glyph glyph-name="guillemotright" unicode="&#xbb;" horiz-adv-x="410" 
d="M283 233c-9 53 -43 139 -73 185h4c46 -65 109 -133 166 -185c-57 -52 -120 -120 -166 -185h-4c30 46 64 132 73 185zM123 233c-9 53 -43 139 -73 185h4c46 -65 109 -133 166 -185c-57 -52 -120 -120 -166 -185h-4c30 46 64 132 73 185z" />
    <glyph glyph-name="guillemotleft.cap" unicode="&#xe02c;" horiz-adv-x="410" 
d="M127 337c9 -53 43 -139 73 -185h-4c-46 65 -109 133 -166 185c57 52 120 120 166 185h4c-30 -46 -64 -132 -73 -185zM287 337c9 -53 43 -139 73 -185h-4c-46 65 -109 133 -166 185c57 52 120 120 166 185h4c-30 -46 -64 -132 -73 -185z" />
    <glyph glyph-name="guillemotright.cap" unicode="&#xe02d;" horiz-adv-x="410" 
d="M283 337c-9 53 -43 139 -73 185h4c46 -65 109 -133 166 -185c-57 -52 -120 -120 -166 -185h-4c30 46 64 132 73 185zM123 337c-9 53 -43 139 -73 185h4c46 -65 109 -133 166 -185c-57 -52 -120 -120 -166 -185h-4c30 46 64 132 73 185z" />
    <glyph glyph-name="slash" unicode="/" horiz-adv-x="336" 
d="M38 0h-10l269 674h10z" />
    <glyph glyph-name="backslash" unicode="\" horiz-adv-x="336" 
d="M308 0h-10l-269 674h10z" />
    <glyph glyph-name="bar" unicode="|" horiz-adv-x="250" 
d="M130 768v-960h-10v960h10z" />
    <glyph glyph-name="brokenbar" unicode="&#xa6;" 
d="M490 -100h-480v260h340v-140h-90v50h-160v-80h390v-90zM490 490h-480v210h90v-120h150v100h90v-100h150v-90zM490 280h-390v-90h-90v270h90v-90h390v-90z" />
    <glyph glyph-name="endash" unicode="&#x2013;" 
d="M480 228h-460v10h460v-10z" />
    <glyph glyph-name="endash.cap" unicode="&#xe02e;" 
d="M480 332h-460v10h460v-10z" />
    <glyph glyph-name="underscore" unicode="_" 
d="M500 -208h-500v10h500v-10z" />
    <glyph glyph-name="emdash" unicode="&#x2014;" horiz-adv-x="1000" 
d="M980 228h-960v10h960v-10z" />
    <glyph glyph-name="emdash.cap" unicode="&#xe02f;" horiz-adv-x="1000" 
d="M980 332h-960v10h960v-10z" />
    <glyph glyph-name="bullet" unicode="&#x2022;" horiz-adv-x="342" 
d="M78 232c0 54 38 94 92 94s94 -40 94 -94s-40 -92 -94 -92s-92 38 -92 92z" />
    <glyph glyph-name="periodcentered" unicode="&#xb7;" horiz-adv-x="250" 
d="M175 234c0 -33 -21 -56 -50 -56c-30 0 -51 22 -51 56c0 32 21 54 50 54c30 0 51 -22 51 -54z" />
    <glyph glyph-name="periodcentered" unicode="&#x2219;" horiz-adv-x="250" 
d="M175 234c0 -33 -21 -56 -50 -56c-30 0 -51 22 -51 56c0 32 21 54 50 54c30 0 51 -22 51 -54z" />
    <glyph glyph-name="periodcentered.cap" unicode="&#xe031;" horiz-adv-x="250" 
d="M175 338c0 -33 -21 -56 -50 -56c-30 0 -51 22 -51 56c0 32 21 54 50 54c30 0 51 -22 51 -54z" />
    <glyph glyph-name="parenleft" unicode="(" horiz-adv-x="307" 
d="M46 233c0 248 134 385 242 441h4c-94 -63 -173 -200 -173 -441s79 -380 173 -441h-4c-105 56 -242 193 -242 441z" />
    <glyph glyph-name="parenright" unicode=")" horiz-adv-x="307" 
d="M261 233c0 -248 -134 -385 -242 -441h-4c94 63 173 200 173 441s-79 380 -173 441h4c105 -56 242 -193 242 -441z" />
    <glyph glyph-name="parenleft.cap" unicode="&#xe032;" horiz-adv-x="307" 
d="M46 337c0 248 134 385 242 441h4c-94 -63 -173 -200 -173 -441s79 -380 173 -441h-4c-105 56 -242 193 -242 441z" />
    <glyph glyph-name="parenright.cap" unicode="&#xe033;" horiz-adv-x="307" 
d="M261 337c0 -248 -134 -385 -242 -441h-4c94 63 173 200 173 441s-79 380 -173 441h4c105 -56 242 -193 242 -441z" />
    <glyph glyph-name="bracketleft" unicode="[" horiz-adv-x="307" 
d="M209 -204h78v-4h-200v882h200v-4h-78c-44 0 -47 -16 -47 -151v-572c0 -135 3 -151 47 -151z" />
    <glyph glyph-name="bracketright" unicode="]" horiz-adv-x="307" 
d="M98 670h-78v4h200v-882h-200v4h78c44 0 47 16 47 151v572c0 135 -3 151 -47 151z" />
    <glyph glyph-name="bracketleft.cap" unicode="&#xe034;" horiz-adv-x="307" 
d="M209 -100h78v-4h-200v882h200v-4h-78c-44 0 -47 -16 -47 -151v-572c0 -135 3 -151 47 -151z" />
    <glyph glyph-name="bracketright.cap" unicode="&#xe035;" horiz-adv-x="307" 
d="M98 774h-78v4h200v-882h-200v4h78c44 0 47 16 47 151v572c0 135 -3 151 -47 151z" />
    <glyph glyph-name="braceleft" unicode="{" 
d="M490 -100h-480v260h340v-140h-90v50h-160v-80h390v-90zM490 490h-480v210h90v-120h150v100h90v-100h150v-90zM490 280h-390v-90h-90v270h90v-90h390v-90z" />
    <glyph glyph-name="braceright" unicode="}" 
d="M490 -100h-480v260h340v-140h-90v50h-160v-80h390v-90zM490 490h-480v210h90v-120h150v100h90v-100h150v-90zM490 280h-390v-90h-90v270h90v-90h390v-90z" />
    <glyph glyph-name="asterisk" unicode="*" horiz-adv-x="429" 
d="M249 676l-32 -161l146 77l21 -66l-166 -19l129 -122l-58 -40l-75 155l-75 -155l-58 40l129 122l-166 19l21 66l146 -77l-32 161h70z" />
    <glyph glyph-name="dagger" unicode="&#x2020;" horiz-adv-x="294" 
d="M189 533c29 0 55 -5 55 -24c0 -12 -8 -18 -20 -18c-10 0 -15 6 -15 13c0 2 1 4 1 7c0 6 -8 7 -27 7c-9 0 -17 0 -28 -1c1 -17 8 -35 22 -45c-1 -58 -10 -333 -12 -446c0 -10 -10 -32 -17 -41c-6 9 -17 31 -17 41c-1 113 -10 388 -10 446c11 8 19 27 21 43
c-15 -1 -28 -2 -33 -2c-32 0 -59 10 -59 44c0 31 23 67 28 74c5 8 13 18 22 19l1 -8c-17 -33 -28 -49 -28 -75c0 -31 25 -38 50 -38c3 0 7 0 19 1c0 16 -8 30 -19 41c8 24 12 49 12 74c0 16 -4 22 -18 22c6 12 18 20 31 20s25 -8 32 -20c-15 0 -19 -6 -19 -22
c0 -25 4 -50 12 -74c-10 -11 -18 -24 -18 -40c9 1 25 2 34 2z" />
    <glyph glyph-name="daggerdbl" unicode="&#x2021;" 
d="M490 -100h-480v260h340v-140h-90v50h-160v-80h390v-90zM490 490h-480v210h90v-120h150v100h90v-100h150v-90zM490 280h-390v-90h-90v270h90v-90h390v-90z" />
    <glyph glyph-name="section" unicode="&#xa7;" 
d="M490 -100h-480v260h340v-140h-90v50h-160v-80h390v-90zM490 490h-480v210h90v-120h150v100h90v-100h150v-90zM490 280h-390v-90h-90v270h90v-90h390v-90z" />
    <glyph glyph-name="paragraph" unicode="&#xb6;" horiz-adv-x="589" 
d="M304 -204c85 0 141 60 141 187v241c-32 -8 -123 -12 -157 -12c-123 0 -243 71 -243 238c0 138 93 237 246 237c53 0 104 -10 158 -26v-679c0 -132 -61 -190 -145 -190c-107 0 -153 55 -153 104c0 31 22 53 55 53c29 0 53 -22 53 -53c0 -33 -23 -50 -23 -66s3 -34 68 -34z
" />
    <glyph glyph-name="at" unicode="@" horiz-adv-x="784" 
d="M302 146c0 -81 46 -99 92 -99c40 0 78 28 98 66v120c-31 14 -58 22 -95 22c-45 0 -95 -20 -95 -109zM567 169c0 -83 6 -122 42 -122c44 0 107 59 107 213c0 235 -163 343 -313 343c-168 0 -302 -120 -302 -367c0 -212 105 -366 316 -366c105 0 176 31 238 89l3 -4
c-64 -61 -138 -90 -245 -90c-229 0 -351 156 -351 372c0 194 116 370 341 370c204 0 331 -141 331 -346c0 -127 -61 -219 -135 -219c-40 0 -87 11 -105 65c-21 -34 -57 -72 -124 -72c-89 0 -152 42 -152 116c0 73 56 109 167 109c44 0 72 -6 107 -22v123c0 62 -33 97 -99 97
c-51 0 -68 -11 -68 -25s20 -26 20 -54c0 -26 -21 -45 -46 -45c-28 0 -47 19 -47 45c0 46 49 83 140 83c88 0 175 -45 175 -142v-151z" />
    <glyph glyph-name="at.cap" unicode="&#xe038;" horiz-adv-x="784" 
d="M293 250c0 -81 46 -99 92 -99c40 0 78 28 98 66v120c-31 14 -58 22 -95 22c-45 0 -95 -20 -95 -109zM558 273c0 -83 6 -122 42 -122c44 0 107 59 107 213c0 235 -163 343 -313 343c-168 0 -302 -120 -302 -367c0 -212 105 -366 316 -366c105 0 176 31 238 89l3 -4
c-64 -61 -138 -90 -245 -90c-229 0 -351 156 -351 372c0 194 116 370 341 370c204 0 331 -141 331 -346c0 -127 -61 -219 -135 -219c-40 0 -87 11 -105 65c-21 -34 -57 -72 -124 -72c-89 0 -152 42 -152 116c0 73 56 109 167 109c44 0 72 -6 107 -22v123c0 62 -33 97 -99 97
c-51 0 -68 -11 -68 -25s20 -26 20 -54c0 -26 -21 -45 -46 -45c-28 0 -47 19 -47 45c0 46 49 83 140 83c88 0 175 -45 175 -142v-151z" />
    <glyph glyph-name="copyright" unicode="&#xa9;" 
d="M490 -100h-480v260h340v-140h-90v50h-160v-80h390v-90zM490 490h-480v210h90v-120h150v100h90v-100h150v-90zM490 280h-390v-90h-90v270h90v-90h390v-90z" />
    <glyph glyph-name="registered" unicode="&#xae;" 
d="M490 -100h-480v260h340v-140h-90v50h-160v-80h390v-90zM490 490h-480v210h90v-120h150v100h90v-100h150v-90zM490 280h-390v-90h-90v270h90v-90h390v-90z" />
    <glyph glyph-name="published" unicode="&#x2117;" 
d="M490 -100h-480v260h340v-140h-90v50h-160v-80h390v-90zM490 490h-480v210h90v-120h150v100h90v-100h150v-90zM490 280h-390v-90h-90v270h90v-90h390v-90z" />
    <glyph glyph-name="published" unicode="&#xe039;" 
d="M490 -100h-480v260h340v-140h-90v50h-160v-80h390v-90zM490 490h-480v210h90v-120h150v100h90v-100h150v-90zM490 280h-390v-90h-90v270h90v-90h390v-90z" />
    <glyph glyph-name="trademark" unicode="&#x2122;" 
d="M490 -100h-480v260h340v-140h-90v50h-160v-80h390v-90zM490 490h-480v210h90v-120h150v100h90v-100h150v-90zM490 280h-390v-90h-90v270h90v-90h390v-90z" />
    <glyph glyph-name="ordfeminine" unicode="&#xaa;" 
d="M490 -100h-480v260h340v-140h-90v50h-160v-80h390v-90zM490 490h-480v210h90v-120h150v100h90v-100h150v-90zM490 280h-390v-90h-90v270h90v-90h390v-90z" />
    <glyph glyph-name="ordmasculine" unicode="&#xba;" 
d="M490 -100h-480v260h340v-140h-90v50h-160v-80h390v-90zM490 490h-480v210h90v-120h150v100h90v-100h150v-90zM490 280h-390v-90h-90v270h90v-90h390v-90z" />
    <glyph glyph-name="numero" unicode="&#x2116;" 
d="M490 -100h-480v260h340v-140h-90v50h-160v-80h390v-90zM490 490h-480v210h90v-120h150v100h90v-100h150v-90zM490 280h-390v-90h-90v270h90v-90h390v-90z" />
    <glyph glyph-name="numbersign" unicode="#" horiz-adv-x="540" 
d="M143 0h-5l27 129h-102v47h112l29 143h-141v48h151l27 128h5l-27 -128h156l27 128h5l-27 -128h96v-48h-106l-30 -143h136v-47h-145l-27 -129h-5l27 129h-156zM209 319l-30 -143h157l29 143h-156z" />
    <glyph glyph-name="Euro" unicode="&#x20ac;" horiz-adv-x="611" 
d="M50 211h70c-1 11 -1 23 -1 35c0 23 2 46 7 69h-76v4h77c22 104 95 189 228 189c86 0 162 -49 162 -97c0 -27 -20 -47 -50 -47c-26 0 -47 20 -47 47c0 30 20 42 20 56c0 15 -30 37 -85 37c-89 0 -125 -84 -135 -185h198v-4h-198c-2 -23 -3 -46 -3 -69c0 -12 0 -23 1 -35
h200v-4h-200c6 -108 39 -216 137 -216c55 0 98 22 98 38c0 15 -23 28 -23 59c0 29 23 50 50 50c32 0 53 -21 53 -50c0 -50 -92 -101 -178 -101c-147 0 -221 103 -234 220h-71v4z" />
    <glyph glyph-name="dollar" unicode="$" horiz-adv-x="508" 
d="M241 -113v100c-99 1 -181 45 -181 95c0 29 21 50 53 50c27 0 50 -21 50 -50c0 -31 -22 -44 -22 -59c0 -16 50 -31 100 -32v216c-85 24 -173 53 -173 163c0 86 78 135 173 137v101h4v-101c86 0 178 -46 178 -96c0 -29 -21 -50 -53 -50c-27 0 -50 21 -50 50
c0 31 22 44 22 59c0 16 -42 33 -97 33v-207c89 -26 190 -48 190 -162c0 -93 -91 -146 -190 -147v-100h-4zM391 96c0 70 -71 89 -146 110v-215c59 1 146 23 146 105zM112 413c0 -72 60 -96 129 -116v206c-87 -1 -129 -42 -129 -90z" />
    <glyph glyph-name="cent" unicode="&#xa2;" horiz-adv-x="512" 
d="M272 -113v100c-152 1 -234 129 -234 261c0 134 83 260 233 260h1v100h5v-100c113 -3 182 -71 182 -119c0 -31 -22 -53 -55 -53c-29 0 -53 22 -53 53c0 33 23 50 23 66c0 15 -27 47 -97 49v-504h10c85 0 154 62 174 145l5 -1c-19 -84 -91 -155 -189 -157v-100h-5zM136 248
c0 -129 26 -239 136 -248v504h-1c-105 0 -135 -126 -135 -256z" />
    <glyph glyph-name="sterling" unicode="&#xa3;" horiz-adv-x="519" 
d="M60 251h96c-28 34 -59 69 -59 120c0 78 62 137 178 137c76 0 171 -51 171 -101c0 -29 -21 -50 -53 -50c-27 0 -50 21 -50 50c0 31 22 44 22 59c0 16 -42 38 -92 38c-76 0 -114 -32 -114 -95c0 -69 56 -113 86 -158h163v-4h-160c9 -15 15 -31 15 -47
c0 -47 -24 -78 -107 -127h175c130 0 131 8 133 45l1 20h3v-138h-395v9l85 75c28 24 38 59 38 82c0 31 -17 56 -37 81h-99v4z" />
    <glyph glyph-name="florin" unicode="&#x192;" horiz-adv-x="543" 
d="M163 -81v324h-87v4h87v76c0 114 81 185 196 185c76 0 143 -41 143 -91c0 -29 -21 -50 -53 -50c-27 0 -50 21 -50 50c0 31 22 44 22 59c0 16 -34 28 -62 28c-88 0 -109 -30 -109 -132v-125h174v-4h-174v-278c0 -93 -58 -157 -149 -157c-62 0 -101 39 -101 85
c0 26 19 45 48 45c24 0 45 -19 45 -45c0 -28 -20 -40 -20 -54s7 -27 29 -27c45 0 61 30 61 107z" />
    <glyph glyph-name="yen" unicode="&#xa5;" horiz-adv-x="549" 
d="M90 141h138v102h-138v4h136l-84 130c-60 93 -73 112 -104 114l-13 1v3h204v-3l-16 -1c-48 -3 -29 -33 22 -111l81 -125l51 76c22 32 51 76 51 108c0 28 -7 50 -41 52h-16v4h162v-4h-16c-28 -2 -43 -23 -136 -162l-55 -82h138v-4h-138v-102h138v-4h-138v-21
c0 -102 6 -111 43 -113h16v-3h-206v3h16c36 2 43 11 43 113v21h-138v4z" />
    <glyph glyph-name="zero" unicode="0" horiz-adv-x="578" 
d="M438 247c0 131 -31 257 -149 257c-119 0 -149 -125 -149 -257c0 -130 30 -256 149 -256c117 0 149 125 149 256zM538 248c0 -136 -91 -261 -249 -261s-249 125 -249 261s91 260 249 260s249 -124 249 -260z" />
    <glyph glyph-name="one" unicode="1" horiz-adv-x="287" 
d="M187 371v-234c0 -130 8 -131 45 -133l30 -1v-3h-237v3l30 1c37 2 45 3 45 133v234c0 130 -8 131 -45 133l-30 1v3h237v-3l-30 -1c-37 -2 -45 -3 -45 -133z" />
    <glyph glyph-name="two" unicode="2" horiz-adv-x="555" 
d="M145 73h199c130 0 131 8 133 45l1 20h3v-138h-445v9l159 103c138 89 141 160 141 237c0 92 -31 155 -111 155c-61 0 -81 -24 -81 -40c0 -15 22 -28 22 -59c0 -29 -23 -50 -50 -50c-32 0 -53 21 -53 50c0 56 68 103 162 103c111 0 211 -53 211 -157
c0 -118 -124 -178 -291 -278z" />
    <glyph glyph-name="three" unicode="3" horiz-adv-x="554" 
d="M216 -192c-122 0 -177 52 -177 102c0 29 21 50 53 50c27 0 50 -21 50 -50c0 -31 -22 -44 -22 -59c0 -16 18 -39 96 -39c116 0 156 81 156 191c0 115 -33 178 -150 178h-91v4h91c118 0 119 63 119 151c0 90 -37 168 -127 168c-66 0 -84 -23 -84 -39c0 -15 22 -28 22 -59
c0 -29 -23 -50 -50 -50c-32 0 -53 21 -53 50c0 50 55 102 165 102c128 0 227 -57 227 -171c0 -84 -75 -137 -180 -154c130 -19 211 -70 211 -180c0 -132 -117 -195 -256 -195z" />
    <glyph glyph-name="four" unicode="4" horiz-adv-x="579" 
d="M414 -179h-85v223h-286v4l357 460h14v-460h111v-4h-111v-223zM48 48h281v361z" />
    <glyph glyph-name="five" unicode="5" horiz-adv-x="526" 
d="M89 172v323h176c130 0 145 12 150 48l3 20h3l-18 -139c-57 6 -116 7 -165 7h-145v-258c47 27 83 49 154 49c133 0 230 -81 230 -212c0 -127 -118 -202 -252 -202c-122 0 -177 52 -177 102c0 29 21 50 53 50c27 0 50 -21 50 -50c0 -31 -22 -44 -22 -59
c0 -16 18 -39 96 -39c111 0 152 82 152 198c0 83 -35 204 -144 204c-61 0 -91 -17 -140 -44z" />
    <glyph glyph-name="six" unicode="6" horiz-adv-x="601" 
d="M337 683c-139 0 -168 -146 -173 -333c44 49 102 72 160 72c126 0 212 -83 212 -206c0 -135 -98 -229 -232 -229c-173 0 -239 149 -239 315c0 175 60 385 272 385c110 0 170 -55 170 -100c0 -26 -19 -45 -48 -45c-24 0 -45 19 -45 45c0 28 20 40 20 54s-31 42 -97 42z
M318 412c-58 0 -106 -17 -154 -69v-65c0 -134 29 -288 142 -288c96 0 130 92 130 217c0 113 -22 205 -118 205z" />
    <glyph glyph-name="seven" unicode="7" horiz-adv-x="503" 
d="M428 426l-249 -1c-130 0 -131 -8 -133 -45l-1 -20h-3v135h418v-14l-121 -234c-64 -124 -72 -231 -72 -378c0 -27 -20 -47 -50 -47c-25 0 -46 20 -46 47c0 150 97 257 162 379z" />
    <glyph glyph-name="eight" unicode="8" horiz-adv-x="598" 
d="M298 360c93 0 119 46 119 165c0 102 -31 158 -119 158s-118 -56 -118 -158c0 -119 25 -165 118 -165zM296 -9c93 0 142 77 142 178c0 103 -29 187 -141 187c-104 0 -140 -84 -140 -187c0 -101 46 -178 139 -178zM297 -13c-131 0 -237 72 -237 193c0 85 59 160 198 178
c-117 11 -176 86 -176 155c0 111 103 174 215 174s215 -63 215 -174c0 -69 -44 -134 -171 -155c139 -19 197 -93 197 -178c0 -121 -110 -193 -241 -193z" />
    <glyph glyph-name="nine" unicode="9" horiz-adv-x="601" 
d="M264 -188c138 0 168 146 172 332c-44 -49 -101 -71 -159 -71c-126 0 -212 83 -212 206c0 135 98 229 232 229c173 0 239 -149 239 -315c0 -175 -60 -385 -272 -385c-110 0 -170 55 -170 100c0 26 19 45 48 45c24 0 45 -19 45 -45c0 -28 -20 -40 -20 -54s31 -42 97 -42z
M283 83c57 0 105 17 153 68c1 22 1 44 1 66c0 134 -29 288 -142 288c-96 0 -130 -92 -130 -217c0 -113 22 -205 118 -205z" />
    <glyph glyph-name="numbersign.LP" unicode="&#xe332;" horiz-adv-x="540" 
d="M123 0h-5l32 208h-107v47h114l25 163h-139v48h146l32 208h4l-32 -208h156l32 208h4l-32 -208h103v-48h-110l-25 -163h135v-47h-142l-31 -208h-5l32 208h-156zM186 418l-25 -163h156l25 163h-156z" />
    <glyph glyph-name="Euro.LP" unicode="&#xe333;" horiz-adv-x="611" 
d="M50 299h70c-1 14 -1 29 -1 44c0 21 1 41 2 61h-71v4h72c15 165 89 279 237 279c105 0 163 -65 163 -112c0 -29 -21 -50 -52 -50c-28 0 -50 21 -50 50c0 32 22 48 22 63s-20 45 -83 45c-107 0 -136 -116 -142 -275h201v-4h-201v-61c0 -15 0 -30 1 -44h200v-4h-200
c6 -208 54 -304 147 -304c73 0 79 33 79 49s-23 33 -23 66c0 31 24 53 53 53c33 0 55 -22 55 -53c0 -49 -51 -119 -166 -119c-140 0 -231 99 -243 308h-70v4z" />
    <glyph glyph-name="dollar.LP" unicode="&#xe334;" horiz-adv-x="508" 
d="M250 -113v100c-131 1 -201 65 -201 114c0 31 22 53 55 53c29 0 53 -22 53 -53c0 -33 -23 -50 -23 -66s28 -44 116 -44v304c-90 46 -185 95 -185 219c0 97 70 171 185 173v101h4v-101h1c115 0 186 -65 186 -114c0 -31 -22 -53 -55 -53c-29 0 -53 22 -53 53
c0 33 23 50 23 66s-28 44 -101 44h-1v-282c95 -50 205 -96 205 -233c0 -114 -81 -180 -205 -181v-100h-4zM405 134c0 82 -73 120 -151 159v-302c84 1 151 34 151 143zM118 558c0 -79 61 -118 132 -155v280c-105 -2 -132 -67 -132 -125z" />
    <glyph glyph-name="cent.LP" unicode="&#xe335;" horiz-adv-x="512" 
d="M272 -113v100c-152 1 -234 129 -234 261c0 134 83 260 233 260h1v100h5v-100c113 -3 182 -71 182 -119c0 -31 -22 -53 -55 -53c-29 0 -53 22 -53 53c0 33 23 50 23 66c0 15 -27 47 -97 49v-504h10c85 0 154 62 174 145l5 -1c-19 -84 -91 -155 -189 -157v-100h-5zM136 248
c0 -129 26 -239 136 -248v504h-1c-105 0 -135 -126 -135 -256z" />
    <glyph glyph-name="sterling.LP" unicode="&#xe336;" horiz-adv-x="519" 
d="M65 339h93c-27 57 -56 116 -56 175c0 82 57 173 187 173c76 0 153 -41 153 -91c0 -29 -21 -50 -53 -50c-27 0 -50 21 -50 50c0 31 22 44 22 59c0 16 -44 28 -72 28c-86 0 -111 -47 -111 -118c0 -79 47 -152 69 -226h166v-4h-165c7 -22 11 -45 11 -67
c0 -75 -36 -132 -111 -195h169c130 0 131 8 133 45l1 20h3v-138h-385v9l85 75c36 32 50 66 50 108c0 46 -21 94 -44 143h-95v4z" />
    <glyph glyph-name="florin.LP" unicode="&#xe337;" horiz-adv-x="543" 
d="M163 -81v416h-87v4h87v163c0 114 81 185 196 185c76 0 143 -41 143 -91c0 -29 -21 -50 -53 -50c-27 0 -50 21 -50 50c0 31 22 44 22 59c0 16 -34 28 -62 28c-88 0 -109 -30 -109 -132v-212h174v-4h-174v-370c0 -93 -58 -157 -149 -157c-62 0 -101 39 -101 85
c0 26 19 45 48 45c24 0 45 -19 45 -45c0 -28 -20 -40 -20 -54s7 -27 29 -27c45 0 61 30 61 107z" />
    <glyph glyph-name="yen.LP" unicode="&#xe338;" horiz-adv-x="549" 
d="M89 231h139v104h-139v4h137l-84 170c-49 100 -73 159 -104 161l-13 1v3h204v-3l-16 -1c-48 -3 -17 -73 22 -158l78 -169l88 197c16 35 17 46 17 78c0 28 -7 50 -41 52h-16v4h162v-4h-16c-28 -2 -74 -68 -101 -129l-89 -202h136v-4h-137v-104h137v-4h-137v-111
c0 -102 6 -111 43 -113h16v-3h-206v3h16c36 2 43 11 43 113v111h-139v4z" />
    <glyph glyph-name="zero.LP" unicode="&#xe33a;" horiz-adv-x="578" 
d="M438 336c0 201 -29 347 -149 347c-121 0 -149 -144 -149 -347c0 -199 28 -345 149 -345c120 0 149 145 149 345zM538 338c0 -207 -91 -351 -249 -351s-249 144 -249 351s91 349 249 349s249 -142 249 -349z" />
    <glyph glyph-name="one.LP" unicode="&#xe33b;" horiz-adv-x="353" 
d="M247 674v-537c0 -130 8 -131 45 -133l40 -1v-3h-257v3l40 1c37 2 45 3 45 133v454c-15 -33 -49 -93 -138 -148l-3 4c104 59 153 165 170 227h58z" />
    <glyph glyph-name="two.LP" unicode="&#xe33c;" horiz-adv-x="555" 
d="M137 73h232c130 0 131 8 133 45l1 20h3v-138h-445v9l113 103c174 157 187 230 187 366c0 102 -31 205 -113 205c-69 0 -89 -24 -89 -50c0 -15 22 -28 22 -59c0 -29 -23 -50 -50 -50c-32 0 -53 21 -53 50c0 59 73 113 172 113c111 0 211 -53 211 -207
c0 -118 -117 -222 -324 -407z" />
    <glyph glyph-name="three.LP" unicode="&#xe33d;" horiz-adv-x="554" 
d="M233 -13c-122 0 -177 52 -177 102c0 29 21 50 53 50c27 0 50 -21 50 -50c0 -31 -22 -44 -22 -59c0 -16 18 -39 96 -39c116 0 156 81 156 191c0 115 -33 178 -150 178h-91v4h91c118 0 119 63 119 151c0 90 -37 168 -127 168c-66 0 -84 -23 -84 -39c0 -15 22 -28 22 -59
c0 -29 -23 -50 -50 -50c-32 0 -53 21 -53 50c0 50 55 102 165 102c128 0 227 -57 227 -171c0 -84 -75 -137 -180 -154c130 -19 211 -70 211 -180c0 -132 -117 -195 -256 -195z" />
    <glyph glyph-name="four.LP" unicode="&#xe33e;" horiz-adv-x="579" 
d="M404 223v-68c0 -137 9 -149 58 -151l21 -1v-3h-243v3l21 1c49 2 58 14 58 151v68h-286v4l357 460h14v-460h111v-4h-111zM38 227h281v361z" />
    <glyph glyph-name="five.LP" unicode="&#xe33f;" horiz-adv-x="526" 
d="M96 351v323h176c130 0 145 12 150 48l3 20h3l-18 -139c-57 6 -116 7 -165 7h-145v-258c47 27 83 49 154 49c133 0 230 -81 230 -212c0 -127 -118 -202 -252 -202c-122 0 -177 52 -177 102c0 29 21 50 53 50c27 0 50 -21 50 -50c0 -31 -22 -44 -22 -59
c0 -16 18 -39 96 -39c111 0 152 82 152 198c0 83 -35 204 -144 204c-61 0 -91 -17 -140 -44z" />
    <glyph glyph-name="six.LP" unicode="&#xe340;" horiz-adv-x="601" 
d="M337 683c-139 0 -168 -146 -173 -333c44 49 102 72 160 72c126 0 212 -83 212 -206c0 -135 -98 -229 -232 -229c-173 0 -239 149 -239 315c0 175 60 385 272 385c110 0 170 -55 170 -100c0 -26 -19 -45 -48 -45c-24 0 -45 19 -45 45c0 28 20 40 20 54s-31 42 -97 42z
M318 412c-58 0 -106 -17 -154 -69v-65c0 -134 29 -288 142 -288c96 0 130 92 130 217c0 113 -22 205 -118 205z" />
    <glyph glyph-name="seven.LP" unicode="&#xe341;" horiz-adv-x="503" 
d="M448 605l-249 -1c-130 0 -131 -8 -133 -45l-1 -20h-3v135h418v-14l-121 -234c-64 -124 -72 -225 -72 -392c0 -27 -20 -47 -50 -47c-25 0 -46 20 -46 47c0 170 97 271 162 393z" />
    <glyph glyph-name="eight.LP" unicode="&#xe342;" horiz-adv-x="598" 
d="M298 360c93 0 119 46 119 165c0 102 -31 158 -119 158s-118 -56 -118 -158c0 -119 25 -165 118 -165zM296 -9c93 0 142 77 142 178c0 103 -29 187 -141 187c-104 0 -140 -84 -140 -187c0 -101 46 -178 139 -178zM297 -13c-131 0 -237 72 -237 193c0 85 59 160 198 178
c-117 11 -176 86 -176 155c0 111 103 174 215 174s215 -63 215 -174c0 -69 -44 -134 -171 -155c139 -19 197 -93 197 -178c0 -121 -110 -193 -241 -193z" />
    <glyph glyph-name="nine.LP" unicode="&#xe343;" horiz-adv-x="601" 
d="M264 -9c138 0 168 146 172 332c-44 -49 -101 -71 -159 -71c-126 0 -212 83 -212 206c0 135 98 229 232 229c173 0 239 -149 239 -315c0 -175 -60 -385 -272 -385c-110 0 -170 55 -170 100c0 26 19 45 48 45c24 0 45 -19 45 -45c0 -28 -20 -40 -20 -54s31 -42 97 -42z
M283 262c57 0 105 17 153 68c1 22 1 44 1 66c0 134 -29 288 -142 288c-96 0 -130 -92 -130 -217c0 -113 22 -205 118 -205z" />
    <glyph glyph-name="onesuperior" unicode="&#xb9;" 
d="M490 -100h-480v260h340v-140h-90v50h-160v-80h390v-90zM490 490h-480v210h90v-120h150v100h90v-100h150v-90zM490 280h-390v-90h-90v270h90v-90h390v-90z" />
    <glyph glyph-name="twosuperior" unicode="&#xb2;" 
d="M490 -100h-480v260h340v-140h-90v50h-160v-80h390v-90zM490 490h-480v210h90v-120h150v100h90v-100h150v-90zM490 280h-390v-90h-90v270h90v-90h390v-90z" />
    <glyph glyph-name="threesuperior" unicode="&#xb3;" 
d="M490 -100h-480v260h340v-140h-90v50h-160v-80h390v-90zM490 490h-480v210h90v-120h150v100h90v-100h150v-90zM490 280h-390v-90h-90v270h90v-90h390v-90z" />
    <glyph glyph-name="fraction" unicode="&#x2044;" 
d="M490 -100h-480v260h340v-140h-90v50h-160v-80h390v-90zM490 490h-480v210h90v-120h150v100h90v-100h150v-90zM490 280h-390v-90h-90v270h90v-90h390v-90z" />
    <glyph glyph-name="onehalf" unicode="&#xbd;" 
d="M490 -100h-480v260h340v-140h-90v50h-160v-80h390v-90zM490 490h-480v210h90v-120h150v100h90v-100h150v-90zM490 280h-390v-90h-90v270h90v-90h390v-90z" />
    <glyph glyph-name="onequarter" unicode="&#xbc;" 
d="M490 -100h-480v260h340v-140h-90v50h-160v-80h390v-90zM490 490h-480v210h90v-120h150v100h90v-100h150v-90zM490 280h-390v-90h-90v270h90v-90h390v-90z" />
    <glyph glyph-name="threequarters" unicode="&#xbe;" 
d="M490 -100h-480v260h340v-140h-90v50h-160v-80h390v-90zM490 490h-480v210h90v-120h150v100h90v-100h150v-90zM490 280h-390v-90h-90v270h90v-90h390v-90z" />
    <glyph glyph-name="percent" unicode="%" horiz-adv-x="816" 
d="M217 326c78 0 101 85 101 178s-23 179 -101 179s-101 -85 -101 -179c0 -92 23 -178 101 -178zM217 322c-111 0 -177 88 -177 183s66 182 177 182s177 -87 177 -182s-66 -183 -177 -183zM203 0h-10l419 674h10zM598 -9c78 0 101 85 101 179c0 92 -23 178 -101 178
s-101 -85 -101 -178s23 -179 101 -179zM598 -13c-111 0 -177 87 -177 182s66 183 177 183s177 -88 177 -183s-66 -182 -177 -182z" />
    <glyph glyph-name="perthousand" unicode="&#x2030;" 
d="M490 -100h-480v260h340v-140h-90v50h-160v-80h390v-90zM490 490h-480v210h90v-120h150v100h90v-100h150v-90zM490 280h-390v-90h-90v270h90v-90h390v-90z" />
    <glyph glyph-name="plus" unicode="+" 
d="M277 23h-55v202h-202v55h202v203h55v-203h203v-55h-203v-202z" />
    <glyph glyph-name="minus" unicode="&#x2212;" 
d="M480 225h-460v55h460v-55z" />
    <glyph glyph-name="plusminus" unicode="&#xb1;" 
d="M490 -100h-480v260h340v-140h-90v50h-160v-80h390v-90zM490 490h-480v210h90v-120h150v100h90v-100h150v-90zM490 280h-390v-90h-90v270h90v-90h390v-90z" />
    <glyph glyph-name="multiply" unicode="&#xd7;" 
d="M442 99l-39 -38l-153 152l-153 -152l-39 38l153 153l-153 154l38 39l154 -154l154 154l38 -39l-153 -154z" />
    <glyph glyph-name="divide" unicode="&#xf7;" 
d="M480 225h-460v55h460v-55zM201 402c0 28 20 49 48 49s49 -21 49 -49s-21 -48 -49 -48s-48 20 -48 48zM201 102c0 28 20 49 48 49s49 -21 49 -49s-21 -48 -49 -48s-48 20 -48 48z" />
    <glyph glyph-name="equal" unicode="=" 
d="M480 125h-460v55h460v-55zM480 325h-460v55h460v-55z" />
    <glyph glyph-name="notequal" unicode="&#x2260;" 
d="M490 -100h-480v260h340v-140h-90v50h-160v-80h390v-90zM490 490h-480v210h90v-120h150v100h90v-100h150v-90zM490 280h-390v-90h-90v270h90v-90h390v-90z" />
    <glyph glyph-name="asciitilde" unicode="~" 
d="M490 -100h-480v260h340v-140h-90v50h-160v-80h390v-90zM490 490h-480v210h90v-120h150v100h90v-100h150v-90zM490 280h-390v-90h-90v270h90v-90h390v-90z" />
    <glyph glyph-name="approxequal" unicode="&#x2248;" 
d="M490 -100h-480v260h340v-140h-90v50h-160v-80h390v-90zM490 490h-480v210h90v-120h150v100h90v-100h150v-90zM490 280h-390v-90h-90v270h90v-90h390v-90z" />
    <glyph glyph-name="asciicircum" unicode="^" 
d="M490 -100h-480v260h340v-140h-90v50h-160v-80h390v-90zM490 490h-480v210h90v-120h150v100h90v-100h150v-90zM490 280h-390v-90h-90v270h90v-90h390v-90z" />
    <glyph glyph-name="less" unicode="&#x3c;" 
d="M490 -100h-480v260h340v-140h-90v50h-160v-80h390v-90zM490 490h-480v210h90v-120h150v100h90v-100h150v-90zM490 280h-390v-90h-90v270h90v-90h390v-90z" />
    <glyph glyph-name="greater" unicode="&#x3e;" 
d="M490 -100h-480v260h340v-140h-90v50h-160v-80h390v-90zM490 490h-480v210h90v-120h150v100h90v-100h150v-90zM490 280h-390v-90h-90v270h90v-90h390v-90z" />
    <glyph glyph-name="lessequal" unicode="&#x2264;" 
d="M490 -100h-480v260h340v-140h-90v50h-160v-80h390v-90zM490 490h-480v210h90v-120h150v100h90v-100h150v-90zM490 280h-390v-90h-90v270h90v-90h390v-90z" />
    <glyph glyph-name="greaterequal" unicode="&#x2265;" 
d="M490 -100h-480v260h340v-140h-90v50h-160v-80h390v-90zM490 490h-480v210h90v-120h150v100h90v-100h150v-90zM490 280h-390v-90h-90v270h90v-90h390v-90z" />
    <glyph glyph-name="logicalnot" unicode="&#xac;" 
d="M490 -100h-480v260h340v-140h-90v50h-160v-80h390v-90zM490 490h-480v210h90v-120h150v100h90v-100h150v-90zM490 280h-390v-90h-90v270h90v-90h390v-90z" />
    <glyph glyph-name="currency" unicode="&#xa4;" 
d="M490 -100h-480v260h340v-140h-90v50h-160v-80h390v-90zM490 490h-480v210h90v-120h150v100h90v-100h150v-90zM490 280h-390v-90h-90v270h90v-90h390v-90z" />
    <glyph glyph-name="infinity" unicode="&#x221e;" 
d="M490 -100h-480v260h340v-140h-90v50h-160v-80h390v-90zM490 490h-480v210h90v-120h150v100h90v-100h150v-90zM490 280h-390v-90h-90v270h90v-90h390v-90z" />
    <glyph glyph-name="lozenge" unicode="&#x25ca;" 
d="M490 -100h-480v260h340v-140h-90v50h-160v-80h390v-90zM490 490h-480v210h90v-120h150v100h90v-100h150v-90zM490 280h-390v-90h-90v270h90v-90h390v-90z" />
    <glyph glyph-name="Delta" unicode="&#x2206;" 
d="M490 -100h-480v260h340v-140h-90v50h-160v-80h390v-90zM490 490h-480v210h90v-120h150v100h90v-100h150v-90zM490 280h-390v-90h-90v270h90v-90h390v-90z" />
    <glyph glyph-name="Omega" unicode="&#x2126;" 
d="M490 -100h-480v260h340v-140h-90v50h-160v-80h390v-90zM490 490h-480v210h90v-120h150v100h90v-100h150v-90zM490 280h-390v-90h-90v270h90v-90h390v-90z" />
    <glyph glyph-name="partialdiff" unicode="&#x2202;" 
d="M490 -100h-480v260h340v-140h-90v50h-160v-80h390v-90zM490 490h-480v210h90v-120h150v100h90v-100h150v-90zM490 280h-390v-90h-90v270h90v-90h390v-90z" />
    <glyph glyph-name="integral" unicode="&#x222b;" 
d="M490 -100h-480v260h340v-140h-90v50h-160v-80h390v-90zM490 490h-480v210h90v-120h150v100h90v-100h150v-90zM490 280h-390v-90h-90v270h90v-90h390v-90z" />
    <glyph glyph-name="radical" unicode="&#x221a;" 
d="M490 -100h-480v260h340v-140h-90v50h-160v-80h390v-90zM490 490h-480v210h90v-120h150v100h90v-100h150v-90zM490 280h-390v-90h-90v270h90v-90h390v-90z" />
    <glyph glyph-name="summation" unicode="&#x2211;" 
d="M490 -100h-480v260h340v-140h-90v50h-160v-80h390v-90zM490 490h-480v210h90v-120h150v100h90v-100h150v-90zM490 280h-390v-90h-90v270h90v-90h390v-90z" />
    <glyph glyph-name="product" unicode="&#x220f;" 
d="M490 -100h-480v260h340v-140h-90v50h-160v-80h390v-90zM490 490h-480v210h90v-120h150v100h90v-100h150v-90zM490 280h-390v-90h-90v270h90v-90h390v-90z" />
    <glyph glyph-name="pi" unicode="&#x3c0;" 
d="M490 -100h-480v260h340v-140h-90v50h-160v-80h390v-90zM490 490h-480v210h90v-120h150v100h90v-100h150v-90zM490 280h-390v-90h-90v270h90v-90h390v-90z" />
    <glyph glyph-name="mu" unicode="&#xb5;" 
d="M490 -100h-480v260h340v-140h-90v50h-160v-80h390v-90zM490 490h-480v210h90v-120h150v100h90v-100h150v-90zM490 280h-390v-90h-90v270h90v-90h390v-90z" />
    <glyph glyph-name="degree" unicode="&#xb0;" 
d="M490 -100h-480v260h340v-140h-90v50h-160v-80h390v-90zM490 490h-480v210h90v-120h150v100h90v-100h150v-90zM490 280h-390v-90h-90v270h90v-90h390v-90z" />
    <glyph glyph-name="litre" unicode="&#x2113;" 
d="M490 -100h-480v260h340v-140h-90v50h-160v-80h390v-90zM490 490h-480v210h90v-120h150v100h90v-100h150v-90zM490 280h-390v-90h-90v270h90v-90h390v-90z" />
    <glyph glyph-name="estimated" unicode="&#x212e;" 
d="M490 -100h-480v260h340v-140h-90v50h-160v-80h390v-90zM490 490h-480v210h90v-120h150v100h90v-100h150v-90zM490 280h-390v-90h-90v270h90v-90h390v-90z" />
    <glyph glyph-name="ampersand" unicode="&#x26;" horiz-adv-x="806" 
d="M645 228c0 -162 -128 -241 -283 -241c-168 0 -282 58 -282 200c0 110 81 166 211 185c-105 17 -180 65 -180 149c0 114 99 166 227 166c110 0 165 -52 165 -102c0 -29 -21 -50 -53 -50c-27 0 -50 21 -50 50c0 31 22 44 22 59c0 16 -18 39 -84 39
c-90 0 -127 -73 -127 -163c0 -88 1 -146 119 -146h61v-4h-61c-117 0 -150 -68 -150 -183c0 -108 49 -196 182 -196s277 91 277 239c0 34 -6 60 -17 89c-97 -32 -184 -54 -184 -101c0 -20 11 -31 25 -31c21 0 32 26 55 26c20 0 30 -16 30 -35c0 -18 -15 -31 -35 -31
c-39 0 -82 38 -82 89c0 78 77 108 172 139c105 34 154 53 154 96c0 22 -14 41 -30 41c-22 0 -22 -26 -48 -26c-20 0 -37 14 -37 35c0 20 13 37 34 37c43 0 87 -49 87 -104c0 -70 -59 -108 -137 -134c11 -27 19 -59 19 -92z" />
    <glyph glyph-name="c_t" unicode="&#xe08c;" horiz-adv-x="848" 
d="M669 508v-59h115v-4h-115v-307c0 -53 2 -138 61 -138c43 0 64 34 64 98h4c0 -61 -16 -110 -91 -110c-72 0 -121 54 -121 150v307h-71v4h71v59c0 114 -50 175 -145 175c-96 0 -160 -54 -160 -135c0 -45 17 -73 39 -92c74 -14 113 -59 113 -99c0 -31 -22 -53 -55 -53
c-29 0 -53 22 -53 53c0 33 23 50 23 66s-13 34 -78 34c-126 0 -139 -115 -139 -226c0 -104 12 -232 149 -232c85 0 138 37 158 120l5 -1c-19 -85 -80 -131 -183 -131c-149 0 -225 116 -225 236c0 126 73 238 235 238c16 0 31 -1 45 -4c-26 22 -49 48 -49 91
c0 84 81 139 175 139c130 0 228 -68 228 -179z" />
    <glyph glyph-name="s_t" unicode="&#xfb06;" horiz-adv-x="780" 
d="M53 115c17 -54 60 -124 154 -124c61 0 105 26 105 89c0 126 -251 88 -251 259c0 72 60 122 135 122c21 0 41 -4 60 -13c-27 20 -57 55 -57 100c0 84 81 139 175 139c130 0 228 -68 228 -179v-59h115v-4h-115v-307c0 -53 2 -138 61 -138c43 0 64 34 64 98h4
c0 -61 -16 -110 -91 -110c-72 0 -121 54 -121 150v307h-71v4h71v59c0 114 -50 175 -145 175c-96 0 -160 -54 -160 -135c0 -47 16 -80 61 -110c6 -4 14 -9 21 -9c12 0 24 13 40 32h3v-131h-5l-7 23c-21 69 -72 104 -129 104s-87 -28 -87 -74c0 -129 253 -91 254 -269
c0 -75 -67 -127 -157 -127c-33 0 -60 7 -92 26c-11 6 -17 11 -25 11c-15 0 -30 -15 -47 -37h-4v151h6z" />
    <glyph glyph-name="A.alt" unicode="&#xe352;" horiz-adv-x="675" 
d="M-229 -308c129 0 215 113 292 309l267 683h11l211 -516c59 -144 69 -159 110 -164l8 -1v-3h-239v3l26 1c64 2 47 43 2 159l-45 117h-235l-107 -279c-67 -174 -135 -313 -302 -313c-75 0 -163 34 -163 111c0 32 22 59 58 59c31 0 55 -23 55 -55c0 -33 -24 -43 -24 -66
c0 -33 47 -45 75 -45zM296 585l-115 -301h231z" />
    <glyph glyph-name="B.alt" unicode="&#xe3ec;" horiz-adv-x="1010" 
d="M359 674h303c129 0 231 -50 231 -161c0 -103 -110 -149 -209 -167c99 -11 246 -49 246 -180c0 -119 -114 -166 -271 -166h-300v3l21 1c49 2 58 14 58 151v364c0 137 -9 149 -58 151l-21 1c-173 -1 -324 -100 -324 -258c0 -28 11 -75 44 -75c23 0 33 24 66 24
c32 0 55 -24 55 -55c0 -36 -27 -58 -59 -58c-77 0 -111 88 -111 163c0 201 170 262 329 262zM529 344v-189c0 -135 3 -151 47 -151h83c102 0 170 44 170 169c0 107 -57 171 -175 171h-125zM529 519v-171h124c77 0 139 49 139 165c0 110 -63 157 -130 157h-86
c-44 0 -47 -16 -47 -151z" />
    <glyph glyph-name="D.alt" unicode="&#xe3ed;" horiz-adv-x="1070" 
d="M359 674h328c221 0 338 -152 338 -336c0 -185 -123 -338 -337 -338h-329v3l21 1c49 2 58 14 58 151v364c0 137 -9 149 -58 151l-21 1c-173 -1 -324 -100 -324 -258c0 -28 11 -75 44 -75c23 0 33 24 66 24c32 0 55 -24 55 -55c0 -36 -27 -58 -59 -58
c-77 0 -111 88 -111 163c0 201 170 262 329 262zM687 670h-111c-44 0 -47 -16 -47 -151v-364c0 -135 3 -151 47 -151h111c169 0 235 163 235 333c0 177 -79 333 -235 333z" />
    <glyph glyph-name="E.alt" unicode="&#xe0b5;" horiz-adv-x="952" 
d="M593 0h-562v3l21 1c49 2 58 14 58 151v364c0 137 -9 149 -58 151l-21 1v3h490v-181h-3l-11 34c-42 129 -113 143 -204 143h-55c-44 0 -47 -16 -47 -151v-171h57c49 0 101 6 124 90l6 22h3v-228h-3l-6 22c-23 84 -75 90 -124 90h-57v-189c0 -135 3 -151 47 -151h345
c173 0 324 99 324 257c0 28 -11 75 -44 75c-23 0 -33 -24 -66 -24c-32 0 -55 24 -55 55c0 36 27 58 59 58c77 0 111 -88 111 -163c0 -201 -170 -262 -329 -262z" />
    <glyph glyph-name="F.alt" unicode="&#xe3ee;" horiz-adv-x="611" 
d="M201 324v-311c0 -199 -94 -325 -259 -325c-98 0 -154 52 -154 101c0 32 23 55 58 55c30 0 55 -23 55 -55c0 -34 -24 -48 -24 -65c0 -15 17 -32 66 -32c128 0 167 72 167 321v506c0 137 -9 149 -58 151l-21 1v3h510v-201h-3l-11 34c-51 156 -113 163 -204 163h-75
c-44 0 -47 -16 -47 -151v-191h77c49 0 101 6 124 90l6 22h3v-248h-3l-6 22c-28 102 -75 110 -124 110h-77z" />
    <glyph glyph-name="G.alt" unicode="&#xe0b6;" horiz-adv-x="694" 
d="M602 166v-198c0 -173 -113 -280 -239 -280c-98 0 -153 50 -153 96c0 32 23 55 56 55c29 0 53 -22 53 -53c0 -33 -23 -46 -23 -63c0 -14 19 -31 68 -31c105 0 146 76 146 267v80c-50 -36 -98 -52 -151 -52c-208 0 -314 171 -314 349c0 180 106 351 314 351
c45 0 84 -12 117 -34c10 -7 20 -14 32 -14c18 0 38 19 62 48h2v-194h-3l-11 34c-27 84 -93 156 -197 156c-161 0 -213 -173 -213 -346s52 -346 213 -346c43 0 93 16 125 39c23 17 25 30 25 83v53c0 137 -9 147 -98 151l-21 1v3h289v-3l-21 -1c-49 -2 -58 -14 -58 -151z" />
    <glyph glyph-name="H.alt" unicode="&#xe3ef;" horiz-adv-x="779" 
d="M669 661v-506c0 -137 9 -149 58 -151l21 -1v-3h-249v3l21 1c49 2 58 14 58 151v189h-377v-189c0 -137 9 -149 58 -151l21 -1v-3h-249v3l21 1c49 2 58 14 58 151v364c0 137 -9 149 -58 151l-21 1v3h249v-3l-21 -1c-49 -2 -58 -14 -58 -151v-171h377v313
c0 199 94 325 259 325c98 0 154 -52 154 -101c0 -32 -23 -55 -58 -55c-30 0 -55 23 -55 55c0 34 24 48 24 65c0 15 -17 32 -66 32c-128 0 -167 -72 -167 -321z" />
    <glyph glyph-name="J.alt" unicode="&#xe0b7;" horiz-adv-x="311" 
d="M201 519v-506c0 -199 -94 -325 -259 -325c-98 0 -154 52 -154 101c0 32 23 55 58 55c30 0 55 -23 55 -55c0 -34 -24 -48 -24 -65c0 -15 17 -32 66 -32c128 0 167 72 167 321v506c0 137 -9 149 -58 151l-21 1v3h249v-3l-21 -1c-49 -2 -58 -14 -58 -151z" />
    <glyph glyph-name="K.alt" unicode="&#xe0b8;" horiz-adv-x="684" 
d="M244 337c161 -3 267 -182 360 -314c106 -151 194 -255 322 -255c104 0 167 79 167 192h5c0 -143 -79 -272 -227 -272c-184 0 -288 192 -368 338c-73 135 -152 308 -261 308h-41v-179c0 -137 9 -149 58 -151l21 -1v-3h-249v3l21 1c49 2 58 14 58 151v364
c0 137 -9 149 -58 151l-21 1v3h249v-3l-21 -1c-49 -2 -58 -14 -58 -151v-181h20c41 0 63 21 150 113l32 34c88 94 103 181 35 185l-21 1v3h263v-3l-21 -1c-48 -2 -104 -28 -252 -185l-33 -35c-35 -37 -94 -106 -130 -113z" />
    <glyph glyph-name="L.alt" unicode="&#xe3f1;" horiz-adv-x="606" 
d="M110 155v507c0 249 -39 321 -167 321c-49 0 -66 -17 -66 -32c0 -17 24 -31 24 -65c0 -32 -25 -55 -55 -55c-35 0 -58 23 -58 55c0 49 56 101 154 101c165 0 259 -126 259 -325v-507c0 -135 3 -151 47 -151h80c98 0 145 22 204 203l11 34h3v-241h-515v3l21 1
c49 2 58 14 58 151z" />
    <glyph glyph-name="M.alt" unicode="&#xe3f2;" horiz-adv-x="847" 
d="M737 660v-505c0 -137 9 -149 58 -151l21 -1v-3h-249v3l21 1c49 2 58 14 58 151v489l-243 -444h-13l-267 419v-379c0 -82 28 -232 104 -236l21 -1v-3h-217v3l11 1c55 5 77 82 77 236v279c0 137 -21 149 -70 151l-18 1v3h169l244 -389l215 389c90 163 168 312 328 312
c75 0 163 -34 163 -111c0 -32 -22 -59 -58 -59c-31 0 -55 23 -55 55c0 33 24 43 24 66c0 33 -47 45 -75 45c-131 0 -249 -118 -249 -322z" />
    <glyph glyph-name="N.alt" unicode="&#xe3f3;" horiz-adv-x="780" 
d="M916 982c-149 0 -248 -114 -250 -321l-5 -670h-14l-524 623v-374c0 -82 28 -232 104 -236l21 -1v-3h-217v3l11 1c55 5 77 82 77 236v279c0 137 -21 149 -70 151l-18 1v3h165l462 -560l-2 547c-1 216 93 325 261 325c75 0 163 -34 163 -111c0 -32 -22 -59 -58 -59
c-31 0 -55 23 -55 55c0 33 24 43 24 66s-24 45 -75 45z" />
    <glyph glyph-name="P.alt" unicode="&#xe3f4;" horiz-adv-x="641" 
d="M110 13v506c0 137 -9 149 -58 151l-21 1v3h324c142 0 236 -83 236 -204c0 -107 -78 -185 -232 -185h-158v-272c0 -199 -94 -325 -259 -325c-98 0 -154 52 -154 101c0 32 23 55 58 55c30 0 55 -23 55 -55c0 -34 -24 -48 -24 -65c0 -15 17 -32 66 -32c128 0 167 72 167 321
zM201 289h158c95 0 121 88 121 180c0 90 -32 201 -125 201h-107c-44 0 -47 -16 -47 -151v-230z" />
    <glyph glyph-name="Q.alt" unicode="&#xe0b9;" horiz-adv-x="750" 
d="M503 11c117 -167 225 -243 343 -243c104 0 167 79 167 192h5c0 -143 -79 -272 -227 -272c-169 0 -273 165 -350 305c-21 -4 -43 -6 -66 -6c-212 0 -330 168 -330 351s118 349 330 349s330 -166 330 -349c0 -142 -71 -275 -202 -327zM602 337c0 180 -55 346 -227 346
s-227 -164 -227 -346c0 -119 23 -231 89 -294c3 63 29 100 93 100c71 0 119 -62 161 -117c82 57 111 179 111 311zM375 -9c23 0 43 3 62 8c-34 68 -66 132 -124 132c-53 0 -71 -44 -73 -91c33 -30 78 -49 135 -49z" />
    <glyph glyph-name="R.alt" unicode="&#xe0ba;" horiz-adv-x="688" 
d="M201 338h133c124 0 145 74 145 164c0 109 -44 168 -118 168h-113c-44 0 -47 -16 -47 -151v-181zM1135 -40c0 -143 -79 -272 -227 -272c-184 0 -288 192 -368 338c-107 196 -161 308 -258 308h-81v-179c0 -137 9 -149 58 -151l21 -1v-3h-249v3l21 1c49 2 58 14 58 151v364
c0 137 -9 149 -58 151l-21 1v3h330c120 0 220 -57 220 -170c0 -73 -52 -127 -121 -152c-48 -17 -88 -20 -145 -18c127 -39 160 -75 326 -311c106 -151 194 -255 322 -255c104 0 167 79 167 192h5z" />
    <glyph glyph-name="T.alt" unicode="&#xe3f5;" horiz-adv-x="842" 
d="M359 674h452v-201h-3l-11 34c-51 156 -121 163 -152 163h-26c-44 0 -47 -16 -47 -151v-364c0 -137 9 -149 58 -151l21 -1v-3h-249v3l21 1c49 2 58 14 58 151v364c0 135 -3 151 -47 151h-75c-173 -1 -324 -99 -324 -257c0 -28 11 -75 44 -75c23 0 33 24 66 24
c32 0 55 -24 55 -55c0 -36 -27 -58 -59 -58c-77 0 -111 88 -111 163c0 201 170 262 329 262z" />
    <glyph glyph-name="V.alt" unicode="&#xe3f6;" horiz-adv-x="675" 
d="M670 674v-3l-11 -1c-41 -4 -60 -18 -140 -226l-174 -454h-11l-211 516c-112 273 -214 406 -364 406c-70 0 -112 -36 -112 -101h-5c1 100 62 175 166 175c191 0 302 -209 409 -477l165 -412l133 347c19 49 29 102 29 146c0 45 -9 77 -56 80l-21 1v3h203z" />
    <glyph glyph-name="W.alt" unicode="&#xe3f7;" horiz-adv-x="940" 
d="M700 120l151 554c51 186 133 312 302 312c75 0 163 -34 163 -111c0 -32 -22 -59 -58 -59c-31 0 -55 23 -55 55c0 33 24 43 24 66c0 33 -47 45 -75 45c-129 0 -234 -103 -292 -309l-193 -685h-13l-195 571l-186 -571h-13l-147 518c-41 143 -54 159 -95 164l-8 1v3h234v-3
l-21 -1c-61 -3 -55 -40 -21 -159l111 -385l182 560h14z" />
    <glyph glyph-name="X.alt" unicode="&#xe3f8;" horiz-adv-x="682" 
d="M943 -238c70 0 110 37 109 101h5c3 -83 -54 -175 -163 -175c-135 0 -234 121 -381 329l-212 301l-54 -77c-71 -100 -90 -149 -90 -186c0 -30 5 -49 40 -51l21 -1v-3h-208v3l11 1c38 2 94 57 222 240l55 78l-128 184c-86 123 -111 159 -151 164l-8 1v3h237v-3l-21 -1
c-65 -5 -30 -58 41 -159l93 -134l40 56c71 100 90 149 90 186c0 30 -5 49 -40 51l-21 1v3h208v-3l-11 -1c-38 -2 -92 -59 -222 -240l-41 -57l242 -343c133 -189 238 -268 337 -268z" />
    <glyph glyph-name="Y.alt" unicode="&#xe3f9;" horiz-adv-x="642" 
d="M363 337l212 331c103 161 219 318 388 318c75 0 163 -34 163 -111c0 -32 -22 -59 -58 -59c-31 0 -55 23 -55 55c0 33 24 43 24 66c0 33 -47 45 -75 45c-129 0 -261 -137 -378 -316l-219 -335v-176c0 -137 9 -149 58 -151l21 -1v-3h-249v3l21 1c49 2 58 14 58 151v173
l-116 178c-81 125 -98 162 -139 164l-18 1v3h247v-3l-21 -1c-65 -5 -36 -54 29 -159z" />
    <glyph glyph-name="Z.alt" unicode="&#xe3fa;" horiz-adv-x="971" 
d="M162 4h450c173 0 324 99 324 257c0 28 -11 75 -44 75c-23 0 -33 -24 -66 -24c-32 0 -55 24 -55 55c0 36 27 58 59 58c77 0 111 -88 111 -163c0 -201 -170 -262 -329 -262h-542v13l369 657h-131c-91 0 -153 -7 -204 -163l-11 -34h-3v201h450v-13z" />
    <glyph glyph-name="loop.01" unicode="&#xe3fb;" horiz-adv-x="310" 
d="M358 674h52v-4h-52c-173 0 -324 -99 -324 -257c0 -28 11 -75 44 -75c23 0 33 24 66 24c32 0 55 -24 55 -55c0 -36 -27 -58 -59 -58c-77 0 -111 88 -111 163c0 201 170 262 329 262z" />
    <glyph glyph-name="loop.02" unicode="&#xe3fc;" horiz-adv-x="310" 
d="M410 670h-52c-159 0 -329 61 -329 262c0 75 34 163 111 163c32 0 59 -22 59 -58c0 -31 -23 -55 -55 -55c-33 0 -43 24 -66 24c-33 0 -44 -47 -44 -75c0 -158 151 -257 324 -257h52v-4z" />
    <glyph glyph-name="loop.03" unicode="&#xe3fd;" horiz-adv-x="310" 
d="M410 0h-52c-159 0 -329 61 -329 262c0 75 34 163 111 163c32 0 59 -22 59 -58c0 -31 -23 -55 -55 -55c-33 0 -43 24 -66 24c-33 0 -44 -47 -44 -75c0 -158 151 -257 324 -257h52v-4z" />
    <glyph glyph-name="loop.04" unicode="&#xe3fe;" horiz-adv-x="310" 
d="M358 4h52v-4h-52c-173 0 -324 -99 -324 -257c0 -28 11 -75 44 -75c23 0 33 24 66 24c32 0 55 -24 55 -55c0 -36 -27 -58 -59 -58c-77 0 -111 88 -111 163c0 201 170 262 329 262z" />
    <glyph glyph-name="loop.05" unicode="&#xe3ff;" horiz-adv-x="0" 
d="M201 673h-91c0 237 -39 309 -167 309c-49 0 -66 -17 -66 -32c0 -17 24 -31 24 -65c0 -32 -25 -55 -55 -55c-35 0 -58 23 -58 55c0 49 56 101 154 101c165 0 259 -126 259 -313z" />
    <glyph glyph-name="loop.06" unicode="&#xe411;" horiz-adv-x="0" 
d="M110 1h91c0 -187 -94 -313 -259 -313c-98 0 -154 52 -154 101c0 32 23 55 58 55c30 0 55 -23 55 -55c0 -34 -24 -48 -24 -65c0 -15 17 -32 66 -32c128 0 167 72 167 309z" />
    <glyph glyph-name="loop.07" unicode="&#xe412;" horiz-adv-x="0" 
d="M-110 673h-91c0 187 94 313 259 313c98 0 154 -52 154 -101c0 -32 -23 -55 -58 -55c-30 0 -55 23 -55 55c0 34 24 48 24 65c0 15 -17 32 -66 32c-128 0 -167 -72 -167 -309z" />
    <glyph glyph-name="loop.08" unicode="&#xe413;" horiz-adv-x="0" 
d="M-201 1h91c0 -237 39 -309 167 -309c49 0 66 17 66 32c0 17 -24 31 -24 65c0 32 25 55 55 55c35 0 58 -23 58 -55c0 -49 -56 -101 -154 -101c-165 0 -259 126 -259 313z" />
    <glyph glyph-name="loop.09" unicode="&#xe414;" horiz-adv-x="310" 
d="M-49 670h-52v4h52c173 0 324 99 324 257c0 28 -11 75 -44 75c-23 0 -33 -24 -66 -24c-32 0 -55 24 -55 55c0 36 27 58 59 58c77 0 111 -88 111 -163c0 -201 -170 -262 -329 -262z" />
    <glyph glyph-name="loop.10" unicode="&#xe415;" horiz-adv-x="310" 
d="M-101 674h52c159 0 329 -61 329 -262c0 -75 -34 -163 -111 -163c-32 0 -59 22 -59 58c0 31 23 55 55 55c33 0 43 -24 66 -24c33 0 44 47 44 75c0 158 -151 257 -324 257h-52v4z" />
    <glyph glyph-name="loop.11" unicode="&#xe416;" horiz-adv-x="310" 
d="M-49 0h-52v4h52c173 0 324 99 324 257c0 28 -11 75 -44 75c-23 0 -33 -24 -66 -24c-32 0 -55 24 -55 55c0 36 27 58 59 58c77 0 111 -88 111 -163c0 -201 -170 -262 -329 -262z" />
    <glyph glyph-name="loop.12" unicode="&#xe417;" horiz-adv-x="310" 
d="M-101 4h52c159 0 329 -61 329 -262c0 -75 -34 -163 -111 -163c-32 0 -59 22 -59 58c0 31 23 55 55 55c33 0 43 -24 66 -24c33 0 44 47 44 75c0 158 -151 257 -324 257h-52v4z" />
    <glyph glyph-name="L.alt02" horiz-adv-x="341" 
d="M680 -312c-107 0 -203 98 -291 184c-95 93 -135 128 -198 128h-160v3l21 1c49 2 58 14 58 151v364c0 137 -9 149 -58 151l-21 1v3h249v-3l-21 -1c-49 -2 -58 -14 -58 -151v-513c208 -16 338 -244 528 -244c70 0 110 37 109 101h5c3 -83 -54 -175 -163 -175z" />
    <glyph glyph-name="N.alt02" horiz-adv-x="780" 
d="M661 434v-325c241 -292 347 -347 446 -347c70 0 110 37 109 101h5c3 -83 -54 -175 -163 -175c-130 0 -235 95 -411 304l-524 622v-374c0 -82 28 -232 104 -236l21 -1v-3h-217v3l11 1c55 5 77 82 77 236v279c0 137 -21 149 -70 151l-18 1v3h165l461 -559v319
c0 82 -28 232 -104 236l-21 1v3h217v-3l-11 -1c-55 -5 -77 -82 -77 -236z" />
    </font>
</defs>
</svg>
