<?xml version="1.0" standalone="no"?>
<!DOCTYPE svg PUBLIC "-//W3C//DTD SVG 1.1//EN" "http://www.w3.org/Graphics/SVG/1.1/DTD/svg11.dtd" >
<svg xmlns="http://www.w3.org/2000/svg" xmlns:xlink="http://www.w3.org/1999/xlink" version="1.1">
<metadata>
Created by FontForge 20170910 at Sun Jan 10 22:54:32 1993
 By Jimmy Wärting
Copyright 1990-1993 Bitstream Inc.  All rights reserved.
</metadata>
<defs>
<font id="AmericanaBT-ExtraBold" horiz-adv-x="1024" >
  <font-face 
    font-family="Americana XBd BT"
    font-weight="400"
    font-stretch="normal"
    units-per-em="2048"
    panose-1="2 2 8 4 7 7 6 2 3 4"
    ascent="1638"
    descent="-410"
    x-height="1067"
    cap-height="1335"
    bbox="-342 -483 2470 1909"
    underline-thickness="176"
    underline-position="-291"
    unicode-range="U+0020-F002"
  />
<missing-glyph horiz-adv-x="1229" 
d="M102 -362v1806h1024v-1806h-1024zM217 -248h795v1577h-795v-1577z" />
    <glyph glyph-name=".notdef" horiz-adv-x="1229" 
d="M102 -362v1806h1024v-1806h-1024zM217 -248h795v1577h-795v-1577z" />
    <glyph glyph-name=".null" horiz-adv-x="0" 
 />
    <glyph glyph-name="nonmarkingreturn" horiz-adv-x="682" 
 />
    <glyph glyph-name="space" unicode=" " horiz-adv-x="682" 
 />
    <glyph glyph-name="exclam" unicode="!" horiz-adv-x="682" 
d="M301 391v12q0 79 -15 166.5t-63 250.5q-3 9 -9 29q-52 164 -52 271q0 114 48 180t130 66q86 0 133 -68t47 -192q0 -96 -75 -341q-15 -49 -23 -75q-19 -62 -29 -135t-12 -163zM180 135q0 68 46 114t114 46q67 0 114.5 -46.5t47.5 -113.5t-48 -115.5t-114 -48.5
q-68 0 -114 47.5t-46 116.5z" />
    <glyph glyph-name="quotedbl" unicode="&#x22;" horiz-adv-x="707" 
d="M543 852h-41l-80 461q-2 12 -3 21t-1 16q0 53 28 83.5t76 30.5q49 0 77 -29.5t28 -80.5q0 -6 -1 -15t-3 -26zM203 852h-41l-80 461q-1 7 -1.5 14.5t-0.5 22.5q0 52 28 83t74 31q48 0 75.5 -29t27.5 -81q0 -16 -0.5 -24.5t-1.5 -16.5z" />
    <glyph glyph-name="numbersign" unicode="#" horiz-adv-x="1575" 
d="M705 852l-91 -252h265l88 252h-262zM711 1464h215l-148 -415h254l150 415h213l-148 -415h283l-74 -199h-278l-88 -248h292l-71 -196h-291l-148 -416h-215l148 416h-254l-150 -416h-215l148 416h-289l74 196h287l88 248h-304l74 199h299z" />
    <glyph glyph-name="dollar" unicode="$" horiz-adv-x="1366" 
d="M141 156l117 358l29 -4q32 -199 119 -301.5t225 -102.5q105 0 173 60.5t68 152.5q0 75 -47 116.5t-219 86.5q-238 63 -313.5 134.5t-75.5 205.5q0 145 116.5 245t313.5 122v178h96l1 -178q115 -8 212.5 -32.5t180.5 -66.5l-95 -294l-26 2q-42 154 -125 238.5t-193 84.5
q-84 0 -143 -55t-59 -133q0 -132 233 -184q46 -11 72 -17q221 -53 302 -127.5t81 -210.5q0 -159 -113 -260.5t-328 -134.5v-193h-96v193h-14q-143 0 -266 29t-226 88z" />
    <glyph glyph-name="percent" unicode="%" horiz-adv-x="1456" 
d="M1092 14q49 0 72.5 67.5t23.5 211.5q0 143 -23.5 210.5t-72.5 67.5q-50 0 -74.5 -64.5t-24.5 -193.5q0 -160 23 -229.5t76 -69.5zM780 293q0 143 88 236.5t222 93.5t222.5 -93.5t88.5 -234.5q0 -142 -89.5 -238t-219.5 -96q-132 0 -222 95t-90 237zM223 -39l860 1329h150
l-860 -1329h-150zM365 680q49 0 72.5 67.5t23.5 210.5q0 144 -23.5 211.5t-72.5 67.5t-73 -64t-24 -194q0 -163 22.5 -231t74.5 -68zM55 961q0 142 88 235.5t222 93.5t222.5 -93.5t88.5 -235.5q0 -141 -90 -236.5t-221 -95.5q-132 0 -221 95t-89 237z" />
    <glyph glyph-name="ampersand" unicode="&#x26;" horiz-adv-x="1464" 
d="M608 756q60 40 90.5 103.5t30.5 148.5q0 82 -39.5 136t-99.5 54q-58 0 -94.5 -44t-36.5 -114q0 -64 33 -128t116 -156zM901 117q-125 112 -236.5 224.5t-207.5 223.5q-28 -27 -42 -71.5t-14 -104.5q0 -133 95.5 -227t228.5 -94q55 0 99 12t77 37zM403 629
q-71 79 -106 156t-35 155q0 142 107.5 236t271.5 94q149 0 242.5 -74.5t93.5 -191.5q0 -103 -78 -177.5t-235 -121.5q70 -75 159 -159.5t219 -201.5q11 29 16 54t5 46q0 81 -50 128t-149 59v24h453q-3 -93 -46 -191t-126 -204q97 -87 191 -146.5t184 -90.5v-27q-15 0 -44 1
q-199 3 -282 3q-69 0 -101 -0.5t-56 -1.5l-72 68q-91 -53 -187 -79t-203 -26q-225 0 -358 91.5t-133 244.5q0 104 80.5 187.5t238.5 144.5z" />
    <glyph glyph-name="quotesingle" unicode="'" horiz-adv-x="365" 
d="M203 852h-41l-80 461q-2 12 -3 21t-1 16q0 53 28 83.5t76 30.5t75.5 -29t27.5 -81q0 -16 -0.5 -24.5t-1.5 -16.5z" />
    <glyph glyph-name="parenleft" unicode="(" horiz-adv-x="739" 
d="M479 -356q-204 215 -294.5 418t-90.5 444q0 240 92 445.5t293 414.5h53q-84 -136 -125.5 -349.5t-41.5 -510.5q0 -294 41 -505t126 -357h-53z" />
    <glyph glyph-name="parenright" unicode=")" horiz-adv-x="739" 
d="M262 -356h-55q85 146 126.5 357t41.5 505q0 297 -42 510.5t-126 349.5h55q200 -208 291.5 -413.5t91.5 -446.5q0 -242 -90 -445.5t-293 -416.5z" />
    <glyph glyph-name="asterisk" unicode="*" 
d="M467 1059l-90 268h266l-90 -270l229 168l82 -252l-282 2l227 -164l-215 -156l-82 269l-84 -269l-215 158l227 164l-280 -4l84 252z" />
    <glyph glyph-name="plus" unicode="+" horiz-adv-x="1706" 
d="M752 1221h202v-510h498v-199h-498v-512h-202v512h-498v199h498v510z" />
    <glyph glyph-name="comma" unicode="," horiz-adv-x="682" 
d="M225 -299l-35 31q42 63 63.5 124t22.5 119q-85 5 -126 42t-41 110q0 78 42.5 123t116.5 45q80 0 127 -58t47 -157q0 -87 -54.5 -182t-162.5 -197z" />
    <glyph glyph-name="hyphen" unicode="-" horiz-adv-x="713" 
d="M594 651l-64 -235h-411l63 235h412z" />
    <glyph glyph-name="period" unicode="." horiz-adv-x="682" 
d="M109 135q0 68 46 114t113 46t114.5 -46.5t47.5 -113.5t-47.5 -115.5t-114.5 -48.5t-113 47.5t-46 116.5z" />
    <glyph glyph-name="slash" unicode="/" horiz-adv-x="1223" 
d="M0 -190v20l1073 1536h150v-20l-1073 -1536h-150z" />
    <glyph glyph-name="zero" unicode="0" horiz-adv-x="1366" 
d="M682 29q137 0 203.5 139.5t66.5 427.5q0 336 -63.5 484.5t-206.5 148.5q-141 0 -204.5 -142t-63.5 -458q0 -315 64 -457.5t204 -142.5zM61 629q0 148 48.5 272t144.5 219q83 84 191 126t237 42q130 0 236.5 -42.5t191.5 -129.5q96 -96 145.5 -219t49.5 -266
q0 -144 -49 -264.5t-148 -223.5q-82 -85 -192 -130.5t-234 -45.5t-236 46t-196 132q-92 93 -140.5 217.5t-48.5 266.5z" />
    <glyph glyph-name="one" unicode="1" horiz-adv-x="1366" 
d="M532 975q0 146 -30 180t-119 39v25q113 10 231 28t240 43q-4 -54 -6 -155t-2 -269v-428q0 -267 37 -335.5t141 -84.5v-24q-67 3 -140.5 4.5t-201.5 1.5q-114 0 -183.5 -1.5t-135.5 -4.5l-1 24q99 22 134.5 85t35.5 274v100v498z" />
    <glyph glyph-name="two" unicode="2" horiz-adv-x="1366" 
d="M82 0q35 150 117 260.5t215 190.5q35 21 100 57q144 82 182 123q51 52 75 115.5t24 148.5q0 162 -60.5 245t-179.5 83q-129 0 -209.5 -96.5t-116.5 -295.5l-24 -4l-94 351q117 56 236 84t239 28q256 0 414.5 -112t158.5 -289q0 -98 -50 -172.5t-159 -136.5
q-57 -34 -202 -78t-211 -70q-94 -35 -140.5 -75t-56.5 -93h471q128 0 213.5 39t153.5 127l22 -4l-123 -432q-56 3 -134.5 4.5t-180.5 1.5h-680z" />
    <glyph glyph-name="three" unicode="3" horiz-adv-x="1366" 
d="M420 725q40 -6 70.5 -9t52.5 -3q135 0 205.5 68t70.5 198q0 116 -64 181t-180 65q-126 0 -207.5 -88t-113.5 -258h-27l-86 317q119 47 242.5 70.5t253.5 23.5q242 0 384 -81.5t142 -217.5q0 -119 -114 -199t-320 -104q248 -15 379 -101t131 -233q0 -177 -172 -283
t-465 -106q-151 0 -286.5 32.5t-260.5 98.5l119 353h27q26 -204 123 -312t254 -108q140 0 219.5 84.5t79.5 234.5q0 147 -82.5 225t-237.5 78q-25 0 -57 -3t-80 -11v88z" />
    <glyph glyph-name="four" unicode="4" horiz-adv-x="1366" 
d="M445 -6l-1 24q104 21 143.5 77.5t39.5 191.5v45h-600l36 100l832 901l22 -6q-1 -34 -1.5 -92.5t-0.5 -224.5l3 -547h20q124 0 207.5 41t144.5 133l21 -6l-105 -313q-49 7 -106 10.5t-123 3.5h-49q-1 -12 -1.5 -25t-0.5 -39q0 -124 39 -179.5t135 -70.5l-1 -24
q-61 3 -129.5 4.5t-189.5 1.5q-118 0 -192 -1.5t-143 -4.5zM633 463l6 485l-444 -485h438z" />
    <glyph glyph-name="five" unicode="5" horiz-adv-x="1366" 
d="M45 92l123 357h25q18 -197 122 -308.5t267 -111.5q141 0 226 86.5t85 230.5q0 154 -93 239t-261 85q-74 0 -161.5 -19.5t-195.5 -58.5l-18 8l53 655h750q85 0 131.5 12.5t70.5 39.5l23 -2l-105 -291h-659q-158 0 -180 -272q-3 -39 -4 -60q102 28 196 41.5t183 13.5
q290 0 458 -98.5t168 -267.5q0 -186 -166 -295t-452 -109q-169 0 -316 31.5t-270 93.5z" />
    <glyph glyph-name="six" unicode="6" horiz-adv-x="1366" 
d="M1243 1174l-100 -289h-25q-40 170 -126 257t-214 87q-172 0 -259 -142.5t-87 -424.5v-21q51 98 142.5 147.5t222.5 49.5q213 0 351 -117.5t138 -298.5q0 -198 -158 -326.5t-407 -128.5q-292 0 -462.5 171.5t-170.5 465.5q0 312 186.5 499t499.5 187q125 0 243 -29
t226 -87zM453 393q0 -166 67.5 -265t179.5 -99q122 0 183 95t61 286q0 163 -64.5 254.5t-179.5 91.5q-113 0 -180 -97.5t-67 -265.5z" />
    <glyph glyph-name="seven" unicode="7" horiz-adv-x="1366" 
d="M735 -6q-52 3 -105.5 4.5t-105.5 1.5t-105.5 -1.5t-106.5 -4.5q4 166 72 308t216 292q90 91 258 222.5t193 193.5h-609q-141 0 -220 -30.5t-122 -98.5l-20 6l127 375q58 -1 141 -4t107 -3h829q-21 -108 -208 -334q-41 -49 -62 -75q-155 -193 -220 -361.5t-65 -367.5
q0 -29 1.5 -59.5t4.5 -63.5z" />
    <glyph glyph-name="eight" unicode="8" horiz-adv-x="1366" 
d="M565 573q-85 -52 -129.5 -122.5t-44.5 -155.5q0 -120 80.5 -193t212.5 -73q112 0 183 65.5t71 167.5q0 107 -81 176t-292 135zM743 768q72 45 108 108.5t36 145.5q0 88 -62.5 147.5t-156.5 59.5q-98 0 -157.5 -54t-59.5 -141q0 -88 70.5 -152.5t221.5 -113.5zM831 727
q229 -59 333 -146.5t104 -220.5q0 -177 -167 -285t-448 -108q-262 0 -423.5 95.5t-161.5 244.5q0 126 104 206.5t305 111.5q-157 53 -238 136t-81 191q0 150 141.5 244t374.5 94q235 0 370.5 -78t135.5 -211q0 -104 -91 -176t-258 -98z" />
    <glyph glyph-name="nine" unicode="9" horiz-adv-x="1366" 
d="M117 88l104 295h25q45 -183 127.5 -268.5t212.5 -85.5q172 0 259 142.5t87 424.5v20q-51 -98 -141.5 -147t-221.5 -49q-213 0 -352 118.5t-139 299.5q0 198 158 325t407 127q292 0 462.5 -171.5t170.5 -465.5q0 -312 -186.5 -499t-499.5 -187q-128 0 -247 30.5t-226 90.5
zM911 864q0 167 -68 267t-179 100q-116 0 -180 -94.5t-64 -266.5q0 -179 62.5 -273.5t181.5 -94.5q113 0 180 97.5t67 264.5z" />
    <glyph glyph-name="colon" unicode=":" horiz-adv-x="682" 
d="M127 135q0 67 47 113.5t115 46.5q66 0 113 -46.5t47 -113.5t-47 -115.5t-113 -48.5q-68 0 -115 47.5t-47 116.5zM127 844q0 67 47 114.5t115 47.5q66 0 113 -47.5t47 -114.5q0 -68 -47 -115t-113 -47q-68 0 -115 46.5t-47 115.5z" />
    <glyph glyph-name="semicolon" unicode=";" horiz-adv-x="682" 
d="M244 -299l-35 31q43 65 64.5 125t23.5 118q-86 5 -128 42.5t-42 109.5q0 78 43.5 123t118.5 45q79 0 125.5 -57.5t46.5 -157.5q0 -87 -54.5 -182t-162.5 -197zM127 844q0 67 47 114.5t115 47.5q66 0 113 -47.5t47 -114.5q0 -68 -47 -115t-113 -47q-68 0 -115 46.5
t-47 115.5z" />
    <glyph glyph-name="less" unicode="&#x3c;" horiz-adv-x="1706" 
d="M1442 1194v-219l-893 -365l893 -364v-219l-1178 485v199z" />
    <glyph glyph-name="equal" unicode="=" horiz-adv-x="1706" 
d="M254 496h1198v-199h-1198v199zM254 926h1198v-199h-1198v199z" />
    <glyph glyph-name="greater" unicode="&#x3e;" horiz-adv-x="1706" 
d="M264 1194l1178 -483v-199l-1178 -485v219l895 364l-895 365v219z" />
    <glyph glyph-name="question" unicode="?" horiz-adv-x="1157" 
d="M403 125q0 68 46.5 114t113.5 46t113.5 -46.5t46.5 -113.5q0 -68 -47 -116t-113 -48q-67 0 -113.5 47.5t-46.5 116.5zM539 383q2 70 27 128t102 146q89 104 120 179t31 168q0 133 -70.5 218t-181.5 85q-125 0 -211 -95.5t-139 -291.5h-33l-92 346q126 49 244.5 74.5
t226.5 25.5q246 0 398.5 -106t152.5 -271q0 -86 -38 -159.5t-109 -124.5q-65 -49 -156.5 -96.5t-103.5 -55.5q-63 -41 -86.5 -78t-27.5 -92h-54z" />
    <glyph glyph-name="at" unicode="@" horiz-adv-x="2019" 
d="M1176 319q-62 -100 -134.5 -148t-160.5 -48q-142 0 -222.5 91t-80.5 251q0 114 50 221.5t144 196.5q69 64 148 97.5t161 33.5q96 0 150.5 -45t71.5 -138l49 164h190l-174 -618l-2 -7q-14 -58 -14 -87q0 -47 20.5 -74t54.5 -27q33 0 85 25t98 63q103 88 158 217t55 285
q0 275 -188.5 446t-489.5 171q-138 0 -262 -38t-228 -112q-173 -121 -266.5 -308.5t-93.5 -416.5q0 -335 210.5 -532t565.5 -197q166 0 319.5 50.5t307.5 156.5l39 -51q-151 -113 -318 -169.5t-348 -56.5q-187 0 -347.5 46t-277.5 133q-151 112 -232 277.5t-81 363.5
q0 155 52 298.5t153 264.5q145 174 346.5 267t435.5 93q349 0 558.5 -189t209.5 -503q0 -161 -59 -299.5t-170 -239.5q-59 -53 -126.5 -80.5t-137.5 -27.5q-98 0 -155 52t-64 148zM1118 948q-62 0 -112.5 -44.5t-100.5 -143.5q-57 -114 -87 -215t-30 -183q0 -79 34.5 -125.5
t92.5 -46.5q64 0 124.5 62t115.5 182q40 92 63 185.5t23 162.5q0 80 -32 123t-91 43z" />
    <glyph glyph-name="A" unicode="A" horiz-adv-x="1593" 
d="M831 590l-174 368l-174 -368h348zM-14 -6v24q72 30 151 134t185 311l460 903h17l479 -893q151 -281 214.5 -364t115.5 -91l-1 -24q-56 3 -117.5 4.5t-164.5 1.5q-128 0 -213 -1.5t-167 -4.5l-1 24q50 7 71 26t21 58q0 35 -25.5 105.5t-76.5 173.5l-70 141h-413l-33 -69
q-52 -107 -76.5 -178t-24.5 -115q0 -60 39 -97t109 -45l-1 -24q-51 3 -105.5 4.5t-139.5 1.5q-86 0 -136.5 -1.5t-96.5 -4.5z" />
    <glyph glyph-name="B" unicode="B" horiz-adv-x="1546" 
d="M508 745q11 0 33 -1q62 -3 82 -3q191 0 279.5 65t88.5 206q0 130 -88.5 190t-281.5 60q-15 0 -42.5 -1.5t-70.5 -5.5v-510zM508 669v-253q0 -246 43.5 -298t183.5 -52q176 0 264 74.5t88 224.5q0 168 -92.5 239.5t-314.5 71.5q-26 0 -69 -1.5t-103 -5.5zM29 0v16
q81 20 111 89.5t30 334.5v23v676q0 81 -27.5 119.5t-91.5 48.5l1 22q50 -1 103.5 -1.5t143.5 -0.5q93 0 229.5 2t182.5 2q332 0 487.5 -73t155.5 -230q0 -128 -111 -204.5t-332 -100.5q278 -15 418.5 -103.5t140.5 -246.5q0 -189 -171.5 -281t-522.5 -92h-448h-299z" />
    <glyph glyph-name="C" unicode="C" horiz-adv-x="1532" 
d="M1481 145q-131 -93 -283 -138.5t-334 -45.5q-158 0 -298 46.5t-247 133.5q-123 101 -182 230.5t-59 300.5q0 311 222.5 502.5t586.5 191.5q151 0 289 -38t264 -114l-99 -321l-28 4q-31 196 -132 296.5t-268 100.5q-206 0 -324 -162t-118 -450q0 -308 117.5 -478.5
t329.5 -170.5q177 0 279.5 112t141.5 349l29 2z" />
    <glyph glyph-name="D" unicode="D" horiz-adv-x="1622" 
d="M512 1251v-782q0 -132 4 -207t12 -110q13 -51 53 -71t142 -20q204 0 316 160t112 451q0 305 -111.5 447.5t-351.5 142.5q-38 0 -81.5 -2.5t-94.5 -8.5zM27 0v16q82 19 112.5 90.5t30.5 356.5v676q0 81 -27.5 119.5t-91.5 48.5l1 22q49 -1 102 -1.5t147 -0.5q84 0 203 2
t153 2q225 0 367 -32t250 -103q132 -88 200 -215t68 -287q0 -134 -44.5 -256t-125.5 -209q-116 -124 -267.5 -176.5t-414.5 -52.5h-379h-284z" />
    <glyph glyph-name="E" unicode="E" horiz-adv-x="1430" 
d="M25 -6v26q84 18 114.5 93.5t30.5 349.5v680q0 70 -27.5 106.5t-93.5 53.5v28h12q213 -4 318 -4h848l114 -342l-30 -8q-127 143 -290.5 211.5t-379.5 68.5q-50 0 -74 -0.5t-45 -3.5v-512q34 -2 66 -3t65 -1q180 0 297 58.5t150 162.5h28v-509h-28q-35 109 -150 166
t-301 57q-51 0 -77.5 -1t-49.5 -3v-185q0 -279 45.5 -345t192.5 -66q183 0 341 92t300 280l35 -12l-131 -432h-844q-22 0 -68 1t-69 1q-81 0 -155 -2t-144 -6z" />
    <glyph glyph-name="F" unicode="F" horiz-adv-x="1329" 
d="M524 463q0 -266 31 -344.5t117 -98.5l-1 -26q-65 3 -136 4.5t-191 1.5q-115 0 -182.5 -1.5t-128.5 -4.5v26q85 18 116 95.5t31 347.5v680q0 70 -27.5 106.5t-93.5 53.5v28h12q213 -4 318 -4h846l115 -342l-29 -8q-129 145 -292 212.5t-386 67.5q-46 0 -71 -0.5t-48 -3.5
v-512q40 -2 73 -3t67 -1q178 0 295.5 58.5t150.5 162.5h29v-516h-29q-35 115 -150.5 172.5t-312.5 57.5q-30 0 -105 -4h-18v-205z" />
    <glyph glyph-name="G" unicode="G" horiz-adv-x="1616" 
d="M1606 682v-27q-80 -20 -108 -52t-28 -103v-226q0 -30 2 -62.5t4 -66.5q-114 -93 -261.5 -139.5t-331.5 -46.5q-366 0 -586.5 194t-220.5 515q0 313 225.5 505.5t595.5 192.5q161 0 313.5 -41.5t282.5 -120.5l-121 -332l-29 7q-33 212 -137 315.5t-282 103.5
q-231 0 -345 -158t-114 -476q0 -327 98 -483t303 -156q148 0 206 73t58 273q0 173 -47.5 222.5t-191.5 61.5v27q86 -4 174.5 -6t179.5 -2q80 0 170.5 2t190.5 6z" />
    <glyph glyph-name="H" unicode="H" horiz-adv-x="1612" 
d="M512 744q27 -3 67 -4t144 -1h166q49 0 101 1t110 3v404q0 70 -29 108t-92 52v28q71 -4 143.5 -6t147.5 -2t147.5 2t147.5 6v-28q-64 -11 -93.5 -49t-29.5 -111v-684q0 -263 31 -343.5t116 -99.5v-26q-65 3 -135 4.5t-184 1.5t-182.5 -1.5t-132.5 -4.5l-1 26
q84 17 115 92.5t31 350.5v201q-33 2 -75 3t-136 1h-166q-94 0 -136 -1t-75 -3v-201q0 -269 31 -345.5t116 -97.5v-26q-66 3 -137.5 4.5t-189.5 1.5q-113 0 -179.5 -1.5t-127.5 -4.5v26q84 18 114.5 93.5t30.5 349.5v684q0 70 -27.5 106.5t-93.5 53.5v28q69 -4 139 -6t144 -2
q79 0 154 2t149 6v-28q-65 -12 -94 -50t-29 -110v-403z" />
    <glyph glyph-name="I" unicode="I" horiz-adv-x="721" 
d="M535 463q0 -266 32 -344t121 -99v-26q-68 3 -142 4.5t-196 1.5q-116 0 -185 -1.5t-132 -4.5v26q88 19 119.5 94t31.5 349v684q0 70 -28.5 106.5t-96.5 53.5v28q70 -4 142.5 -6t148.5 -2q80 0 157 2t155 6v-28q-68 -14 -97.5 -51.5t-29.5 -108.5v-684z" />
    <glyph glyph-name="J" unicode="J" horiz-adv-x="995" 
d="M-20 18l118 416l29 -2q23 -201 73.5 -301t129.5 -100q84 0 115.5 104t31.5 471v512q0 86 -32 129t-107 60v28q17 0 52 -2q172 -6 245 -6q77 0 271 7q30 1 44 1v-28q-72 -15 -101.5 -53t-29.5 -121v-416q0 -20 1 -76.5t1 -91.5q0 -296 -120.5 -441t-368.5 -145
q-108 0 -197.5 14t-154.5 41z" />
    <glyph glyph-name="K" unicode="K" horiz-adv-x="1450" 
d="M29 -6v26q85 18 116 95.5t31 347.5v684q0 69 -28.5 106t-94.5 54v28q69 -4 139 -6t144 -2q79 0 154 2t149 6v-28q-65 -12 -94 -50t-29 -110v-414l320 285q58 51 92.5 104t34.5 90q0 42 -27 67t-76 30v26q84 -5 146 -7.5t110 -2.5q53 0 122.5 2.5t168.5 7.5v-24
q-82 -24 -172.5 -81t-255.5 -198l-344 -291q171 0 285.5 -59.5t212.5 -202.5q38 -57 104 -168q139 -237 236 -291l-1 -22q-41 1 -91 1.5t-150 0.5t-151 -0.5t-94 -1.5q-50 75 -215 459q-9 20 -13 30q-43 97 -81.5 140t-82.5 43q-42 0 -60 -30.5t-18 -102.5v-74
q0 -264 31.5 -343t118.5 -100l-1 -26q-66 3 -138 4.5t-191 1.5q-112 0 -178.5 -1.5t-128.5 -4.5z" />
    <glyph glyph-name="L" unicode="L" horiz-adv-x="1386" 
d="M25 -6v26q84 18 114.5 93.5t30.5 349.5v684q0 70 -27.5 106.5t-93.5 53.5v28q67 -4 138 -6t147 -2q80 0 155 2t150 6v-28q-65 -12 -94 -50t-29 -110v-664q0 -280 47.5 -345.5t194.5 -65.5q177 0 334 96.5t290 288.5l29 -11l-131 -446h-819q-22 0 -68 1t-69 1
q-81 0 -155 -2t-144 -6z" />
    <glyph glyph-name="M" unicode="M" horiz-adv-x="1778" 
d="M254 604q0 -296 48 -418t169 -166v-26q-75 3 -135 4.5t-107 1.5q-58 0 -122 -1.5t-133 -4.5l-1 24q111 47 158 179t47 407v404q0 161 -30 216t-109 81v26q103 -2 162.5 -3t109.5 -1q33 0 98.5 1t98.5 1q111 -228 217.5 -429.5t214.5 -387.5l322 819q75 -2 113.5 -3
t70.5 -1q49 0 107.5 1.5t174.5 6.5l1 -28q-65 -11 -94 -49t-29 -111v-684q0 -263 31 -343.5t116 -99.5v-26q-65 3 -135.5 4.5t-185.5 1.5q-113 0 -181 -1.5t-132 -4.5l-1 26q82 17 113 88t31 355v672l-459 -1174h-17q-120 273 -252.5 561t-279.5 594v-512z" />
    <glyph glyph-name="N" unicode="N" horiz-adv-x="1550" 
d="M256 604q0 -296 48 -418t169 -166v-26q-75 3 -135 4.5t-107 1.5q-57 0 -120.5 -1.5t-132.5 -4.5l-1 24q110 47 156.5 178t46.5 408v404q0 161 -30 216t-109 81v26q103 -2 162.5 -3t109.5 -1q33 0 98.5 1t98.5 1q149 -166 333 -355.5t462 -461.5v211q0 325 -46.5 432.5
t-168.5 151.5v26q72 -3 132 -4.5t107 -1.5q58 0 122.5 1.5t135.5 4.5v-24q-117 -54 -162 -156t-45 -430v-748l-45 -14q-276 298 -545.5 581.5t-533.5 555.5v-494z" />
    <glyph glyph-name="O" unicode="O" horiz-adv-x="1698" 
d="M848 29q195 0 290 157t95 480t-94.5 478.5t-290.5 155.5q-197 0 -290 -154t-93 -480q0 -327 93.5 -482t289.5 -155zM76 668q0 155 60.5 285.5t178.5 232.5q105 89 239.5 134.5t291.5 45.5q165 0 296.5 -45t237.5 -137q121 -105 181.5 -234.5t60.5 -281.5
q0 -151 -61.5 -281.5t-184.5 -239.5q-101 -90 -236.5 -138t-289.5 -48q-157 0 -296.5 49.5t-244.5 141.5q-112 100 -172.5 233.5t-60.5 282.5z" />
    <glyph glyph-name="P" unicode="P" horiz-adv-x="1395" 
d="M52 1329q82 -1 169 -1.5t234 -0.5h143q217 0 331 -11.5t199 -37.5q124 -38 193.5 -116.5t69.5 -180.5q0 -166 -190 -264.5t-517 -98.5q-31 1 -72.5 2.5t-95.5 3.5v-161q0 -262 31.5 -342.5t118.5 -100.5l-1 -26q-65 3 -136 4.5t-191 1.5q-115 0 -182.5 -1.5t-128.5 -4.5
v26q84 18 114.5 93.5t30.5 349.5v680q0 70 -27.5 106.5t-93.5 53.5zM516 702q30 -6 59.5 -9t61.5 -3q176 0 270 75.5t94 215.5t-98 208t-299 68q-21 0 -71 -3q-10 0 -17 -1v-551z" />
    <glyph glyph-name="Q" unicode="Q" horiz-adv-x="1698" 
d="M436 -233l-30 71q67 43 153.5 75.5t194.5 55.5q-314 42 -496 230.5t-182 468.5q0 155 60.5 285.5t178.5 232.5q105 89 239.5 134.5t291.5 45.5q165 0 296.5 -45t237.5 -137q121 -105 181.5 -234.5t60.5 -281.5q0 -179 -86 -331t-244 -249q-97 -61 -199.5 -91t-213.5 -30
q86 -13 187.5 -45t244.5 -92q11 -5 32 -14q136 -60 195 -60q17 0 34 3t34 10l2 -23q-132 -77 -253 -121.5t-227 -54.5q-38 6 -104.5 39.5t-171.5 99.5q-23 14 -64 41q-133 88 -198 88q-34 0 -68.5 -16t-85.5 -55zM848 29q195 0 290 157t95 480t-94.5 478.5t-290.5 155.5
q-197 0 -290 -154t-93 -480q0 -327 93.5 -482t289.5 -155z" />
    <glyph glyph-name="R" unicode="R" horiz-adv-x="1540" 
d="M510 741q18 0 51 -1q71 -3 94 -3q169 0 262 69.5t93 194.5q0 129 -92.5 194t-276.5 65q-46 0 -74.5 -0.5t-56.5 -2.5v-516zM512 463q0 -266 31 -344.5t116 -98.5v-26q-65 3 -136 4.5t-189 1.5q-113 0 -179.5 -1.5t-127.5 -4.5v26q84 18 114.5 93.5t30.5 349.5v680
q0 70 -27.5 106.5t-93.5 53.5v28q76 -2 150 -3t180 -1h215q450 0 620 -73t170 -250q0 -137 -134 -220t-369 -92q165 -13 263.5 -83.5t160.5 -221.5q8 -21 25 -61q102 -255 224 -303v-27q-104 2 -211.5 3t-283.5 1q-45 81 -94.5 256t-94.5 250q-51 86 -126.5 126t-188.5 40
q-7 0 -22.5 -1t-22.5 -1v-207z" />
    <glyph glyph-name="S" unicode="S" horiz-adv-x="1395" 
d="M33 92l112 381h25q38 -215 160.5 -328.5t314.5 -113.5q159 0 249.5 72.5t90.5 199.5q0 90 -64.5 138t-295.5 94q-193 38 -271.5 68.5t-128.5 74.5q-56 50 -86 118t-30 144q0 191 168 308.5t446 117.5q139 0 273 -27.5t251 -81.5l-94 -325h-27q-43 180 -141.5 270
t-253.5 90q-135 0 -220 -65t-85 -166q0 -41 17.5 -76t52.5 -63q53 -43 263 -79q84 -15 130 -24q214 -42 316 -136.5t102 -250.5q0 -208 -179.5 -340.5t-468.5 -132.5q-178 0 -338 34t-288 99z" />
    <glyph glyph-name="T" unicode="T" horiz-adv-x="1475" 
d="M2 956l94 371h1284l90 -371l-22 -8q-109 147 -225.5 229.5t-210.5 82.5q-60 0 -81.5 -35t-21.5 -193v-569q0 -269 31.5 -345.5t120.5 -97.5l-1 -26q-68 3 -140.5 4.5t-192.5 1.5q-113 0 -181 -1.5t-132 -4.5v26q86 19 117.5 92.5t31.5 350.5v569q0 158 -21.5 193
t-80.5 35q-95 0 -211 -82.5t-225 -229.5z" />
    <glyph glyph-name="U" unicode="U" horiz-adv-x="1538" 
d="M506 702q0 -177 9.5 -287.5t29.5 -158.5q40 -102 125.5 -153.5t214.5 -51.5q205 0 312.5 121.5t107.5 353.5v197q0 332 -48 436.5t-176 147.5l1 26q79 -3 139.5 -4.5t105.5 -1.5q58 0 128.5 1.5t149.5 4.5l1 -24q-129 -43 -177.5 -147.5t-48.5 -438.5v-186
q0 -295 -147 -435.5t-455 -140.5q-169 0 -289.5 35t-199.5 106q-72 66 -102.5 162t-30.5 279q0 73 3 173.5t3 129.5v301q0 69 -28.5 106t-94.5 54v28q67 -4 138 -6t147 -2q80 0 155 2t150 6v-28q-65 -12 -94 -50t-29 -110v-445z" />
    <glyph glyph-name="V" unicode="V" horiz-adv-x="1552" 
d="M-14 1309v24q75 -4 150.5 -6t152.5 -2q81 0 160 2t157 6v-24q-49 -8 -71.5 -29t-22.5 -59q0 -23 19.5 -67.5t70.5 -135.5l330 -586l203 434q45 99 68.5 173t23.5 120q0 66 -35.5 105.5t-97.5 44.5v24q67 -3 127 -4.5t116 -1.5q53 0 110.5 1.5t118.5 4.5l1 -24
q-71 -21 -159.5 -143t-209.5 -365l-418 -840h-18l-483 948q-122 240 -180.5 315.5t-112.5 84.5z" />
    <glyph glyph-name="W" unicode="W" horiz-adv-x="2077" 
d="M227 909q-12 28 -34 80q-131 300 -201 320v24q71 -3 136.5 -4.5t125.5 -1.5q69 0 147 1.5t164 4.5v-24q-48 -7 -73 -32.5t-25 -68.5q0 -28 16 -76t47 -114l258 -539l347 887h20l430 -893l135 387q33 93 50.5 168t17.5 123q0 68 -39 110.5t-104 47.5v24q74 -3 137 -4.5
t110 -1.5q37 0 82.5 1.5t101.5 4.5l1 -24q-55 -20 -127.5 -147t-161.5 -361l-322 -840h-20l-420 928l-364 -928h-21z" />
    <glyph glyph-name="X" unicode="X" horiz-adv-x="1507" 
d="M-10 -6v24q108 50 265 198t353 386l-262 406q-97 149 -158 212.5t-125 88.5v26q83 -4 162 -6t152 -2q80 0 170 2t186 6v-26q-54 -11 -80 -34t-26 -58q0 -27 14.5 -63t42.5 -77l145 -213q107 129 152 205t45 125q0 44 -29 72.5t-88 42.5v26q68 -4 132 -6t122 -2
q63 0 134.5 2t150.5 6v-26q-99 -29 -232 -146t-344 -362l269 -391q126 -184 210 -270.5t165 -121.5l-1 -24q-103 3 -196 4.5t-176 1.5q-88 0 -187.5 -1.5t-209.5 -4.5l-1 24q55 17 84 46.5t29 68.5q0 41 -29 109t-79 143l-99 147l-11 -14q-216 -283 -216 -373q0 -46 32 -78
t95 -49v-24q-85 3 -160.5 4.5t-142.5 1.5q-59 0 -124 -1.5t-134 -4.5z" />
    <glyph glyph-name="Y" unicode="Y" horiz-adv-x="1462" 
d="M420 14q83 18 113 97t30 354v129l-301 446q-97 146 -160 207t-114 64v22q79 -3 154 -4.5t147 -1.5q85 0 163.5 2t155.5 6v-24q-36 -6 -52.5 -24t-16.5 -52q0 -25 13 -56t38 -65l282 -391l185 289q43 66 64.5 115t21.5 81q0 46 -33 73t-92 30v24q60 -4 118.5 -6t116.5 -2
q57 0 112 2t110 6l-1 -24q-64 -12 -152 -99.5t-194 -244.5l-233 -344v-156q0 -274 30.5 -353t112.5 -98v-22q-107 3 -185.5 4.5t-129.5 1.5q-69 0 -145.5 -1.5t-157.5 -4.5v20z" />
    <glyph glyph-name="Z" unicode="Z" horiz-adv-x="1294" 
d="M8 0v18l63 89q730 1025 730 1097q0 22 -32.5 36.5t-82.5 14.5q-188 0 -337.5 -76.5t-280.5 -240.5l-29 8l121 381h1104v-16q-315 -478 -510 -803.5t-195 -368.5q0 -34 27 -50.5t82 -16.5q151 0 291 87t333 308l27 -12l-152 -455h-1159z" />
    <glyph glyph-name="bracketleft" unicode="[" horiz-adv-x="739" 
d="M444 1057v-1104q0 -163 37.5 -209.5t147.5 -56.5v-43q-242 0 -341.5 67.5t-99.5 231.5v1124q0 164 99.5 231.5t341.5 67.5v-43q-110 -11 -147.5 -57.5t-37.5 -208.5z" />
    <glyph glyph-name="backslash" unicode="\" horiz-adv-x="1223" 
d="M0 1366h150l1073 -1536v-20h-150l-1073 1536v20z" />
    <glyph glyph-name="bracketright" unicode="]" horiz-adv-x="739" 
d="M111 -356v43q109 10 146.5 56.5t37.5 209.5v1104q0 162 -37.5 208.5t-146.5 57.5v43q241 0 340.5 -67.5t99.5 -231.5v-1124q0 -164 -99.5 -231.5t-340.5 -67.5z" />
    <glyph glyph-name="asciicircum" unicode="^" horiz-adv-x="2048" 
d="M905 1462h236l491 -565h-112l-498 373l-498 -373h-112z" />
    <glyph glyph-name="underscore" unicode="_" 
d="M0 -279h1024v-204h-1024v204z" />
    <glyph glyph-name="grave" unicode="`" 
d="M707 1206h-91l-313 164q-56 30 -75 53t-19 56q0 40 25 65t65 25q31 0 63 -19t72 -61z" />
    <glyph glyph-name="a" unicode="a" horiz-adv-x="1233" 
d="M784 596q-8 1 -18 1.5t-29 0.5q-164 0 -252 -76t-88 -219q0 -109 46.5 -174.5t123.5 -65.5q114 0 165.5 110t51.5 359v64zM1223 31l-1 -35q-103 2 -155 3t-96 1h-90q-25 39 -42.5 80.5t-29.5 87.5q-58 -102 -138.5 -148.5t-199.5 -46.5q-187 0 -304.5 92t-117.5 234
q0 169 182 257.5t553 100.5v9q0 179 -62 272.5t-181 93.5q-120 0 -195 -82t-123 -266h-28l-95 305q113 54 233 80.5t249 26.5q143 0 250 -35t167 -103q49 -51 68.5 -121.5t19.5 -254.5v-95q0 -263 29.5 -351t106.5 -105z" />
    <glyph glyph-name="b" unicode="b" horiz-adv-x="1366" 
d="M979 530q0 231 -71 354.5t-201 123.5q-132 0 -201.5 -122.5t-69.5 -355.5q0 -234 68.5 -357.5t197.5 -123.5q136 0 206.5 123t70.5 358zM418 158q-11 -37 -28 -75t-42 -83h-74q-97 0 -151 -1t-105 -3v22q73 17 101 107t28 352v709q0 138 -22.5 171.5t-85.5 37.5v22
q97 13 197.5 32t207.5 44q-4 -101 -6 -195t-2 -180v-188q68 81 154 121.5t192 40.5q226 0 377.5 -163t151.5 -405q0 -247 -150.5 -400t-390.5 -153q-119 0 -204.5 45.5t-147.5 141.5z" />
    <glyph glyph-name="c" unicode="c" horiz-adv-x="1194" 
d="M1124 975l-98 -309h-25q-15 181 -89 275.5t-201 94.5q-153 0 -237.5 -129.5t-84.5 -365.5q0 -226 96 -358t258 -132q107 0 189.5 68.5t134.5 199.5l57 -45q-63 -155 -175 -230t-279 -75q-268 0 -434 155.5t-166 403.5q0 257 164 412.5t436 155.5q120 0 234 -30.5
t220 -90.5z" />
    <glyph glyph-name="d" unicode="d" horiz-adv-x="1366" 
d="M659 1008q-131 0 -202.5 -124t-71.5 -354q0 -234 71.5 -357.5t207.5 -123.5q129 0 197.5 123.5t68.5 357.5q0 233 -69.5 355.5t-201.5 122.5zM948 158q-62 -96 -147.5 -141.5t-204.5 -45.5q-240 0 -390.5 153t-150.5 400q0 242 151.5 405t377.5 163q106 0 192 -40.5
t154 -121.5v256q0 137 -22.5 170.5t-84.5 38.5v22q115 17 215 35.5t189 40.5q-4 -101 -6 -195t-2 -180v-641q0 -262 28 -352t101 -107v-22q-33 2 -70 3t-109 1q-66 0 -97 -1t-56 -3q-21 37 -38 77.5t-30 84.5z" />
    <glyph glyph-name="e" unicode="e" horiz-adv-x="1262" 
d="M829 735q-4 138 -57 217.5t-139 79.5t-144 -77.5t-77 -219.5h417zM1178 662h-768l-1 -7q-3 -62 -3 -92q0 -231 93.5 -361t258.5 -130q138 0 235 95.5t146 281.5l55 -50q-63 -213 -198.5 -319.5t-344.5 -106.5q-260 0 -422.5 157.5t-162.5 408.5q0 245 160.5 401
t414.5 156q228 0 368 -113t169 -321z" />
    <glyph glyph-name="f" unicode="f" horiz-adv-x="711" 
d="M461 477v-67q0 -234 28 -303.5t103 -90.5l-1 -22q-49 3 -108.5 4.5t-173.5 1.5q-102 0 -161 -1.5t-113 -4.5v22q73 23 101 89t28 270v102v471h-168l2 10l41 84h129q8 232 118.5 341.5t336.5 109.5q44 0 87 -4.5t84 -13.5l-108 -287h-24q-38 148 -61.5 185.5t-59.5 37.5
q-45 0 -62.5 -47t-17.5 -182v-140h205v-12l-37 -82h-168v-471z" />
    <glyph glyph-name="g" unicode="g" horiz-adv-x="1262" 
d="M1225 1237l-92 -285h-19q-16 69 -55 108.5t-92 39.5q-31 0 -92 -46l-4 -3q134 -66 195.5 -145.5t61.5 -186.5q0 -130 -91.5 -226t-245.5 -126q-70 -14 -168 -20q-109 -8 -109 -46q0 -44 170 -63q91 -10 150 -19q211 -31 299 -94.5t88 -183.5q0 -159 -171 -251.5
t-466 -92.5q-257 0 -413.5 75.5t-156.5 198.5q0 97 95 158.5t288 89.5q-103 8 -153.5 34.5t-50.5 73.5q0 53 62 88t191 56q-170 33 -264 124t-94 222q0 161 146 270t370 109q37 0 83 -6t114 -19q79 86 167.5 129t184.5 43q18 0 35.5 -1.5t36.5 -4.5zM602 1032
q-90 0 -146.5 -87t-56.5 -228q0 -143 57 -224t156 -81q91 0 142 86.5t51 240.5q0 137 -54.5 215t-148.5 78zM326 -127q0 -101 73.5 -157t206.5 -56q148 0 235 58.5t87 156.5q0 94 -88.5 144.5t-251.5 50.5q-120 0 -191 -54t-71 -143z" />
    <glyph glyph-name="h" unicode="h" horiz-adv-x="1346" 
d="M15 -6l-1 22q76 25 104.5 95.5t28.5 300.5v65v709q0 135 -22 169t-86 40v22q101 13 203 32.5t202 43.5q-4 -83 -6 -177.5t-2 -197.5v-260q52 119 140 177.5t217 58.5q210 0 312.5 -124t102.5 -378v-180q0 -233 29 -303.5t104 -92.5v-22q-50 3 -109 4.5t-173 1.5
q-104 0 -163.5 -1.5t-112.5 -4.5l-1 22q74 24 102.5 91.5t28.5 273.5v100v92q0 212 -51 308t-164 96q-116 0 -187 -110t-71 -294v-143q0 -250 28.5 -321t104.5 -93v-22q-50 3 -109 4.5t-173 1.5q-104 0 -163.5 -1.5t-112.5 -4.5z" />
    <glyph glyph-name="i" unicode="i" horiz-adv-x="616" 
d="M150 1329q0 70 45.5 117t113.5 47t114 -47t46 -117t-46 -117t-114 -47q-70 0 -114.5 46t-44.5 118zM467 1067q-3 -63 -4.5 -140t-1.5 -235v-282q0 -233 28 -302t103 -90l-1 -24q-49 3 -108.5 4.5t-173.5 1.5q-102 0 -161 -1.5t-113 -4.5v24q74 25 102.5 92t28.5 283v84
v285q0 131 -23.5 167t-91.5 42v24q132 17 233.5 34.5t182.5 37.5z" />
    <glyph glyph-name="j" unicode="j" horiz-adv-x="606" 
d="M166 762q0 132 -24 168.5t-91 40.5v24q132 17 233.5 34.5t182.5 37.5q-3 -86 -4.5 -179t-1.5 -196v-225q0 -99 1 -212.5t1 -129.5q0 -261 -131.5 -394.5t-388.5 -133.5q-53 0 -99.5 5t-89.5 15l152 338h22q27 -141 64 -207.5t88 -66.5q49 0 67.5 57t18.5 264v160v600z
M150 1329q0 70 45.5 117t113.5 47t114 -47t46 -117t-46 -117t-114 -47q-70 0 -114.5 46t-44.5 118z" />
    <glyph glyph-name="k" unicode="k" horiz-adv-x="1233" 
d="M147 1188q0 131 -23.5 167t-90.5 42v22q121 15 224.5 33.5t191.5 40.5q-5 -82 -7 -174t-2 -201v-467l211 193q41 37 63.5 71t22.5 60q0 25 -26 45t-72 31v24q76 -3 147 -4.5t138 -1.5t131 1.5t124 4.5l1 -24q-150 -53 -290.5 -148.5t-281.5 -240.5q144 -20 223 -66.5
t154 -183.5l96 -183q5 -8 12 -22q83 -158 171 -189l-1 -24q-37 3 -81.5 4.5t-132.5 1.5q-85 0 -127.5 -1.5t-77.5 -4.5q-43 61 -96.5 162t-120.5 247q-10 22 -26 60q-50 117 -99 117q-34 0 -48 -22.5t-14 -80.5v-47q0 -249 28.5 -319.5t104.5 -92.5v-24q-50 3 -109 4.5
t-173 1.5q-104 0 -163.5 -1.5t-112.5 -4.5l-1 24q76 25 104.5 95t28.5 299v65v711z" />
    <glyph glyph-name="l" unicode="l" horiz-adv-x="616" 
d="M166 1188q0 131 -23.5 167t-91.5 42v22q121 15 225 33.5t191 39.5q-3 -61 -4.5 -155t-1.5 -219v-708q0 -233 28 -302t103 -90l-1 -24q-49 3 -108.5 4.5t-173.5 1.5q-102 0 -161 -1.5t-113 -4.5v24q75 25 103 91.5t28 283.5v84v711z" />
    <glyph glyph-name="m" unicode="m" horiz-adv-x="2048" 
d="M13 -6l-1 22q76 25 103.5 95.5t27.5 318.5v47v285q0 131 -24 167.5t-90 41.5v24q116 14 214 32.5t177 41.5v-233q52 130 147 195t234 65q133 0 217 -69t104 -193q54 132 148 196t235 64q187 0 271 -118t84 -384v-139q0 -269 28.5 -342t106.5 -95l-1 -22q-49 3 -109 4.5
t-175 1.5q-103 0 -162.5 -1.5t-113.5 -4.5v22q75 25 104 93t29 286v82v96q0 216 -45.5 316t-143.5 100q-105 0 -171 -114t-66 -302v-143q0 -250 28.5 -321t104.5 -93l-1 -22q-50 3 -109 4.5t-169 1.5q-99 0 -157.5 -1.5t-112.5 -4.5v22q75 25 104 93t29 286v82v96
q0 219 -45 316.5t-143 97.5q-103 0 -168.5 -114t-65.5 -300v-143q0 -249 28.5 -320t104.5 -94v-22q-50 3 -109 4.5t-173 1.5q-103 0 -162 -1.5t-112 -4.5z" />
    <glyph glyph-name="n" unicode="n" horiz-adv-x="1346" 
d="M15 -6l-1 22q76 25 104.5 95.5t28.5 300.5v65v285q0 131 -23.5 167.5t-90.5 41.5v22q116 14 214 32.5t177 41.5v-233q53 131 144.5 195.5t224.5 64.5q211 0 313 -123.5t102 -378.5v-180q0 -233 29 -303.5t104 -92.5v-22q-50 3 -109 4.5t-173 1.5q-104 0 -163.5 -1.5
t-112.5 -4.5l-1 22q74 24 102.5 91t28.5 272v98v96q0 212 -51 308t-164 96q-116 0 -187 -110t-71 -294v-143q0 -250 28.5 -321t104.5 -93v-22q-50 3 -109 4.5t-173 1.5q-104 0 -163.5 -1.5t-112.5 -4.5z" />
    <glyph glyph-name="o" unicode="o" horiz-adv-x="1360" 
d="M678 37q139 0 211 126.5t72 373.5q0 244 -72 369.5t-211 125.5q-136 0 -207.5 -126.5t-71.5 -366.5q0 -247 71 -374.5t208 -127.5zM66 532q0 252 169.5 407t446.5 155q273 0 441.5 -155t168.5 -404q0 -251 -170 -405.5t-448 -154.5q-268 0 -438 157t-170 400z" />
    <glyph glyph-name="p" unicode="p" horiz-adv-x="1364" 
d="M-6 -405v22q76 20 104.5 91t28.5 335v25v698q0 132 -23.5 165.5t-91.5 39.5v22q75 6 169.5 24t209.5 48v-197q52 112 144 170t217 58q240 0 390 -153t150 -400q0 -241 -152.5 -404.5t-377.5 -163.5q-106 0 -192.5 40.5t-153.5 121.5v-90q0 -270 33.5 -340t125.5 -90v-22
q-88 3 -163.5 4.5t-139.5 1.5q-63 0 -132.5 -1.5t-145.5 -4.5zM688 59q131 0 202 123.5t71 354.5q0 235 -71 358t-206 123q-130 0 -199 -124t-69 -357q0 -232 70 -355t202 -123z" />
    <glyph glyph-name="q" unicode="q" horiz-adv-x="1366" 
d="M791 -405v22q91 19 124 87.5t33 322.5v41v69q-67 -81 -153.5 -121.5t-192.5 -40.5q-225 0 -376.5 163.5t-151.5 404.5q0 247 150 400t390 153q118 0 205 -46t148 -141q11 38 28 76t41 80h74q58 0 121.5 1.5t134.5 4.5v-22q-73 -17 -101 -107t-28 -352v-547
q0 -264 28.5 -335t104.5 -91v-22q-76 3 -145.5 4.5t-132.5 1.5q-64 0 -138 -1.5t-163 -4.5zM403 537q0 -230 71.5 -354t203.5 -124q131 0 200.5 122.5t69.5 355.5q0 234 -68 357.5t-198 123.5q-136 0 -207.5 -123.5t-71.5 -357.5z" />
    <glyph glyph-name="r" unicode="r" horiz-adv-x="844" 
d="M35 -6v24q75 25 103 91.5t28 283.5v84v285q0 131 -23.5 167t-91.5 42v24q136 17 238.5 35.5t171.5 38.5v-250q63 138 150.5 207.5t199.5 69.5q16 0 24.5 -0.5t15.5 -1.5l-112 -334h-26q-16 20 -36.5 30.5t-45.5 10.5q-83 0 -126.5 -75.5t-43.5 -217.5v-98q0 -233 28 -302
t103 -90l-1 -24q-49 3 -108.5 4.5t-173.5 1.5q-102 0 -161 -1.5t-113 -4.5z" />
    <glyph glyph-name="s" unicode="s" horiz-adv-x="1157" 
d="M37 84l115 338l28 -4q32 -187 120 -284t224 -97q106 0 174 56.5t68 144.5q0 70 -47.5 109t-222.5 83q-233 59 -309 127.5t-76 194.5q0 150 139.5 246t365.5 96q110 0 214 -23t200 -67l-94 -279l-27 2q-42 146 -125 226.5t-192 80.5q-85 0 -144 -52t-59 -126
q0 -124 239 -175q44 -10 68 -15q219 -49 300 -120t81 -200q0 -174 -149.5 -274.5t-411.5 -100.5q-127 0 -249.5 29t-229.5 84z" />
    <glyph glyph-name="t" unicode="t" horiz-adv-x="711" 
d="M467 498q0 -275 30 -365t109 -113v-24h6q-120 2 -360 4q-43 20 -60.5 84t-17.5 235v148l4 496h-115l11 59q128 67 218 154.5t152 203.5h33q-5 -52 -7.5 -118t-2.5 -142v-71h235l-24 -86h-211v-465z" />
    <glyph glyph-name="u" unicode="u" horiz-adv-x="1346" 
d="M125 762q0 130 -23.5 165.5t-91.5 41.5v24q134 17 236 35.5t172 38.5v-573q0 -212 51.5 -308t163.5 -96q116 0 186 109.5t70 294.5v268q0 130 -23.5 165.5t-91.5 41.5v24q118 16 222 34.5t194 39.5q-2 -71 -3 -135.5t-1 -118.5v-326q0 -263 29 -351t106 -105v-35
q-97 2 -157 3t-113 1h-107q-18 61 -28.5 104.5t-16.5 81.5q-51 -107 -142 -161t-222 -54q-206 0 -308 125t-102 377v289z" />
    <glyph glyph-name="v" unicode="v" horiz-adv-x="1176" 
d="M598 -29h-27l-454 903q-50 98 -81.5 133t-70.5 44l1 22q76 -3 150 -4.5t144 -1.5q71 0 139 1.5t135 4.5l1 -22q-56 -24 -80.5 -53t-24.5 -70q0 -25 9.5 -57t27.5 -70l219 -432l193 432q15 34 22.5 66t7.5 59q0 52 -30 82t-95 43l1 22q47 -3 97.5 -4.5t102.5 -1.5t107 1.5
t110 4.5v-22q-61 -17 -115.5 -83t-119.5 -204z" />
    <glyph glyph-name="w" unicode="w" horiz-adv-x="1792" 
d="M1335 393l166 408q15 39 23 71t8 56q0 51 -30 80.5t-95 42.5v22q53 -3 104.5 -4.5t102.5 -1.5q52 0 104 1.5t104 4.5l1 -22q-59 -21 -117 -93.5t-111 -193.5l-352 -793h-29l-323 725l-336 -725h-27l-352 820q-69 160 -107 207.5t-83 52.5v22q74 -3 146 -4.5t140 -1.5
q69 0 136.5 1.5t133.5 4.5l1 -22q-49 -17 -75 -48.5t-26 -74.5q0 -32 8 -64.5t23 -62.5l193 -398l329 693h29z" />
    <glyph glyph-name="x" unicode="x" horiz-adv-x="1110" 
d="M721 881q16 23 24.5 44t8.5 42q0 30 -20.5 53t-53.5 29v26q87 -5 130 -6.5t79 -1.5q37 0 82 1.5t128 6.5l1 -26q-71 -14 -153 -79t-202 -204l-94 -111l277 -424q71 -108 118 -153.5t95 -57.5v-28q-72 4 -150.5 6t-169.5 2q-88 0 -165.5 -2t-147.5 -6v28q50 13 72 36
t22 63q0 37 -13 77t-38 83l-86 143l-92 -129q-40 -56 -59 -99t-19 -77q0 -36 26 -61t74 -36v-28q-52 4 -108.5 6t-120.5 2q-63 0 -117 -2t-102 -6v28q90 41 176.5 120.5t230.5 267.5l64 81l-201 330q-67 111 -118 158.5t-115 71.5v26q8 0 24 -1q200 -7 291 -7q55 0 116.5 2
t153.5 6v-26q-41 -19 -60.5 -44.5t-19.5 -60.5q0 -26 13 -60.5t37 -70.5l63 -96z" />
    <glyph glyph-name="y" unicode="y" horiz-adv-x="1204" 
d="M84 -393l133 362l29 -8q12 -61 40.5 -89t78.5 -28q68 0 108.5 40t40.5 108q0 39 -13 84t-40 102l-336 701l-1 1q-75 154 -136 171v22q78 -3 150.5 -4.5t142.5 -1.5t137.5 1.5t132.5 4.5v-22q-50 -19 -75 -50t-25 -73q0 -28 9 -61t25 -66l232 -449l184 449q15 37 23 70
t8 57q0 51 -28.5 80.5t-90.5 42.5v22q49 -3 101 -4.5t106 -1.5q55 0 111.5 1.5t115.5 4.5v-22q-69 -36 -122 -97t-117 -190l-301 -606q-169 -341 -285.5 -451t-267.5 -110q-19 0 -36.5 2.5t-33.5 7.5z" />
    <glyph glyph-name="z" unicode="z" horiz-adv-x="1165" 
d="M27 0l544 797q45 65 61.5 97.5t16.5 51.5q0 27 -21.5 43.5t-58.5 16.5q-95 0 -213.5 -77t-240.5 -218l-31 4l115 352h864l-528 -848q-19 -30 -29 -55.5t-10 -42.5q0 -25 21.5 -40t57.5 -15q108 0 247.5 85.5t258.5 229.5l29 -2l-119 -379h-964z" />
    <glyph glyph-name="braceleft" unicode="{" 
d="M852 1516v-61q-121 -3 -165 -55t-44 -210v-133q0 -225 -53.5 -307t-196.5 -115q143 -32 196.5 -113t53.5 -307v-135q0 -158 44 -210t165 -55v-59q-235 0 -320.5 72.5t-85.5 273.5v193q0 165 -56 226.5t-212 76.5v76q156 15 212 76.5t56 226.5v192q0 201 85.5 274
t320.5 73z" />
    <glyph glyph-name="bar" unicode="|" 
d="M410 1565h206v-2048h-206v2048z" />
    <glyph glyph-name="braceright" unicode="}" 
d="M172 1516q236 0 322 -73t86 -274v-192q0 -165 56 -226.5t212 -76.5v-76q-156 -15 -212 -76.5t-56 -226.5v-193q0 -198 -85 -272t-311 -74h-12v59q119 2 164 55t45 210v135q0 226 53.5 307t196.5 113q-143 33 -196.5 115t-53.5 307v133q0 156 -45 209.5t-164 55.5v61z" />
    <glyph glyph-name="asciitilde" unicode="~" horiz-adv-x="1706" 
d="M1530 803v-221q-104 -71 -196.5 -104.5t-182.5 -33.5q-46 0 -92 8t-92 23q-24 8 -71 25q-219 75 -333 75q-85 0 -177.5 -37.5t-207.5 -119.5v221q107 72 204 107.5t183 35.5q117 0 291 -58q3 -1 4 -1q18 -6 55 -19q155 -55 240 -55t175 37t200 117z" />
    <glyph glyph-name="Adieresis" unicode="&#xc4;" horiz-adv-x="1593" 
d="M831 590l-174 368l-174 -368h348zM-14 -6v24q72 30 151 134t185 311l460 903h17l479 -893q151 -281 214.5 -364t115.5 -91l-1 -24q-56 3 -117.5 4.5t-164.5 1.5q-128 0 -213 -1.5t-167 -4.5l-1 24q50 7 71 26t21 58q0 35 -25.5 105.5t-76.5 173.5l-70 141h-413l-33 -69
q-52 -107 -76.5 -178t-24.5 -115q0 -60 39 -97t109 -45l-1 -24q-51 3 -105.5 4.5t-139.5 1.5q-86 0 -136.5 -1.5t-96.5 -4.5zM858 1610q0 48 36.5 84.5t84.5 36.5q49 0 84 -35.5t35 -85.5q0 -53 -33 -87t-86 -34q-51 0 -86 34.5t-35 86.5zM494 1610q0 48 36 84.5t85 36.5
t84 -35.5t35 -85.5q0 -53 -33.5 -87t-85.5 -34t-86.5 34.5t-34.5 86.5z" />
    <glyph glyph-name="Aring" unicode="&#xc5;" horiz-adv-x="1593" 
d="M541 1657q0 106 73 179t179 73t180 -73.5t74 -178.5q0 -106 -74 -180t-180 -74t-179 73.5t-73 180.5zM645 1657q0 -62 43.5 -106t106.5 -44q61 0 104 44t43 106q0 61 -43.5 104t-103.5 43q-63 0 -106.5 -42.5t-43.5 -104.5zM-14 -6v24q71 30 149.5 133t186.5 312l448 874
h41l467 -864q155 -288 216 -367.5t114 -87.5l-1 -24q-56 3 -117.5 4.5t-164.5 1.5q-128 0 -213 -1.5t-167 -4.5l-1 24q50 7 71 26t21 58q0 35 -25.5 105.5t-76.5 173.5l-70 141h-413l-33 -69q-52 -107 -76.5 -178t-24.5 -115q0 -60 39 -97t109 -45l-1 -24q-51 3 -105.5 4.5
t-139.5 1.5q-86 0 -136.5 -1.5t-96.5 -4.5zM831 590l-174 368l-174 -368h348z" />
    <glyph glyph-name="Ccedilla" unicode="&#xc7;" horiz-adv-x="1532" 
d="M1481 145q-131 -93 -283 -138.5t-334 -45.5q-158 0 -298 46.5t-247 133.5q-123 101 -182 230.5t-59 300.5q0 311 222.5 502.5t586.5 191.5q151 0 289 -38t264 -114l-99 -321l-28 4q-31 196 -132 296.5t-268 100.5q-206 0 -324 -162t-118 -450q0 -308 117.5 -478.5
t329.5 -170.5q177 0 279.5 112t141.5 349l29 2zM571 -377l41 90q73 -39 130.5 -56t117.5 -17q41 0 64.5 22t23.5 59q0 43 -25.5 64.5t-74.5 21.5q-15 0 -30 -1.5t-32 -3.5v198h70v-114q16 2 32.5 3.5t33.5 1.5q85 0 134.5 -45.5t49.5 -124.5q0 -85 -59 -131.5t-168 -46.5
q-58 0 -131 19t-177 61z" />
    <glyph glyph-name="Eacute" unicode="&#xc9;" horiz-adv-x="1430" 
d="M25 -6v26q84 18 114.5 93.5t30.5 349.5v680q0 70 -27.5 106.5t-93.5 53.5v28h12q213 -4 318 -4h848l114 -342l-30 -8q-127 143 -290.5 211.5t-379.5 68.5q-50 0 -74 -0.5t-45 -3.5v-512q34 -2 66 -3t65 -1q180 0 297 58.5t150 162.5h28v-509h-28q-35 109 -150 166
t-301 57q-51 0 -77.5 -1t-49.5 -3v-185q0 -279 45.5 -345t192.5 -66q183 0 341 92t300 280l35 -12l-131 -432h-844q-22 0 -68 1t-69 1q-81 0 -155 -2t-144 -6zM510 1446l273 283q40 42 72 61t63 19q40 0 65 -25t25 -65q0 -33 -19 -56t-75 -53l-313 -164h-91z" />
    <glyph glyph-name="Ntilde" unicode="&#xd1;" horiz-adv-x="1550" 
d="M256 604q0 -296 48 -418t169 -166v-26q-75 3 -135 4.5t-107 1.5q-57 0 -120.5 -1.5t-132.5 -4.5l-1 24q110 47 156.5 178t46.5 408v404q0 161 -30 216t-109 81v26q103 -2 162.5 -3t109.5 -1q33 0 98.5 1t98.5 1q149 -166 333 -355.5t462 -461.5v211q0 325 -46.5 432.5
t-168.5 151.5v26q72 -3 132 -4.5t107 -1.5q58 0 122.5 1.5t135.5 4.5v-24q-117 -54 -162 -156t-45 -430v-748l-45 -14q-276 298 -545.5 581.5t-533.5 555.5v-494zM1065 1768q-14 -116 -68 -181t-137 -65q-16 0 -29.5 2t-27.5 6l-105 27q-14 4 -29 6t-28 2q-31 0 -52.5 -21
t-37.5 -67h-66q17 124 69.5 186t141.5 62q17 0 32.5 -2t31.5 -6l108 -29q11 -3 20.5 -4.5t18.5 -1.5q32 0 54 20t38 66h66z" />
    <glyph glyph-name="Odieresis" unicode="&#xd6;" horiz-adv-x="1698" 
d="M848 29q195 0 290 157t95 480t-94.5 478.5t-290.5 155.5q-197 0 -290 -154t-93 -480q0 -327 93.5 -482t289.5 -155zM76 668q0 155 60.5 285.5t178.5 232.5q105 89 239.5 134.5t291.5 45.5q165 0 296.5 -45t237.5 -137q121 -105 181.5 -234.5t60.5 -281.5
q0 -151 -61.5 -281.5t-184.5 -239.5q-101 -90 -236.5 -138t-289.5 -48q-157 0 -296.5 49.5t-244.5 141.5q-112 100 -172.5 233.5t-60.5 282.5zM911 1610q0 48 36.5 84.5t84.5 36.5q49 0 84 -35.5t35 -85.5q0 -53 -33 -87t-86 -34q-51 0 -86 34.5t-35 86.5zM547 1610
q0 48 36 84.5t85 36.5t84 -35.5t35 -85.5q0 -53 -33.5 -87t-85.5 -34t-86.5 34.5t-34.5 86.5z" />
    <glyph glyph-name="Udieresis" unicode="&#xdc;" horiz-adv-x="1538" 
d="M506 702q0 -177 9.5 -287.5t29.5 -158.5q40 -102 125.5 -153.5t214.5 -51.5q205 0 312.5 121.5t107.5 353.5v197q0 332 -48 436.5t-176 147.5l1 26q79 -3 139.5 -4.5t105.5 -1.5q58 0 128.5 1.5t149.5 4.5l1 -24q-129 -43 -177.5 -147.5t-48.5 -438.5v-186
q0 -295 -147 -435.5t-455 -140.5q-169 0 -289.5 35t-199.5 106q-72 66 -102.5 162t-30.5 279q0 73 3 173.5t3 129.5v301q0 69 -28.5 106t-94.5 54v28q67 -4 138 -6t147 -2q80 0 155 2t150 6v-28q-65 -12 -94 -50t-29 -110v-445zM907 1610q0 48 36.5 84.5t84.5 36.5
q49 0 84 -35.5t35 -85.5q0 -53 -33 -87t-86 -34q-51 0 -86 34.5t-35 86.5zM543 1610q0 48 36 84.5t85 36.5t84 -35.5t35 -85.5q0 -53 -33.5 -87t-85.5 -34t-86.5 34.5t-34.5 86.5z" />
    <glyph glyph-name="aacute" unicode="&#xe1;" horiz-adv-x="1233" 
d="M784 596q-8 1 -18 1.5t-29 0.5q-164 0 -252 -76t-88 -219q0 -109 46.5 -174.5t123.5 -65.5q114 0 165.5 110t51.5 359v64zM1223 31l-1 -35q-103 2 -155 3t-96 1h-90q-25 39 -42.5 80.5t-29.5 87.5q-58 -102 -138.5 -148.5t-199.5 -46.5q-187 0 -304.5 92t-117.5 234
q0 169 182 257.5t553 100.5v9q0 179 -62 272.5t-181 93.5q-120 0 -195 -82t-123 -266h-28l-95 305q113 54 233 80.5t249 26.5q143 0 250 -35t167 -103q49 -51 68.5 -121.5t19.5 -254.5v-95q0 -263 29.5 -351t106.5 -105zM403 1206l273 283q40 42 72 61t63 19q40 0 65 -25
t25 -65q0 -33 -19 -56t-75 -53l-313 -164h-91z" />
    <glyph glyph-name="agrave" unicode="&#xe0;" horiz-adv-x="1233" 
d="M784 596q-8 1 -18 1.5t-29 0.5q-164 0 -252 -76t-88 -219q0 -109 46.5 -174.5t123.5 -65.5q114 0 165.5 110t51.5 359v64zM1223 31l-1 -35q-103 2 -155 3t-96 1h-90q-25 39 -42.5 80.5t-29.5 87.5q-58 -102 -138.5 -148.5t-199.5 -46.5q-187 0 -304.5 92t-117.5 234
q0 169 182 257.5t553 100.5v9q0 179 -62 272.5t-181 93.5q-120 0 -195 -82t-123 -266h-28l-95 305q113 54 233 80.5t249 26.5q143 0 250 -35t167 -103q49 -51 68.5 -121.5t19.5 -254.5v-95q0 -263 29.5 -351t106.5 -105zM793 1206h-91l-313 164q-56 30 -75 53t-19 56
q0 40 25 65t65 25q31 0 63 -19t72 -61z" />
    <glyph glyph-name="acircumflex" unicode="&#xe2;" horiz-adv-x="1233" 
d="M784 596q-8 1 -18 1.5t-29 0.5q-164 0 -252 -76t-88 -219q0 -109 46.5 -174.5t123.5 -65.5q114 0 165.5 110t51.5 359v64zM1223 31l-1 -35q-103 2 -155 3t-96 1h-90q-25 39 -42.5 80.5t-29.5 87.5q-58 -102 -138.5 -148.5t-199.5 -46.5q-187 0 -304.5 92t-117.5 234
q0 169 182 257.5t553 100.5v9q0 179 -62 272.5t-181 93.5q-120 0 -195 -82t-123 -266h-28l-95 305q113 54 233 80.5t249 26.5q143 0 250 -35t167 -103q49 -51 68.5 -121.5t19.5 -254.5v-95q0 -263 29.5 -351t106.5 -105zM299 1206l225 348h148l225 -348h-84l-215 178
l-215 -178h-84z" />
    <glyph glyph-name="adieresis" unicode="&#xe4;" horiz-adv-x="1233" 
d="M784 596q-8 1 -18 1.5t-29 0.5q-164 0 -252 -76t-88 -219q0 -109 46.5 -174.5t123.5 -65.5q114 0 165.5 110t51.5 359v64zM1223 31l-1 -35q-103 2 -155 3t-96 1h-90q-25 39 -42.5 80.5t-29.5 87.5q-58 -102 -138.5 -148.5t-199.5 -46.5q-187 0 -304.5 92t-117.5 234
q0 169 182 257.5t553 100.5v9q0 179 -62 272.5t-181 93.5q-120 0 -195 -82t-123 -266h-28l-95 305q113 54 233 80.5t249 26.5q143 0 250 -35t167 -103q49 -51 68.5 -121.5t19.5 -254.5v-95q0 -263 29.5 -351t106.5 -105zM659 1370q0 48 36.5 84.5t84.5 36.5q49 0 84 -35.5
t35 -85.5q0 -53 -33 -87t-86 -34q-51 0 -86 34.5t-35 86.5zM295 1370q0 48 36 84.5t85 36.5t84 -35.5t35 -85.5q0 -53 -33.5 -87t-85.5 -34t-86.5 34.5t-34.5 86.5z" />
    <glyph glyph-name="atilde" unicode="&#xe3;" horiz-adv-x="1233" 
d="M784 596q-8 1 -18 1.5t-29 0.5q-164 0 -252 -76t-88 -219q0 -109 46.5 -174.5t123.5 -65.5q114 0 165.5 110t51.5 359v64zM1223 31l-1 -35q-103 2 -155 3t-96 1h-90q-25 39 -42.5 80.5t-29.5 87.5q-58 -102 -138.5 -148.5t-199.5 -46.5q-187 0 -304.5 92t-117.5 234
q0 169 182 257.5t553 100.5v9q0 179 -62 272.5t-181 93.5q-120 0 -195 -82t-123 -266h-28l-95 305q113 54 233 80.5t249 26.5q143 0 250 -35t167 -103q49 -51 68.5 -121.5t19.5 -254.5v-95q0 -263 29.5 -351t106.5 -105zM887 1528q-14 -116 -68 -181t-137 -65q-16 0 -29.5 2
t-27.5 6l-105 27q-14 4 -29 6t-28 2q-31 0 -52.5 -21t-37.5 -67h-66q17 124 69.5 186t141.5 62q17 0 32.5 -2t31.5 -6l108 -29q11 -3 20.5 -4.5t18.5 -1.5q32 0 54 20t38 66h66z" />
    <glyph glyph-name="aring" unicode="&#xe5;" horiz-adv-x="1233" 
d="M348 1415q0 106 74 179t180 73t179 -73t73 -179t-73 -180t-179 -74t-180 74t-74 180zM1223 31l-1 -35q-103 2 -155 3t-96 1h-90q-25 39 -42.5 80.5t-29.5 87.5q-58 -102 -138.5 -148.5t-199.5 -46.5q-187 0 -304.5 92t-117.5 234q0 169 182 257.5t553 100.5v9
q0 179 -62 272.5t-181 93.5q-120 0 -195 -82t-123 -266h-28l-95 305q113 54 233 80.5t249 26.5q143 0 250 -35t167 -103q49 -51 68.5 -121.5t19.5 -254.5v-95q0 -263 29.5 -351t106.5 -105zM453 1415q0 -62 43.5 -105.5t105.5 -43.5q61 0 104.5 43.5t43.5 105.5
q0 61 -43.5 104.5t-104.5 43.5q-63 0 -106 -43t-43 -105zM784 596q-8 1 -18 1.5t-29 0.5q-164 0 -252 -76t-88 -219q0 -109 46.5 -174.5t123.5 -65.5q114 0 165.5 110t51.5 359v64z" />
    <glyph glyph-name="ccedilla" unicode="&#xe7;" horiz-adv-x="1194" 
d="M1124 975l-98 -309h-25q-15 181 -89 275.5t-201 94.5q-153 0 -237.5 -129.5t-84.5 -365.5q0 -226 96 -358t258 -132q107 0 189.5 68.5t134.5 199.5l57 -45q-63 -155 -175 -230t-279 -75q-268 0 -434 155.5t-166 403.5q0 257 164 412.5t436 155.5q120 0 234 -30.5
t220 -90.5zM344 -377l41 90q73 -39 130.5 -56t117.5 -17q41 0 64.5 22t23.5 59q0 43 -25.5 64.5t-74.5 21.5q-15 0 -30 -1.5t-32 -3.5v198h70v-114q16 2 32.5 3.5t33.5 1.5q85 0 134.5 -45.5t49.5 -124.5q0 -85 -59 -131.5t-168 -46.5q-58 0 -131 19t-177 61z" />
    <glyph glyph-name="eacute" unicode="&#xe9;" horiz-adv-x="1262" 
d="M829 735q-4 138 -57 217.5t-139 79.5t-144 -77.5t-77 -219.5h417zM1178 662h-768l-1 -7q-3 -62 -3 -92q0 -231 93.5 -361t258.5 -130q138 0 235 95.5t146 281.5l55 -50q-63 -213 -198.5 -319.5t-344.5 -106.5q-260 0 -422.5 157.5t-162.5 408.5q0 245 160.5 401
t414.5 156q228 0 368 -113t169 -321zM436 1206l273 283q40 42 72 61t63 19q40 0 65 -25t25 -65q0 -33 -19 -56t-75 -53l-313 -164h-91z" />
    <glyph glyph-name="egrave" unicode="&#xe8;" horiz-adv-x="1262" 
d="M829 735q-4 138 -57 217.5t-139 79.5t-144 -77.5t-77 -219.5h417zM1178 662h-768l-1 -7q-3 -62 -3 -92q0 -231 93.5 -361t258.5 -130q138 0 235 95.5t146 281.5l55 -50q-63 -213 -198.5 -319.5t-344.5 -106.5q-260 0 -422.5 157.5t-162.5 408.5q0 245 160.5 401
t414.5 156q228 0 368 -113t169 -321zM826 1206h-91l-313 164q-56 30 -75 53t-19 56q0 40 25 65t65 25q31 0 63 -19t72 -61z" />
    <glyph glyph-name="ecircumflex" unicode="&#xea;" horiz-adv-x="1262" 
d="M829 735q-4 138 -57 217.5t-139 79.5t-144 -77.5t-77 -219.5h417zM1178 662h-768l-1 -7q-3 -62 -3 -92q0 -231 93.5 -361t258.5 -130q138 0 235 95.5t146 281.5l55 -50q-63 -213 -198.5 -319.5t-344.5 -106.5q-260 0 -422.5 157.5t-162.5 408.5q0 245 160.5 401
t414.5 156q228 0 368 -113t169 -321zM332 1206l225 348h148l225 -348h-84l-215 178l-215 -178h-84z" />
    <glyph glyph-name="edieresis" unicode="&#xeb;" horiz-adv-x="1262" 
d="M829 735q-4 138 -57 217.5t-139 79.5t-144 -77.5t-77 -219.5h417zM1178 662h-768l-1 -7q-3 -62 -3 -92q0 -231 93.5 -361t258.5 -130q138 0 235 95.5t146 281.5l55 -50q-63 -213 -198.5 -319.5t-344.5 -106.5q-260 0 -422.5 157.5t-162.5 408.5q0 245 160.5 401
t414.5 156q228 0 368 -113t169 -321zM692 1370q0 48 36.5 84.5t84.5 36.5q49 0 84 -35.5t35 -85.5q0 -53 -33 -87t-86 -34q-51 0 -86 34.5t-35 86.5zM328 1370q0 48 36 84.5t85 36.5t84 -35.5t35 -85.5q0 -53 -33.5 -87t-85.5 -34t-86.5 34.5t-34.5 86.5z" />
    <glyph glyph-name="iacute" unicode="&#xed;" horiz-adv-x="616" 
d="M467 1067q-3 -63 -4.5 -140t-1.5 -235v-282q0 -233 28 -302t103 -90l-1 -24q-49 3 -108.5 4.5t-173.5 1.5q-102 0 -161 -1.5t-113 -4.5v24q74 25 102.5 92t28.5 283v84v285q0 131 -23.5 167t-91.5 42v24q132 17 233.5 34.5t182.5 37.5zM114 1206l273 283q40 42 72 61
t63 19q40 0 65 -25t25 -65q0 -33 -19 -56t-75 -53l-313 -164h-91z" />
    <glyph glyph-name="igrave" unicode="&#xec;" horiz-adv-x="616" 
d="M467 1067q-3 -63 -4.5 -140t-1.5 -235v-282q0 -233 28 -302t103 -90l-1 -24q-49 3 -108.5 4.5t-173.5 1.5q-102 0 -161 -1.5t-113 -4.5v24q74 25 102.5 92t28.5 283v84v285q0 131 -23.5 167t-91.5 42v24q132 17 233.5 34.5t182.5 37.5zM504 1206h-91l-313 164
q-56 30 -75 53t-19 56q0 40 25 65t65 25q31 0 63 -19t72 -61z" />
    <glyph glyph-name="icircumflex" unicode="&#xee;" horiz-adv-x="616" 
d="M467 1067q-3 -63 -4.5 -140t-1.5 -235v-282q0 -233 28 -302t103 -90l-1 -24q-49 3 -108.5 4.5t-173.5 1.5q-102 0 -161 -1.5t-113 -4.5v24q74 25 102.5 92t28.5 283v84v285q0 131 -23.5 167t-91.5 42v24q132 17 233.5 34.5t182.5 37.5zM10 1206l225 348h148l225 -348h-84
l-215 178l-215 -178h-84z" />
    <glyph glyph-name="idieresis" unicode="&#xef;" horiz-adv-x="616" 
d="M467 1067q-3 -63 -4.5 -140t-1.5 -235v-282q0 -233 28 -302t103 -90l-1 -24q-49 3 -108.5 4.5t-173.5 1.5q-102 0 -161 -1.5t-113 -4.5v24q74 25 102.5 92t28.5 283v84v285q0 131 -23.5 167t-91.5 42v24q132 17 233.5 34.5t182.5 37.5zM370 1370q0 48 36.5 84.5
t84.5 36.5q49 0 84 -35.5t35 -85.5q0 -53 -33 -87t-86 -34q-51 0 -86 34.5t-35 86.5zM6 1370q0 48 36 84.5t85 36.5t84 -35.5t35 -85.5q0 -53 -33.5 -87t-85.5 -34t-86.5 34.5t-34.5 86.5z" />
    <glyph glyph-name="ntilde" unicode="&#xf1;" horiz-adv-x="1346" 
d="M15 -6l-1 22q76 25 104.5 95.5t28.5 300.5v65v285q0 131 -23.5 167.5t-90.5 41.5v22q116 14 214 32.5t177 41.5v-233q53 131 144.5 195.5t224.5 64.5q211 0 313 -123.5t102 -378.5v-180q0 -233 29 -303.5t104 -92.5v-22q-50 3 -109 4.5t-173 1.5q-104 0 -163.5 -1.5
t-112.5 -4.5l-1 22q74 24 102.5 91t28.5 272v98v96q0 212 -51 308t-164 96q-116 0 -187 -110t-71 -294v-143q0 -250 28.5 -321t104.5 -93v-22q-50 3 -109 4.5t-173 1.5q-104 0 -163.5 -1.5t-112.5 -4.5zM963 1528q-14 -116 -68 -181t-137 -65q-16 0 -29.5 2t-27.5 6l-105 27
q-14 4 -29 6t-28 2q-31 0 -52.5 -21t-37.5 -67h-66q17 124 69.5 186t141.5 62q17 0 32.5 -2t31.5 -6l108 -29q11 -3 20.5 -4.5t18.5 -1.5q32 0 54 20t38 66h66z" />
    <glyph glyph-name="oacute" unicode="&#xf3;" horiz-adv-x="1360" 
d="M678 37q139 0 211 126.5t72 373.5q0 244 -72 369.5t-211 125.5q-136 0 -207.5 -126.5t-71.5 -366.5q0 -247 71 -374.5t208 -127.5zM66 532q0 252 169.5 407t446.5 155q273 0 441.5 -155t168.5 -404q0 -251 -170 -405.5t-448 -154.5q-268 0 -438 157t-170 400zM485 1206
l273 283q40 42 72 61t63 19q40 0 65 -25t25 -65q0 -33 -19 -56t-75 -53l-313 -164h-91z" />
    <glyph glyph-name="ograve" unicode="&#xf2;" horiz-adv-x="1360" 
d="M678 37q139 0 211 126.5t72 373.5q0 244 -72 369.5t-211 125.5q-136 0 -207.5 -126.5t-71.5 -366.5q0 -247 71 -374.5t208 -127.5zM66 532q0 252 169.5 407t446.5 155q273 0 441.5 -155t168.5 -404q0 -251 -170 -405.5t-448 -154.5q-268 0 -438 157t-170 400zM875 1206
h-91l-313 164q-56 30 -75 53t-19 56q0 40 25 65t65 25q31 0 63 -19t72 -61z" />
    <glyph glyph-name="ocircumflex" unicode="&#xf4;" horiz-adv-x="1360" 
d="M678 37q139 0 211 126.5t72 373.5q0 244 -72 369.5t-211 125.5q-136 0 -207.5 -126.5t-71.5 -366.5q0 -247 71 -374.5t208 -127.5zM66 532q0 252 169.5 407t446.5 155q273 0 441.5 -155t168.5 -404q0 -251 -170 -405.5t-448 -154.5q-268 0 -438 157t-170 400zM381 1206
l225 348h148l225 -348h-84l-215 178l-215 -178h-84z" />
    <glyph glyph-name="odieresis" unicode="&#xf6;" horiz-adv-x="1360" 
d="M678 37q139 0 211 126.5t72 373.5q0 244 -72 369.5t-211 125.5q-136 0 -207.5 -126.5t-71.5 -366.5q0 -247 71 -374.5t208 -127.5zM66 532q0 252 169.5 407t446.5 155q273 0 441.5 -155t168.5 -404q0 -251 -170 -405.5t-448 -154.5q-268 0 -438 157t-170 400zM741 1370
q0 48 36.5 84.5t84.5 36.5q49 0 84 -35.5t35 -85.5q0 -53 -33 -87t-86 -34q-51 0 -86 34.5t-35 86.5zM377 1370q0 48 36 84.5t85 36.5t84 -35.5t35 -85.5q0 -53 -33.5 -87t-85.5 -34t-86.5 34.5t-34.5 86.5z" />
    <glyph glyph-name="otilde" unicode="&#xf5;" horiz-adv-x="1360" 
d="M678 37q139 0 211 126.5t72 373.5q0 244 -72 369.5t-211 125.5q-136 0 -207.5 -126.5t-71.5 -366.5q0 -247 71 -374.5t208 -127.5zM66 532q0 252 169.5 407t446.5 155q273 0 441.5 -155t168.5 -404q0 -251 -170 -405.5t-448 -154.5q-268 0 -438 157t-170 400zM969 1528
q-14 -116 -68 -181t-137 -65q-16 0 -29.5 2t-27.5 6l-105 27q-14 4 -29 6t-28 2q-31 0 -52.5 -21t-37.5 -67h-66q17 124 69.5 186t141.5 62q17 0 32.5 -2t31.5 -6l108 -29q11 -3 20.5 -4.5t18.5 -1.5q32 0 54 20t38 66h66z" />
    <glyph glyph-name="uacute" unicode="&#xfa;" horiz-adv-x="1346" 
d="M125 762q0 130 -23.5 165.5t-91.5 41.5v24q134 17 236 35.5t172 38.5v-573q0 -212 51.5 -308t163.5 -96q116 0 186 109.5t70 294.5v268q0 130 -23.5 165.5t-91.5 41.5v24q118 16 222 34.5t194 39.5q-2 -71 -3 -135.5t-1 -118.5v-326q0 -263 29 -351t106 -105v-35
q-97 2 -157 3t-113 1h-107q-18 61 -28.5 104.5t-16.5 81.5q-51 -107 -142 -161t-222 -54q-206 0 -308 125t-102 377v289zM479 1206l273 283q40 42 72 61t63 19q40 0 65 -25t25 -65q0 -33 -19 -56t-75 -53l-313 -164h-91z" />
    <glyph glyph-name="ugrave" unicode="&#xf9;" horiz-adv-x="1346" 
d="M125 762q0 130 -23.5 165.5t-91.5 41.5v24q134 17 236 35.5t172 38.5v-573q0 -212 51.5 -308t163.5 -96q116 0 186 109.5t70 294.5v268q0 130 -23.5 165.5t-91.5 41.5v24q118 16 222 34.5t194 39.5q-2 -71 -3 -135.5t-1 -118.5v-326q0 -263 29 -351t106 -105v-35
q-97 2 -157 3t-113 1h-107q-18 61 -28.5 104.5t-16.5 81.5q-51 -107 -142 -161t-222 -54q-206 0 -308 125t-102 377v289zM869 1206h-91l-313 164q-56 30 -75 53t-19 56q0 40 25 65t65 25q31 0 63 -19t72 -61z" />
    <glyph glyph-name="ucircumflex" unicode="&#xfb;" horiz-adv-x="1346" 
d="M125 762q0 130 -23.5 165.5t-91.5 41.5v24q134 17 236 35.5t172 38.5v-573q0 -212 51.5 -308t163.5 -96q116 0 186 109.5t70 294.5v268q0 130 -23.5 165.5t-91.5 41.5v24q118 16 222 34.5t194 39.5q-2 -71 -3 -135.5t-1 -118.5v-326q0 -263 29 -351t106 -105v-35
q-97 2 -157 3t-113 1h-107q-18 61 -28.5 104.5t-16.5 81.5q-51 -107 -142 -161t-222 -54q-206 0 -308 125t-102 377v289zM375 1206l225 348h148l225 -348h-84l-215 178l-215 -178h-84z" />
    <glyph glyph-name="udieresis" unicode="&#xfc;" horiz-adv-x="1346" 
d="M125 762q0 130 -23.5 165.5t-91.5 41.5v24q134 17 236 35.5t172 38.5v-573q0 -212 51.5 -308t163.5 -96q116 0 186 109.5t70 294.5v268q0 130 -23.5 165.5t-91.5 41.5v24q118 16 222 34.5t194 39.5q-2 -71 -3 -135.5t-1 -118.5v-326q0 -263 29 -351t106 -105v-35
q-97 2 -157 3t-113 1h-107q-18 61 -28.5 104.5t-16.5 81.5q-51 -107 -142 -161t-222 -54q-206 0 -308 125t-102 377v289zM735 1370q0 48 36.5 84.5t84.5 36.5q49 0 84 -35.5t35 -85.5q0 -53 -33 -87t-86 -34q-51 0 -86 34.5t-35 86.5zM371 1370q0 48 36 84.5t85 36.5
t84 -35.5t35 -85.5q0 -53 -33.5 -87t-85.5 -34t-86.5 34.5t-34.5 86.5z" />
    <glyph glyph-name="dagger" unicode="&#x2020;" horiz-adv-x="1139" 
d="M702 -336h-266l19 1032l-338 -28v237l338 -28l-19 450h266l-20 -450l340 28v-237l-340 28z" />
    <glyph glyph-name="degree" unicode="&#xb0;" horiz-adv-x="674" 
d="M338 1335q-73 0 -124.5 -51t-51.5 -123q0 -74 51 -125t125 -51q72 0 123 52t51 124t-51 123t-123 51zM338 1464q126 0 214.5 -89.5t88.5 -215.5q0 -125 -89 -214t-216 -89q-126 0 -213.5 88t-87.5 215t88.5 216t214.5 89z" />
    <glyph glyph-name="cent" unicode="&#xa2;" horiz-adv-x="1366" 
d="M1094 973l-76 -240l-19 2q-13 141 -70.5 213t-156.5 72q-119 0 -184.5 -99.5t-65.5 -281.5q0 -174 74.5 -275.5t202.5 -101.5q83 0 147 52t105 153l45 -33q-45 -109 -122.5 -166.5t-190.5 -66.5l-1 -183h-94v181q-190 18 -302 135t-112 297q0 183 109.5 298t304.5 136
v164h94v-162q86 -6 163 -29.5t149 -64.5z" />
    <glyph glyph-name="sterling" unicode="&#xa3;" horiz-adv-x="1366" 
d="M467 367q1 6 1.5 14.5t0.5 28.5q0 41 -11 94t-34 123h-199l25 84h147q-18 63 -27.5 114t-9.5 90q0 162 126.5 268.5t320.5 106.5q90 0 173.5 -25.5t164.5 -76.5l-107 -301l-30 2q-33 150 -105 242t-153 92q-70 0 -114 -47.5t-44 -120.5q0 -53 24.5 -131t85.5 -213h355
l-29 -84h-292q15 -35 22.5 -68.5t7.5 -66.5q0 -34 -9 -74t-28 -86q54 -15 168.5 -60t173.5 -45q80 0 138.5 46.5t105.5 148.5l31 -16q-41 -206 -144 -323.5t-241 -117.5q-87 0 -175.5 51t-179.5 152q-106 -100 -222.5 -151.5t-238.5 -51.5q-82 0 -129 31.5t-47 85.5
q0 112 140 194.5t358 90.5zM459 246q-30 15 -56 22.5t-51 7.5q-61 0 -102 -32t-41 -78q0 -38 25.5 -60t68.5 -22q57 0 98 42.5t58 119.5z" />
    <glyph glyph-name="section" unicode="&#xa7;" horiz-adv-x="1139" 
d="M326 788q-38 -31 -56 -62.5t-18 -66.5q0 -57 43.5 -97.5t167.5 -88.5q27 -11 80 -31q225 -86 301 -135q37 30 55.5 61t18.5 66q0 59 -45 99.5t-175 91.5q-26 10 -76 28q-216 80 -296 135zM889 274q56 -44 84 -99.5t28 -123.5q0 -157 -128 -255.5t-336 -98.5
q-83 0 -175.5 17t-201.5 53l45 215l33 -2q57 -106 139.5 -162t179.5 -56q90 0 149.5 50.5t59.5 126.5q0 125 -272 223q-36 13 -55 20q-194 72 -265.5 148.5t-71.5 199.5q0 106 45.5 181.5t133.5 115.5q-52 44 -76.5 94t-24.5 111q0 150 112.5 241t299.5 91q81 0 163.5 -17.5
t164.5 -52.5l-29 -184l-29 -2q-66 98 -133 144t-141 46q-78 0 -130 -48.5t-52 -119.5q0 -112 242 -201l9 -3q11 -4 31 -11q149 -53 217 -96q67 -41 104.5 -111t37.5 -153q0 -87 -40 -157.5t-118 -123.5z" />
    <glyph glyph-name="bullet" unicode="&#x2022;" horiz-adv-x="1208" 
d="M307 762q0 123 87 209t210 86q122 0 208.5 -86.5t86.5 -208.5t-87.5 -209.5t-209.5 -87.5q-123 0 -209 87t-86 210z" />
    <glyph glyph-name="paragraph" unicode="&#xb6;" 
d="M983 1479v-111h-113v-1368h-151v1368h-158v-1368h-153v784q-167 6 -267 101t-100 245q0 158 107 253.5t284 95.5h551z" />
    <glyph glyph-name="germandbls" unicode="&#xdf;" horiz-adv-x="1290" 
d="M15 -6l-1 24q76 25 104.5 94.5t28.5 299.5v65v492q0 151 18 226t60 128q66 82 172.5 126t243.5 44q214 0 338.5 -95t124.5 -257q0 -125 -75 -202t-234 -114q208 -27 317 -135.5t109 -290.5q0 -195 -112.5 -311.5t-299.5 -116.5q-32 0 -77 6t-120 21l-30 240h36
q43 -111 76.5 -156t71.5 -45q60 0 95.5 95t35.5 261q0 209 -53.5 302t-171.5 93q-18 0 -36 -1.5t-36 -3.5l-12 62q17 -2 29.5 -3.5t21.5 -1.5q81 0 121.5 68.5t40.5 207.5q0 156 -44 236t-130 80q-105 0 -146 -81t-41 -360v-594q0 -223 22.5 -290t82.5 -89l-1 -24
q-45 3 -96.5 4.5t-146.5 1.5q-102 0 -165 -1.5t-121 -4.5z" />
    <glyph glyph-name="registered" unicode="&#xae;" horiz-adv-x="1683" 
d="M760 723q7 -1 16 -1.5t27 -0.5q96 0 144 45t48 135q0 60 -43 103t-106 43q-44 0 -65 -16.5t-21 -49.5v-258zM465 1098h403q146 0 234 -55.5t88 -143.5q0 -86 -64.5 -134.5t-214.5 -74.5q95 -22 149 -69.5t70 -124.5q6 -25 10 -74q5 -84 46 -84q28 0 42.5 29.5t14.5 87.5
v12h51v-23q0 -88 -44 -134t-128 -46q-47 0 -82.5 14t-56.5 41q-28 40 -33 134q-2 45 -6 67q-14 79 -54 116.5t-112 37.5h-18v-246q0 -46 20 -65t78 -27v-51h-393v50q61 4 83.5 24t22.5 69v522q0 49 -22.5 69.5t-83.5 25.5v53zM844 1309q-126 0 -241.5 -48.5t-203.5 -138.5
q-89 -90 -135.5 -204t-46.5 -240q0 -128 46.5 -242t135.5 -203q90 -89 202 -135.5t241 -46.5q127 0 240 47t200 135q89 91 136.5 206t47.5 239q0 125 -48.5 243t-135.5 203q-88 88 -202.5 136.5t-235.5 48.5zM844 1413q145 0 284 -59.5t242 -165.5q98 -101 150.5 -236.5
t52.5 -285.5q0 -139 -61 -277t-171 -244q-99 -96 -227.5 -147t-271.5 -51q-110 0 -211.5 30.5t-190.5 90.5q-157 104 -243 263.5t-86 346.5q0 146 55 280t158 238q102 104 237.5 160.5t282.5 56.5z" />
    <glyph glyph-name="copyright" unicode="&#xa9;" horiz-adv-x="1683" 
d="M1126 1102h45v-326h-47q-31 131 -100 202t-164 71q-118 0 -175.5 -90.5t-57.5 -274.5q0 -185 62.5 -281t182.5 -96q80 0 148.5 44t124.5 130l45 -28q-63 -107 -150.5 -161t-197.5 -54q-185 0 -308.5 122.5t-123.5 303.5q0 191 121 316.5t305 125.5q79 0 153 -33t80 -33
q24 0 37.5 15t19.5 47zM844 1309q-127 0 -241.5 -48t-203.5 -139q-89 -90 -135.5 -204t-46.5 -240q0 -128 46.5 -242t135.5 -203q90 -89 202 -135.5t241 -46.5q127 0 240 47t200 135q89 91 136.5 206t47.5 239q0 127 -47.5 244t-134.5 202q-87 88 -203 136.5t-237 48.5z
M844 1413q141 0 275.5 -56t238.5 -159q102 -102 159.5 -239.5t57.5 -280.5t-56.5 -277.5t-160.5 -240.5q-102 -104 -235 -158.5t-281 -54.5t-279 54t-237 159q-105 104 -160 237t-55 281t54.5 281.5t158.5 236.5q103 104 239 160.5t281 56.5z" />
    <glyph glyph-name="trademark" unicode="&#x2122;" horiz-adv-x="1683" 
d="M758 1454h211l131 -369l129 369h198v-27l-27 -4q-19 -3 -27.5 -15t-8.5 -36v-379q0 -24 9 -36t28 -15l26 -4v-33h-253v33l30 4q18 3 27.5 16t9.5 35v365l-156 -455h-36l-166 463v-373q0 -22 9 -35t28 -16l34 -4v-33h-196v33l34 4q19 3 28 16t9 35v373q0 23 -9 35.5
t-27 15.5l-35 4v33zM238 1454h450l12 -192h-32q-8 79 -39.5 115t-91.5 36h-7v-420q1 -23 9.5 -35.5t25.5 -15.5l31 -4v-33h-266v33l30 4q17 3 26 16t9 35v420h-10q-59 0 -89 -36t-38 -115h-33z" />
    <glyph glyph-name="acute" unicode="&#xb4;" 
d="M317 1206l273 283q40 42 72 61t63 19q40 0 65 -25t25 -65q0 -33 -19 -56t-75 -53l-313 -164h-91z" />
    <glyph glyph-name="dieresis" unicode="&#xa8;" 
d="M573 1370q0 48 36.5 84.5t84.5 36.5q49 0 84 -35.5t35 -85.5q0 -53 -33 -87t-86 -34q-51 0 -86 34.5t-35 86.5zM209 1370q0 48 36 84.5t85 36.5t84 -35.5t35 -85.5q0 -53 -33.5 -87t-85.5 -34t-86.5 34.5t-34.5 86.5z" />
    <glyph glyph-name="notequal" unicode="&#x2260;" horiz-adv-x="1706" 
d="M1198 1233l148 -119l-154 -192h260v-191h-389l-191 -239h580v-193h-707l-245 -309l-148 119l154 190h-252v193h377l190 239h-567v191h696z" />
    <glyph glyph-name="AE" unicode="&#xc6;" horiz-adv-x="2353" 
d="M920 1171l-350 -511q17 -3 37.5 -4t64.5 -1h215q26 0 111 3q39 1 61 1v480q0 74 -11 96t-38 22q-16 0 -37 -19.5t-53 -66.5zM912 -6l-1 26q85 21 116.5 90t31.5 330v23v118q-68 4 -111 5.5t-65 1.5h-252q-29 0 -58 -1.5t-56 -4.5l-101 -146q-77 -110 -112.5 -185
t-35.5 -124q0 -47 29.5 -75t85.5 -34v-24q-44 3 -93.5 4.5t-139.5 1.5q-77 0 -127.5 -1.5t-99.5 -4.5l-1 24q63 26 161.5 134.5t242.5 310.5l467 651q34 49 47.5 77t13.5 48q0 31 -24.5 47.5t-73.5 18.5v24q85 -1 176 -1.5t254 -0.5h928l114 -342l-28 -8
q-127 143 -291 211.5t-379 68.5q-51 0 -75.5 -0.5t-45.5 -3.5v-512q34 -2 66 -3t65 -1q180 0 297 58.5t150 162.5h28v-509h-28q-35 109 -150 166t-301 57q-52 0 -78 -1t-49 -3v-185q0 -280 47 -345.5t197 -65.5q178 0 336 91.5t305 280.5l28 -6l-129 -438h-985
q-119 0 -181 -1.5t-115 -4.5z" />
    <glyph glyph-name="Oslash" unicode="&#xd8;" horiz-adv-x="1698" 
d="M1174 1077q-42 106 -128 164.5t-198 58.5q-197 0 -290 -154t-93 -480q0 -101 5 -172t15 -129zM520 250q51 -109 134.5 -165t193.5 -56q199 0 292 160.5t93 506.5q0 75 -6.5 141t-20.5 128zM143 -141h-137l289 303q-109 107 -164 234.5t-55 271.5q0 155 60.5 285.5
t178.5 232.5q103 89 237 134.5t294 45.5q138 0 257 -33t220 -100l211 217h147l-274 -281q107 -106 161 -232.5t54 -268.5q0 -151 -61.5 -281.5t-184.5 -239.5q-101 -90 -236.5 -138t-289.5 -48q-139 0 -257.5 34t-217.5 103z" />
    <glyph glyph-name="infinity" unicode="&#x221e;" horiz-adv-x="1706" 
d="M942 561q45 -75 106.5 -113t139.5 -38q94 0 152.5 55.5t58.5 144.5q0 86 -54 142.5t-135 56.5q-74 0 -136 -57t-132 -191zM766 659q-46 76 -107 113t-139 37q-93 0 -152 -56.5t-59 -144.5q0 -85 54 -141.5t135 -56.5q75 0 138 58t130 191zM858 457q-69 -133 -147 -195.5
t-174 -62.5q-139 0 -235.5 117.5t-96.5 293.5q0 184 85.5 297t223.5 113q93 0 169.5 -58.5t164.5 -199.5q68 132 148 196t175 64q139 0 235.5 -118t96.5 -294q0 -183 -86 -296t-223 -113q-93 0 -168.5 56.5t-167.5 199.5z" />
    <glyph glyph-name="plusminus" unicode="&#xb1;" horiz-adv-x="1706" 
d="M254 197h1198v-199h-1198v199zM752 1223h202v-326h498v-199h-498v-325h-202v325h-498v199h498v326z" />
    <glyph glyph-name="lessequal" unicode="&#x2264;" horiz-adv-x="1706" 
d="M258 195h1192v-197h-1192v197zM1448 1241v-209l-834 -264l834 -262v-209l-1190 385v174z" />
    <glyph glyph-name="greaterequal" unicode="&#x2265;" horiz-adv-x="1706" 
d="M258 195h1192v-197h-1192v197zM260 1241l1188 -385v-174l-1188 -385v209l832 262l-832 264v209z" />
    <glyph glyph-name="yen" unicode="&#xa5;" horiz-adv-x="1444" 
d="M573 539h-528v94h473l-94 135h-379v94h309l-82 115q-95 133 -159 192t-115 62v22q18 0 55 -2q160 -6 223 -6q71 0 146 2t158 6l-1 -22q-35 -5 -52 -22.5t-17 -49.5q0 -23 12.5 -51t38.5 -61l279 -371l188 274q43 61 65.5 108.5t22.5 76.5q0 44 -33 69t-93 27l-1 22
q62 -4 120.5 -6t115.5 -2q53 0 108.5 2t112.5 6v-22q-63 -10 -146.5 -87.5t-199.5 -234.5l-35 -47h332v-94h-398l-98 -135h496v-94h-531v-101q0 -250 31 -327t115 -95l-1 -22q-103 3 -175.5 4.5t-110.5 1.5q-59 0 -131.5 -1.5t-163.5 -4.5v20q83 17 113 90.5t30 331.5v103z
" />
    <glyph glyph-name="mu" unicode="&#xb5;" horiz-adv-x="1202" 
d="M178 209q-12 -95 -29 -252q-40 -381 -155 -381q-54 0 -84.5 30.5t-30.5 84.5q0 47 68 274t106 408l109 512h256l-99 -459q-11 -53 -16.5 -89t-5.5 -58q0 -59 30.5 -92t84.5 -33q71 0 116 53t68 166l109 512h256l-115 -533q-9 -41 -13 -66.5t-4 -43.5q0 -47 17.5 -67.5
t56.5 -20.5q40 0 66 18t45 59q8 19 21 50q27 69 55 69q15 0 23.5 -10t8.5 -29q0 -34 -16.5 -88.5t-42.5 -101.5q-41 -74 -99 -110t-137 -36q-85 0 -129.5 48t-54.5 151q-40 -106 -98.5 -152.5t-149.5 -46.5q-93 0 -149.5 61t-67.5 173z" />
    <glyph glyph-name="partialdiff" unicode="&#x2202;" horiz-adv-x="1094" 
d="M762 662q19 99 29 188.5t10 155.5q0 100 -26 157.5t-70 57.5t-146 -73t-160 -73q-42 0 -71 30t-29 73q0 64 86.5 118t210.5 54q192 0 309 -161.5t117 -432.5q0 -339 -156.5 -560t-396.5 -221q-171 0 -282 114.5t-111 291.5q0 198 116 329.5t287 131.5q102 0 170 -43.5
t113 -136.5zM700 518q0 116 -38.5 178t-110.5 62q-101 0 -167.5 -134t-66.5 -341q0 -117 38.5 -177.5t111.5 -60.5q101 0 167 133.5t66 339.5z" />
    <glyph glyph-name="summation" unicode="&#x2211;" horiz-adv-x="1542" 
d="M25 1473h1235l139 -429h-88l-92 250q-19 52 -60.5 73.5t-167.5 21.5h-557l666 -783v-41l-735 -680h886q48 0 65 13t27 51l72 229h88l-174 -571h-1309v71l822 756l-817 973v66z" />
    <glyph glyph-name="product" unicode="&#x220f;" horiz-adv-x="1724" 
d="M47 1473h1624v-84h-190v-1698h190v-84h-698v84h178v1698h-582v-1698h176v-84h-698v84h191v1698h-191v84z" />
    <glyph glyph-name="pi" unicode="&#x3c0;" horiz-adv-x="1477" 
d="M1444 885l-60 -275h-348q-4 -64 -6 -117t-2 -81q0 -47 4 -123.5t4 -106.5q0 -116 -38.5 -170.5t-120.5 -54.5q-52 0 -81.5 32.5t-29.5 88.5q0 73 73 245t101 287h-375q-4 -68 -6 -121t-2 -77q0 -48 3 -124t3 -106q0 -116 -38.5 -170.5t-121.5 -54.5q-50 0 -79 32t-29 89
q0 74 72 246t100 286h-156q-118 0 -167 -32t-66 -117h-64q45 238 138 331t284 93h1008z" />
    <glyph glyph-name="integral" unicode="&#x222b;" horiz-adv-x="1186" 
d="M342 -252q102 0 121 639q3 136 6 211q16 508 123 732t328 224q98 0 157.5 -49t59.5 -129q0 -60 -38 -96.5t-100 -36.5q-46 0 -77 24t-41 68q-5 20 -7 54q-3 46 -30 47q-99 0 -119 -633q-4 -116 -6 -178q-11 -296 -31 -444.5t-59 -250.5q-56 -148 -148.5 -225.5
t-214.5 -77.5q-96 0 -156.5 49t-60.5 127q0 62 39 99t105 37q50 0 85 -31.5t35 -71.5q0 -58 6 -73t23 -15z" />
    <glyph glyph-name="ordfeminine" unicode="&#xaa;" horiz-adv-x="926" 
d="M588 999h-35q-123 0 -188.5 -52.5t-65.5 -151.5q0 -77 34.5 -122.5t92.5 -45.5q85 0 123.5 76.5t38.5 250.5v45zM918 604v-24q-32 0 -95 1t-94 1h-67q-19 26 -33 55.5t-23 60.5q-42 -70 -103 -102.5t-149 -32.5q-140 0 -228.5 64t-88.5 164q0 118 135.5 180t415.5 72v6
q0 125 -46.5 190.5t-135.5 65.5q-90 0 -146.5 -58t-91.5 -186h-23l-69 213q83 38 173 57t187 19q108 0 188 -25t126 -72q35 -37 50 -86t15 -178v-65q0 -183 22.5 -245.5t80.5 -74.5z" />
    <glyph glyph-name="ordmasculine" unicode="&#xba;" horiz-adv-x="1020" 
d="M508 608q105 0 159 88t54 260t-54 260.5t-159 88.5q-102 0 -155.5 -89.5t-53.5 -257.5q0 -172 53.5 -261t155.5 -89zM49 954q0 176 127.5 285t335.5 109q204 0 330.5 -109t126.5 -283q0 -175 -127.5 -283t-335.5 -108q-201 0 -329 109.5t-128 279.5z" />
    <glyph glyph-name="Omega" unicode="&#x3a9;" horiz-adv-x="1569" 
d="M1133 258v-14h290l43 145h78l-117 -389h-530q98 217 147.5 431.5t49.5 422.5q0 279 -76.5 417t-231.5 138t-232 -138.5t-77 -416.5q0 -208 50 -422t149 -432h-533l-116 389h75l45 -145h289v14q-164 88 -253 239t-89 343q0 285 196.5 471t495.5 186q300 0 495.5 -186
t195.5 -471q0 -191 -89 -341t-255 -241z" />
    <glyph glyph-name="ae" unicode="&#xe6;" horiz-adv-x="1933" 
d="M1501 736q-4 137 -56.5 216.5t-137.5 79.5q-86 0 -144 -77.5t-78 -219.5zM1849 662h-766v-7q-4 -63 -4 -92q0 -230 93.5 -358.5t259.5 -128.5q139 0 234.5 94t143.5 279l58 -50q-63 -213 -198.5 -319.5t-344.5 -106.5q-177 0 -303 68t-199 203q-32 -133 -122 -202
t-232 -69q-185 0 -302.5 94t-117.5 238q0 173 182 263.5t553 103.5q-3 180 -64 270t-179 90q-119 0 -195 -83t-123 -265h-28l-95 305q113 54 233 80.5t249 26.5q125 0 218.5 -25.5t166.5 -79.5q59 52 151.5 78.5t212.5 26.5q215 0 353 -115.5t165 -318.5zM784 606
q-8 1 -18.5 1.5t-30.5 0.5q-163 0 -250.5 -75t-87.5 -216q0 -109 47 -175t123 -66q114 0 165.5 111t51.5 358v61z" />
    <glyph glyph-name="oslash" unicode="&#xf8;" horiz-adv-x="1360" 
d="M139 -104h-133l225 241q-84 80 -124.5 180t-40.5 228q0 242 171 395.5t445 153.5q105 0 195.5 -24t171.5 -73l170 174h133l-226 -237q83 -74 124.5 -174t41.5 -225q0 -251 -170 -405.5t-448 -154.5q-116 0 -207.5 25.5t-157.5 75.5zM412 330l501 526q-35 89 -93.5 132.5
t-141.5 43.5q-136 0 -207.5 -126.5t-71.5 -366.5q0 -74 3 -122.5t10 -86.5zM944 745l-500 -526q39 -92 97 -137t137 -45q137 0 210 125t73 360q0 51 -4.5 107t-12.5 116z" />
    <glyph glyph-name="questiondown" unicode="&#xbf;" horiz-adv-x="1157" 
d="M766 1202q0 -67 -46 -113.5t-114 -46.5q-66 0 -113 46.5t-47 113.5q0 68 47 116t113 48q68 0 114 -47.5t46 -116.5zM630 944q-1 -69 -26.5 -127.5t-101.5 -146.5q-92 -106 -123 -181t-31 -165q0 -134 71.5 -219t182.5 -85q125 0 211.5 95.5t138.5 292.5h33l92 -347
q-126 -49 -244.5 -74.5t-226.5 -25.5q-246 0 -399.5 106t-153.5 271q0 87 38 161t110 126q64 47 155.5 94t104.5 55q64 42 88 79.5t27 90.5h54z" />
    <glyph glyph-name="exclamdown" unicode="&#xa1;" horiz-adv-x="682" 
d="M301 936l80 -1q2 -89 12 -162.5t29 -135.5q8 -26 23 -74q75 -246 75 -342q0 -124 -47 -192t-133 -68q-82 0 -130 66t-48 180q0 107 52 271q6 20 9 29q48 163 63 250.5t15 166.5v12zM180 1204q0 68 46.5 115t113.5 47t114.5 -47.5t47.5 -114.5t-47.5 -114.5t-114.5 -47.5
q-68 0 -114 46.5t-46 115.5z" />
    <glyph glyph-name="logicalnot" unicode="&#xac;" horiz-adv-x="1706" 
d="M254 864h1198v-502h-199v306h-999v196z" />
    <glyph glyph-name="radical" unicode="&#x221a;" horiz-adv-x="1346" 
d="M1141 1694h207v-129h-103l-592 -1606h-100l-311 858l-140 -51l-30 113l331 116l236 -661z" />
    <glyph glyph-name="florin" unicode="&#x192;" horiz-adv-x="1366" 
d="M1126 1202h-32q-14 89 -43 136.5t-68 47.5q-50 0 -76.5 -70t-56.5 -358h199l-37 -104h-174l-66 -535q-47 -375 -207.5 -548.5t-460.5 -173.5q-27 0 -56.5 3t-63.5 9l139 282h29q13 -88 41.5 -136t68.5 -48q53 0 83.5 77.5t74.5 377.5l98 692h-209l39 104h189
q38 266 194 400.5t428 134.5q25 0 52 -1.5t52 -4.5z" />
    <glyph glyph-name="approxequal" unicode="&#x2248;" horiz-adv-x="1706" 
d="M1530 596v-219q-106 -72 -198 -105.5t-181 -33.5q-95 0 -286.5 66.5t-301.5 66.5q-84 0 -174.5 -37t-210.5 -121v219q111 73 206.5 108t180.5 35q124 0 315.5 -65.5t274.5 -65.5q86 0 174 35.5t201 116.5zM1530 1008v-220q-106 -71 -196.5 -104t-180.5 -33
q-94 0 -286 65.5t-304 65.5q-82 0 -170 -35t-215 -122v219q107 71 204 107t183 36q125 0 316.5 -65.5t273.5 -65.5q84 0 171 35t204 117z" />
    <glyph glyph-name="Delta" unicode="&#x2206;" horiz-adv-x="1350" 
d="M547 1116l-381 -827h764zM647 1497h68l692 -1497h-1460z" />
    <glyph glyph-name="guillemotleft" unicode="&#xab;" horiz-adv-x="1139" 
d="M598 532l262 392l189 -95l-218 -297l218 -294l-189 -95zM133 532l262 392l189 -95l-217 -297l217 -294l-189 -95z" />
    <glyph glyph-name="guillemotright" unicode="&#xbb;" horiz-adv-x="1139" 
d="M541 532l-262 -389l-189 95l215 294l-215 297l189 95zM1006 532l-263 -389l-188 95l215 294l-215 297l188 95z" />
    <glyph glyph-name="ellipsis" unicode="&#x2026;" horiz-adv-x="2048" 
d="M109 135q0 68 46 114t113 46t114.5 -46.5t47.5 -113.5t-47.5 -115.5t-114.5 -48.5t-113 47.5t-46 116.5zM791 135q0 68 46 114t113 46t114.5 -46.5t47.5 -113.5t-47.5 -115.5t-114.5 -48.5t-113 47.5t-46 116.5zM1475 135q0 68 46 114t113 46t114.5 -46.5t47.5 -113.5
t-47.5 -115.5t-114.5 -48.5t-113 47.5t-46 116.5z" />
    <glyph glyph-name="nonbreakingspace" unicode="&#xa0;" horiz-adv-x="1366" 
 />
    <glyph glyph-name="Agrave" unicode="&#xc0;" horiz-adv-x="1593" 
d="M831 590l-174 368l-174 -368h348zM-14 -6v24q72 30 151 134t185 311l460 903h17l479 -893q151 -281 214.5 -364t115.5 -91l-1 -24q-56 3 -117.5 4.5t-164.5 1.5q-128 0 -213 -1.5t-167 -4.5l-1 24q50 7 71 26t21 58q0 35 -25.5 105.5t-76.5 173.5l-70 141h-413l-33 -69
q-52 -107 -76.5 -178t-24.5 -115q0 -60 39 -97t109 -45l-1 -24q-51 3 -105.5 4.5t-139.5 1.5q-86 0 -136.5 -1.5t-96.5 -4.5zM992 1446h-91l-313 164q-56 30 -75 53t-19 56q0 40 25 65t65 25q31 0 63 -19t72 -61z" />
    <glyph glyph-name="Atilde" unicode="&#xc3;" horiz-adv-x="1593" 
d="M831 590l-174 368l-174 -368h348zM-14 -6v24q72 30 151 134t185 311l460 903h17l479 -893q151 -281 214.5 -364t115.5 -91l-1 -24q-56 3 -117.5 4.5t-164.5 1.5q-128 0 -213 -1.5t-167 -4.5l-1 24q50 7 71 26t21 58q0 35 -25.5 105.5t-76.5 173.5l-70 141h-413l-33 -69
q-52 -107 -76.5 -178t-24.5 -115q0 -60 39 -97t109 -45l-1 -24q-51 3 -105.5 4.5t-139.5 1.5q-86 0 -136.5 -1.5t-96.5 -4.5zM1086 1768q-14 -116 -68 -181t-137 -65q-16 0 -29.5 2t-27.5 6l-105 27q-14 4 -29 6t-28 2q-31 0 -52.5 -21t-37.5 -67h-66q17 124 69.5 186
t141.5 62q17 0 32.5 -2t31.5 -6l108 -29q11 -3 20.5 -4.5t18.5 -1.5q32 0 54 20t38 66h66z" />
    <glyph glyph-name="Otilde" unicode="&#xd5;" horiz-adv-x="1698" 
d="M848 29q195 0 290 157t95 480t-94.5 478.5t-290.5 155.5q-197 0 -290 -154t-93 -480q0 -327 93.5 -482t289.5 -155zM76 668q0 155 60.5 285.5t178.5 232.5q105 89 239.5 134.5t291.5 45.5q165 0 296.5 -45t237.5 -137q121 -105 181.5 -234.5t60.5 -281.5
q0 -151 -61.5 -281.5t-184.5 -239.5q-101 -90 -236.5 -138t-289.5 -48q-157 0 -296.5 49.5t-244.5 141.5q-112 100 -172.5 233.5t-60.5 282.5zM1139 1768q-14 -116 -68 -181t-137 -65q-16 0 -29.5 2t-27.5 6l-105 27q-14 4 -29 6t-28 2q-31 0 -52.5 -21t-37.5 -67h-66
q17 124 69.5 186t141.5 62q17 0 32.5 -2t31.5 -6l108 -29q11 -3 20.5 -4.5t18.5 -1.5q32 0 54 20t38 66h66z" />
    <glyph glyph-name="OE" unicode="&#x152;" horiz-adv-x="2470" 
d="M1223 467v555q0 162 -53.5 209t-204.5 47q-251 0 -377.5 -155t-126.5 -461q0 -302 119.5 -462.5t343.5 -160.5q114 0 175 22.5t91 73.5q18 30 25.5 86t7.5 197v49zM2443 444l27 -6l-129 -438h-866q-115 0 -309.5 -12.5t-274.5 -12.5q-381 0 -598 185.5t-217 507.5
q0 314 220 494.5t605 180.5q90 0 262 -8t254 -8h844l115 -342l-29 -8q-127 143 -290.5 211.5t-379.5 68.5q-50 0 -75 -0.5t-46 -3.5v-512q33 -2 66.5 -3t67.5 -1q179 0 296 58.5t150 162.5h27v-509h-27q-34 108 -150 165.5t-303 57.5q-51 0 -77.5 -1t-49.5 -3v-185
q0 -280 47 -345.5t197 -65.5q179 0 338 92t305 280z" />
    <glyph glyph-name="oe" unicode="&#x153;" horiz-adv-x="2152" 
d="M1720 735q-4 138 -56.5 217.5t-137.5 79.5q-86 0 -145 -78t-78 -219h417zM2068 662h-768v-7q-4 -63 -4 -92q0 -231 94 -361t259 -130q138 0 234.5 95.5t146.5 281.5l55 -50q-63 -212 -198 -318t-343 -106q-130 0 -235 38t-191 116q-81 -78 -190 -116t-254 -38
q-272 0 -440 158t-168 412q0 242 171 395.5t445 153.5q135 0 244.5 -39t195.5 -117q89 81 188.5 119.5t221.5 38.5q228 0 367.5 -113t168.5 -321zM678 37q139 0 211 126.5t72 373.5q0 244 -72 369.5t-211 125.5q-136 0 -207.5 -126.5t-71.5 -366.5q0 -247 71 -374.5
t208 -127.5z" />
    <glyph glyph-name="endash" unicode="&#x2013;" 
d="M0 444v177h1024v-177h-1024z" />
    <glyph glyph-name="emdash" unicode="&#x2014;" horiz-adv-x="2048" 
d="M0 621h2048v-177h-2048v177z" />
    <glyph glyph-name="quotedblleft" unicode="&#x201c;" horiz-adv-x="958" 
d="M727 1364l35 -29q-42 -63 -63.5 -124t-22.5 -119q85 -5 126.5 -42t41.5 -110q0 -78 -43 -123t-117 -45q-80 0 -127 58t-47 157q0 86 54 180t163 197zM322 1364l34 -31q-43 -66 -64.5 -125t-23.5 -116q85 -5 127.5 -43t42.5 -111q0 -78 -43.5 -123t-118.5 -45
q-79 0 -126.5 58.5t-47.5 158.5q0 85 55 179t165 198z" />
    <glyph glyph-name="quotedblright" unicode="&#x201d;" horiz-adv-x="958" 
d="M633 772l-35 31q42 64 63 123t23 118q-85 5 -126.5 43t-41.5 111q0 78 43 123t117 45q80 0 127 -58.5t47 -158.5q0 -86 -54 -180t-163 -197zM225 772l-35 31q43 64 64 123.5t22 117.5q-84 5 -125.5 43t-41.5 111q0 78 42.5 123t116.5 45q80 0 127 -58.5t47 -158.5
q0 -86 -54 -180t-163 -197z" />
    <glyph glyph-name="quoteleft" unicode="&#x2018;" horiz-adv-x="588" 
d="M342 1364l35 -29q-43 -65 -65 -125.5t-23 -117.5q86 -5 128 -42.5t42 -109.5q0 -78 -43 -123t-117 -45q-80 0 -127 58t-47 157q0 86 54 180t163 197z" />
    <glyph glyph-name="quoteright" unicode="&#x2019;" horiz-adv-x="588" 
d="M246 772l-35 31q43 66 65 125.5t23 115.5q-85 5 -127.5 43t-42.5 111q0 78 43 123t117 45q79 0 126.5 -58.5t47.5 -158.5q0 -86 -54 -180t-163 -197z" />
    <glyph glyph-name="divide" unicode="&#xf7;" horiz-adv-x="1706" 
d="M854 369q62 0 107 -45t45 -107q0 -61 -45 -105t-107 -44q-63 0 -107.5 43t-44.5 106t44.5 107.5t107.5 44.5zM254 711h1198v-199h-1198v199zM854 1155q62 0 107 -44.5t45 -106.5q0 -63 -44.5 -107.5t-107.5 -44.5t-107.5 44.5t-44.5 107.5t44.5 107t107.5 44z" />
    <glyph glyph-name="lozenge" unicode="&#x25ca;" horiz-adv-x="1012" 
d="M506 1409l-385 -817l385 -825l385 825zM506 1653l500 -1061l-500 -1069l-500 1069z" />
    <glyph glyph-name="ydieresis" unicode="&#xff;" horiz-adv-x="1204" 
d="M84 -393l133 362l29 -8q12 -61 40.5 -89t78.5 -28q68 0 108.5 40t40.5 108q0 39 -13 84t-40 102l-336 701l-1 1q-75 154 -136 171v22q78 -3 150.5 -4.5t142.5 -1.5t137.5 1.5t132.5 4.5v-22q-50 -19 -75 -50t-25 -73q0 -28 9 -61t25 -66l232 -449l184 449q15 37 23 70
t8 57q0 51 -28.5 80.5t-90.5 42.5v22q49 -3 101 -4.5t106 -1.5q55 0 111.5 1.5t115.5 4.5v-22q-69 -36 -122 -97t-117 -190l-301 -606q-169 -341 -285.5 -451t-267.5 -110q-19 0 -36.5 2.5t-33.5 7.5zM663 1370q0 48 36.5 84.5t84.5 36.5q49 0 84 -35.5t35 -85.5
q0 -53 -33 -87t-86 -34q-51 0 -86 34.5t-35 86.5zM299 1370q0 48 36 84.5t85 36.5t84 -35.5t35 -85.5q0 -53 -33.5 -87t-85.5 -34t-86.5 34.5t-34.5 86.5z" />
    <glyph glyph-name="Ydieresis" unicode="&#x178;" horiz-adv-x="1462" 
d="M420 14q83 18 113 97t30 354v129l-301 446q-97 146 -160 207t-114 64v22q79 -3 154 -4.5t147 -1.5q85 0 163.5 2t155.5 6v-24q-36 -6 -52.5 -24t-16.5 -52q0 -25 13 -56t38 -65l282 -391l185 289q43 66 64.5 115t21.5 81q0 46 -33 73t-92 30v24q60 -4 118.5 -6t116.5 -2
q57 0 112 2t110 6l-1 -24q-64 -12 -152 -99.5t-194 -244.5l-233 -344v-156q0 -274 30.5 -353t112.5 -98v-22q-107 3 -185.5 4.5t-129.5 1.5q-69 0 -145.5 -1.5t-157.5 -4.5v20zM792 1610q0 48 36.5 84.5t84.5 36.5q49 0 84 -35.5t35 -85.5q0 -53 -33 -87t-86 -34
q-51 0 -86 34.5t-35 86.5zM428 1610q0 48 36 84.5t85 36.5t84 -35.5t35 -85.5q0 -53 -33.5 -87t-85.5 -34t-86.5 34.5t-34.5 86.5z" />
    <glyph glyph-name="fraction" unicode="&#x2215;" horiz-adv-x="342" 
d="M-342 -39l874 1329h150l-875 -1329h-149z" />
    <glyph glyph-name="currency" unicode="&#xa4;" horiz-adv-x="1241" 
d="M623 1161q-113 0 -195 -82t-82 -194q0 -114 81 -194.5t196 -80.5q113 0 194.5 80.5t81.5 194.5q0 112 -81.5 194t-194.5 82zM172 1438l205 -203q54 39 114 58.5t130 19.5t131.5 -19.5t115.5 -58.5l203 203l105 -107l-203 -205q38 -53 57 -113.5t19 -127.5t-19 -127
t-57 -115l203 -205l-105 -104l-203 203q-54 -40 -115 -59t-130 -19q-72 0 -132.5 19t-113.5 59l-205 -203l-104 104l202 205q-38 54 -56.5 113.5t-18.5 128.5q0 67 18.5 127.5t56.5 113.5l-202 205z" />
    <glyph glyph-name="guilsinglleft" unicode="&#x2039;" horiz-adv-x="711" 
d="M152 532l262 392l188 -95l-215 -297l215 -294l-188 -95z" />
    <glyph glyph-name="guilsinglright" unicode="&#x203a;" horiz-adv-x="711" 
d="M559 532l-262 -389l-188 95l217 294l-217 297l188 95z" />
    <glyph glyph-name="fi" unicode="&#xf001;" horiz-adv-x="1319" 
d="M852 1329q0 71 45 117.5t113 46.5t114.5 -47t46.5 -117t-46.5 -117t-114.5 -47q-70 0 -114 45.5t-44 118.5zM1161 477v-47q0 -251 28.5 -321.5t104.5 -90.5v-24q-50 3 -109 4.5t-173 1.5q-104 0 -163.5 -1.5t-112.5 -4.5l-1 24q76 25 104.5 94.5t28.5 299.5v65v285
q0 131 -24 167.5t-90 41.5v24q134 17 236 35.5t171 38.5v-592zM461 477v-67q0 -235 28 -304.5t103 -89.5l-1 -22q-49 3 -108.5 4.5t-173.5 1.5q-102 0 -161 -1.5t-113 -4.5v22q74 25 102.5 92t28.5 285v84v471h-170l43 94h129q8 232 118.5 341.5t336.5 109.5q47 0 87.5 -4
t77.5 -12l-100 -289h-26q-2 4 -5 13q-69 202 -127 202q-39 0 -54 -33.5t-15 -165.5v-22v-140h205l-37 -94h-168v-471z" />
    <glyph glyph-name="fl" unicode="&#xf002;" horiz-adv-x="1319" 
d="M461 477v-67q0 -234 28 -303.5t103 -90.5l-1 -22q-49 3 -108.5 4.5t-173.5 1.5q-102 0 -161 -1.5t-113 -4.5v22q73 23 101 89t28 270v102v471h-168l2 10l41 84h129q8 232 118.5 341.5t336.5 109.5q44 0 87 -4.5t84 -13.5l-108 -287h-24q-38 148 -61.5 185.5t-59.5 37.5
q-45 0 -62.5 -47t-17.5 -182v-140h205v-12l-37 -82h-168v-471zM868 1188q0 128 -15 166.5t-54 42.5v22q101 15 192 33.5t178 40.5q-4 -85 -6 -157.5t-2 -127.5v-778q0 -249 28.5 -319.5t104.5 -92.5v-24q-50 3 -109 4.5t-173 1.5q-104 0 -163.5 -1.5t-112.5 -4.5l-1 24
q76 25 104.5 94.5t28.5 299.5v65v711z" />
    <glyph glyph-name="daggerdbl" unicode="&#x2021;" horiz-adv-x="1139" 
d="M684 295l338 27v-236l-340 29l18 -451h-264l19 451l-338 -29v236l338 -27v401l-338 -28v237l338 -28l-19 450h266l-18 -450l338 28v-237l-338 28v-401z" />
    <glyph glyph-name="periodcentered" unicode="&#xb7;" horiz-adv-x="682" 
d="M180 629q0 68 46.5 115t113.5 47t114.5 -47.5t47.5 -114.5t-47.5 -114.5t-114.5 -47.5q-68 0 -114 46.5t-46 115.5z" />
    <glyph glyph-name="quotesinglbase" unicode="&#x201a;" horiz-adv-x="588" 
d="M246 -299l-35 31q43 65 64.5 125t23.5 118q-86 5 -128 42.5t-42 109.5q0 78 43 123t117 45q80 0 127 -58t47 -157q0 -87 -54.5 -182t-162.5 -197z" />
    <glyph glyph-name="quotedblbase" unicode="&#x201e;" horiz-adv-x="958" 
d="M633 -299l-35 31q42 63 63.5 124t22.5 119q-85 5 -126.5 42t-41.5 110q0 78 43 123t117 45q80 0 127 -58t47 -157q0 -87 -54.5 -182t-162.5 -197zM225 -299l-35 31q42 63 63.5 124t22.5 119q-85 5 -126 42t-41 110q0 78 42.5 123t116.5 45q80 0 127 -58t47 -157
q0 -87 -54.5 -182t-162.5 -197z" />
    <glyph glyph-name="perthousand" unicode="&#x2030;" horiz-adv-x="2185" 
d="M1819 14q49 0 72.5 67.5t23.5 211.5q0 143 -23.5 210.5t-72.5 67.5t-73 -63.5t-24 -194.5q0 -162 22.5 -230.5t74.5 -68.5zM1509 293q0 142 88.5 236t223.5 94t223 -93.5t88 -234.5t-90.5 -237.5t-220.5 -96.5q-132 0 -222 95t-90 237zM1092 14q49 0 72.5 67.5
t23.5 211.5q0 143 -23.5 210.5t-72.5 67.5q-50 0 -74.5 -64.5t-24.5 -193.5q0 -160 23 -229.5t76 -69.5zM780 293q0 143 88 236.5t222 93.5t222.5 -93.5t88.5 -234.5q0 -142 -89.5 -238t-219.5 -96q-132 0 -222 95t-90 237zM223 -39l860 1329h150l-860 -1329h-150zM365 680
q49 0 72.5 67.5t23.5 210.5q0 144 -23.5 211.5t-72.5 67.5t-73 -64t-24 -194q0 -163 22.5 -231t74.5 -68zM55 961q0 142 88 235.5t222 93.5t222.5 -93.5t88.5 -235.5q0 -141 -90 -236.5t-221 -95.5q-132 0 -221 95t-89 237z" />
    <glyph glyph-name="Acircumflex" unicode="&#xc2;" horiz-adv-x="1593" 
d="M831 590l-174 368l-174 -368h348zM-14 -6v24q72 30 151 134t185 311l460 903h17l479 -893q151 -281 214.5 -364t115.5 -91l-1 -24q-56 3 -117.5 4.5t-164.5 1.5q-128 0 -213 -1.5t-167 -4.5l-1 24q50 7 71 26t21 58q0 35 -25.5 105.5t-76.5 173.5l-70 141h-413l-33 -69
q-52 -107 -76.5 -178t-24.5 -115q0 -60 39 -97t109 -45l-1 -24q-51 3 -105.5 4.5t-139.5 1.5q-86 0 -136.5 -1.5t-96.5 -4.5zM498 1446l225 348h148l225 -348h-84l-215 178l-215 -178h-84z" />
    <glyph glyph-name="Ecircumflex" unicode="&#xca;" horiz-adv-x="1430" 
d="M25 -6v26q84 18 114.5 93.5t30.5 349.5v680q0 70 -27.5 106.5t-93.5 53.5v28h12q213 -4 318 -4h848l114 -342l-30 -8q-127 143 -290.5 211.5t-379.5 68.5q-50 0 -74 -0.5t-45 -3.5v-512q34 -2 66 -3t65 -1q180 0 297 58.5t150 162.5h28v-509h-28q-35 109 -150 166
t-301 57q-51 0 -77.5 -1t-49.5 -3v-185q0 -279 45.5 -345t192.5 -66q183 0 341 92t300 280l35 -12l-131 -432h-844q-22 0 -68 1t-69 1q-81 0 -155 -2t-144 -6zM406 1446l225 348h148l225 -348h-84l-215 178l-215 -178h-84z" />
    <glyph glyph-name="Aacute" unicode="&#xc1;" horiz-adv-x="1593" 
d="M831 590l-174 368l-174 -368h348zM-14 -6v24q72 30 151 134t185 311l460 903h17l479 -893q151 -281 214.5 -364t115.5 -91l-1 -24q-56 3 -117.5 4.5t-164.5 1.5q-128 0 -213 -1.5t-167 -4.5l-1 24q50 7 71 26t21 58q0 35 -25.5 105.5t-76.5 173.5l-70 141h-413l-33 -69
q-52 -107 -76.5 -178t-24.5 -115q0 -60 39 -97t109 -45l-1 -24q-51 3 -105.5 4.5t-139.5 1.5q-86 0 -136.5 -1.5t-96.5 -4.5zM602 1446l273 283q40 42 72 61t63 19q40 0 65 -25t25 -65q0 -33 -19 -56t-75 -53l-313 -164h-91z" />
    <glyph glyph-name="Edieresis" unicode="&#xcb;" horiz-adv-x="1430" 
d="M25 -6v26q84 18 114.5 93.5t30.5 349.5v680q0 70 -27.5 106.5t-93.5 53.5v28h12q213 -4 318 -4h848l114 -342l-30 -8q-127 143 -290.5 211.5t-379.5 68.5q-50 0 -74 -0.5t-45 -3.5v-512q34 -2 66 -3t65 -1q180 0 297 58.5t150 162.5h28v-509h-28q-35 109 -150 166
t-301 57q-51 0 -77.5 -1t-49.5 -3v-185q0 -279 45.5 -345t192.5 -66q183 0 341 92t300 280l35 -12l-131 -432h-844q-22 0 -68 1t-69 1q-81 0 -155 -2t-144 -6zM766 1610q0 48 36.5 84.5t84.5 36.5q49 0 84 -35.5t35 -85.5q0 -53 -33 -87t-86 -34q-51 0 -86 34.5t-35 86.5z
M402 1610q0 48 36 84.5t85 36.5t84 -35.5t35 -85.5q0 -53 -33.5 -87t-85.5 -34t-86.5 34.5t-34.5 86.5z" />
    <glyph glyph-name="Egrave" unicode="&#xc8;" horiz-adv-x="1430" 
d="M25 -6v26q84 18 114.5 93.5t30.5 349.5v680q0 70 -27.5 106.5t-93.5 53.5v28h12q213 -4 318 -4h848l114 -342l-30 -8q-127 143 -290.5 211.5t-379.5 68.5q-50 0 -74 -0.5t-45 -3.5v-512q34 -2 66 -3t65 -1q180 0 297 58.5t150 162.5h28v-509h-28q-35 109 -150 166
t-301 57q-51 0 -77.5 -1t-49.5 -3v-185q0 -279 45.5 -345t192.5 -66q183 0 341 92t300 280l35 -12l-131 -432h-844q-22 0 -68 1t-69 1q-81 0 -155 -2t-144 -6zM900 1446h-91l-313 164q-56 30 -75 53t-19 56q0 40 25 65t65 25q31 0 63 -19t72 -61z" />
    <glyph glyph-name="Iacute" unicode="&#xcd;" horiz-adv-x="721" 
d="M535 463q0 -266 32 -344t121 -99v-26q-68 3 -142 4.5t-196 1.5q-116 0 -185 -1.5t-132 -4.5v26q88 19 119.5 94t31.5 349v684q0 70 -28.5 106.5t-96.5 53.5v28q70 -4 142.5 -6t148.5 -2q80 0 157 2t155 6v-28q-68 -14 -97.5 -51.5t-29.5 -108.5v-684zM165 1446l273 283
q40 42 72 61t63 19q40 0 65 -25t25 -65q0 -33 -19 -56t-75 -53l-313 -164h-91z" />
    <glyph glyph-name="Icircumflex" unicode="&#xce;" horiz-adv-x="721" 
d="M535 463q0 -266 32 -344t121 -99v-26q-68 3 -142 4.5t-196 1.5q-116 0 -185 -1.5t-132 -4.5v26q88 19 119.5 94t31.5 349v684q0 70 -28.5 106.5t-96.5 53.5v28q70 -4 142.5 -6t148.5 -2q80 0 157 2t155 6v-28q-68 -14 -97.5 -51.5t-29.5 -108.5v-684zM61 1446l225 348
h148l225 -348h-84l-215 178l-215 -178h-84z" />
    <glyph glyph-name="Idieresis" unicode="&#xcf;" horiz-adv-x="721" 
d="M535 463q0 -266 32 -344t121 -99v-26q-68 3 -142 4.5t-196 1.5q-116 0 -185 -1.5t-132 -4.5v26q88 19 119.5 94t31.5 349v684q0 70 -28.5 106.5t-96.5 53.5v28q70 -4 142.5 -6t148.5 -2q80 0 157 2t155 6v-28q-68 -14 -97.5 -51.5t-29.5 -108.5v-684zM421 1610
q0 48 36.5 84.5t84.5 36.5q49 0 84 -35.5t35 -85.5q0 -53 -33 -87t-86 -34q-51 0 -86 34.5t-35 86.5zM57 1610q0 48 36 84.5t85 36.5t84 -35.5t35 -85.5q0 -53 -33.5 -87t-85.5 -34t-86.5 34.5t-34.5 86.5z" />
    <glyph glyph-name="Igrave" unicode="&#xcc;" horiz-adv-x="721" 
d="M535 463q0 -266 32 -344t121 -99v-26q-68 3 -142 4.5t-196 1.5q-116 0 -185 -1.5t-132 -4.5v26q88 19 119.5 94t31.5 349v684q0 70 -28.5 106.5t-96.5 53.5v28q70 -4 142.5 -6t148.5 -2q80 0 157 2t155 6v-28q-68 -14 -97.5 -51.5t-29.5 -108.5v-684zM555 1446h-91
l-313 164q-56 30 -75 53t-19 56q0 40 25 65t65 25q31 0 63 -19t72 -61z" />
    <glyph glyph-name="Oacute" unicode="&#xd3;" horiz-adv-x="1698" 
d="M848 29q195 0 290 157t95 480t-94.5 478.5t-290.5 155.5q-197 0 -290 -154t-93 -480q0 -327 93.5 -482t289.5 -155zM76 668q0 155 60.5 285.5t178.5 232.5q105 89 239.5 134.5t291.5 45.5q165 0 296.5 -45t237.5 -137q121 -105 181.5 -234.5t60.5 -281.5
q0 -151 -61.5 -281.5t-184.5 -239.5q-101 -90 -236.5 -138t-289.5 -48q-157 0 -296.5 49.5t-244.5 141.5q-112 100 -172.5 233.5t-60.5 282.5zM655 1446l273 283q40 42 72 61t63 19q40 0 65 -25t25 -65q0 -33 -19 -56t-75 -53l-313 -164h-91z" />
    <glyph glyph-name="Ocircumflex" unicode="&#xd4;" horiz-adv-x="1698" 
d="M848 29q195 0 290 157t95 480t-94.5 478.5t-290.5 155.5q-197 0 -290 -154t-93 -480q0 -327 93.5 -482t289.5 -155zM76 668q0 155 60.5 285.5t178.5 232.5q105 89 239.5 134.5t291.5 45.5q165 0 296.5 -45t237.5 -137q121 -105 181.5 -234.5t60.5 -281.5
q0 -151 -61.5 -281.5t-184.5 -239.5q-101 -90 -236.5 -138t-289.5 -48q-157 0 -296.5 49.5t-244.5 141.5q-112 100 -172.5 233.5t-60.5 282.5zM551 1446l225 348h148l225 -348h-84l-215 178l-215 -178h-84z" />
    <glyph glyph-name="apple" unicode="&#xf000;" horiz-adv-x="1618" 
d="M836 1216q-1 6 -1.5 14t-0.5 23q0 124 95 229.5t236 131.5q1 -10 1.5 -23t0.5 -39q0 -131 -103.5 -234.5t-203.5 -103.5h-8q-3 0 -7.5 1t-8.5 1zM1505 403q-114 -247 -205 -342.5t-204 -95.5q-50 0 -131.5 33t-122.5 33q-45 0 -131 -33t-127 -33q-64 0 -128.5 44
t-129.5 132q-102 140 -157.5 295.5t-55.5 300.5q0 219 125 356.5t323 137.5q68 0 155 -34t124 -34q34 0 121.5 35t152.5 35q110 0 198 -40t161 -124q-102 -65 -151.5 -145.5t-49.5 -182.5q0 -113 60 -200t173 -138z" />
    <glyph glyph-name="Ograve" unicode="&#xd2;" horiz-adv-x="1698" 
d="M848 29q195 0 290 157t95 480t-94.5 478.5t-290.5 155.5q-197 0 -290 -154t-93 -480q0 -327 93.5 -482t289.5 -155zM76 668q0 155 60.5 285.5t178.5 232.5q105 89 239.5 134.5t291.5 45.5q165 0 296.5 -45t237.5 -137q121 -105 181.5 -234.5t60.5 -281.5
q0 -151 -61.5 -281.5t-184.5 -239.5q-101 -90 -236.5 -138t-289.5 -48q-157 0 -296.5 49.5t-244.5 141.5q-112 100 -172.5 233.5t-60.5 282.5zM1045 1446h-91l-313 164q-56 30 -75 53t-19 56q0 40 25 65t65 25q31 0 63 -19t72 -61z" />
    <glyph glyph-name="Uacute" unicode="&#xda;" horiz-adv-x="1538" 
d="M506 702q0 -177 9.5 -287.5t29.5 -158.5q40 -102 125.5 -153.5t214.5 -51.5q205 0 312.5 121.5t107.5 353.5v197q0 332 -48 436.5t-176 147.5l1 26q79 -3 139.5 -4.5t105.5 -1.5q58 0 128.5 1.5t149.5 4.5l1 -24q-129 -43 -177.5 -147.5t-48.5 -438.5v-186
q0 -295 -147 -435.5t-455 -140.5q-169 0 -289.5 35t-199.5 106q-72 66 -102.5 162t-30.5 279q0 73 3 173.5t3 129.5v301q0 69 -28.5 106t-94.5 54v28q67 -4 138 -6t147 -2q80 0 155 2t150 6v-28q-65 -12 -94 -50t-29 -110v-445zM651 1446l273 283q40 42 72 61t63 19
q40 0 65 -25t25 -65q0 -33 -19 -56t-75 -53l-313 -164h-91z" />
    <glyph glyph-name="Ucircumflex" unicode="&#xdb;" horiz-adv-x="1538" 
d="M506 702q0 -177 9.5 -287.5t29.5 -158.5q40 -102 125.5 -153.5t214.5 -51.5q205 0 312.5 121.5t107.5 353.5v197q0 332 -48 436.5t-176 147.5l1 26q79 -3 139.5 -4.5t105.5 -1.5q58 0 128.5 1.5t149.5 4.5l1 -24q-129 -43 -177.5 -147.5t-48.5 -438.5v-186
q0 -295 -147 -435.5t-455 -140.5q-169 0 -289.5 35t-199.5 106q-72 66 -102.5 162t-30.5 279q0 73 3 173.5t3 129.5v301q0 69 -28.5 106t-94.5 54v28q67 -4 138 -6t147 -2q80 0 155 2t150 6v-28q-65 -12 -94 -50t-29 -110v-445zM547 1446l225 348h148l225 -348h-84l-215 178
l-215 -178h-84z" />
    <glyph glyph-name="Ugrave" unicode="&#xd9;" horiz-adv-x="1538" 
d="M506 702q0 -177 9.5 -287.5t29.5 -158.5q40 -102 125.5 -153.5t214.5 -51.5q205 0 312.5 121.5t107.5 353.5v197q0 332 -48 436.5t-176 147.5l1 26q79 -3 139.5 -4.5t105.5 -1.5q58 0 128.5 1.5t149.5 4.5l1 -24q-129 -43 -177.5 -147.5t-48.5 -438.5v-186
q0 -295 -147 -435.5t-455 -140.5q-169 0 -289.5 35t-199.5 106q-72 66 -102.5 162t-30.5 279q0 73 3 173.5t3 129.5v301q0 69 -28.5 106t-94.5 54v28q67 -4 138 -6t147 -2q80 0 155 2t150 6v-28q-65 -12 -94 -50t-29 -110v-445zM1041 1446h-91l-313 164q-56 30 -75 53
t-19 56q0 40 25 65t65 25q31 0 63 -19t72 -61z" />
    <glyph glyph-name="dotlessi" unicode="&#x131;" horiz-adv-x="616" 
d="M467 1067q-3 -63 -4.5 -140t-1.5 -235v-282q0 -233 28 -302t103 -90l-1 -24q-49 3 -108.5 4.5t-173.5 1.5q-102 0 -161 -1.5t-113 -4.5v24q74 25 102.5 92t28.5 283v84v285q0 131 -23.5 167t-91.5 42v24q132 17 233.5 34.5t182.5 37.5z" />
    <glyph glyph-name="circumflex" unicode="&#x2c6;" 
d="M213 1206l225 348h148l225 -348h-84l-215 178l-215 -178h-84z" />
    <glyph glyph-name="tilde" unicode="&#x2dc;" 
d="M801 1528q-14 -116 -68 -181t-137 -65q-16 0 -29.5 2t-27.5 6l-105 27q-14 4 -29 6t-28 2q-31 0 -52.5 -21t-37.5 -67h-66q17 124 69.5 186t141.5 62q17 0 32.5 -2t31.5 -6l108 -29q11 -3 20.5 -4.5t18.5 -1.5q32 0 54 20t38 66h66z" />
    <glyph glyph-name="macron" unicode="&#xaf;" 
d="M236 1296v148h552v-148h-552z" />
    <glyph glyph-name="breve" unicode="&#x2d8;" 
d="M203 1524h76q17 -66 71.5 -94.5t161.5 -28.5q108 0 162.5 29t68.5 94h76q-20 -140 -98.5 -213.5t-208.5 -73.5t-209 73t-100 214z" />
    <glyph glyph-name="dotaccent" unicode="&#x2d9;" 
d="M385 1370q0 51 38 89t89 38q52 0 89.5 -37.5t37.5 -89.5q0 -55 -36 -91t-91 -36q-54 0 -90.5 36.5t-36.5 90.5z" />
    <glyph glyph-name="ring" unicode="&#x2da;" 
d="M365 1440q0 -62 43 -105t106 -43q61 0 103 43t42 105q0 61 -42.5 104t-102.5 43q-63 0 -106 -43t-43 -104zM260 1440q0 106 73 179t179 73t180 -73.5t74 -178.5q0 -106 -74 -179t-180 -73t-179 73t-73 179z" />
    <glyph glyph-name="cedilla" unicode="&#xb8;" 
d="M227 -377l41 90q73 -39 130.5 -56t117.5 -17q41 0 64.5 22t23.5 59q0 43 -25.5 64.5t-74.5 21.5q-15 0 -30 -1.5t-32 -3.5v198h70v-114q16 2 32.5 3.5t33.5 1.5q85 0 134.5 -45.5t49.5 -124.5q0 -85 -59 -131.5t-168 -46.5q-58 0 -131 19t-177 61z" />
    <glyph glyph-name="hungarumlaut" unicode="&#x2dd;" 
d="M565 1206l197 281l2 3q58 81 102 81q33 0 56.5 -23.5t23.5 -56.5q0 -25 -16.5 -50.5t-48.5 -49.5l-242 -185h-74zM313 1206l144 273q30 54 52 73t50 19q33 0 55.5 -21t22.5 -53q0 -25 -13 -49.5t-38 -48.5l-199 -193h-74z" />
    <glyph glyph-name="ogonek" unicode="&#x2db;" 
d="M678 29q-91 -73 -132.5 -136.5t-41.5 -128.5q0 -53 24.5 -82.5t67.5 -29.5q35 0 63.5 17.5t53.5 54.5l32 -19q-41 -84 -100 -124t-139 -40q-65 0 -107.5 43t-42.5 109q0 84 67 167t202 169h53z" />
    <glyph glyph-name="caron" unicode="&#x2c7;" 
d="M213 1554h84l215 -178l215 178h84l-225 -348h-148z" />
    <glyph glyph-name="Lslash" unicode="&#x141;" horiz-adv-x="1397" 
d="M33 -6v26q85 19 116 95t31 315v92l-170 -121v140l170 121v485q0 70 -27.5 106.5t-93.5 53.5v28q68 -4 138 -6t145 -2q81 0 157 2t150 6v-28q-64 -12 -93.5 -50t-29.5 -110v-291l396 279v-144l-396 -276v-232q0 -280 47.5 -345.5t194.5 -65.5q177 0 333 96.5t290 288.5
l28 -11l-129 -446h-821q-22 0 -67.5 1t-69.5 1q-81 0 -155 -2t-144 -6z" />
    <glyph glyph-name="lslash" unicode="&#x142;" horiz-adv-x="635" 
d="M176 633l-166 -117v115l166 114v443q0 131 -23.5 167t-90.5 42l-1 22q122 15 225.5 33.5t190.5 40.5q-4 -84 -6 -175t-2 -200v-211l158 109v-115l-158 -108v-363q0 -249 28.5 -319.5t104.5 -92.5v-24q-50 3 -109 4.5t-174 1.5q-103 0 -162.5 -1.5t-113.5 -4.5v24
q76 25 104.5 94.5t28.5 299.5v65v156z" />
    <glyph glyph-name="Scaron" unicode="&#x160;" horiz-adv-x="1395" 
d="M33 92l112 381h25q38 -215 160.5 -328.5t314.5 -113.5q159 0 249.5 72.5t90.5 199.5q0 90 -64.5 138t-295.5 94q-193 38 -271.5 68.5t-128.5 74.5q-56 50 -86 118t-30 144q0 191 168 308.5t446 117.5q139 0 273 -27.5t251 -81.5l-94 -325h-27q-43 180 -141.5 270
t-253.5 90q-135 0 -220 -65t-85 -166q0 -41 17.5 -76t52.5 -63q53 -43 263 -79q84 -15 130 -24q214 -42 316 -136.5t102 -250.5q0 -208 -179.5 -340.5t-468.5 -132.5q-178 0 -338 34t-288 99zM399 1794h84l215 -178l215 178h84l-225 -348h-148z" />
    <glyph glyph-name="scaron" unicode="&#x161;" horiz-adv-x="1157" 
d="M37 84l115 338l28 -4q32 -187 120 -284t224 -97q106 0 174 56.5t68 144.5q0 70 -47.5 109t-222.5 83q-233 59 -309 127.5t-76 194.5q0 150 139.5 246t365.5 96q110 0 214 -23t200 -67l-94 -279l-27 2q-42 146 -125 226.5t-192 80.5q-85 0 -144 -52t-59 -126
q0 -124 239 -175q44 -10 68 -15q219 -49 300 -120t81 -200q0 -174 -149.5 -274.5t-411.5 -100.5q-127 0 -249.5 29t-229.5 84zM281 1554h84l215 -178l215 178h84l-225 -348h-148z" />
    <glyph glyph-name="Zcaron" unicode="&#x17d;" horiz-adv-x="1294" 
d="M8 0v18l63 89q730 1025 730 1097q0 22 -32.5 36.5t-82.5 14.5q-188 0 -337.5 -76.5t-280.5 -240.5l-29 8l121 381h1104v-16q-315 -478 -510 -803.5t-195 -368.5q0 -34 27 -50.5t82 -16.5q151 0 291 87t333 308l27 -12l-152 -455h-1159zM348 1794h84l215 -178l215 178h84
l-225 -348h-148z" />
    <glyph glyph-name="zcaron" unicode="&#x17e;" horiz-adv-x="1165" 
d="M27 0l544 797q45 65 61.5 97.5t16.5 51.5q0 27 -21.5 43.5t-58.5 16.5q-95 0 -213.5 -77t-240.5 -218l-31 4l115 352h864l-528 -848q-19 -30 -29 -55.5t-10 -42.5q0 -25 21.5 -40t57.5 -15q108 0 247.5 85.5t258.5 229.5l29 -2l-119 -379h-964zM285 1554h84l215 -178
l215 178h84l-225 -348h-148z" />
    <glyph glyph-name="brokenbar" unicode="&#xa6;" 
d="M410 408h206v-758h-206v758zM410 1432h206v-758h-206v758z" />
    <glyph glyph-name="Eth" unicode="&#xd0;" horiz-adv-x="1630" 
d="M520 1251v-491h322v-113h-322v-178q0 -132 4 -207t13 -110q12 -51 53 -71t143 -20q204 0 316 160t112 451q0 305 -111.5 447.5t-351.5 142.5q-39 0 -84 -3t-94 -8zM37 0v16q83 19 113 90.5t30 356.5v184h-170v113h170v379q0 81 -27.5 119.5t-91.5 48.5l1 22
q49 -1 102.5 -1.5t146.5 -0.5q84 0 202 2t153 2q224 0 366 -32t250 -103q132 -88 200 -215t68 -287q0 -135 -44 -256.5t-124 -208.5q-115 -124 -267 -176.5t-415 -52.5h-381h-282z" />
    <glyph glyph-name="eth" unicode="&#xf0;" horiz-adv-x="1360" 
d="M851 1055q-13 23 -45.5 69.5t-78.5 108.5l-373 -82l-12 51l348 80q-19 29 -78 108q-32 41 -49 64l82 39q29 -27 93.5 -85.5t99.5 -90.5l268 59l12 -53l-233 -53q215 -188 312 -361t97 -366q0 -257 -168 -411.5t-450 -154.5q-267 0 -437.5 153.5t-170.5 391.5
q0 247 167.5 397t444.5 150q45 0 87.5 -3.5t83.5 -10.5zM678 37q139 0 211 124t72 365q0 238 -72 361t-211 123q-136 0 -207.5 -123t-71.5 -359q0 -240 71.5 -365.5t207.5 -125.5z" />
    <glyph glyph-name="Yacute" unicode="&#xdd;" horiz-adv-x="1462" 
d="M420 14q83 18 113 97t30 354v129l-301 446q-97 146 -160 207t-114 64v22q79 -3 154 -4.5t147 -1.5q85 0 163.5 2t155.5 6v-24q-36 -6 -52.5 -24t-16.5 -52q0 -25 13 -56t38 -65l282 -391l185 289q43 66 64.5 115t21.5 81q0 46 -33 73t-92 30v24q60 -4 118.5 -6t116.5 -2
q57 0 112 2t110 6l-1 -24q-64 -12 -152 -99.5t-194 -244.5l-233 -344v-156q0 -274 30.5 -353t112.5 -98v-22q-107 3 -185.5 4.5t-129.5 1.5q-69 0 -145.5 -1.5t-157.5 -4.5v20zM536 1446l273 283q40 42 72 61t63 19q40 0 65 -25t25 -65q0 -33 -19 -56t-75 -53l-313 -164h-91
z" />
    <glyph glyph-name="yacute" unicode="&#xfd;" horiz-adv-x="1204" 
d="M84 -393l133 362l29 -8q12 -61 40.5 -89t78.5 -28q68 0 108.5 40t40.5 108q0 39 -13 84t-40 102l-336 701l-1 1q-75 154 -136 171v22q78 -3 150.5 -4.5t142.5 -1.5t137.5 1.5t132.5 4.5v-22q-50 -19 -75 -50t-25 -73q0 -28 9 -61t25 -66l232 -449l184 449q15 37 23 70
t8 57q0 51 -28.5 80.5t-90.5 42.5v22q49 -3 101 -4.5t106 -1.5q55 0 111.5 1.5t115.5 4.5v-22q-69 -36 -122 -97t-117 -190l-301 -606q-169 -341 -285.5 -451t-267.5 -110q-19 0 -36.5 2.5t-33.5 7.5zM407 1206l273 283q40 42 72 61t63 19q40 0 65 -25t25 -65q0 -33 -19 -56
t-75 -53l-313 -164h-91z" />
    <glyph glyph-name="Thorn" unicode="&#xde;" horiz-adv-x="1395" 
d="M516 1061q25 1 52.5 1.5t80.5 0.5q377 0 560.5 -86t183.5 -262q0 -166 -190.5 -264.5t-516.5 -98.5q-62 0 -98.5 1t-71.5 3l2 -69q0 -121 34.5 -182.5t113.5 -84.5l-1 -26q-62 3 -132 4.5t-195 1.5q-120 0 -186.5 -1.5t-124.5 -4.5v26q85 18 116 95.5t31 347.5v684
q0 69 -28.5 106t-94.5 54v28q74 -4 145.5 -6t139.5 -2q71 0 146.5 2t156.5 6v-28q-65 -14 -94 -51.5t-29 -108.5v-86zM516 987v-552q24 -6 52.5 -8.5t68.5 -2.5q176 0 270 75.5t94 215.5t-98 208t-299 68q-21 0 -71 -3q-10 0 -17 -1z" />
    <glyph glyph-name="thorn" unicode="&#xfe;" horiz-adv-x="1364" 
d="M123 1188q0 131 -23.5 167t-91.5 42v22q123 15 226.5 33.5t189.5 40.5q-4 -78 -6 -169.5t-2 -205.5v-203q50 87 137 134t199 47q240 0 390 -153t150 -400q0 -241 -152.5 -404.5t-377.5 -163.5q-106 0 -192.5 40.5t-153.5 121.5v-90q0 -270 33.5 -340t125.5 -90v-22
q-91 3 -169.5 4.5t-145.5 1.5q-94 0 -153.5 -1.5t-116.5 -4.5v22q76 20 104.5 91t28.5 335v25v1120zM688 59q131 0 202 123.5t71 354.5q0 235 -71 358t-206 123q-127 0 -197.5 -122t-70.5 -343q0 -244 68.5 -369t203.5 -125z" />
    <glyph glyph-name="minus" unicode="&#x2212;" horiz-adv-x="1706" 
d="M254 713h1198v-203h-1198v203z" />
    <glyph glyph-name="multiply" unicode="&#xd7;" horiz-adv-x="1706" 
d="M416 1202l450 -450l451 450l141 -139l-450 -453l450 -450l-141 -140l-451 451l-450 -451l-140 140l451 450l-451 453z" />
    <glyph glyph-name="onesuperior" unicode="&#xb9;" horiz-adv-x="901" 
d="M350 1087q0 87 -19.5 107.5t-78.5 24.5v14q77 6 155 17t156 25q-3 -35 -4.5 -98.5t-1.5 -154.5v-258q0 -158 24.5 -200t94.5 -52v-14q-45 2 -93.5 3t-133.5 1q-75 0 -121 -1t-90 -3v14q65 14 88.5 51.5t23.5 163.5v61v299z" />
    <glyph glyph-name="twosuperior" unicode="&#xb2;" horiz-adv-x="901" 
d="M53 502q25 90 79 156.5t140 113.5q22 12 62 32q99 51 125 77q34 31 49.5 68.5t15.5 88.5q0 98 -39.5 147.5t-117.5 49.5q-86 0 -139 -58t-76 -176l-17 -4l-61 211q74 34 153 51t160 17q169 0 274 -67.5t105 -174.5q0 -58 -33 -102t-106 -82q-39 -21 -135.5 -47.5
t-137.5 -40.5q-64 -24 -93.5 -48t-35.5 -54l310 -1q83 0 140.5 24t102.5 77l15 -2l-82 -260q-50 2 -101.5 3t-105.5 1h-451z" />
    <glyph glyph-name="threesuperior" unicode="&#xb3;" horiz-adv-x="901" 
d="M277 936q25 -3 46 -4.5t35 -1.5q90 0 136.5 40.5t46.5 119.5q0 70 -42.5 108.5t-119.5 38.5q-84 0 -137 -52.5t-74 -156.5h-18l-56 191q77 28 158.5 42.5t167.5 14.5q160 0 254 -49t94 -131q0 -72 -75.5 -119.5t-210.5 -61.5q162 -9 248.5 -60.5t86.5 -139.5
q0 -106 -113.5 -170t-306.5 -64q-101 0 -190.5 19.5t-169.5 58.5l78 211h18q17 -122 81 -187t167 -65q92 0 144.5 51t52.5 142q0 88 -54 135t-155 47q-23 0 -81 -7q-8 -1 -12 -1z" />
    <glyph glyph-name="onequarter" unicode="&#xbc;" horiz-adv-x="2062" 
d="M1483 -4v14q64 12 89 44t25 106v26h-378l24 56l522 506l15 -5v-178v-305h14q78 0 130.5 23t90.5 73l13 -4l-66 -174q-29 4 -64.5 6t-78.5 2h-33v-36q0 -70 24 -100.5t84 -39.5v-14q-38 2 -80.5 3t-119.5 1q-76 0 -122 -1t-89 -3zM1602 260l4 270l-281 -270h277zM518 -39
l875 1329h149l-874 -1329h-150zM334 1100q0 81 -19 99.5t-75 21.5v14q70 6 144.5 16t152.5 25q-3 -24 -4 -67.5t-1 -170.5v-239q0 -151 23.5 -189t89.5 -47v-14q-43 2 -89 3t-128 1q-71 0 -114.5 -1t-86.5 -3v14q62 13 84.5 48t22.5 153v55v281z" />
    <glyph glyph-name="onehalf" unicode="&#xbd;" horiz-adv-x="2062" 
d="M1253 0q24 85 75 146.5t134 105.5q25 13 70 36q86 43 108 64q33 30 47.5 65t14.5 85q0 90 -38 136t-112 46q-82 0 -132.5 -54t-71.5 -165l-17 -2l-59 196q74 32 149 48t150 16q161 0 261.5 -63t100.5 -162q0 -54 -32 -96t-101 -78q-34 -17 -124 -41.5t-136 -40.5
q-58 -20 -87.5 -42.5t-35.5 -52.5h295q81 0 135 22.5t97 72.5l14 -4l-78 -242q-45 2 -95 3t-104 1h-428zM518 -39l875 1329h149l-874 -1329h-150zM334 1100q0 81 -19 99.5t-75 21.5v14q70 6 144.5 16t152.5 25q-3 -24 -4 -67.5t-1 -170.5v-239q0 -151 23.5 -189t89.5 -47
v-14q-43 2 -89 3t-128 1q-71 0 -114.5 -1t-86.5 -3v14q62 13 84.5 48t22.5 153v55v281z" />
    <glyph glyph-name="threequarters" unicode="&#xbe;" horiz-adv-x="2062" 
d="M1483 -4v14q64 12 89 44t25 106v26h-378l24 56l522 506l15 -5v-178v-305h14q78 0 130.5 23t90.5 73l13 -4l-66 -174q-29 4 -64.5 6t-78.5 2h-33v-36q0 -70 24 -100.5t84 -39.5v-14q-38 2 -80.5 3t-119.5 1q-76 0 -122 -1t-89 -3zM1602 260l4 270l-281 -270h277zM518 -39
l875 1329h149l-874 -1329h-150zM264 958q28 -3 46.5 -4.5t31.5 -1.5q85 0 129.5 38.5t44.5 111.5q0 65 -40 101t-114 36q-80 0 -131 -49t-71 -146h-17l-55 179q79 27 156.5 40t156.5 13q153 0 242.5 -45.5t89.5 -122.5q0 -67 -72 -112t-202 -58q157 -8 239 -55.5t82 -130.5
q0 -100 -108 -160t-293 -60q-95 0 -180 18.5t-164 55.5l76 199h16q15 -114 76.5 -175t161.5 -61q88 0 138 47.5t50 131.5q0 82 -52.5 126t-150.5 44q-22 -1 -73 -7q-8 -1 -13 -2v49z" />
    <glyph glyph-name="franc" unicode="&#x20a3;" horiz-adv-x="2173" 
d="M524 463q0 -266 31 -344.5t117 -98.5l-1 -26q-65 3 -136 4.5t-191 1.5q-115 0 -182.5 -1.5t-128.5 -4.5v26q85 18 116 95.5t31 347.5v680q0 70 -27.5 106.5t-93.5 53.5v28h12q213 -4 318 -4h846l115 -342l-29 -8q-129 145 -292 212.5t-386 67.5q-46 0 -71 -0.5t-48 -3.5
v-512q40 -2 73 -3t67 -1q178 0 295.5 58.5t150.5 162.5h29v-516h-29q-35 115 -150.5 172.5t-312.5 57.5q-30 0 -105 -4h-18v-205zM1364 -6v24q75 25 103 91.5t28 283.5v84v285q0 131 -23.5 167t-91.5 42v24q136 17 238.5 35.5t171.5 38.5v-250q63 138 150.5 207.5
t199.5 69.5q16 0 24.5 -0.5t15.5 -1.5l-112 -334h-26q-16 20 -36.5 30.5t-45.5 10.5q-83 0 -126.5 -75.5t-43.5 -217.5v-98q0 -233 28 -302t103 -90l-1 -24q-49 3 -108.5 4.5t-173.5 1.5q-102 0 -161 -1.5t-113 -4.5z" />
    <glyph glyph-name="Gbreve" unicode="&#x11e;" horiz-adv-x="1616" 
d="M1606 682v-27q-80 -20 -108 -52t-28 -103v-226q0 -30 2 -62.5t4 -66.5q-114 -93 -261.5 -139.5t-331.5 -46.5q-366 0 -586.5 194t-220.5 515q0 313 225.5 505.5t595.5 192.5q161 0 313.5 -41.5t282.5 -120.5l-121 -332l-29 7q-33 212 -137 315.5t-282 103.5
q-231 0 -345 -158t-114 -476q0 -327 98 -483t303 -156q148 0 206 73t58 273q0 173 -47.5 222.5t-191.5 61.5v27q86 -4 174.5 -6t179.5 -2q80 0 170.5 2t190.5 6zM500 1764h76q17 -66 71.5 -94.5t161.5 -28.5q108 0 162.5 29t68.5 94h76q-20 -140 -98.5 -213.5t-208.5 -73.5
t-209 73t-100 214z" />
    <glyph glyph-name="gbreve" unicode="&#x11f;" horiz-adv-x="1262" 
d="M1225 1237l-92 -285h-19q-16 69 -55 108.5t-92 39.5q-31 0 -92 -46l-4 -3q134 -66 195.5 -145.5t61.5 -186.5q0 -130 -91.5 -226t-245.5 -126q-70 -14 -168 -20q-109 -8 -109 -46q0 -44 170 -63q91 -10 150 -19q211 -31 299 -94.5t88 -183.5q0 -159 -171 -251.5
t-466 -92.5q-257 0 -413.5 75.5t-156.5 198.5q0 97 95 158.5t288 89.5q-103 8 -153.5 34.5t-50.5 73.5q0 53 62 88t191 56q-170 33 -264 124t-94 222q0 161 146 270t370 109q37 0 83 -6t114 -19q79 86 167.5 129t184.5 43q18 0 35.5 -1.5t36.5 -4.5zM602 1032
q-90 0 -146.5 -87t-56.5 -228q0 -143 57 -224t156 -81q91 0 142 86.5t51 240.5q0 137 -54.5 215t-148.5 78zM326 -127q0 -101 73.5 -157t206.5 -56q148 0 235 58.5t87 156.5q0 94 -88.5 144.5t-251.5 50.5q-120 0 -191 -54t-71 -143zM322 1524h76q17 -66 71.5 -94.5
t161.5 -28.5q108 0 162.5 29t68.5 94h76q-20 -140 -98.5 -213.5t-208.5 -73.5t-209 73t-100 214z" />
    <glyph glyph-name="Idotaccent" unicode="&#x130;" horiz-adv-x="721" 
d="M535 463q0 -266 32 -344t121 -99v-26q-68 3 -142 4.5t-196 1.5q-116 0 -185 -1.5t-132 -4.5v26q88 19 119.5 94t31.5 349v684q0 70 -28.5 106.5t-96.5 53.5v28q70 -4 142.5 -6t148.5 -2q80 0 157 2t155 6v-28q-68 -14 -97.5 -51.5t-29.5 -108.5v-684zM233 1610
q0 51 38 89t89 38q52 0 89.5 -37.5t37.5 -89.5q0 -55 -36 -91t-91 -36q-54 0 -90.5 36.5t-36.5 90.5z" />
    <glyph glyph-name="Scedilla" unicode="&#x15e;" horiz-adv-x="1395" 
d="M33 92l112 381h25q38 -215 160.5 -328.5t314.5 -113.5q159 0 249.5 72.5t90.5 199.5q0 90 -64.5 138t-295.5 94q-193 38 -271.5 68.5t-128.5 74.5q-56 50 -86 118t-30 144q0 191 168 308.5t446 117.5q139 0 273 -27.5t251 -81.5l-94 -325h-27q-43 180 -141.5 270
t-253.5 90q-135 0 -220 -65t-85 -166q0 -41 17.5 -76t52.5 -63q53 -43 263 -79q84 -15 130 -24q214 -42 316 -136.5t102 -250.5q0 -208 -179.5 -340.5t-468.5 -132.5q-178 0 -338 34t-288 99zM413 -377l41 90q73 -39 130.5 -56t117.5 -17q41 0 64.5 22t23.5 59
q0 43 -25.5 64.5t-74.5 21.5q-15 0 -30 -1.5t-32 -3.5v198h70v-114q16 2 32.5 3.5t33.5 1.5q85 0 134.5 -45.5t49.5 -124.5q0 -85 -59 -131.5t-168 -46.5q-58 0 -131 19t-177 61z" />
    <glyph glyph-name="scedilla" unicode="&#x15f;" horiz-adv-x="1157" 
d="M37 84l115 338l28 -4q32 -187 120 -284t224 -97q106 0 174 56.5t68 144.5q0 70 -47.5 109t-222.5 83q-233 59 -309 127.5t-76 194.5q0 150 139.5 246t365.5 96q110 0 214 -23t200 -67l-94 -279l-27 2q-42 146 -125 226.5t-192 80.5q-85 0 -144 -52t-59 -126
q0 -124 239 -175q44 -10 68 -15q219 -49 300 -120t81 -200q0 -174 -149.5 -274.5t-411.5 -100.5q-127 0 -249.5 29t-229.5 84zM295 -377l41 90q73 -39 130.5 -56t117.5 -17q41 0 64.5 22t23.5 59q0 43 -25.5 64.5t-74.5 21.5q-15 0 -30 -1.5t-32 -3.5v198h70v-114
q16 2 32.5 3.5t33.5 1.5q85 0 134.5 -45.5t49.5 -124.5q0 -85 -59 -131.5t-168 -46.5q-58 0 -131 19t-177 61z" />
    <glyph glyph-name="Cacute" unicode="&#x106;" horiz-adv-x="1532" 
d="M1481 145q-131 -93 -283 -138.5t-334 -45.5q-158 0 -298 46.5t-247 133.5q-123 101 -182 230.5t-59 300.5q0 311 222.5 502.5t586.5 191.5q151 0 289 -38t264 -114l-99 -321l-28 4q-31 196 -132 296.5t-268 100.5q-206 0 -324 -162t-118 -450q0 -308 117.5 -478.5
t329.5 -170.5q177 0 279.5 112t141.5 349l29 2zM698 1446l273 283q40 42 72 61t63 19q40 0 65 -25t25 -65q0 -33 -19 -56t-75 -53l-313 -164h-91z" />
    <glyph glyph-name="cacute" unicode="&#x107;" horiz-adv-x="1194" 
d="M1124 975l-98 -309h-25q-15 181 -89 275.5t-201 94.5q-153 0 -237.5 -129.5t-84.5 -365.5q0 -226 96 -358t258 -132q107 0 189.5 68.5t134.5 199.5l57 -45q-63 -155 -175 -230t-279 -75q-268 0 -434 155.5t-166 403.5q0 257 164 412.5t436 155.5q120 0 234 -30.5
t220 -90.5zM460 1206l273 283q40 42 72 61t63 19q40 0 65 -25t25 -65q0 -33 -19 -56t-75 -53l-313 -164h-91z" />
    <glyph glyph-name="Ccaron" unicode="&#x10c;" horiz-adv-x="1532" 
d="M1481 145q-131 -93 -283 -138.5t-334 -45.5q-158 0 -298 46.5t-247 133.5q-123 101 -182 230.5t-59 300.5q0 311 222.5 502.5t586.5 191.5q151 0 289 -38t264 -114l-99 -321l-28 4q-31 196 -132 296.5t-268 100.5q-206 0 -324 -162t-118 -450q0 -308 117.5 -478.5
t329.5 -170.5q177 0 279.5 112t141.5 349l29 2zM594 1794h84l215 -178l215 178h84l-225 -348h-148z" />
    <glyph glyph-name="ccaron" unicode="&#x10d;" horiz-adv-x="1194" 
d="M1124 975l-98 -309h-25q-15 181 -89 275.5t-201 94.5q-153 0 -237.5 -129.5t-84.5 -365.5q0 -226 96 -358t258 -132q107 0 189.5 68.5t134.5 199.5l57 -45q-63 -155 -175 -230t-279 -75q-268 0 -434 155.5t-166 403.5q0 257 164 412.5t436 155.5q120 0 234 -30.5
t220 -90.5zM356 1554h84l215 -178l215 178h84l-225 -348h-148z" />
    <glyph glyph-name="dcroat" unicode="&#x111;" horiz-adv-x="1374" 
d="M948 158q-64 -97 -149 -142t-203 -45q-233 0 -386 149.5t-153 377.5q0 243 150.5 405t376.5 162q105 0 190.5 -40t155.5 -122v256h-383v96h381v17q0 61 -24.5 89.5t-80.5 33.5v22q112 17 212.5 35.5t190.5 40.5q-4 -88 -6 -139.5t-3 -98.5h149v-96h-147v-690
q0 -259 28 -346.5t101 -104.5v-22q-40 2 -81 3t-102 1q-43 0 -78 -1t-71 -3q-22 41 -39 81t-29 81zM385 524q0 -229 72 -352t207 -123q124 0 195 120.5t71 336.5q0 232 -69 353.5t-202 121.5q-128 0 -201 -120.5t-73 -336.5z" />
    <glyph glyph-name="sfthyphen" unicode="&#xad;" horiz-adv-x="713" 
d="M594 651l-64 -235h-411l63 235h412z" />
    <glyph glyph-name="periodcentered" unicode="&#x2219;" horiz-adv-x="682" 
d="M180 629q0 68 46.5 115t113.5 47t114.5 -47.5t47.5 -114.5t-47.5 -114.5t-114.5 -47.5q-68 0 -114 46.5t-46 115.5z" />
    </font>
</defs>
</svg>
