<?xml version="1.0" standalone="no"?>
<!DOCTYPE svg PUBLIC "-//W3C//DTD SVG 1.1//EN" "http://www.w3.org/Graphics/SVG/1.1/DTD/svg11.dtd" >
<svg xmlns="http://www.w3.org/2000/svg" xmlns:xlink="http://www.w3.org/1999/xlink" version="1.1">
<metadata>
Created by FontForge 20150318 at Mon Apr 27 01:30:33 2015
 By uniteet7
Copyright (c) 2012 by Luciano Vergara. All rights reserved.
</metadata>
<defs>
<font id="AntartidaRndW04-Bold" horiz-adv-x="252" >
  <font-face 
    font-family="AntartidaRndW04-Bold"
    font-weight="700"
    font-stretch="normal"
    units-per-em="1000"
    panose-1="2 0 0 0 0 0 0 0 0 0"
    ascent="750"
    descent="-250"
    x-height="559.999"
    cap-height="700"
    bbox="-107.997 -242.999 1432 912.001"
    underline-thickness="50"
    underline-position="-100"
    unicode-range="U+0020-FB04"
  />
<missing-glyph horiz-adv-x="286" 
 />
    <glyph glyph-name="uniFB00" unicode="ff" horiz-adv-x="646" 
d="M92 0c-9.33301 0 -16.999 2.99805 -22.999 8.99805s-9 13.667 -9 23v392h-23c-9.33301 0 -17 3 -23 9s-9 13.667 -9 23v36c0 9.33301 3 17 9 23s13.667 9 23 9h23v29c0 66 17.167 114 51.5 144s83.833 45 148.5 45c24 0 47.333 -4.16699 70 -12.5
s43.667 -19.166 63 -32.499c38 42 92.667 63 164 63c17.333 0 34.666 -1 51.999 -3c8.66699 -1.33301 16.167 -5.66602 22.5 -12.999s9.5 -15 9.5 -23v-45c0 -8 -2.66699 -14.5 -8 -19.5s-12 -6.83301 -20 -5.5c-14 2 -28.333 3 -43 3c-30 0 -52.833 -7.66699 -68.5 -23
s-23.5 -42 -23.5 -80v-27h108c8.66699 0 16 -3 22 -9s9 -13.667 9 -23v-36c0 -9.33301 -3 -17 -9 -23s-13.333 -9 -22 -9h-108v-392c0 -9.33301 -3 -17 -9 -23s-13.667 -9 -23 -9h-69c-9.33301 0 -17 3 -23 9s-9 13.667 -9 23v392h-152v-392c0 -9.33301 -3 -17 -9 -23
s-13.667 -9 -23 -9h-69zM193.001 523.998l152 0.000976562v29c0 19.333 2.66699 38.666 8 57.999c-12 7.33301 -25 13.333 -39 18s-27.667 7 -41 7c-28.667 0 -49.167 -6.66699 -61.5 -20s-18.5 -39 -18.5 -77v-15z" />
    <glyph glyph-name="uniFB01" unicode="fi" horiz-adv-x="548" 
d="M92 0c-9.33301 0 -17.001 2.99902 -23.001 8.99902s-9 13.667 -9 23v423h-23c-9.33301 0 -17 3 -23 9s-9 13.333 -9 22v42c0 9.33301 3 17 9 23s13.667 9 23 9h23v26c0 58.667 18.833 102.334 56.5 131.001s88.167 43 151.5 43c24 0 50.167 -1.66699 78.5 -5
s53.5 -7.66602 75.5 -12.999c8 -1.33301 15.167 -6 21.5 -14s9.5 -16.333 9.5 -25v-37c0 -9.33301 -3 -16.333 -9 -21s-13.333 -6.33398 -22 -5.00098c-23.333 4.66699 -48.333 8.5 -75 11.5s-50.667 4.5 -72 4.5c-25.333 0 -45.166 -6.16699 -59.499 -18.5
s-21.5 -32.5 -21.5 -60.5v-17h260c9.33301 0 17 -3 23 -9s9 -13.667 9 -23v-496c0 -9.33301 -3 -17 -9 -23s-13.667 -9 -23 -9h-69c-9.33301 0 -17 3 -23 9s-9 13.667 -9 23v423h-160v-423c0 -9.33301 -3 -17 -9 -23s-13.667 -9 -23 -9h-69z" />
    <glyph glyph-name="uniFB02" unicode="fl" horiz-adv-x="549" 
d="M92 0c-9.33301 0 -17 2.99805 -23 8.99805s-9 13.667 -9 23v392h-23c-9.33301 0 -17 3 -23 9s-9 13.667 -9 23v36c0 9.33301 3 17 9 23s13.667 9 23 9h23v35c0 66 18.5 116 55.5 150s88.833 51 155.5 51c34 0 67.5 -4.66699 100.5 -14s62.833 -20.333 89.5 -33
c8.66699 -4 15.667 -10.167 21 -18.5s8 -17.166 8 -26.499v-636c0 -9.33301 -3.16699 -17 -9.5 -23s-13.833 -9 -22.5 -9h-69c-9.33301 0 -17 3 -23 9s-9 13.667 -9 23v607c-11.333 4.66699 -23.333 8.33398 -36 11.001s-26 4 -40 4c-30 0 -52.167 -8.16699 -66.5 -24.5
s-21.5 -43.5 -21.5 -81.5v-24h83c8.66699 0 16 -3 22 -9s9 -13.667 9 -23v-36c0 -9.33301 -3 -17 -9 -23s-13.333 -9 -22 -9h-83v-392c0 -9.33301 -3 -17 -9 -23s-13.667 -9 -23 -9h-69z" />
    <glyph glyph-name="uniFB03" unicode="ffi" horiz-adv-x="816" 
d="M92 0c-9.33301 0 -17 3.00098 -23 9.00098s-9 13.667 -9 23v428h-23c-9.33301 0 -17 3 -23 9s-9 13.667 -9 23v36c0 9.33301 3 17 9 23s13.667 9 23 9h23c0 65.333 16.167 112 48.5 140s79.166 42 140.499 42c23.333 0 47.833 -4 73.5 -12s47.5 -18.333 65.5 -31
c38 40.667 93.667 61 167 61c20.667 0 44.167 -1.5 70.5 -4.5s50.5 -7.16699 72.5 -12.5c8 -1.33301 15 -5.83301 21 -13.5s9 -15.834 9 -24.501v-33c0 -8 -3.16699 -14.5 -9.5 -19.5s-13.166 -6.5 -20.499 -4.5c-21.333 4.66699 -43.333 8.5 -66 11.5s-44 4.5 -64 4.5
c-30.667 0 -53.167 -7.5 -67.5 -22.5s-21.5 -42.167 -21.5 -81.5h246c8.66699 0 16 -3 22 -9s9 -13.667 9 -23v-496c0 -9.33301 -3 -17 -9 -23s-13.333 -9 -22 -9h-70c-8.66699 0 -16.167 3 -22.5 9s-9.5 13.667 -9.5 23v428h-145v-428c0 -9.33301 -3 -17 -9 -23
s-13.667 -9 -23 -9h-69c-9.33301 0 -17 3 -23 9s-9 13.667 -9 23v428h-152v-428c0 -9.33301 -3 -17 -9 -23s-13.667 -9 -23 -9h-69zM273 642.001c-28.667 0 -49.167 -5.49902 -61.5 -16.499s-18.5 -32.833 -18.5 -65.5h152c0 14 0.666992 25 2 33s3.33301 16.333 6 25
c-12 7.33301 -25 13.166 -39 17.499s-27.667 6.5 -41 6.5z" />
    <glyph glyph-name="uniFB04" unicode="ffl" horiz-adv-x="832" 
d="M92 0c-9.33301 0 -17.002 2.99707 -23.002 8.99707s-9 13.667 -9 23v392h-23c-9.33301 0 -17 3 -23 9s-9 13.667 -9 23v36c0 9.33301 3 17 9 23s13.667 9 23 9h23v28c0 66 17.167 114.167 51.5 144.5s83.833 45.5 148.5 45.5c24 0 47.333 -4.16699 70 -12.5
s43.667 -19.166 63 -32.499c38 42 92.333 63 163 63c34 0 67.333 -4.66699 100 -14s62 -20.333 88 -33c8.66699 -4 15.667 -10.167 21 -18.5s8 -17.166 8 -26.499v-636c0 -9.33301 -3.16699 -17 -9.5 -23s-13.833 -9 -22.5 -9h-69c-9.33301 0 -17 3 -23 9s-9 13.667 -9 23
v607c-11.333 4.66699 -23.166 8.33398 -35.499 11.001s-25.166 4 -38.499 4c-30 0 -52.167 -8.5 -66.5 -25.5s-21.5 -44.5 -21.5 -82.5v-22h82c8.66699 0 16.167 -3 22.5 -9s9.5 -13.667 9.5 -23v-36c0 -9.33301 -3.16699 -17 -9.5 -23s-13.833 -9 -22.5 -9h-82v-392
c0 -9.33301 -3 -17 -9 -23s-13.667 -9 -23 -9h-69c-9.33301 0 -17 3 -23 9s-9 13.667 -9 23v392h-152v-392c0 -9.33301 -3 -17 -9 -23s-13.667 -9 -23 -9h-69zM192.998 523.997h152v32c0 26 2.66699 44.333 8 55c-12 7.33301 -25 13.333 -39 18s-27.667 7 -41 7
c-28.667 0 -49.167 -6.33301 -61.5 -19s-18.5 -37.667 -18.5 -75v-18z" />
    <glyph glyph-name=".notdef" horiz-adv-x="286" 
 />
    <glyph glyph-name="space" unicode=" " horiz-adv-x="278" 
 />
    <glyph glyph-name="exclam" unicode="!" horiz-adv-x="266" 
d="M110 188c-8.66699 0 -16.168 3 -22.501 9s-9.83301 13.667 -10.5 23l-11 301v147c0 9.33301 3.16699 17 9.5 23s13.833 9 22.5 9h69c9.33301 0 17 -3 23 -9s9 -13.667 9 -23v-147l-11 -301c0 -9.33301 -3.16699 -17 -9.5 -23s-14.166 -9 -23.499 -9h-45zM203.999 57
c0 -23.333 -6.66699 -40.333 -20 -51s-30.666 -16 -51.999 -16c-20.667 0 -37.5 5.33301 -50.5 16s-19.5 27.667 -19.5 51c0 21.333 6.5 37.333 19.5 48s29.833 16 50.5 16c21.333 0 38.666 -5.33301 51.999 -16s20 -26.667 20 -48z" />
    <glyph glyph-name="quotedbl" unicode="&#x22;" horiz-adv-x="331" 
d="M72.3633 550c-8.66699 0 -16.1689 3 -22.502 9s-10.166 13.667 -11.499 23l-9 136c-1.33301 8.66699 1 16.167 7 22.5s13.333 9.5 22 9.5h57c8.66699 0 15.834 -3.16699 21.501 -9.5s8.16699 -13.833 7.5 -22.5l-10 -136c-1.33301 -9.33301 -5 -17 -11 -23
s-13.667 -9 -23 -9h-28zM227.361 550c-9.33301 0 -17.168 3 -23.501 9s-9.83301 13.667 -10.5 23l-10 136c-0.666992 8.66699 2 16.167 8 22.5s13.333 9.5 22 9.5h56c8.66699 0 16 -3.16699 22 -9.5s8.66699 -13.833 8 -22.5l-10 -136
c-1.33301 -9.33301 -5.16602 -17 -11.499 -23s-13.833 -9 -22.5 -9h-28z" />
    <glyph glyph-name="numbersign" unicode="#" horiz-adv-x="689" 
d="M121 0c-8 0 -14.667 3.16699 -20 9.5s-7.33301 13.5 -6 21.5l35 156h-66c-8.66699 0 -16.167 3.16699 -22.5 9.5s-9.5 13.833 -9.5 22.5v39c0 8.66699 3.16699 16 9.5 22s13.833 9 22.5 9h87l27 122h-66c-9.33301 0 -17 3 -23 9s-9 13.333 -9 22v38c0 9.33301 3 17 9 23
s13.667 9 23 9h87l34 157c2 9.33301 6.66699 16.833 14 22.5s15.666 8.5 24.999 8.5h57c8 0 14.667 -3.16699 20 -9.5s7.33301 -13.5 6 -21.5l-35 -157h119l34 157c2 9.33301 6.5 16.833 13.5 22.5s15.167 8.5 24.5 8.5h58c8 0 14.667 -3.16699 20 -9.5s7 -13.5 5 -21.5
l-34 -157h65c8.66699 0 16.167 -3 22.5 -9s9.5 -13.667 9.5 -23v-38c0 -8.66699 -3.16699 -16 -9.5 -22s-13.833 -9 -22.5 -9h-87l-27 -122h66c8.66699 0 16.167 -3 22.5 -9s9.5 -13.333 9.5 -22v-39c0 -8.66699 -3.16699 -16.167 -9.5 -22.5s-13.833 -9.5 -22.5 -9.5h-88
l-34 -156c-2 -8.66699 -6.5 -16 -13.5 -22s-15.167 -9 -24.5 -9h-57c-8 0 -14.5 3.16699 -19.5 9.5s-6.83301 13.5 -5.5 21.5l34 156h-120l-33 -156c-2 -8.66699 -6.66699 -16 -14 -22s-15.666 -9 -24.999 -9h-56zM271 289h120l26 122h-118z" />
    <glyph glyph-name="dollar" unicode="$" horiz-adv-x="611" 
d="M174 206c0 -21.333 8.00098 -41.998 24.001 -61.998s38.333 -33 67 -39v191c-27.333 5.33301 -53.333 12.5 -78 21.5s-46.334 20.833 -65.001 35.5s-33.5 33 -44.5 55s-16.5 48.667 -16.5 80v20c0 26.667 4 51.334 12 74.001s20.333 42.5 37 59.5
s37.834 30.833 63.501 41.5s56.167 17.667 91.5 21v64c0 9.33301 3 17 9 23s13.667 9 23 9h21c8.66699 0 16 -3 22 -9s9 -13.667 9 -23v-66c34.667 -4 64.5 -12.5 89.5 -25.5s45.833 -28.833 62.5 -47.5s29 -39.334 37 -62.001s12 -46 12 -70
c0 -8.66699 -2.66699 -16 -8 -22s-12.333 -9 -21 -9h-67c-9.33301 0 -16.5 2.66699 -21.5 8s-7.5 12.333 -7.5 21c0 22 -6.33301 42.167 -19 60.5s-31.667 31.166 -57 38.499v-190c26.667 -4.66699 52.834 -11 78.501 -19s48.667 -19 69 -33s36.666 -31.833 48.999 -53.5
s18.5 -48.167 18.5 -79.5v-24c0 -56.667 -18 -102.834 -54 -138.501s-89.667 -56.167 -161 -61.5v-63c0 -9.33301 -3 -17 -9 -23s-13.333 -9 -22 -9h-21c-9.33301 0 -17 3 -23 9s-9 13.667 -9 23v64c-35.333 4 -66.5 12.333 -93.5 25s-49.833 28.334 -68.5 47.001
s-32.667 39.667 -42 63s-14 47.666 -14 72.999c0 8.66699 2.66699 16 8 22s12.666 9 21.999 9h68c8.66699 0 15.667 -2.66699 21 -8s8 -12.333 8 -21zM436.001 198.002c0 25.333 -7.83203 44.168 -23.499 56.501s-36.834 21.166 -63.501 26.499v-180
c28 4 49.5 14.167 64.5 30.5s22.5 38.5 22.5 66.5zM189.002 509.004c0 -27.333 6.66699 -47.335 20 -60.002s32 -22 56 -28v177c-26 -5.33301 -45.167 -15.666 -57.5 -30.999s-18.5 -34.666 -18.5 -57.999z" />
    <glyph glyph-name="percent" unicode="%" horiz-adv-x="967" 
d="M220 286c-52.667 0 -94.834 14.167 -126.501 42.5s-47.5 66.5 -47.5 114.5v113c0 48 15.833 86 47.5 114s73.834 42 126.501 42c52 0 93.833 -14 125.5 -42s47.5 -66 47.5 -114v-113c0 -48 -15.833 -86.167 -47.5 -114.5s-73.5 -42.5 -125.5 -42.5zM220 616
c-15.333 0 -27.666 -5.66699 -36.999 -17s-14 -28.333 -14 -51v-98c0 -22.667 4.66699 -39.667 14 -51s21.666 -17 36.999 -17s27.5 5.66699 36.5 17s13.5 28.333 13.5 51v98c0 22.667 -4.5 39.667 -13.5 51s-21.167 17 -36.5 17zM748 -11
c-52.667 0 -94.834 13.9971 -126.501 41.9971s-47.5 66 -47.5 114v114c0 48.667 15.833 86.834 47.5 114.501s73.834 41.5 126.501 41.5c26 0 49.5 -3.5 70.5 -10.5s39.167 -17.333 54.5 -31s27.166 -30.167 35.499 -49.5s12.5 -41 12.5 -65v-114
c0 -24 -4.16699 -45.667 -12.5 -65s-20.166 -35.666 -35.499 -48.999s-33.5 -23.666 -54.5 -30.999s-44.5 -11 -70.5 -11zM748 318.997c-15.333 0 -27.833 -5.66699 -37.5 -17s-14.5 -28.666 -14.5 -51.999v-97c0 -22.667 4.83301 -39.667 14.5 -51s22.167 -17 37.5 -17
s27.5 5.66699 36.5 17s13.5 28.333 13.5 51v97c0 23.333 -4.5 40.666 -13.5 51.999s-21.167 17 -36.5 17zM206 -0.00292969c-7.33301 0 -12.502 3 -15.502 9s-2.5 11.667 1.5 17l442 648c5.33301 7.33301 12.5 13.5 21.5 18.5s18.167 7.5 27.5 7.5h77
c7.33301 0 12.5 -3 15.5 -9s2.5 -11.667 -1.5 -17l-443 -648c-5.33301 -7.33301 -12.666 -13.5 -21.999 -18.5s-18.666 -7.5 -27.999 -7.5h-75z" />
    <glyph glyph-name="ampersand" unicode="&#x26;" horiz-adv-x="665" 
d="M275 -14c-72.667 0 -129.673 15.167 -171.006 45.5s-62 75.833 -62 136.5v12c0 20 4 39.167 12 57.5s18.333 35.5 31 51.5s26.834 30.833 42.501 44.5s30.834 26.167 45.501 37.5c-10.667 11.333 -21 23.5 -31 36.5s-19 26.667 -27 41s-14.5 29 -19.5 44
s-7.5 30.167 -7.5 45.5c0 24 4.33301 46.667 13 68s21.334 40 38.001 56s37.5 28.667 62.5 38s53.833 14 86.5 14c36.667 0 67.834 -4.16699 93.501 -12.5s46.5 -19.833 62.5 -34.5s27.5 -32 34.5 -52s10.5 -42 10.5 -66c0 -21.333 -3.66699 -40.5 -11 -57.5
s-17.166 -32.833 -29.499 -47.5s-27 -28.667 -44 -42s-35.167 -26.666 -54.5 -39.999l111 -132c8 13.333 14.333 27.5 19 42.5s7.66699 29.5 9 43.5c3.33301 21.333 15.333 32 36 32h56c8 0 15.167 -3.33301 21.5 -10s8.83301 -14 7.5 -22
c-2.66699 -31.333 -10.167 -63 -22.5 -95s-28.166 -60.667 -47.499 -86l95 -111c4.66699 -4.66699 5.5 -9.83398 2.5 -15.501s-7.5 -8.5 -13.5 -8.5h-93c-20.667 0 -38 8 -52 24l-23 24c-22 -19.333 -48.167 -34.5 -78.5 -45.5s-64.5 -16.5 -102.5 -16.5zM249.994 291
c-22.667 -18.667 -40.333 -37.5 -53 -56.5s-19 -39.167 -19 -60.5v-4c0 -28 9.83301 -48 29.5 -60s45.5 -18 77.5 -18c20.667 0 39.5 3.66699 56.5 11s32.167 17 45.5 29zM219.995 541c0 -19.333 5.83008 -36.999 17.4971 -52.999s24.5 -31.333 38.5 -46
c10.667 7.33301 20.834 14.833 30.501 22.5s18.334 15.667 26.001 24s13.834 17 18.501 26s7 18.833 7 29.5c0 19.333 -5 35.166 -15 47.499s-28.333 18.5 -55 18.5c-22 0 -38.833 -6 -50.5 -18s-17.5 -29 -17.5 -51z" />
    <glyph glyph-name="quotesingle" unicode="'" horiz-adv-x="177" 
d="M72.3633 550c-8.66699 0 -16.1689 3 -22.502 9s-10.166 13.667 -11.499 23l-9 136c-1.33301 8.66699 1 16.167 7 22.5s13.333 9.5 22 9.5h57c8.66699 0 15.834 -3.16699 21.501 -9.5s8.16699 -13.833 7.5 -22.5l-10 -136c-1.33301 -9.33301 -5 -17 -11 -23
s-13.667 -9 -23 -9h-28z" />
    <glyph glyph-name="parenleft" unicode="(" horiz-adv-x="325" 
d="M58 507c0 39.333 7.16699 74.333 21.5 105s32.333 56.667 54 78s45.334 37.666 71.001 48.999s49.5 17 71.5 17c8 0 14.5 -2.5 19.5 -7.5s7.5 -11.167 7.5 -18.5v-39c0 -12 -2.33301 -21.167 -7 -27.5s-12.667 -12.166 -24 -17.499
c-26.667 -10.667 -47.167 -29.5 -61.5 -56.5s-21.5 -58.5 -21.5 -94.5v-350c0 -36 7.16699 -67.5 21.5 -94.5s34.833 -45.833 61.5 -56.5c11.333 -5.33301 19.333 -11.166 24 -17.499s7 -15.5 7 -27.5v-39c0 -7.33301 -2.5 -13.5 -7.5 -18.5s-11.5 -7.5 -19.5 -7.5
c-22 0 -45.833 5.66699 -71.5 17s-49.334 27.666 -71.001 48.999s-39.667 47.333 -54 78s-21.5 65.667 -21.5 105v374z" />
    <glyph glyph-name="parenright" unicode=")" horiz-adv-x="325" 
d="M266 133c0 -39.333 -7.16699 -74.333 -21.5 -105s-32.166 -56.667 -53.499 -78s-44.833 -37.666 -70.5 -48.999s-49.5 -17 -71.5 -17c-8 0 -14.5 2.5 -19.5 7.5s-7.5 11.167 -7.5 18.5v39c0 12 2.33301 21.167 7 27.5s12.667 12.166 24 17.499
c26.667 10.667 47.167 29.5 61.5 56.5s21.5 58.5 21.5 94.5v350c0 36 -7.16699 67.5 -21.5 94.5s-34.833 45.833 -61.5 56.5c-11.333 5.33301 -19.333 11.166 -24 17.499s-7 15.5 -7 27.5v39c0 7.33301 2.5 13.5 7.5 18.5s11.5 7.5 19.5 7.5c22 0 45.833 -5.66699 71.5 -17
s49.167 -27.666 70.5 -48.999s39.166 -47.333 53.499 -78s21.5 -65.667 21.5 -105v-374z" />
    <glyph glyph-name="asterisk" unicode="*" horiz-adv-x="461" 
d="M101.174 388c-7.33301 5.33301 -11.5059 12.167 -12.5059 20.5s1.16699 15.833 6.5 22.5l64 78l-98 27c-8.66699 2 -15.167 6.83301 -19.5 14.5s-4.83301 15.5 -1.5 23.5l11 33c3.33301 8 8.83301 14 16.5 18s15.5 4.66699 23.5 2l93 -35l-4 99c0 9.33301 3 17 9 23
s13.333 9 22 9h35c8.66699 0 16 -3 22 -9s9 -13.667 9 -23l-4 -97l90 33c8.66699 3.33301 16.834 3 24.501 -1s12.834 -10 15.501 -18l12 -34c2.66699 -8 1.83398 -15.833 -2.49902 -23.5s-10.5 -12.834 -18.5 -15.501l-97 -27l63 -78
c5.33301 -6.66699 7.33301 -14.167 6 -22.5s-5.66602 -15.166 -12.999 -20.499l-28 -21c-7.33301 -5.33301 -15.166 -7 -23.499 -5s-14.833 6.66699 -19.5 14l-54 83l-55 -83c-4.66699 -7.33301 -11.167 -12 -19.5 -14s-16.166 -0.333008 -23.499 5z" />
    <glyph glyph-name="plus" unicode="+" horiz-adv-x="580" 
d="M260 45c-8.66699 0 -16 3 -22 9s-9 13.667 -9 23v170h-153c-8.66699 0 -16 3 -22 9s-9 13.667 -9 23v48c0 9.33301 3 17 9 23s13.333 9 22 9h153v170c0 9.33301 3 17 9 23s13.333 9 22 9h59c9.33301 0 17 -3 23 -9s9 -13.667 9 -23v-170h152c9.33301 0 17 -3 23 -9
s9 -13.667 9 -23v-48c0 -9.33301 -3 -17 -9 -23s-13.667 -9 -23 -9h-152v-170c0 -9.33301 -3 -17 -9 -23s-13.667 -9 -23 -9h-59z" />
    <glyph glyph-name="comma" unicode="," horiz-adv-x="223" 
d="M188 60c0 -21.333 -4.49805 -42.335 -13.498 -63.002s-20.667 -39.167 -35 -55.5s-30.333 -29.5 -48 -39.5s-34.834 -15 -51.501 -15c-16 0 -24 6.33301 -24 19v10c0 6.66699 1.33301 12.167 4 16.5s7.66699 9.5 15 15.5c17.333 14.667 26.666 33.334 27.999 56.001
c-18.667 10.667 -28 29.334 -28 56.001c0 23.333 6.83301 41 20.5 53s31.834 18 54.501 18c23.333 0 42.166 -6 56.499 -18s21.5 -29.667 21.5 -53z" />
    <glyph glyph-name="hyphen" unicode="-" horiz-adv-x="406" 
d="M76 246c-8.66699 0 -16 3 -22 9s-9 13.667 -9 23v46c0 9.33301 3 17 9 23s13.333 9 22 9h254c8.66699 0 16 -3 22 -9s9 -13.667 9 -23v-46c0 -9.33301 -3 -17 -9 -23s-13.333 -9 -22 -9h-254z" />
    <glyph glyph-name="period" unicode="." horiz-adv-x="222" 
d="M187 58c0 -24 -7 -41.833 -21 -53.5s-32.667 -17.5 -56 -17.5c-22.667 0 -40.834 5.83301 -54.501 17.5s-20.5 29.5 -20.5 53.5c0 25.333 6.83301 43.833 20.5 55.5s31.834 17.5 54.501 17.5c23.333 0 42 -5.83301 56 -17.5s21 -30.167 21 -55.5z" />
    <glyph glyph-name="slash" unicode="/" horiz-adv-x="512" 
d="M34.5234 -110c-7.33301 0 -13.167 3 -17.5 9s-5.16602 12.667 -2.49902 20l345 802c3.33301 8.66699 9.16602 15.667 17.499 21s17.166 8 26.499 8h70c7.33301 0 13 -3 17 -9s4.33301 -12.667 1 -20l-344 -802c-4 -8.66699 -10.167 -15.667 -18.5 -21
s-17.166 -8 -26.499 -8h-68z" />
    <glyph glyph-name="zero" unicode="0" horiz-adv-x="586" 
d="M293 -14c-36 0 -68.833 5.16699 -98.5 15.5s-55 25.166 -76 44.499s-37.333 42.666 -49 69.999s-17.5 58.333 -17.5 93v282c0 34.667 5.83301 65.667 17.5 93s28 50.666 49 69.999s46.333 34.166 76 44.499s62.5 15.5 98.5 15.5s68.833 -5.16699 98.5 -15.5
s55.167 -25.166 76.5 -44.499s37.833 -42.666 49.5 -69.999s17.5 -58.333 17.5 -93v-282c0 -34.667 -5.83301 -65.667 -17.5 -93s-28.167 -50.666 -49.5 -69.999s-46.833 -34.166 -76.5 -44.499s-62.5 -15.5 -98.5 -15.5zM293 602c-32 0 -57.5 -10.333 -76.5 -31
s-28.5 -51.667 -28.5 -93v-256c0 -41.333 9.5 -72.333 28.5 -93s44.5 -31 76.5 -31s57.5 10.333 76.5 31s28.5 51.667 28.5 93v256c0 41.333 -9.5 72.333 -28.5 93s-44.5 31 -76.5 31z" />
    <glyph glyph-name="one" unicode="1" horiz-adv-x="305" 
d="M144 0c-9.33301 0 -17 3 -23 9s-9 13.667 -9 23v557h-64c-8.66699 0 -16 3.16699 -22 9.5s-9 13.833 -9 22.5v47c0 9.33301 3 17 9 23s13.333 9 22 9h168c9.33301 0 17 -3 23 -9s9 -13.667 9 -23v-636c0 -9.33301 -3 -17 -9 -23s-13.667 -9 -23 -9h-72z" />
    <glyph glyph-name="two" unicode="2" horiz-adv-x="581" 
d="M191 491c0 -20.667 -9.66895 -30.998 -29.002 -30.998h-76c-9.33301 0 -16.833 3 -22.5 9s-8.5 13.333 -8.5 22c0 28.667 4.83301 56.5 14.5 83.5s24.5 50.833 44.5 71.5s45 37.167 75 49.5s65 18.5 105 18.5c39.333 0 73.833 -5 103.5 -15s54.334 -23.833 74.001 -41.5
s34.334 -38.667 44.001 -63s14.5 -50.833 14.5 -79.5c0 -21.333 -3.16699 -41.333 -9.5 -60s-14.5 -36.5 -24.5 -53.5s-21.667 -33.333 -35 -49l-41 -46.5l-178 -195h266c9.33301 0 17 -3.16699 23 -9.5s9 -13.833 9 -22.5v-47c0 -9.33301 -3 -17 -9 -23s-13.667 -9 -23 -9
h-430c-8.66699 0 -16 3 -22 9s-9 13.667 -9 23v13c0 21.333 7 39.666 21 54.999l261 296c20.667 23.333 36.167 44.333 46.5 63s15.5 37 15.5 55c0 24.667 -7.83301 45.5 -23.5 62.5s-40.167 25.5 -73.5 25.5c-18 0 -33.5 -3.33301 -46.5 -10s-23.667 -15.334 -32 -26.001
s-14.5 -22.667 -18.5 -36s-6 -26.333 -6 -39z" />
    <glyph glyph-name="three" unicode="3" horiz-adv-x="580" 
d="M47 206c0 8.66699 2.66504 15.833 7.99805 21.5s12.333 8.5 21 8.5h79c19.333 0 29 -9.33301 29 -28c0 -14 1.83301 -27.5 5.5 -40.5s9.5 -24.667 17.5 -35s18.333 -18.666 31 -24.999s28.334 -9.5 47.001 -9.5c67.333 0 101 32 101 96v16
c0 33.333 -6.33301 59.333 -19 78s-30.667 28 -54 28h-89c-8.66699 0 -16 3 -22 9s-9 13.667 -9 23v42c0 8.66699 3 16 9 22s13.333 9 22 9h88c10.667 0 20.334 3.33301 29.001 10s15.834 14.667 21.501 24s10 19.5 13 30.5s4.5 20.833 4.5 29.5
c0 26.667 -7.5 48.334 -22.5 65.001s-38.167 25 -69.5 25c-32 0 -55.833 -9.5 -71.5 -28.5s-23.5 -40.5 -23.5 -64.5c0 -18.667 -9.66699 -28 -29 -28h-76c-9.33301 0 -16.666 2.83301 -21.999 8.5s-8 12.834 -8 21.501c0 24.667 4.66699 49 14 73s23.5 45.5 42.5 64.5
s43 34.167 72 45.5s62.833 17 101.5 17c38 0 71.333 -5.16699 100 -15.5s52.5 -24.333 71.5 -42s33.333 -38.5 43 -62.5s14.5 -49.667 14.5 -77c0 -24.667 -6.16699 -50.334 -18.5 -77.001s-28.833 -48.667 -49.5 -66c12 -8 22.833 -17.833 32.5 -29.5
s18 -24.334 25 -38.001s12.333 -27.834 16 -42.501s5.5 -29 5.5 -43v-29c0 -30.667 -5.33301 -58.667 -16 -84s-26.334 -47 -47.001 -65s-46.167 -32 -76.5 -42s-65.166 -15 -104.499 -15c-40 0 -74.833 5.83301 -104.5 17.5s-54.334 27.5 -74.001 47.5
s-34.334 43.333 -44.001 70s-14.5 55 -14.5 85z" />
    <glyph glyph-name="four" unicode="4" horiz-adv-x="590" 
d="M58 128c-8.66699 0 -16 3.00098 -22 9.00098s-9 13.667 -9 23v10c0 9.33301 1.16699 19.666 3.5 30.999s5.5 21 9.5 29l214 442c4.66699 8 11 14.667 19 20s17 8 27 8h84c7.33301 0 13 -3 17 -9s4.33301 -12.333 1 -19l-212 -433h178v211c0 8.66699 3 16 9 22
s13.333 9 22 9h73c9.33301 0 17 -3 23 -9s9 -13.333 9 -22v-211h34c9.33301 0 17 -3 23 -9s9 -13.667 9 -23v-47c0 -9.33301 -3 -17 -9 -23s-13.667 -9 -23 -9h-34v-96c0 -9.33301 -3 -17 -9 -23s-13.667 -9 -23 -9h-73c-8.66699 0 -16 3 -22 9s-9 13.667 -9 23v96h-310z
" />
    <glyph glyph-name="five" unicode="5" horiz-adv-x="563" 
d="M177 201c0 -10.667 1.66895 -22 5.00195 -34s8.83301 -23 16.5 -33s17.834 -18.333 30.501 -25s28.667 -10 48 -10c33.333 0 58.5 8.16699 75.5 24.5s25.5 39.5 25.5 69.5v66c0 40.667 -8.66699 68.667 -26 84s-42 23 -74 23c-16 0 -31.833 -2 -47.5 -6
s-30.5 -9.66699 -44.5 -17c-22 -10.667 -44.667 -16 -68 -16h-35c-8 0 -14.833 3.16699 -20.5 9.5s-7.83398 13.833 -6.50098 22.5l44 309c1.33301 9.33301 5.33301 17 12 23s14.667 9 24 9h324c9.33301 0 17 -3 23 -9s9 -13.667 9 -23v-46c0 -9.33301 -3 -17 -9 -23
s-13.667 -9 -23 -9h-234l-22 -139c11.333 7.33301 26 13.166 44 17.499s35.667 6.5 53 6.5c32 0 61.333 -4 88 -12s49.667 -20.333 69 -37s34.5 -37.834 45.5 -63.501s16.5 -56.5 16.5 -92.5v-79c0 -30.667 -5.33301 -58.5 -16 -83.5s-26.167 -46.5 -46.5 -64.5
s-45.666 -31.833 -75.999 -41.5s-65.166 -14.5 -104.499 -14.5c-40.667 0 -75.834 5.83301 -105.501 17.5s-54.334 27.334 -74.001 47.001s-34.334 42.334 -44.001 68.001s-14.5 52.167 -14.5 79.5c0 9.33301 2.66699 16.833 8 22.5s12.666 8.5 21.999 8.5h79
c19.333 0 29 -9.66699 29 -29z" />
    <glyph glyph-name="six" unicode="6" horiz-adv-x="596" 
d="M308 318c-24 0 -46.167 -3 -66.5 -9s-38.166 -14.667 -53.499 -26v-77c0 -40 10.167 -68.333 30.5 -85s47.166 -25 80.499 -25c32 0 58 9 78 27s30 47.667 30 89c0 38.667 -8 66 -24 82s-41 24 -75 24zM399 517c0 24.667 -9.16895 44.998 -27.502 60.998
s-44.166 24 -77.499 24s-59.333 -10.667 -78 -32s-28 -52 -28 -92v-84c16 10.667 36.667 19.167 62 25.5s50.333 9.5 75 9.5c28.667 0 56.167 -3.66699 82.5 -11s49.666 -19 69.999 -35s36.5 -36.667 48.5 -62s18 -56 18 -92v-30c0 -35.333 -6 -66.166 -18 -92.499
s-28.833 -48.5 -50.5 -66.5s-47.5 -31.5 -77.5 -40.5s-63 -13.5 -99 -13.5s-69.167 4.16699 -99.5 12.5s-56.333 20.833 -78 37.5s-38.667 37.834 -51 63.501s-18.5 56.167 -18.5 91.5v300c0 34 5.83301 64.667 17.5 92s28 50.833 49 70.5s46.333 34.667 76 45
s62.834 15.5 99.501 15.5s69.834 -4.83301 99.501 -14.5s55 -23.167 76 -40.5s37 -38 48 -62s16.5 -50.333 16.5 -79c0 -9.33301 -2.83301 -17 -8.5 -23s-13.167 -9 -22.5 -9h-75c-9.33301 0 -16.5 2.83301 -21.5 8.5s-7.5 13.167 -7.5 22.5z" />
    <glyph glyph-name="seven" unicode="7" horiz-adv-x="472" 
d="M90 0c-7.33301 0 -13.168 3.00098 -17.501 9.00098s-4.83301 12.667 -1.5 20l242 560h-273c-8.66699 0 -16 3.16699 -22 9.5s-9 13.833 -9 22.5v47c0 9.33301 3 17 9 23s13.333 9 22 9h396c8.66699 0 16 -3 22 -9s9 -13.667 9 -23v-9
c0 -9.33301 -1.16699 -19.833 -3.5 -31.5s-5.16602 -21.834 -8.49902 -30.501l-239 -568c-3.33301 -8.66699 -9 -15.667 -17 -21s-16.667 -8 -26 -8h-83z" />
    <glyph glyph-name="eight" unicode="8" horiz-adv-x="597" 
d="M194 517c0 -27.333 6.49902 -49.833 19.499 -67.5s29.5 -26.5 49.5 -26.5h68c20 0 37.167 8.83301 51.5 26.5s21.5 40.167 21.5 67.5c0 28 -9.5 49.833 -28.5 65.5s-44.5 23.5 -76.5 23.5c-33.333 0 -59.166 -7.83301 -77.499 -23.5s-27.5 -37.5 -27.5 -65.5z
M298.999 -14c-41.333 0 -77.8369 5.00098 -109.504 15.001s-58.167 24 -79.5 42s-37.5 39.667 -48.5 65s-16.5 53.333 -16.5 84v37c0 28.667 7.5 56.667 22.5 84s34.167 48.666 57.5 63.999c-20 18 -36 40.5 -48 67.5s-18 52.833 -18 77.5
c0 58.667 20.833 105.334 62.5 140.001s100.834 52 177.501 52s135.667 -17.333 177 -52s62 -81.334 62 -140.001c0 -24.667 -5.66699 -50.167 -17 -76.5s-27.666 -48.833 -48.999 -67.5c24.667 -16.667 44.167 -38.5 58.5 -65.5s21.5 -54.833 21.5 -83.5v-37
c0 -30.667 -5.5 -58.667 -16.5 -84s-27.167 -47 -48.5 -65s-47.666 -32 -78.999 -42s-67.666 -15 -108.999 -15zM262.995 320.001c-21.333 0 -39.333 -8.83301 -54 -26.5s-22 -41.834 -22 -72.501v-27c0 -30 9.16699 -53.667 27.5 -71s46.5 -26 84.5 -26s66 8.66699 84 26
s27 41 27 71v27c0 30.667 -7.33301 54.834 -22 72.501s-32.667 26.5 -54 26.5h-71z" />
    <glyph glyph-name="nine" unicode="9" horiz-adv-x="593" 
d="M287 388c24 0 45.5 2.16797 64.5 6.50098s36.833 11.166 53.5 20.499v80c0 40 -10 68.167 -30 84.5s-46.667 24.5 -80 24.5c-32.667 0 -58.667 -8.5 -78 -25.5s-29 -46.167 -29 -87.5c0 -38 8 -64.667 24 -80s41 -23 75 -23zM299 -13.999
c-37.333 0 -70.6699 4.83105 -100.003 14.498s-54.5 23.334 -75.5 41.001s-37 38.834 -48 63.501s-16.5 51.667 -16.5 81c0 9.33301 2.83301 16.833 8.5 22.5s12.834 8.5 21.501 8.5h75c9.33301 0 16.5 -2.66699 21.5 -8s7.5 -12.666 7.5 -21.999
c0 -25.333 9.16699 -46.5 27.5 -63.5s44.5 -25.5 78.5 -25.5c33.333 0 59.333 10.667 78 32s28 52 28 92v83c-16.667 -9.33301 -37 -16.333 -61 -21s-48.333 -7 -73 -7c-28.667 0 -56.167 3.5 -82.5 10.5s-49.666 18.5 -69.999 34.5s-36.5 36.667 -48.5 62s-18 56 -18 92v27
c0 34.667 5.83301 65.167 17.5 91.5s28.334 48.333 50.001 66s47.334 31 77.001 40s62.5 13.5 98.5 13.5s69 -4 99 -12s55.833 -20.5 77.5 -37.5s38.667 -38.333 51 -64s18.5 -55.834 18.5 -90.501v-301c0 -34 -5.83301 -64.667 -17.5 -92s-28 -50.833 -49 -70.5
s-46.333 -34.667 -76 -45s-62.834 -15.5 -99.501 -15.5z" />
    <glyph glyph-name="colon" unicode=":" horiz-adv-x="233" 
d="M193 61c0 -24 -7.16699 -41.833 -21.5 -53.5s-33.166 -17.5 -56.499 -17.5c-22.667 0 -40.834 5.83301 -54.501 17.5s-20.5 29.5 -20.5 53.5c0 25.333 6.83301 43.833 20.5 55.5s31.834 17.5 54.501 17.5c23.333 0 42.166 -5.83301 56.499 -17.5s21.5 -30.167 21.5 -55.5
zM193 496c0 -24 -7.16699 -41.667 -21.5 -53s-33.166 -17 -56.499 -17c-22.667 0 -40.834 5.66699 -54.501 17s-20.5 29 -20.5 53c0 25.333 6.83301 44 20.5 56s31.834 18 54.501 18c23.333 0 42.166 -6 56.499 -18s21.5 -30.667 21.5 -56z" />
    <glyph glyph-name="semicolon" unicode=";" horiz-adv-x="235" 
d="M195 496c0 -24 -7 -41.667 -21 -53s-32.667 -17 -56 -17c-22.667 0 -41 5.66699 -55 17s-21 29 -21 53c0 25.333 7 44 21 56s32.333 18 55 18c23.333 0 42 -6 56 -18s21 -30.667 21 -56zM194 60c0 -21.333 -4.49902 -42.335 -13.499 -63.002s-20.667 -39.167 -35 -55.5
s-30.333 -29.5 -48 -39.5s-34.834 -15 -51.501 -15c-15.333 0 -23 6.33301 -23 19v10c0 6.66699 1.33301 12.167 4 16.5s7.66699 9.5 15 15.5c8 7.33301 14.5 15.833 19.5 25.5s7.5 19.834 7.5 30.501c-18.667 10.667 -28 29.334 -28 56.001c0 23.333 6.83301 41 20.5 53
s31.834 18 54.501 18c23.333 0 42.166 -6 56.499 -18s21.5 -29.667 21.5 -53z" />
    <glyph glyph-name="less" unicode="&#x3c;" horiz-adv-x="384" 
d="M70 218c-8 5.33301 -14.167 12.668 -18.5 22.001s-6.5 19 -6.5 29v21c0 9.33301 2.16699 18.833 6.5 28.5s10.5 17.167 18.5 22.5l244 200c5.33301 3.33301 10.833 3.66602 16.5 0.999023s8.5 -7.33398 8.5 -14.001v-80c0 -9.33301 -2.16699 -18.666 -6.5 -27.999
s-10.5 -17 -18.5 -23l-145 -118l145 -117c8 -5.33301 14.167 -12.666 18.5 -21.999s6.5 -18.666 6.5 -27.999v-80c0 -6.66699 -2.83301 -11.334 -8.5 -14.001s-11.167 -2.33398 -16.5 0.999023z" />
    <glyph glyph-name="equal" unicode="=" horiz-adv-x="578" 
d="M76 127c-8.66699 0 -16 3 -22 9s-9 13.667 -9 23v46c0 9.33301 3 17 9 23s13.333 9 22 9h426c8.66699 0 16.167 -3 22.5 -9s9.5 -13.667 9.5 -23v-46c0 -9.33301 -3.16699 -17 -9.5 -23s-13.833 -9 -22.5 -9h-426zM76 342c-8.66699 0 -16 3 -22 9s-9 13.667 -9 23v46
c0 9.33301 3 17 9 23s13.333 9 22 9h426c8.66699 0 16.167 -3 22.5 -9s9.5 -13.667 9.5 -23v-46c0 -9.33301 -3.16699 -17 -9.5 -23s-13.833 -9 -22.5 -9h-426z" />
    <glyph glyph-name="greater" unicode="&#x3e;" horiz-adv-x="384" 
d="M70 19c-5.33301 -3.33301 -10.833 -3.66797 -16.5 -1.00098s-8.5 7.33398 -8.5 14.001v80c0 9.33301 2.16699 18.666 6.5 27.999s10.5 16.666 18.5 21.999l145 117l-145 118c-8 6 -14.167 13.667 -18.5 23s-6.5 18.666 -6.5 27.999v80
c0 6.66699 2.83301 11.334 8.5 14.001s11.167 2.33398 16.5 -0.999023l244 -200c8 -5.33301 14.167 -12.833 18.5 -22.5s6.5 -19.167 6.5 -28.5v-21c0 -10 -2.16699 -19.667 -6.5 -29s-10.5 -16.666 -18.5 -21.999z" />
    <glyph glyph-name="question" unicode="?" horiz-adv-x="524" 
d="M171 522c0 -9.33301 -2.6709 -16.834 -8.00391 -22.501s-12.666 -8.5 -21.999 -8.5h-75c-8.66699 0 -15.834 3 -21.501 9s-8.5 13.333 -8.5 22c0 25.333 4.5 49.5 13.5 72.5s22.833 43.333 41.5 61s41.834 31.834 69.501 42.501s60.167 16 97.5 16
c36.667 0 68.834 -4.5 96.501 -13.5s50.834 -21.333 69.501 -37s32.667 -34 42 -55s14 -43.833 14 -68.5v-14c0 -22 -2.5 -41.667 -7.5 -59s-12 -33.333 -21 -48s-19.5 -28.5 -31.5 -41.5s-25 -26.167 -39 -39.5c-25.333 -23.333 -43.833 -44.666 -55.5 -63.999
s-17.5 -42 -17.5 -68v-13c0 -10.667 -5.33301 -16 -16 -16h-99c-5.33301 0 -9.83301 1.83301 -13.5 5.5s-5.5 8.16699 -5.5 13.5v18c0 26 2.16699 47.833 6.5 65.5s10.833 33.5 19.5 47.5s18.834 27 30.501 39s25.167 25 40.5 39c20 17.333 36.5 36 49.5 56
s19.5 44.667 19.5 74c0 21.333 -6.33301 38.333 -19 51s-33.667 19 -63 19c-16 0 -29.5 -2.33301 -40.5 -7s-20 -10.834 -27 -18.501s-12 -16.5 -15 -26.5s-4.5 -20.333 -4.5 -31zM316.996 52.999c0 -22 -7.16699 -38.5 -21.5 -49.5s-32.166 -16.5 -53.499 -16.5
s-39.333 5.5 -54 16.5s-22 27.5 -22 49.5c0 23.333 7.33301 40.5 22 51.5s32.667 16.5 54 16.5s39.166 -5.5 53.499 -16.5s21.5 -28.167 21.5 -51.5z" />
    <glyph glyph-name="at" unicode="@" horiz-adv-x="752" 
d="M341.782 214c16 0 32.001 4.33301 48.001 13s28.667 18.667 38 30l27 186c-7.33301 10 -17.833 18.833 -31.5 26.5s-27.167 11.5 -40.5 11.5c-22.667 0 -40 -7.33301 -52 -22s-19.667 -35.667 -23 -63l-15 -102c-3.33301 -25.333 -1.33301 -45 6 -59
s21.666 -21 42.999 -21zM81.7832 492c4.66699 34 17.4971 64.333 38.4971 91s47 49.167 78 67.5s65.667 32.333 104 42s77.5 14.5 117.5 14.5c39.333 0 77 -5.16699 113 -15.5s67 -25 93 -44s46 -41.833 60 -68.5s18.667 -56.667 14 -90l-30 -215
c-5.33301 -38 -19.333 -68.5 -42 -91.5s-54 -34.5 -94 -34.5c-22.667 0 -41.5 4.33301 -56.5 13s-26.167 20.667 -33.5 36c-14 -13.333 -31.5 -24.833 -52.5 -34.5s-40.5 -14.5 -58.5 -14.5c-46 0 -79.333 12.167 -100 36.5s-28 59.5 -22 105.5l15 116
c6 45.333 22.167 80 48.5 104s59.833 36 100.5 36c17.333 0 34 -3.16699 50 -9.5s29 -14.166 39 -23.499l1 7c1.33301 5.33301 4.33301 10 9 14s10 6 16 6h29c8 0 14.833 -3.33301 20.5 -10s7.83398 -14 6.50098 -22l-33 -241
c-2.66699 -18.667 -1.83398 -31.834 2.49902 -39.501s12.5 -11.5 24.5 -11.5c25.333 0 41 19.333 47 58l30 211c3.33301 26 -0.166992 48.5 -10.5 67.5s-25.333 34.667 -45 47s-42.5 21.666 -68.5 27.999s-52.667 9.5 -80 9.5c-28 0 -56 -3.16699 -84 -9.5
s-53.667 -16 -77 -29s-43 -29.333 -59 -49s-25.667 -42.5 -29 -68.5l-38 -272c-4 -25.333 -0.833008 -47.5 9.5 -66.5s25.333 -34.833 45 -47.5s42.334 -22.167 68.001 -28.5s52.167 -9.5 79.5 -9.5c24.667 0 49.167 1.66699 73.5 5s48.5 9 72.5 17
c7.33301 2 13.833 0.666992 19.5 -4s7.83398 -11 6.50098 -19l-2 -12c-1.33301 -8.66699 -4.66602 -16.667 -9.99902 -24s-13 -12.666 -23 -15.999c-23.333 -6.66699 -47 -11.167 -71 -13.5s-48 -3.5 -72 -3.5c-39.333 0 -77 5.16699 -113 15.5s-67.167 25 -93.5 44
s-46.333 41.833 -60 68.5s-18.167 56.667 -13.5 90z" />
    <glyph glyph-name="A" unicode="A" horiz-adv-x="625" 
d="M26.083 0c-8 0 -14.332 3.16602 -18.999 9.49902s-5.33398 13.166 -2.00098 20.499l227 640c3.33301 8.66699 8.83301 15.834 16.5 21.501s16.167 8.5 25.5 8.5h69c9.33301 0 18 -2.83301 26 -8.5s13.667 -12.834 17 -21.501l228 -640
c3.33301 -7.33301 2.66602 -14.166 -2.00098 -20.499s-11 -9.5 -19 -9.5h-83c-9.33301 0 -17.833 2.83301 -25.5 8.5s-13.167 12.834 -16.5 21.501l-45 139h-231l-44 -138c-2.66699 -9.33301 -7.66699 -16.833 -15 -22.5s-15.666 -8.5 -24.999 -8.5h-82zM225.084 276.999
h164l-83 260z" />
    <glyph glyph-name="B" unicode="B" horiz-adv-x="605" 
d="M88 0c-9.33301 0 -17 3.00098 -23 9.00098s-9 13.667 -9 23v636c0 9.33301 3 17 9 23s13.667 9 23 9h231c75.333 0 132.833 -15.833 172.5 -47.5s59.5 -78.834 59.5 -141.501v-30c0 -10.667 -1.5 -22 -4.5 -34s-7.5 -23.833 -13.5 -35.5s-13.333 -22.5 -22 -32.5
s-18.667 -18.333 -30 -25c23.333 -10 43.333 -27.667 60 -53s25 -54 25 -86v-35c0 -26 -4.5 -50 -13.5 -72s-22.5 -41 -40.5 -57s-40.833 -28.5 -68.5 -37.5s-60.5 -13.5 -98.5 -13.5h-257zM195 397.001h149.001c20 0 36.167 7.33301 48.5 22s18.5 38 18.5 70v7
c0 34 -7.33301 57.667 -22 71s-37.334 20 -68.001 20h-126v-190zM195.001 112.001h148c30 0 51.5 7.33301 64.5 22s19.5 33.667 19.5 57v19c0 25.333 -6.33301 45.5 -19 60.5s-31 22.5 -55 22.5h-158v-181z" />
    <glyph glyph-name="C" unicode="C" horiz-adv-x="608" 
d="M559 187c0 -29.333 -6.16699 -56.168 -18.5 -80.501s-29.833 -45.5 -52.5 -63.5s-49.5 -32 -80.5 -42s-64.833 -15 -101.5 -15c-37.333 0 -71.5 5.33301 -102.5 16s-57.667 26 -80 46s-39.833 44 -52.5 72s-19 59.333 -19 94v273c0 34.667 6.33301 66 19 94
s30.167 51.833 52.5 71.5s49 34.834 80 45.501s65.167 16 102.5 16c36.667 0 70.5 -5 101.5 -15s57.833 -24 80.5 -42s40.167 -39.167 52.5 -63.5s18.5 -50.833 18.5 -79.5v-25c0 -8.66699 -2.83301 -16 -8.5 -22s-13.167 -9 -22.5 -9h-78c-9.33301 0 -16.5 2.66699 -21.5 8
s-7.5 12.666 -7.5 21.999v15c0 29.333 -10.667 52.833 -32 70.5s-49 26.5 -83 26.5s-61.667 -10.667 -83 -32s-32 -52.666 -32 -93.999v-248c0 -41.333 10.667 -72.666 32 -93.999s49 -32 83 -32s61.667 9 83 27s32 42 32 72v21c0 9.33301 2.5 16.666 7.5 21.999
s12.167 8 21.5 8h78c9.33301 0 16.833 -3 22.5 -9s8.5 -13.333 8.5 -22v-32z" />
    <glyph glyph-name="D" unicode="D" horiz-adv-x="618" 
d="M88 0c-9.33301 0 -17 3.00195 -23 9.00195s-9 13.667 -9 23v636c0 9.33301 3 17 9 23s13.667 9 23 9h237c37.333 0 70.833 -5.33301 100.5 -16s55 -25.834 76 -45.501s37 -43.5 48 -71.5s16.5 -59.333 16.5 -94v-246c0 -34.667 -5.5 -66 -16.5 -94s-27 -51.833 -48 -71.5
s-46.333 -34.834 -76 -45.501s-63.167 -16 -100.5 -16h-237zM195 113.002l130 0.000976562c33.333 0 58.666 10.667 75.999 32s26 52.666 26 93.999v222c0 41.333 -8.66699 72.5 -26 93.5s-42.666 31.5 -75.999 31.5h-130v-473z" />
    <glyph glyph-name="E" unicode="E" horiz-adv-x="530" 
d="M88 0c-9.33301 0 -17 3 -23 9s-9 13.667 -9 23v636c0 9.33301 3 17 9 23s13.667 9 23 9h372c8.66699 0 16 -3 22 -9s9 -13.667 9 -23v-51c0 -8.66699 -3 -16 -9 -22s-13.333 -9 -22 -9h-265v-189h215c8.66699 0 16 -3 22 -9s9 -13.667 9 -23v-49
c0 -8.66699 -3 -16.167 -9 -22.5s-13.333 -9.5 -22 -9.5h-215v-171h272c9.33301 0 17 -3 23 -9s9 -13.333 9 -22v-50c0 -9.33301 -3 -17 -9 -23s-13.667 -9 -23 -9h-379z" />
    <glyph glyph-name="F" unicode="F" horiz-adv-x="518" 
d="M88 0c-9.33301 0 -17 3 -23 9s-9 13.667 -9 23v636c0 9.33301 3 17 9 23s13.667 9 23 9h373c9.33301 0 17 -3 23 -9s9 -13.667 9 -23v-51c0 -8.66699 -3 -16 -9 -22s-13.667 -9 -23 -9h-266v-199h216c8.66699 0 16.167 -3 22.5 -9s9.5 -13.333 9.5 -22v-50
c0 -9.33301 -3.16699 -17 -9.5 -23s-13.833 -9 -22.5 -9h-216v-242c0 -9.33301 -3 -17 -9 -23s-13.333 -9 -22 -9h-76z" />
    <glyph glyph-name="G" unicode="G" horiz-adv-x="620" 
d="M568 497c0 -8.66699 -2.83301 -16.0059 -8.5 -22.0059s-13.167 -9 -22.5 -9h-78c-8.66699 0 -15.667 2.66699 -21 8s-8 12.666 -8 21.999v11c0 28.667 -11 51.334 -33 68.001s-51.333 25 -88 25c-34.667 0 -63 -10.667 -85 -32s-33 -52.666 -33 -93.999v-248
c0 -41.333 10.5 -72.666 31.5 -93.999s50.833 -32 89.5 -32c24 0 46 4.66699 66 14s36.667 22 50 38v99h-105c-9.33301 0 -17 3 -23 9s-9 13.667 -9 23v48c0 9.33301 3 17 9 23s13.667 9 23 9h213c9.33301 0 17 -3 23 -9s9 -13.667 9 -23v-303c0 -8.66699 -3 -16 -9 -22
s-13.667 -9 -23 -9h-58c-9.33301 0 -17.666 2.83301 -24.999 8.5s-12 13.167 -14 22.5l-2 12c-16.667 -17.333 -38 -30.666 -64 -39.999s-53 -14 -81 -14c-34 0 -65.5 5.33301 -94.5 16s-54.333 26 -76 46s-38.667 44 -51 72s-18.5 59.333 -18.5 94v273
c0 34.667 6.33301 66 19 94s30.5 51.833 53.5 71.5s50.167 34.834 81.5 45.501s65.666 16 102.999 16s71.833 -4.66699 103.5 -14s59 -22.666 82 -39.999s41 -38.166 54 -62.499s19.5 -51.5 19.5 -81.5v-19z" />
    <glyph glyph-name="H" unicode="H" horiz-adv-x="622" 
d="M88 0c-9.33301 0 -17 3 -23 9s-9 13.667 -9 23v636c0 9.33301 3 17 9 23s13.667 9 23 9h76c8.66699 0 16 -3 22 -9s9 -13.667 9 -23v-272h232v272c0 9.33301 3 17 9 23s13.667 9 23 9h76c8.66699 0 16 -3 22 -9s9 -13.667 9 -23v-636c0 -9.33301 -3 -17 -9 -23
s-13.333 -9 -22 -9h-76c-9.33301 0 -17 3 -23 9s-9 13.667 -9 23v250h-232v-250c0 -9.33301 -3 -17 -9 -23s-13.333 -9 -22 -9h-76z" />
    <glyph glyph-name="I" unicode="I" horiz-adv-x="251" 
d="M88 0c-9.33301 0 -17 3 -23 9s-9 13.667 -9 23v636c0 9.33301 3 17 9 23s13.667 9 23 9h76c8.66699 0 16 -3 22 -9s9 -13.667 9 -23v-636c0 -9.33301 -3 -17 -9 -23s-13.333 -9 -22 -9h-76z" />
    <glyph glyph-name="J" unicode="J" horiz-adv-x="301" 
d="M247 215c0 -32 -4.83496 -61.6641 -14.502 -88.9971s-23.667 -51 -42 -71s-40.666 -35.5 -66.999 -46.5s-55.833 -16.5 -88.5 -16.5c-9.33301 0 -17.166 2.33301 -23.499 7s-9.5 11 -9.5 19v44c0 13.333 2.16699 23.166 6.5 29.499s12.5 12.166 24.5 17.499
c49.333 13.333 74 53.666 74 120.999v438c0 9.33301 3 17 9 23s13.667 9 23 9h76c8.66699 0 16.167 -3 22.5 -9s9.5 -13.667 9.5 -23v-453z" />
    <glyph glyph-name="K" unicode="K" horiz-adv-x="588" 
d="M88 0c-9.33301 0 -16.999 2.99902 -22.999 8.99902s-9 13.667 -9 23v636c0 9.33301 3 17 9 23s13.667 9 23 9h74c8.66699 0 16.167 -3 22.5 -9s9.5 -13.667 9.5 -23v-265h23l195 271c5.33301 8 12.666 14.333 21.999 19s19 7 29 7h92c7.33301 0 12.333 -2.83301 15 -8.5
s2 -11.167 -2 -16.5l-262 -335l270 -316c3.33301 -5.33301 3.83301 -10.666 1.5 -15.999s-6.83301 -8 -13.5 -8h-103c-10 0 -19.667 2.16699 -29 6.5s-17 10.5 -23 18.5l-192 241h-23v-234c0 -9.33301 -3.16699 -17 -9.5 -23s-13.833 -9 -22.5 -9h-74z" />
    <glyph glyph-name="L" unicode="L" horiz-adv-x="500" 
d="M88 0c-9.33301 0 -17 3 -23 9s-9 13.667 -9 23v636c0 9.33301 3 17 9 23s13.667 9 23 9h76c8.66699 0 16 -3 22 -9s9 -13.667 9 -23v-555h262c9.33301 0 17 -3 23 -9s9 -13.333 9 -22v-50c0 -9.33301 -3 -17 -9 -23s-13.667 -9 -23 -9h-369z" />
    <glyph glyph-name="M" unicode="M" horiz-adv-x="808" 
d="M88 0c-9.33301 0 -17.002 3 -23.002 9s-9 13.667 -9 23v636c0 9.33301 3 17 9 23s13.667 9 23 9h83c20.667 0 36.334 -9.33301 47.001 -28l187 -346l186 346c4 8.66699 10.333 15.5 19 20.5s17.667 7.5 27 7.5h83c8.66699 0 16.167 -3 22.5 -9s9.5 -13.667 9.5 -23v-636
c0 -9.33301 -3.16699 -17 -9.5 -23s-13.833 -9 -22.5 -9h-73c-9.33301 0 -17 3 -23 9s-9 13.667 -9 23l4 444l-142 -269c-4 -8.66699 -10.333 -15.667 -19 -21s-17.667 -8 -27 -8h-56c-9.33301 0 -18.166 2.66699 -26.499 8s-14.5 12.333 -18.5 21l-142 269l5 -444
c0 -9.33301 -3.16699 -17 -9.5 -23s-13.833 -9 -22.5 -9h-73z" />
    <glyph glyph-name="N" unicode="N" horiz-adv-x="640" 
d="M88 0c-9.33301 0 -16.999 3 -22.999 9s-9 13.667 -9 23v636c0 9.33301 3 17 9 23s13.667 9 23 9h82c9.33301 0 18.333 -2.5 27 -7.5s15.667 -11.833 21 -20.5l232 -420l-3 416c-0.666992 9.33301 2 17 8 23s13.667 9 23 9h74c8.66699 0 16.167 -3 22.5 -9
s9.5 -13.667 9.5 -23v-636c0 -9.33301 -3.16699 -17 -9.5 -23s-13.833 -9 -22.5 -9h-85c-20.667 -0 -36.334 9.33301 -47.001 28l-231 418l4 -414c0 -9.33301 -3 -17 -9 -23s-13.333 -9 -22 -9h-74z" />
    <glyph glyph-name="O" unicode="O" horiz-adv-x="633" 
d="M317 -14c-36.667 0 -71.167 5.33301 -103.5 16s-60.5 25.834 -84.5 45.501s-42.833 43.5 -56.5 71.5s-20.5 59.667 -20.5 95v273c0 35.333 6.83301 67 20.5 95s32.5 51.833 56.5 71.5s52.167 34.667 84.5 45s66.833 15.5 103.5 15.5s71 -5.16699 103 -15.5
s60 -25.333 84 -45s42.833 -43.5 56.5 -71.5s20.5 -59.667 20.5 -95v-273c0 -35.333 -6.83301 -67 -20.5 -95s-32.5 -51.833 -56.5 -71.5s-52 -34.834 -84 -45.501s-66.333 -16 -103 -16zM317 600c-35.333 0 -65 -10.6729 -89 -32.0059s-36 -52.666 -36 -93.999v-248
c0 -41.333 12 -72.666 36 -93.999s53.667 -32 89 -32c17.333 0 33.5 2.66699 48.5 8s28.167 13.333 39.5 24s20.333 23.834 27 39.501s10 33.834 10 54.501v248c0 20.667 -3.33301 38.834 -10 54.501s-15.667 28.834 -27 39.501s-24.5 18.667 -39.5 24s-31.167 8 -48.5 8z
" />
    <glyph glyph-name="P" unicode="P" horiz-adv-x="607" 
d="M88 0c-9.33301 0 -17 3.00195 -23 9.00195s-9 13.667 -9 23v636c0 9.33301 3 17 9 23s13.667 9 23 9h237c37.333 0 70.833 -5.33301 100.5 -16s55 -25.834 76 -45.501s37 -43.5 48 -71.5s16.5 -59.333 16.5 -94v-45c0 -34.667 -5.5 -66 -16.5 -94s-27 -51.833 -48 -71.5
s-46.333 -34.834 -76 -45.501s-63.167 -16 -100.5 -16h-130v-169c0 -9.33301 -3 -17 -9 -23s-13.333 -9 -22 -9h-76zM195 314.002l130 0.000976562c33.333 0 58.666 10.667 75.999 32s26 52.666 26 93.999v21c0 41.333 -8.66699 72.5 -26 93.5s-42.666 31.5 -75.999 31.5
h-130v-272z" />
    <glyph glyph-name="Q" unicode="Q" horiz-adv-x="633" 
d="M317 -14c-37.333 0 -71.999 5.33203 -103.999 15.999s-60 25.834 -84 45.501s-42.833 43.5 -56.5 71.5s-20.5 59.667 -20.5 95v273c0 34.667 6.83301 66.167 20.5 94.5s32.5 52.166 56.5 71.499s52 34.333 84 45s66.667 16 104 16c36.667 0 71 -5.33301 103 -16
s60 -25.667 84 -45s42.833 -43.166 56.5 -71.499s20.5 -59.833 20.5 -94.5v-273c0 -42 -9.83301 -78.833 -29.5 -110.5s-45.5 -57.167 -77.5 -76.5l66 -106c3.33301 -6 3.5 -12 0.5 -18s-8.16699 -9 -15.5 -9h-59c-9.33301 0 -18.333 2.5 -27 7.5s-15.334 11.5 -20.001 19.5
l-43 71l-29 -4c-10 -1.33301 -20 -2 -30 -2zM192.001 223.999c0 -40.667 11.168 -71.1699 33.501 -91.5029s51.5 -31.833 87.5 -34.5l-47 73c-3.33301 6.66699 -3.33301 13 0 19s8.66602 9 15.999 9h57c20.667 0 36.334 -9.33301 47.001 -28l20 -31
c11.333 9.33301 20.166 21 26.499 35s9.5 30.333 9.5 49v252c0 20.667 -3.33301 38.834 -10 54.501s-15.667 28.834 -27 39.501s-24.5 18.667 -39.5 24s-31.167 8 -48.5 8c-36 0 -65.833 -10.667 -89.5 -32s-35.5 -52.666 -35.5 -93.999v-252z" />
    <glyph glyph-name="R" unicode="R" horiz-adv-x="617" 
d="M88 0c-9.33301 0 -17.001 2.99902 -23.001 8.99902s-9 13.667 -9 23v636c0 9.33301 3 17 9 23s13.667 9 23 9h237c74.667 0 133.5 -18.667 176.5 -56s64.5 -91.333 64.5 -162v-37c0 -48 -11.167 -89.167 -33.5 -123.5s-55.166 -58.166 -98.499 -71.499l139 -223
c3.33301 -6 3.33301 -12 0 -18s-8.66602 -9 -15.999 -9h-97c-9.33301 0 -18.333 2.5 -27 7.5s-15.334 11.833 -20.001 20.5l-118 200h-100v-196c0 -9.33301 -3 -17 -9 -23s-13.333 -9 -22 -9h-76zM194.999 338.999h130c33.333 0 58.666 9.5 75.999 28.5s26 48.833 26 89.5
v13c0 40.667 -8.66699 70.167 -26 88.5s-42.666 27.5 -75.999 27.5h-130v-247z" />
    <glyph glyph-name="S" unicode="S" horiz-adv-x="614" 
d="M45 204c0 8.66699 2.83008 16.0039 8.49707 22.0039s12.834 9 21.501 9h79c8.66699 0 15.667 -2.66699 21 -8s8 -12.333 8 -21c0 -11.333 2.83301 -23 8.5 -35s14 -23.333 25 -34s24.667 -19.334 41 -26.001s34.833 -10 55.5 -10c39.333 0 69 9.16699 89 27.5
s30 42.5 30 72.5c0 15.333 -3.16699 28.166 -9.5 38.499s-15.166 18.833 -26.499 25.5s-24.666 11.834 -39.999 15.501s-32 6.5 -50 8.5c-31.333 3.33301 -61.833 9 -91.5 17s-56 19.667 -79 35s-41.5 35.166 -55.5 59.499s-21 54.166 -21 89.499v21
c0 28.667 4.83301 55.334 14.5 80.001s24.5 46 44.5 64s45.5 32.167 76.5 42.5s67.5 15.5 109.5 15.5c42.667 0 79.834 -6 111.501 -18s57.834 -28 78.501 -48s36 -43 46 -69s15 -53 15 -81c0 -8.66699 -2.66699 -16 -8 -22s-12.666 -9 -21.999 -9h-78
c-8.66699 0 -15.667 2.66699 -21 8s-8 12.333 -8 21c0 11.333 -2 23.166 -6 35.499s-10.5 23.5 -19.5 33.5s-20.833 18.333 -35.5 25s-32.334 10 -53.001 10c-36.667 0 -63.834 -8.83301 -81.501 -26.5s-26.5 -39.834 -26.5 -66.501c0 -18.667 3.5 -33.834 10.5 -45.501
s16.5 -21 28.5 -28s25.833 -12 41.5 -15s32.167 -5.5 49.5 -7.5c28.667 -3.33301 57.5 -8.66602 86.5 -15.999s55.167 -18.333 78.5 -33s42.166 -33.667 56.499 -57s21.5 -52.333 21.5 -87v-24c0 -62 -21.5 -111.833 -64.5 -149.5s-106.833 -56.5 -191.5 -56.5
c-42.667 0 -80.5 5.66699 -113.5 17s-61 26.833 -84 46.5s-40.5 42.667 -52.5 69s-18 54.5 -18 84.5z" />
    <glyph glyph-name="T" unicode="T" horiz-adv-x="523" 
d="M223 0c-8.66699 0 -16 3 -22 9s-9 13.667 -9 23v555h-153c-8.66699 0 -16 3 -22 9s-9 13.333 -9 22v50c0 9.33301 3 17 9 23s13.333 9 22 9h445c8.66699 0 16 -3 22 -9s9 -13.667 9 -23v-50c0 -8.66699 -3 -16 -9 -22s-13.333 -9 -22 -9h-153v-555
c0 -9.33301 -3 -17 -9 -23s-13.667 -9 -23 -9h-76z" />
    <glyph glyph-name="U" unicode="U" horiz-adv-x="616" 
d="M308 -14c-38 0 -72.667 5.33301 -104 16s-58 25.834 -80 45.501s-39.167 43.5 -51.5 71.5s-18.5 59.333 -18.5 94v455c0 9.33301 3 17 9 23s13.667 9 23 9h76c8.66699 0 16 -3 22 -9s9 -13.667 9 -23v-442c0 -41.333 10.333 -72.666 31 -93.999s48.667 -32 84 -32
s63.333 10.667 84 32s31 52.666 31 93.999v442c0 9.33301 3 17 9 23s13.667 9 23 9h76c8.66699 0 16 -3 22 -9s9 -13.667 9 -23v-455c0 -34.667 -6.16699 -66 -18.5 -94s-29.5 -51.833 -51.5 -71.5s-48.667 -34.834 -80 -45.501s-66 -16 -104 -16z" />
    <glyph glyph-name="V" unicode="V" horiz-adv-x="607" 
d="M268.454 0c-9.33301 0 -17.833 2.83301 -25.5 8.5s-13.167 12.834 -16.5 21.501l-222 640c-2.66699 7.33301 -1.66699 14.166 3 20.499s11 9.5 19 9.5h83c9.33301 0 17.833 -2.83301 25.5 -8.5s12.834 -13.167 15.501 -22.5l155 -506l149 506
c2.66699 9.33301 7.66699 16.833 15 22.5s15.666 8.5 24.999 8.5h81c7.33301 0 13.333 -3.16699 18 -9.5s5.66699 -13.166 3 -20.499l-218 -640c-3.33301 -8.66699 -8.83301 -15.834 -16.5 -21.501s-16.167 -8.5 -25.5 -8.5h-68z" />
    <glyph glyph-name="W" unicode="W" horiz-adv-x="929" 
d="M233.392 0c-9.33301 0 -17.668 2.83301 -25.001 8.5s-12.666 12.834 -15.999 21.501l-189 640c-2.66699 7.33301 -1.5 14.166 3.5 20.499s11.5 9.5 19.5 9.5h85c9.33301 0 17.666 -2.83301 24.999 -8.5s12.333 -13.167 15 -22.5l119 -468l113 468
c2 9.33301 6.66699 16.833 14 22.5s15.666 8.5 24.999 8.5h83c9.33301 0 17.666 -2.83301 24.999 -8.5s12 -13.167 14 -22.5l113 -469l120 469c2.66699 9.33301 7.66699 16.833 15 22.5s15.666 8.5 24.999 8.5h80c8 0 14.5 -3.16699 19.5 -9.5s6.16699 -13.166 3.5 -20.499
l-190 -640c-3.33301 -8.66699 -8.66602 -15.834 -15.999 -21.501s-15.666 -8.5 -24.999 -8.5h-83c-9.33301 -0 -17.666 2.83301 -24.999 8.5s-12.333 13.167 -15 22.5l-109 447l-108 -447c-2.66699 -9.33301 -7.66699 -16.833 -15 -22.5s-15.666 -8.5 -24.999 -8.5h-76z" />
    <glyph glyph-name="X" unicode="X" horiz-adv-x="593" 
d="M26.1309 0c-7.33301 0 -12.833 3 -16.5 9s-3.5 12.333 0.5 19l170 302l-168 342c-3.33301 6.66699 -3 13 1 19s9.66699 9 17 9h87c9.33301 0 18.166 -2.66699 26.499 -8s14.5 -12.333 18.5 -21l121 -266h13l131 267c4.66699 8 11.167 14.667 19.5 20s17.166 8 26.499 8
h86c7.33301 0 12.833 -3 16.5 -9s3.83398 -12.333 0.500977 -19l-181 -341l181 -304c4 -6 4.33301 -12 1 -18s-8.66602 -9 -15.999 -9h-92c-10 0 -19.167 2.5 -27.5 7.5s-14.833 11.833 -19.5 20.5l-128 234h-12l-121 -234c-4.66699 -8.66699 -11.167 -15.5 -19.5 -20.5
s-17.5 -7.5 -27.5 -7.5h-88z" />
    <glyph glyph-name="Y" unicode="Y" horiz-adv-x="579" 
d="M249.272 0c-8.66699 0 -16 3 -22 9s-9 13.667 -9 23v208l-210 432c-3.33301 6.66699 -3 13 1 19s9.66699 9 17 9h86c9.33301 0 18 -2.66699 26 -8s13.667 -12.333 17 -21l134 -308l133 308c4 8.66699 10 15.667 18 21s16.667 8 26 8h81c7.33301 0 13 -3 17 -9
s4.33301 -12.333 1 -19l-208 -430v-210c0 -9.33301 -3 -17 -9 -23s-13.667 -9 -23 -9h-76z" />
    <glyph glyph-name="Z" unicode="Z" horiz-adv-x="561" 
d="M59 0c-9.33301 0 -17 3 -23 9s-9 13.667 -9 23v29c0 10 1.5 20.333 4.5 31s7.16699 20 12.5 28l303 467h-277c-8.66699 0 -16.167 3 -22.5 9s-9.5 13.333 -9.5 22v50c0 9.33301 3.16699 17 9.5 23s13.833 9 22.5 9h417c9.33301 0 17 -3 23 -9s9 -13.667 9 -23v-29
c0 -10 -1.5 -20.333 -4.5 -31s-7.16699 -20 -12.5 -28l-302 -467h302c9.33301 0 17 -3 23 -9s9 -13.333 9 -22v-50c0 -9.33301 -3 -17 -9 -23s-13.667 -9 -23 -9h-443z" />
    <glyph glyph-name="bracketleft" unicode="[" horiz-adv-x="288" 
d="M91 -110c-8.66699 0 -16.167 3 -22.5 9s-9.5 13.667 -9.5 23v796c0 9.33301 3.16699 17 9.5 23s13.833 9 22.5 9h146c9.33301 0 17 -3 23 -9s9 -13.667 9 -23v-42c0 -8.66699 -3 -16 -9 -22s-13.667 -9 -23 -9h-57v-650h57c9.33301 0 17 -3 23 -9s9 -13.333 9 -22v-42
c0 -9.33301 -3 -17 -9 -23s-13.667 -9 -23 -9h-146z" />
    <glyph glyph-name="backslash" unicode="\" horiz-adv-x="514" 
d="M405.174 -110c-9.33301 0 -17.999 2.66699 -25.999 8s-14 12.333 -18 21l-346 802c-3.33301 7.33301 -2.83301 14 1.5 20s10.166 9 17.499 9h69c9.33301 0 18.166 -2.66699 26.499 -8s14.5 -12.333 18.5 -21l345 -802c3.33301 -7.33301 2.83301 -14 -1.5 -20
s-10.166 -9 -17.499 -9h-69z" />
    <glyph glyph-name="bracketright" unicode="]" horiz-adv-x="288" 
d="M51 -110c-8.66699 0 -16.167 3 -22.5 9s-9.5 13.667 -9.5 23v42c0 8.66699 3.16699 16 9.5 22s13.833 9 22.5 9h57v650h-57c-8.66699 0 -16.167 3 -22.5 9s-9.5 13.333 -9.5 22v42c0 9.33301 3.16699 17 9.5 23s13.833 9 22.5 9h146c9.33301 0 17 -3 23 -9
s9 -13.667 9 -23v-796c0 -9.33301 -3 -17 -9 -23s-13.667 -9 -23 -9h-146z" />
    <glyph glyph-name="asciicircum" unicode="^" horiz-adv-x="438" 
d="M54.3809 484c-7.33301 0 -12.8389 3.16699 -16.5059 9.5s-3.83398 12.5 -0.500977 18.5l108 198c10.667 18.667 26.334 28 47.001 28h47c9.33301 0 18.333 -2.5 27 -7.5s15.334 -11.833 20.001 -20.5l108 -198c3.33301 -6 3.33301 -12.167 0 -18.5
s-8.66602 -9.5 -15.999 -9.5h-61c-9.33301 0 -18.166 2.66699 -26.499 8s-14.166 12.333 -17.499 21l-58 131l-59 -131c-3.33301 -8.66699 -9.16602 -15.667 -17.499 -21s-17.166 -8 -26.499 -8h-58z" />
    <glyph glyph-name="underscore" unicode="_" horiz-adv-x="507" 
d="M37 -129c-9.33301 0 -17 3 -23 9s-9 13.667 -9 23v22c0 9.33301 3 17 9 23s13.667 9 23 9h434c8.66699 0 16 -3 22 -9s9 -13.667 9 -23v-22c0 -9.33301 -3 -17 -9 -23s-13.333 -9 -22 -9h-434z" />
    <glyph glyph-name="grave" unicode="`" horiz-adv-x="318" 
d="M190.454 616c-9.33301 0 -18.8301 2 -28.4971 6s-17.834 9.66699 -24.501 17l-76 84c-4.66699 4.66699 -5.66699 9.66699 -3 15s7 8 13 8h80c9.33301 0 18.666 -2.33301 27.999 -7s16.666 -11 21.999 -19l53 -78c4 -5.33301 4.5 -11 1.5 -17s-7.83301 -9 -14.5 -9h-51z
" />
    <glyph glyph-name="a" unicode="a" horiz-adv-x="550" 
d="M248 90c24 0 45.5 4.83398 64.5 14.501s34.833 21.5 47.5 35.5v64c-16 5.33301 -32.833 9.33301 -50.5 12s-36.167 4 -55.5 4c-26 0 -45.333 -6 -58 -18s-19 -28.333 -19 -49s6.66699 -36.334 20 -47.001s30.333 -16 51 -16zM57 390.001
c0 21.333 4.49805 42.6689 13.498 64.002s22.5 40.666 40.5 57.999s40.667 31.333 68 42s59.333 16 96 16c70.667 0 124.667 -16.833 162 -50.5s56 -81.834 56 -144.501v-343c0 -9.33301 -3 -17 -9 -23s-13.667 -9 -23 -9h-54c-9.33301 0 -17.666 3 -24.999 9
s-11.666 13.333 -12.999 22l-3 20c-16.667 -17.333 -39.667 -31.833 -69 -43.5s-60.666 -17.5 -93.999 -17.5c-50.667 0 -90 14.333 -118 43s-42 66.667 -42 114c0 52 16.333 91.167 49 117.5s79.334 39.5 140.001 39.5c10.667 0 22 -0.5 34 -1.5s23.667 -2.16699 35 -3.5
s22.166 -3 32.499 -5s19.166 -4 26.499 -6v80c0 34 -6.83301 58.5 -20.5 73.5s-35.167 22.5 -64.5 22.5c-15.333 0 -28.333 -2.33301 -39 -7s-19.334 -10.667 -26.001 -18s-11.667 -15.5 -15 -24.5s-5 -18.167 -5 -27.5s-2.66699 -16.166 -8 -20.499
s-12.666 -6.5 -21.999 -6.5h-72c-8.66699 0 -16 2.66699 -22 8s-9 12.666 -9 21.999z" />
    <glyph glyph-name="b" unicode="b" horiz-adv-x="564" 
d="M296 460c-19.333 0 -38.333 -5.16699 -57 -15.5s-34.334 -22.833 -47.001 -37.5v-254c12.667 -14.667 28.334 -27.167 47.001 -37.5s37.667 -15.5 57 -15.5c29.333 0 49.833 8 61.5 24s17.5 42 17.5 78v156c0 36 -5.83301 62 -17.5 78s-32.167 24 -61.5 24zM91 0
c-8.66699 0 -16.167 3.00098 -22.5 9.00098s-9.5 13.667 -9.5 23v686c0 9.33301 3.16699 17 9.5 23s13.833 9 22.5 9h69c9.33301 0 17 -3 23 -9s9 -13.667 9 -23v-203c15.333 15.333 35 28.333 59 39s48.667 16 74 16c66 0 113 -17.167 141 -51.5s42 -84.5 42 -150.5v-176
c0 -66 -14 -116.167 -42 -150.5s-75 -51.5 -141 -51.5c-28 0 -54.667 6.16699 -80 18.5s-46 27.166 -62 44.499l-2 -22c-1.33301 -8.66699 -5.5 -16 -12.5 -22s-15.167 -9 -24.5 -9h-53z" />
    <glyph glyph-name="c" unicode="c" horiz-adv-x="556" 
d="M505 178c0 -26.667 -4.99902 -51.499 -14.999 -74.499s-24.5 -42.833 -43.5 -59.5s-42.5 -29.667 -70.5 -39s-59.667 -14 -95 -14c-70.667 0 -126.334 18.5 -167.001 55.5s-61 88.5 -61 154.5v158c0 66 20.333 117.5 61 154.5s96.334 55.5 167.001 55.5
c35.333 0 67 -4.5 95 -13.5s51.5 -21.833 70.5 -38.5s33.5 -36.334 43.5 -59.001s15 -48 15 -76c0 -8.66699 -2.83301 -16 -8.5 -22s-12.834 -9 -21.501 -9h-72c-20 0 -30 10.333 -30 31c0 23.333 -7.33301 42.666 -22 57.999s-38 23 -70 23
c-30.667 0 -54.167 -9.83301 -70.5 -29.5s-24.5 -48.5 -24.5 -86.5v-134c0 -38 8.16699 -66.833 24.5 -86.5s39.833 -29.5 70.5 -29.5c32 0 55.333 7.83301 70 23.5s22 34.834 22 57.501c0 20.667 10 31 30 31h71c9.33301 0 16.833 -2.83301 22.5 -8.5
s8.5 -13.167 8.5 -22.5z" />
    <glyph glyph-name="d" unicode="d" horiz-adv-x="564" 
d="M268 460c-29.333 0 -49.8301 -8 -61.4971 -24s-17.5 -42 -17.5 -78v-156c0 -36 5.83301 -62 17.5 -78s32.167 -24 61.5 -24c19.333 0 38.166 5.16699 56.499 15.5s33.833 22.833 46.5 37.5v254c-12.667 14.667 -28.334 27.167 -47.001 37.5s-37.334 15.5 -56.001 15.5z
M473.003 750c8.66699 0 16 -3.00195 22 -9.00195s9 -13.667 9 -23v-686c0 -9.33301 -3 -17 -9 -23s-13.333 -9 -22 -9h-53c-9.33301 0 -17.5 3 -24.5 9s-11.167 13.333 -12.5 22l-3 22c-16 -17.333 -36.5 -32.166 -61.5 -44.499s-51.833 -18.5 -80.5 -18.5
c-65.333 0 -112 17.167 -140 51.5s-42 84.5 -42 150.5v176c0 66 14 116.167 42 150.5s74.667 51.5 140 51.5c26 0 51 -5.16699 75 -15.5s43.333 -23.166 58 -38.499v202c0 9.33301 3.16699 17 9.5 23s13.833 9 22.5 9h70z" />
    <glyph glyph-name="e" unicode="e" horiz-adv-x="559" 
d="M281 465c-30.667 0 -54.333 -9.16699 -71 -27.5s-25 -46.5 -25 -84.5v-14l190 3v13c0 73.333 -31.333 110 -94 110zM504.001 162c0 -19.333 -4.83105 -39.001 -14.498 -59.001s-23.834 -38.5 -42.501 -55.5s-41.834 -30.833 -69.501 -41.5s-59.834 -16 -96.501 -16
c-70.667 0 -126.334 18.667 -167.001 56s-61 89 -61 155v158c0 66 20.333 117.667 61 155s96.334 56 167.001 56c70 0 125.167 -18.667 165.5 -56s60.5 -89 60.5 -155v-72c0 -8.66699 -3 -16 -9 -22s-13.333 -9 -22 -9h-290v-51c0 -38 8.16699 -65.833 24.5 -83.5
s39.833 -26.5 70.5 -26.5c16.667 0 30.834 2.33301 42.501 7s21 10.5 28 17.5s12.167 14.5 15.5 22.5s5 15.667 5 23c0 18 9.66699 27 29 27h75c8.66699 0 15.5 -2.66699 20.5 -8s7.5 -12.666 7.5 -21.999z" />
    <glyph glyph-name="f" unicode="f" horiz-adv-x="361" 
d="M92 0c-9.33301 0 -16.998 2.99902 -22.998 8.99902s-9 13.667 -9 23v428h-23c-9.33301 0 -17 3 -23 9s-9 13.667 -9 23v36c0 9.33301 3 17 9 23s13.667 9 23 9h23v18c0 62 18.167 107.833 54.5 137.5s87.833 44.5 154.5 44.5c19.333 0 37.666 -1 54.999 -3
c8.66699 -1.33301 16.167 -5.66602 22.5 -12.999s9.5 -15 9.5 -23v-43c0 -8.66699 -2.83301 -15.667 -8.5 -21s-12.834 -7.33301 -21.501 -6c-16 2 -31.667 3 -47 3c-57.333 0 -86 -26.333 -86 -79v-15h108c8.66699 0 16 -3 22 -9s9 -13.667 9 -23v-36
c0 -9.33301 -3 -17 -9 -23s-13.333 -9 -22 -9h-108v-428c0 -9.33301 -3 -17 -9 -23s-13.667 -9 -23 -9h-69z" />
    <glyph glyph-name="g" unicode="g" horiz-adv-x="504" 
d="M244 570c20 0 39.8291 -2.1709 59.4961 -6.50391s35.834 -9.83301 48.501 -16.5c14 12.667 21 31.667 21 57c0 2 -0.166992 4.16699 -0.5 6.5s-0.5 4.5 -0.5 6.5c0 14.667 7.33301 22 22 22h60c8.66699 0 15.334 -2.16699 20.001 -6.5s7.66699 -10.166 9 -17.499
c1.33301 -3.33301 2.16602 -7.5 2.49902 -12.5s0.5 -10.167 0.5 -15.5c0 -25.333 -5.33301 -46.666 -16 -63.999s-23.667 -31.666 -39 -42.999c5.33301 -10.667 9.33301 -22.667 12 -36s4 -24.666 4 -33.999v-62c0 -18.667 -4.5 -36.667 -13.5 -54
s-21.667 -32.666 -38 -45.999s-36.5 -24 -60.5 -32s-51 -12 -81 -12c-6 0 -13 0.333008 -21 1s-14.667 1.66699 -20 3c-9.33301 -8 -14 -18.667 -14 -32c0 -14 4.33301 -25.333 13 -34c4.66699 0.666992 9.66699 1 15 1h16h68c55.333 0 99 -12.167 131 -36.5
s48 -59.5 48 -105.5c0 -54 -17.5 -94.333 -52.5 -121s-83.167 -40 -144.5 -40h-78c-62 0 -110.333 13.333 -145 40s-52 67 -52 121c0 28 7 53 21 75s32.667 38.667 56 50c-8 16 -12 33 -12 51c0 24.667 6.66699 47.667 20 69c-17.333 9.33301 -31.833 24 -43.5 44
s-17.5 39.333 -17.5 58v62c0 22 4.83301 42.667 14.5 62s23.334 36.166 41.001 50.499s38.834 25.833 63.501 34.5s52.334 13 83.001 13zM145.996 -5.00391c0 -40 25 -60 75 -60h65c49.333 0 74 20 74 60c0 38.667 -24.667 58 -74 58h-65c-50 0 -75 -19.333 -75 -58z
M243.996 472.996c-21.333 0 -39 -5.83301 -53 -17.5s-21 -27.167 -21 -46.5v-49c0 -19.333 7 -35 21 -47s31.667 -18 53 -18s39.166 6 53.499 18s21.5 27.667 21.5 47v49c0 19.333 -7.16699 34.833 -21.5 46.5s-32.166 17.5 -53.499 17.5z" />
    <glyph glyph-name="h" unicode="h" horiz-adv-x="561" 
d="M91 0c-8.66699 0 -16.166 3 -22.499 9s-9.5 13.667 -9.5 23v686c0 9.33301 3.16699 17 9.5 23s13.833 9 22.5 9h69c9.33301 0 17 -3 23 -9s9 -13.667 9 -23v-203c16.667 16 36.334 29.167 59.001 39.5s46.667 15.5 72 15.5c65.333 0 111.833 -16.5 139.5 -49.5
s41.5 -79.833 41.5 -140.5v-348c0 -9.33301 -3.16699 -17 -9.5 -23s-13.833 -9 -22.5 -9h-70c-8.66699 0 -16 3 -22 9s-9 13.667 -9 23v336c0 32 -5.83301 55.333 -17.5 70s-31.834 22 -60.501 22c-19.333 0 -37.833 -5.16699 -55.5 -15.5s-32.834 -22.833 -45.501 -37.5
v-375c0 -9.33301 -3 -17 -9 -23s-13.667 -9 -23 -9h-69z" />
    <glyph glyph-name="i" unicode="i" 
d="M91 0c-8.66699 0 -16.167 3 -22.5 9s-9.5 13.667 -9.5 23v496c0 9.33301 3.16699 17 9.5 23s13.833 9 22.5 9h69c9.33301 0 17 -3 23 -9s9 -13.667 9 -23v-496c0 -9.33301 -3 -17 -9 -23s-13.667 -9 -23 -9h-69zM202 681c0 -24.667 -7.16699 -42 -21.5 -52
s-33.166 -15 -56.499 -15s-41.833 5 -55.5 15s-20.5 27.333 -20.5 52c0 25.333 6.83301 43.166 20.5 53.499s32.167 15.5 55.5 15.5s42.166 -5.16699 56.499 -15.5s21.5 -28.166 21.5 -53.499z" />
    <glyph glyph-name="j" unicode="j" horiz-adv-x="260" 
d="M200 37c0 -31.333 -5.33496 -58.999 -16.002 -82.999s-25.167 -44.333 -43.5 -61s-39.666 -29.334 -63.999 -38.001s-50.166 -13 -77.499 -13c-7.33301 0 -14.333 2.33301 -21 7s-10 11 -10 19v32c0 12 2.33301 21.167 7 27.5s12.667 11.5 24 15.5
c23.333 5.33301 40.5 16.5 51.5 33.5s16.5 41.167 16.5 72.5v479c0 9.33301 3.16699 17 9.5 23s13.833 9 22.5 9h69c9.33301 0 17 -3 23 -9s9 -13.667 9 -23v-491zM208.998 688.001c0 -24.667 -7.16699 -42 -21.5 -52s-33.166 -15 -56.499 -15
c-22.667 0 -40.834 5 -54.501 15s-20.5 27.333 -20.5 52c0 25.333 6.83301 43.166 20.5 53.499s31.834 15.5 54.501 15.5c23.333 0 42.166 -5.16699 56.499 -15.5s21.5 -28.166 21.5 -53.499z" />
    <glyph glyph-name="k" unicode="k" horiz-adv-x="527" 
d="M91 0c-8.66699 0 -16.166 3 -22.499 9s-9.5 13.667 -9.5 23v686c0 9.33301 3.16699 17 9.5 23s13.833 9 22.5 9h69c9.33301 0 17 -3 23 -9s9 -13.667 9 -23v-384h22l142 200c12 17.333 28.333 26 49 26h85c6.66699 0 11.5 -3 14.5 -9s2.5 -11.667 -1.5 -17l-195 -257
l208 -252c4.66699 -5.33301 5.66699 -10.833 3 -16.5s-7.33398 -8.5 -14.001 -8.5h-92c-9.33301 0 -18.833 2.16699 -28.5 6.5s-17.167 10.5 -22.5 18.5l-149 190h-21v-183c0 -9.33301 -3 -17 -9 -23s-13.667 -9 -23 -9h-69z" />
    <glyph glyph-name="l" unicode="l" 
d="M91 0c-8.66699 0 -16.167 3 -22.5 9s-9.5 13.667 -9.5 23v686c0 9.33301 3.16699 17 9.5 23s13.833 9 22.5 9h69c9.33301 0 17 -3 23 -9s9 -13.667 9 -23v-686c0 -9.33301 -3 -17 -9 -23s-13.667 -9 -23 -9h-69z" />
    <glyph glyph-name="m" unicode="m" horiz-adv-x="827" 
d="M91 0c-8.66699 0 -16.1689 3.00098 -22.502 9.00098s-9.5 13.667 -9.5 23v496c0 9.33301 3.16699 17 9.5 23s13.833 9 22.5 9h54c9.33301 0 17.333 -3 24 -9s10.667 -13.667 12 -23l2 -21c18 19.333 38.167 34.666 60.5 45.999s46.833 17 73.5 17
c39.333 0 70.333 -6.33301 93 -19s40 -30.334 52 -53.001c18.667 21.333 40 38.666 64 51.999s50 20 78 20c32.667 0 59.667 -4.16699 81 -12.5s38.333 -20.666 51 -36.999s21.5 -36.333 26.5 -60s7.5 -50.5 7.5 -80.5v-348c0 -9.33301 -3 -17 -9 -23s-13.667 -9 -23 -9h-69
c-9.33301 0 -17 3 -23 9s-9 13.667 -9 23v336c0 32 -4 55.333 -12 70s-25.667 22 -53 22c-18.667 0 -35.667 -4.66699 -51 -14s-28.666 -20.666 -39.999 -33.999c1.33301 -6 2 -12.5 2 -19.5v-22.5v-338c0 -9.33301 -3 -17 -9 -23s-13.333 -9 -22 -9h-69
c-8.66699 0 -16.167 3 -22.5 9s-9.5 13.667 -9.5 23v333c0 32 -4.16699 55.833 -12.5 71.5s-26.166 23.5 -53.499 23.5c-19.333 0 -36.833 -5.33301 -52.5 -16s-29.167 -23 -40.5 -37v-375c0 -9.33301 -3 -17 -9 -23s-13.667 -9 -23 -9h-69z" />
    <glyph glyph-name="n" unicode="n" horiz-adv-x="557" 
d="M91 0c-8.66699 0 -16.166 3.00098 -22.499 9.00098s-9.5 13.667 -9.5 23v496c0 9.33301 3.16699 17 9.5 23s13.833 9 22.5 9h54c9.33301 0 17.333 -3 24 -9s10.667 -13.667 12 -23l2 -21c18 19.333 38.667 34.666 62 45.999s48.666 17 75.999 17
c65.333 0 111.5 -16.5 138.5 -49.5s40.5 -79.833 40.5 -140.5v-348c0 -9.33301 -3.16699 -17 -9.5 -23s-13.833 -9 -22.5 -9h-69c-9.33301 0 -17 3 -23 9s-9 13.667 -9 23v336c0 32 -5.5 55.333 -16.5 70s-31.167 22 -60.5 22c-18.667 0 -36.5 -5.16699 -53.5 -15.5
s-31.833 -22.833 -44.5 -37.5v-375c0 -9.33301 -3 -17 -9 -23s-13.667 -9 -23 -9h-69z" />
    <glyph glyph-name="o" unicode="o" horiz-adv-x="561" 
d="M281 464c-30.667 0 -54.167 -9.83301 -70.5 -29.5s-24.5 -48.5 -24.5 -86.5v-136c0 -38 8.16699 -66.833 24.5 -86.5s39.833 -29.5 70.5 -29.5c30 0 53 9.83301 69 29.5s24 48.5 24 86.5v136c0 38 -8 66.833 -24 86.5s-39 29.5 -69 29.5zM281 -10
c-70.667 0 -126.334 18.667 -167.001 56s-61 89 -61 155v158c0 66 20.333 117.667 61 155s96.334 56 167.001 56c70 0 125.167 -18.667 165.5 -56s60.5 -89 60.5 -155v-158c0 -66 -20.167 -117.667 -60.5 -155s-95.5 -56 -165.5 -56z" />
    <glyph glyph-name="p" unicode="p" horiz-adv-x="564" 
d="M296 460c-19.333 0 -38.333 -5.16699 -57 -15.5s-34.334 -22.833 -47.001 -37.5v-254c12.667 -14.667 28.334 -27.167 47.001 -37.5s37.667 -15.5 57 -15.5c29.333 0 49.833 8 61.5 24s17.5 42 17.5 78v156c0 36 -5.83301 62 -17.5 78s-32.167 24 -61.5 24zM91 -150
c-8.66699 0 -16.167 3.00195 -22.5 9.00195s-9.5 13.667 -9.5 23v646c0 9.33301 3.16699 17 9.5 23s13.833 9 22.5 9h53c9.33301 0 17.5 -3 24.5 -9s11.167 -13.333 12.5 -22l2 -22c16 17.333 36.667 32.166 62 44.499s52 18.5 80 18.5c66 0 113 -17.167 141 -51.5
s42 -84.5 42 -150.5v-176c0 -66 -14 -116.167 -42 -150.5s-75 -51.5 -141 -51.5c-25.333 0 -50 5.16699 -74 15.5s-43.667 23.166 -59 38.499v-162c0 -9.33301 -3 -17 -9 -23s-13.667 -9 -23 -9h-69z" />
    <glyph glyph-name="q" unicode="q" horiz-adv-x="564" 
d="M268 460c-29.333 0 -49.833 -8 -61.5 -24s-17.5 -42 -17.5 -78v-156c0 -36 5.83301 -62 17.5 -78s32.167 -24 61.5 -24c19.333 0 38.166 5.16699 56.499 15.5s33.833 22.833 46.5 37.5v254c-12.667 14.667 -28.167 27.167 -46.5 37.5s-37.166 15.5 -56.499 15.5zM238 -10
c-65.333 0 -111.998 17.166 -139.998 51.499s-42 84.5 -42 150.5v176c0 66 14 116.167 42 150.5s74.667 51.5 140 51.5c28.667 0 55.5 -6.16699 80.5 -18.5s45.5 -27.166 61.5 -44.499l3 22c1.33301 8.66699 5.66602 16 12.999 22s15.666 9 24.999 9h52
c8.66699 0 16 -3 22 -9s9 -13.667 9 -23v-646c0 -9.33301 -3 -17 -9 -23s-13.333 -9 -22 -9h-70c-8.66699 0 -16.167 3 -22.5 9s-9.5 13.667 -9.5 23v163c-15.333 -15.333 -34.833 -28.333 -58.5 -39s-48.5 -16 -74.5 -16z" />
    <glyph glyph-name="r" unicode="r" horiz-adv-x="351" 
d="M309 570c16.667 0 24.9971 -8.33398 24.9971 -25.001v-65c0 -8 -2.5 -14.167 -7.5 -18.5s-11.167 -6.5 -18.5 -6.5c-21.333 0 -42.666 -5.5 -63.999 -16.5s-38.666 -26.5 -51.999 -46.5v-360c0 -9.33301 -3 -17 -9 -23s-13.667 -9 -23 -9h-69
c-8.66699 0 -16.167 3 -22.5 9s-9.5 13.667 -9.5 23v496c0 9.33301 3.16699 17 9.5 23s13.833 9 22.5 9h51c9.33301 0 17.5 -3 24.5 -9s11.167 -13.333 12.5 -22l4 -34c6.66699 10.667 15.167 20.667 25.5 30s21.333 17.333 33 24s23.334 11.834 35.001 15.501
s22.5 5.5 32.5 5.5z" />
    <glyph glyph-name="s" unicode="s" horiz-adv-x="524" 
d="M166 153c0 -7.33301 2.16895 -14.832 6.50195 -22.499s10.833 -14.667 19.5 -21s19.167 -11.5 31.5 -15.5s26.5 -6 42.5 -6c30 0 52 6.5 66 19.5s21 29.5 21 49.5c0 12.667 -3.5 23.5 -10.5 32.5s-16.5 16.5 -28.5 22.5s-26.333 10.833 -43 14.5s-35 7.16699 -55 10.5
c-22.667 4 -44.167 9.66699 -64.5 17s-38.333 17.333 -54 30s-28 28.167 -37 46.5s-13.5 40.166 -13.5 65.499v15c0 48 17.5 86.667 52.5 116s87.833 44 158.5 44c36.667 0 68.334 -4.83301 95.001 -14.5s48.5 -22.167 65.5 -37.5s29.667 -32.666 38 -51.999
s12.5 -38.333 12.5 -57s-9.33301 -28 -28 -28h-67c-19.333 0 -29 8.66699 -29 26c0 6.66699 -1.5 13.667 -4.5 21s-8 14.166 -15 20.499s-16 11.666 -27 15.999s-24.5 6.5 -40.5 6.5c-28 0 -48 -6.66699 -60 -20s-18 -29.666 -18 -48.999c0 -23.333 10 -40.166 30 -50.499
s49 -18.833 87 -25.5c24.667 -4.66699 48.167 -10.5 70.5 -17.5s42.166 -16.5 59.499 -28.5s31.166 -26.833 41.499 -44.5s15.5 -39.5 15.5 -65.5v-19c0 -23.333 -4.66699 -45 -14 -65s-23.333 -37.333 -42 -52s-41.5 -26 -68.5 -34s-58.167 -12 -93.5 -12
c-36 0 -68 4.5 -96 13.5s-51.667 21 -71 36s-34 32.167 -44 51.5s-15 39.666 -15 60.999c0 18.667 9.33301 28 28 28h68c9.33301 0 16.666 -2 21.999 -6s8 -10.667 8 -20z" />
    <glyph glyph-name="t" unicode="t" horiz-adv-x="362" 
d="M255 -11c-66.667 0 -115.332 16.832 -145.999 50.499s-46 83.5 -46 149.5v271h-22c-8.66699 0 -16 3 -22 9s-9 13.667 -9 23v36c0 9.33301 3 17 9 23s13.333 9 22 9h28l10 108c1.33301 9.33301 5.33301 17 12 23s14.667 9 24 9h49c9.33301 0 17 -3 23 -9s9 -13.667 9 -23
v-108h112c9.33301 0 17 -3 23 -9s9 -13.667 9 -23v-36c0 -9.33301 -3 -17 -9 -23s-13.667 -9 -23 -9h-112v-270c0 -33.333 6.5 -57.666 19.5 -72.999s33.833 -23 62.5 -23c14.667 0 29 1 43 3c8.66699 1.33301 15.667 -0.5 21 -5.5s8 -11.5 8 -19.5v-43
c0 -8.66699 -3 -16.5 -9 -23.5s-13.667 -11.167 -23 -12.5c-10.667 -1.33301 -21.334 -2.33301 -32.001 -3s-21 -1 -31 -1z" />
    <glyph glyph-name="u" unicode="u" horiz-adv-x="553" 
d="M230 -10c-32.667 0 -60 4.16699 -82 12.5s-39.833 20.666 -53.5 36.999s-23.334 36.333 -29.001 60s-8.5 50.5 -8.5 80.5v348c0 9.33301 3.16699 17 9.5 23s13.833 9 22.5 9h69c9.33301 0 17 -3 23 -9s9 -13.667 9 -23v-336c0 -32 4.83301 -55.333 14.5 -70
s28.834 -22 57.501 -22c19.333 0 37.5 5.16699 54.5 15.5s31.833 22.833 44.5 37.5v375c0 9.33301 3 17 9 23s13.667 9 23 9h69c8.66699 0 16.167 -3 22.5 -9s9.5 -13.667 9.5 -23v-496c0 -9.33301 -3.16699 -17 -9.5 -23s-13.833 -9 -22.5 -9h-55
c-9.33301 0 -17.333 3 -24 9s-10.667 13.667 -12 23l-1 21c-18 -19.333 -38.833 -34.666 -62.5 -45.999s-49.5 -17 -77.5 -17z" />
    <glyph glyph-name="v" unicode="v" horiz-adv-x="509" 
d="M223.083 0c-9.33301 0 -18 2.83301 -26 8.5s-13.667 12.834 -17 21.501l-175 500c-3.33301 7.33301 -2.66602 14.166 2.00098 20.499s11 9.5 19 9.5h78c9.33301 0 17.666 -2.83301 24.999 -8.5s12.333 -13.167 15 -22.5l111 -376l109 376
c2 9.33301 6.66699 16.833 14 22.5s15.666 8.5 24.999 8.5h74c8 0 14.333 -3.16699 19 -9.5s5.33398 -13.166 2.00098 -20.499l-175 -500c-3.33301 -8.66699 -8.83301 -15.834 -16.5 -21.501s-16.167 -8.5 -25.5 -8.5h-58z" />
    <glyph glyph-name="w" unicode="w" horiz-adv-x="797" 
d="M194.392 0c-9.33301 0 -17.667 2.83301 -25 8.5s-12.666 12.834 -15.999 21.501l-150 500c-2.66699 7.33301 -1.5 14.166 3.5 20.499s11.5 9.5 19.5 9.5h77c9.33301 0 17.5 -2.83301 24.5 -8.5s11.833 -13.167 14.5 -22.5l91 -375l87 375c2 9.33301 6.5 16.833 13.5 22.5
s15.167 8.5 24.5 8.5h71c9.33301 0 17.666 -2.83301 24.999 -8.5s12.333 -13.167 15 -22.5l94 -375l90 375c2 9.33301 6.5 16.833 13.5 22.5s15.167 8.5 24.5 8.5h74c8 0 14.333 -3.16699 19 -9.5s5.66699 -13.166 3 -20.499l-153 -500
c-2.66699 -8.66699 -7.83398 -15.834 -15.501 -21.501s-16.167 -8.5 -25.5 -8.5h-76c-9.33301 -0 -17.666 2.83301 -24.999 8.5s-12 13.167 -14 22.5l-89 357l-80 -357c-2 -9.33301 -6.5 -16.833 -13.5 -22.5s-15.167 -8.5 -24.5 -8.5h-77z" />
    <glyph glyph-name="x" unicode="x" horiz-adv-x="529" 
d="M27.6318 0c-7.33301 0 -12.499 3 -15.499 9s-2.83301 12 0.5 18l147 244l-143 261c-3.33301 6.66699 -3.16602 13 0.500977 19s9.16699 9 16.5 9h83c9.33301 0 18.333 -2.66699 27 -8s15 -12.333 19 -21l91 -189h12l96 190c4.66699 8 11.167 14.667 19.5 20
s17.166 8 26.499 8h81c7.33301 0 12.666 -3 15.999 -9s3.33301 -12.333 0 -19l-149 -258l156 -247c3.33301 -6 3.5 -12 0.5 -18s-8.16699 -9 -15.5 -9h-88c-9.33301 0 -18.333 2.5 -27 7.5s-15.334 11.833 -20.001 20.5l-98 179h-13l-95 -179
c-4.66699 -8.66699 -11.167 -15.5 -19.5 -20.5s-17.166 -7.5 -26.499 -7.5h-82v0z" />
    <glyph glyph-name="y" unicode="y" horiz-adv-x="509" 
d="M313.523 0c-16.667 -48 -44.1641 -85.998 -82.4971 -113.998s-85.833 -42.667 -142.5 -44c-7.33301 -0.666992 -14.333 2.16602 -21 8.49902s-10 13.5 -10 21.5v36c0 21.333 10.333 33.666 31 36.999c23.333 3.33301 43.333 11.333 60 24s28.667 29.667 36 51l-179 510
c-2.66699 7.33301 -1.83398 14.166 2.49902 20.499s10.5 9.5 18.5 9.5h78c9.33301 0 17.666 -2.83301 24.999 -8.5s12.333 -13.167 15 -22.5l111 -376l109 376c2.66699 9.33301 7.5 16.833 14.5 22.5s15.167 8.5 24.5 8.5h74c8 0 14.167 -3.16699 18.5 -9.5
s5.16602 -13.166 2.49902 -20.499z" />
    <glyph glyph-name="z" unicode="z" horiz-adv-x="480" 
d="M61 0c-9.33301 0 -16.999 3 -22.999 9s-9 13.667 -9 23v22c0 9.33301 1.66699 19.5 5 30.5s7.66602 20.5 12.999 28.5l228 343h-209c-8.66699 0 -16.167 3 -22.5 9s-9.5 13.667 -9.5 23v40c0 9.33301 3.16699 17 9.5 23s13.833 9 22.5 9h347c8.66699 0 16 -3 22 -9
s9 -13.667 9 -23v-22c0 -9.33301 -1.5 -19.5 -4.5 -30.5s-7.16699 -20.5 -12.5 -28.5l-228 -343h225c8.66699 0 16.167 -3 22.5 -9s9.5 -13.667 9.5 -23v-40c0 -9.33301 -3.16699 -17 -9.5 -23s-13.833 -9 -22.5 -9h-363z" />
    <glyph glyph-name="braceleft" unicode="{" horiz-adv-x="353" 
d="M127 187c0 27.333 -5.66797 46.999 -17.001 58.999s-24.666 18 -39.999 18h-8c-8.66699 0 -15.5 3 -20.5 9s-7.5 13 -7.5 21v52c0 8 2.5 15 7.5 21s11.833 9 20.5 9h8c15.333 0 28.666 6 39.999 18s17 31.667 17 59v146c0 54 13.5 92.667 40.5 116s69.167 35 126.5 35
c19.333 0 29 -9.33301 29 -28v-46c0 -8.66699 -2.33301 -16 -7 -22s-11.334 -9 -20.001 -9c-15.333 0 -25.833 -4.66699 -31.5 -14s-8.5 -22.333 -8.5 -39v-137c0 -30 -5.66699 -56.667 -17 -80s-28.666 -41.666 -51.999 -54.999c22 -12 39 -30.167 51 -54.5
s18 -51.5 18 -81.5v-136c0 -16.667 2.83301 -29.667 8.5 -39s16.167 -14 31.5 -14c8.66699 0 15.334 -3 20.001 -9s7 -13.333 7 -22v-46c0 -18.667 -9.66699 -28 -29 -28c-57.333 0 -99.5 11.667 -126.5 35s-40.5 62 -40.5 116v146z" />
    <glyph glyph-name="bar" unicode="|" horiz-adv-x="239" 
d="M92 -170c-8.66699 0 -16 3 -22 9s-9 13.667 -9 23v876c0 9.33301 3 17 9 23s13.333 9 22 9h55c8.66699 0 16 -3 22 -9s9 -13.667 9 -23v-876c0 -9.33301 -3 -17 -9 -23s-13.333 -9 -22 -9h-55z" />
    <glyph glyph-name="braceright" unicode="}" horiz-adv-x="353" 
d="M227 41c0 -54 -13.668 -92.666 -41.001 -115.999s-69.333 -35 -126 -35c-20 0 -30 9.33301 -30 28v46c0 8.66699 2.33301 16 7 22s11.667 9 21 9c15.333 0 25.666 4.66699 30.999 14s8 22.333 8 39v136c0 30 6 57.167 18 81.5s29 42.5 51 54.5
c-23.333 13.333 -40.666 31.666 -51.999 54.999s-17 50 -17 80v137c0 16.667 -2.66699 29.667 -8 39s-15.666 14 -30.999 14c-9.33301 0 -16.333 3 -21 9s-7 13.333 -7 22v46c0 18.667 10 28 30 28c56.667 0 98.667 -11.667 126 -35s41 -62 41 -116v-146
c0 -27.333 5.5 -47 16.5 -59s24.167 -18 39.5 -18h9c8 0 14.667 -3 20 -9s8 -13 8 -21v-52c0 -8 -2.66699 -15 -8 -21s-12 -9 -20 -9h-9c-15.333 0 -28.5 -6 -39.5 -18s-16.5 -31.667 -16.5 -59v-146v0z" />
    <glyph glyph-name="asciitilde" unicode="~" horiz-adv-x="590" 
d="M514.125 402c7.33301 0 13.5029 -2.16895 18.5029 -6.50195s7.16699 -10.166 6.5 -17.499c-1.33301 -16 -5.33301 -31.167 -12 -45.5s-16.167 -27 -28.5 -38s-27.333 -19.667 -45 -26s-37.5 -9.5 -59.5 -9.5c-20 0 -38.667 2.83301 -56 8.5s-33.833 12 -49.5 19
s-30.834 13.333 -45.501 19s-29.334 8.5 -44.001 8.5c-11.333 0 -20.666 -2.16699 -27.999 -6.5s-14 -11.166 -20 -20.499c-6.66699 -8.66699 -12.834 -15 -18.501 -19s-14.167 -6 -25.5 -6h-34c-7.33301 0 -13.333 2.33301 -18 7s-6.66699 10.667 -6 18
c0.666992 14.667 4.66699 29.167 12 43.5s17.333 27 30 38s27.5 20 44.5 27s36.167 10.5 57.5 10.5c20 0 39 -2.83301 57 -8.5s35.167 -12 51.5 -19s31.833 -13.333 46.5 -19s28 -8.5 40 -8.5c11.333 0 20.666 2.16699 27.999 6.5s14 11.166 20 20.499
c7.33301 8.66699 13.833 14.834 19.5 18.501s14.167 5.5 25.5 5.5h33z" />
    <glyph glyph-name="uni00A0" unicode="&#xa0;" horiz-adv-x="278" 
 />
    <glyph glyph-name="exclamdown" unicode="&#xa1;" horiz-adv-x="266" 
d="M98 0c-8.66699 0 -16.166 3 -22.499 9s-9.5 13.667 -9.5 23v147l11 301c0.666992 9.33301 4.16699 17 10.5 23s13.833 9 22.5 9h45c9.33301 0 17.166 -3 23.499 -9s9.5 -13.667 9.5 -23l11 -301v-147c0 -9.33301 -3 -17 -9 -23s-13.667 -9 -23 -9h-69zM204.001 643
c0 -21.333 -6.66699 -37.333 -20 -48s-30.666 -16 -51.999 -16c-20.667 0 -37.5 5.33301 -50.5 16s-19.5 26.667 -19.5 48c0 23.333 6.5 40.333 19.5 51s29.833 16 50.5 16c21.333 0 38.666 -5.33301 51.999 -16s20 -27.667 20 -51z" />
    <glyph glyph-name="cent" unicode="&#xa2;" horiz-adv-x="558" 
d="M182 298c0 -64 22.333 -101.333 67 -112v327c-22.667 -5.33301 -39.5 -17.333 -50.5 -36s-16.5 -43.667 -16.5 -75v-104zM382 261c0 19.333 9.66699 29.001 29 29.001h67c8.66699 0 15.667 -2.83301 21 -8.5s8 -13.167 8 -22.5c0 -23.333 -4.16699 -45.333 -12.5 -66
s-20.5 -39 -36.5 -55s-35.667 -29.333 -59 -40s-50.333 -17.334 -81 -20.001v-53c0 -16.667 -8 -25 -24 -25h-21c-16 -0 -24 8.33301 -24 25v52c-61.333 6 -109 27.167 -143 63.5s-51 85.166 -51 146.499v126c0 60.667 17 109.334 51 146.001s81.667 57.667 143 63v53
c0 16.667 8 25 24 25h21c16 0 24 -8.33301 24 -25v-53c30.667 -2.66699 57.667 -9.16699 81 -19.5s43 -23.5 59 -39.5s28.167 -34.333 36.5 -55s12.5 -43 12.5 -67c0 -8.66699 -2.66699 -15.834 -8 -21.501s-12.333 -8.5 -21 -8.5h-67c-19.333 0 -29 9.66699 -29 29
c0 16.667 -5.33301 31.834 -16 45.501s-26.667 23.167 -48 28.5v-328c22 5.33301 38.167 14.833 48.5 28.5s15.5 29.167 15.5 46.5z" />
    <glyph glyph-name="sterling" unicode="&#xa3;" horiz-adv-x="580" 
d="M542 516c0 -9.33301 -2.83105 -16.998 -8.49805 -22.998s-13.167 -9 -22.5 -9h-75c-19.333 0 -29 10.333 -29 31c0 23.333 -5.83301 43.666 -17.5 60.999s-32.5 26 -62.5 26c-31.333 0 -52.833 -10 -64.5 -30s-17.5 -50.333 -17.5 -91v-87h105c9.33301 0 17 -3 23 -9
s9 -13.667 9 -23v-44c0 -8.66699 -3 -16 -9 -22s-13.667 -9 -23 -9h-105v-53c0 -16.667 -1.66699 -31.667 -5 -45s-7.33301 -25.333 -12 -36s-9.33398 -19.5 -14.001 -26.5s-8.33398 -12.167 -11.001 -15.5h314c9.33301 0 17 -3.16699 23 -9.5s9 -13.833 9 -22.5v-47
c0 -9.33301 -3 -17 -9 -23s-13.667 -9 -23 -9h-454c-9.33301 0 -17 3 -23 9s-9 13.667 -9 23v18c0 13.333 1.83301 24.166 5.5 32.499s10.5 16.833 20.5 25.5c15.333 14 27.833 30.667 37.5 50s14.5 39.666 14.5 60.999v68h-46c-9.33301 0 -17 3 -23 9s-9 13.333 -9 22v44
c0 9.33301 3 17 9 23s13.667 9 23 9h46v97c0 68 17.667 122.167 53 162.5s90.333 60.5 165 60.5c37.333 0 69.5 -5 96.5 -15s49.333 -23.667 67 -41s30.667 -38.166 39 -62.499s12.5 -50.833 12.5 -79.5z" />
    <glyph glyph-name="currency" unicode="&#xa4;" horiz-adv-x="607" 
d="M304 120c-22 0 -42.333 2.16895 -61 6.50195s-35.667 10.166 -51 17.499l-47 -47c-6 -6.66699 -13.333 -10 -22 -10s-16 3 -22 9l-39 39c-6 6 -9 13.333 -9 22s3 16.334 9 23.001l47 46c-12.667 26 -19 56.667 -19 92v42c0 32 6.33301 61.667 19 89l-48 48
c-5.33301 6.66699 -8 14.334 -8 23.001s3 16 9 22l38 38c6 6 13.5 9 22.5 9s16.5 -3 22.5 -9l47 -47c15.333 7.33301 32.333 13.166 51 17.499s39 6.5 61 6.5c42.667 0 79.667 -8 111 -24l47 47c6 6 13.5 9 22.5 9s16.5 -3 22.5 -9l38 -38c6 -6 9 -13.333 9 -22
s-3 -16.334 -9 -23.001l-48 -48c12.667 -25.333 19 -55 19 -89v-42c0 -32.667 -6.33301 -63.334 -19 -92.001l48 -46c6 -6.66699 9 -14.334 9 -23.001s-3 -16 -9 -22l-38 -38c-6 -6 -13.5 -9 -22.5 -9s-16.5 3 -22.5 9l-47 47c-15.333 -7.33301 -32.5 -13.166 -51.5 -17.499
s-38.833 -6.5 -59.5 -6.5zM304 454.002c-28 0 -51.5 -8.5 -70.5 -25.5s-28.5 -43.167 -28.5 -78.5v-24c0 -34.667 9.5 -60.334 28.5 -77.001s42.5 -25 70.5 -25s51.333 8.33301 70 25s28 42.334 28 77.001v24c0 35.333 -9.33301 61.5 -28 78.5s-42 25.5 -70 25.5z" />
    <glyph glyph-name="yen" unicode="&#xa5;" horiz-adv-x="584" 
d="M79.3809 87c-8.66699 0 -16.001 3 -22.001 9s-9 13.667 -9 23v29c0 9.33301 3 17 9 23s13.333 9 22 9h144v64h-144c-8.66699 0 -16 3 -22 9s-9 13.667 -9 23v29c0 9.33301 3 17 9 23s13.333 9 22 9h120l-182 335c-3.33301 6.66699 -3.16602 13 0.500977 19
s9.16699 9 16.5 9h86c9.33301 0 18.166 -2.66699 26.499 -8s14.833 -12 19.5 -20l127 -251l127 251c4 8 10.333 14.667 19 20s17.667 8 27 8h78c7.33301 0 12.833 -3 16.5 -9s3.83398 -12.333 0.500977 -19l-178 -335h121c9.33301 0 17 -3 23 -9s9 -13.667 9 -23v-29
c0 -9.33301 -3 -17 -9 -23s-13.667 -9 -23 -9h-144v-64h144c9.33301 0 17 -3 23 -9s9 -13.667 9 -23v-29c0 -9.33301 -3 -17 -9 -23s-13.667 -9 -23 -9h-144v-55c0 -9.33301 -3 -17 -9 -23s-13.333 -9 -22 -9h-74c-8.66699 0 -16.167 3 -22.5 9s-9.5 13.667 -9.5 23v55h-144
z" />
    <glyph glyph-name="brokenbar" unicode="&#xa6;" horiz-adv-x="239" 
d="M92 -170c-8.66699 0 -16 3 -22 9s-9 13.667 -9 23v290c0 8.66699 3 16.167 9 22.5s13.333 9.5 22 9.5h55c8.66699 0 16 -3.16699 22 -9.5s9 -13.833 9 -22.5v-290c0 -9.33301 -3 -17 -9 -23s-13.333 -9 -22 -9h-55zM92 413c-8.66699 0 -16 3 -22 9s-9 13.667 -9 23v293
c0 9.33301 3 17 9 23s13.333 9 22 9h55c8.66699 0 16 -3 22 -9s9 -13.667 9 -23v-293c0 -9.33301 -3 -17 -9 -23s-13.333 -9 -22 -9h-55z" />
    <glyph glyph-name="section" unicode="&#xa7;" horiz-adv-x="536" 
d="M214 381c-9.33301 -6.66699 -17.332 -15.334 -23.999 -26.001s-10 -22.334 -10 -35.001v-6c0 -13.333 3.66699 -24.166 11 -32.499s17.166 -15.166 29.499 -20.499s26.333 -9.83301 42 -13.5l49.5 -11.5c12 8 22.333 18 31 30s13 24.333 13 37
c0 15.333 -5.33301 27.5 -16 36.5s-23.5 16 -38.5 21s-30.667 8.83301 -47 11.5s-29.833 5.66699 -40.5 9zM178.001 69c0 -15.333 7 -29.998 21 -43.998s36 -21 66 -21c28 0 48 6.33301 60 19s18 28.667 18 48c0 21.333 -9 36.833 -27 46.5s-41 17.167 -69 22.5
c-24 4.66699 -48 10.667 -72 18s-45.667 17.166 -65 29.499s-35 28.166 -47 47.499s-18 43.333 -18 72c0 28 6.33301 53 19 75s29 39.333 49 52c-16.667 11.333 -30.167 26 -40.5 44s-15.5 37.667 -15.5 59v17c0 22.667 4.16699 43.834 12.5 63.501s21 36.667 38 51
s38.167 25.5 63.5 33.5s55.333 12 90 12s64.667 -4.66699 90 -14s46.333 -21.666 63 -36.999s29 -32.833 37 -52.5s12 -39.834 12 -60.501c0 -18.667 -9 -28 -27 -28h-71c-19.333 0 -29 8.66699 -29 26c0 16 -5.5 30.5 -16.5 43.5s-30.5 19.5 -58.5 19.5
c-26 0 -43.833 -5.66699 -53.5 -17s-14.5 -26.666 -14.5 -45.999c0 -12 2.66699 -22 8 -30s12.5 -14.833 21.5 -20.5s19.667 -10.334 32 -14.001s25.166 -6.83398 38.499 -9.50098c22 -4 44.833 -9.5 68.5 -16.5s45 -16.5 64 -28.5s34.667 -27 47 -45s18.5 -40.333 18.5 -67
v-17c0 -10 -2.16699 -20.167 -6.5 -30.5s-10 -20.5 -17 -30.5s-14.833 -19.5 -23.5 -28.5s-17.667 -16.833 -27 -23.5c18 -11.333 32.667 -26 44 -44s17 -38.667 17 -62v-16c0 -22.667 -4.66699 -44 -14 -64s-23 -37.333 -41 -52s-40.333 -26.334 -67 -35.001
s-57 -13 -91 -13c-35.333 0 -66.333 4.66699 -93 14s-49.167 21.833 -67.5 37.5s-32.166 33.334 -41.499 53.001s-14 40.167 -14 61.5c0 8 2.5 14.5 7.5 19.5s11.833 7.5 20.5 7.5h72c19.333 0 29 -8.33301 29 -25z" />
    <glyph glyph-name="dieresis" unicode="&#xa8;" horiz-adv-x="457" 
d="M419 678c0 -21.333 -5.66699 -38.5 -17 -51.5s-28.666 -19.5 -51.999 -19.5c-22.667 0 -39.334 6.5 -50.001 19.5s-16 30.167 -16 51.5c0 22 5.33301 39.667 16 53s27.334 20 50.001 20c23.333 0 40.666 -6.66699 51.999 -20s17 -31 17 -53zM174 678
c0 -21.333 -5.66699 -38.5 -17 -51.5s-28.666 -19.5 -51.999 -19.5c-22.667 0 -39.5 6.5 -50.5 19.5s-16.5 30.167 -16.5 51.5c0 22 5.5 39.667 16.5 53s27.833 20 50.5 20c23.333 0 40.666 -6.66699 51.999 -20s17 -31 17 -53z" />
    <glyph glyph-name="copyright" unicode="&#xa9;" horiz-adv-x="715" 
d="M505 267c0 -36 -13.002 -65.833 -39.002 -89.5s-62 -35.5 -108 -35.5c-46.667 0 -83.167 12.667 -109.5 38s-39.5 59.666 -39.5 102.999v132c0 42.667 13.167 76.667 39.5 102s62.833 38 109.5 38c22.667 0 43.167 -3.16699 61.5 -9.5s33.833 -15.166 46.5 -26.499
s22.334 -24.5 29.001 -39.5s10 -31.5 10 -49.5v-8c0 -6.66699 -2.16699 -12.334 -6.5 -17.001s-9.83301 -7 -16.5 -7h-52c-14.667 0 -22 8 -22 24v3c0 13.333 -4.5 24 -13.5 32s-21.167 12 -36.5 12s-27.666 -4.5 -36.999 -13.5s-14 -22.833 -14 -41.5v-131
c0 -18 4.5 -31.667 13.5 -41s21.5 -14 37.5 -14c15.333 0 27.5 4 36.5 12s13.5 19.333 13.5 34v8c0 15.333 7.33301 23 22 23h52c6.66699 0 12.167 -2.16699 16.5 -6.5s6.5 -10.166 6.5 -17.499v-14zM357.998 -14c-40.667 0 -79.5 5 -116.5 15s-69.5 24.667 -97.5 44
s-50.333 42.666 -67 69.999s-25 58.666 -25 93.999v279c0 34.667 8.33301 65.834 25 93.501s39 51 67 70s60.5 33.5 97.5 43.5s75.833 15 116.5 15c40 0 78.5 -5 115.5 -15s69.5 -24.5 97.5 -43.5s50.333 -42.333 67 -70s25 -58.834 25 -93.501v-279
c0 -35.333 -8.33301 -66.666 -25 -93.999s-39 -50.666 -67 -69.999s-60.5 -34 -97.5 -44s-75.5 -15 -115.5 -15zM357.998 628c-26 0 -52 -3 -78 -9s-49.167 -15 -69.5 -27s-36.833 -26.667 -49.5 -44s-19 -37.333 -19 -60v-280c0 -22.667 6.33301 -42.667 19 -60
s29.167 -32 49.5 -44s43.5 -21 69.5 -27s52 -9 78 -9s51.667 3 77 9s48.166 15 68.499 27s36.833 26.667 49.5 44s19 37.333 19 60v280c0 22.667 -6.33301 42.667 -19 60s-29.167 32 -49.5 44s-43.166 21 -68.499 27s-51 9 -77 9z" />
    <glyph glyph-name="ordfeminine" unicode="&#xaa;" horiz-adv-x="437" 
d="M200 338c19.333 0 37.499 3.49805 54.499 10.498s31.167 16.5 42.5 28.5v52c-29.333 7.33301 -59.666 11 -90.999 11c-21.333 0 -37.333 -4.66699 -48 -14s-16 -21.666 -16 -36.999c0 -17.333 5.16699 -30.166 15.5 -38.499s24.5 -12.5 42.5 -12.5zM56.999 568.998
c0 19.333 3.50098 37.498 10.501 54.498s17.5 32 31.5 45s31.333 23.333 52 31s44.667 11.5 72 11.5c54.667 0 96.334 -13.5 125.001 -40.5s43 -65.167 43 -114.5v-265c0 -17.333 -9.33301 -26 -28 -26h-38c-6.66699 0 -12.334 2.16699 -17.001 6.5s-7 9.83301 -7 16.5v9
c-13.333 -11.333 -30.5 -20.666 -51.5 -27.999s-42.167 -11 -63.5 -11c-42.667 0 -76.667 10.833 -102 32.5s-38 54.5 -38 98.5c0 45.333 15.333 77.333 46 96s70.334 28 119.001 28c13.333 0 27.666 -1.16699 42.999 -3.5s29.666 -5.16602 42.999 -8.49902v46
c0 56.667 -24.667 85 -74 85c-25.333 0 -43.5 -6.33301 -54.5 -19s-16.5 -27.667 -16.5 -45c0 -14.667 -7.33301 -22 -22 -22h-50c-6.66699 0 -12.167 2.33301 -16.5 7s-6.5 10 -6.5 16z" />
    <glyph glyph-name="guillemotleft" unicode="&#xab;" horiz-adv-x="517" 
d="M68 218c-15.333 15.333 -23 33.333 -23 54v14c0 10 2 19.833 6 29.5s9.66699 17.834 17 24.501l156 150c4.66699 4 9.66699 4.83301 15 2.5s8 -6.5 8 -12.5v-77c0 -9.33301 -2.16699 -18.833 -6.5 -28.5s-10.166 -17.834 -17.499 -24.501l-78 -71l78 -71
c7.33301 -6 13.166 -13.833 17.499 -23.5s6.5 -19.5 6.5 -29.5v-77c0 -6 -2.66699 -10.167 -8 -12.5s-10.333 -1.5 -15 2.5zM293 218c-7.33301 7.33301 -13.166 15.833 -17.499 25.5s-6.5 19.167 -6.5 28.5v14c0 10 2.16699 19.833 6.5 29.5s10.166 17.834 17.499 24.501
l156 150c4.66699 4 9.66699 4.83301 15 2.5s8 -6.5 8 -12.5v-77c0 -9.33301 -2.16699 -18.833 -6.5 -28.5s-10.166 -17.834 -17.499 -24.501l-78 -71l78 -71c7.33301 -6 13.166 -13.833 17.499 -23.5s6.5 -19.5 6.5 -29.5v-77c0 -6 -2.66699 -10.167 -8 -12.5
s-10.333 -1.5 -15 2.5z" />
    <glyph glyph-name="logicalnot" unicode="&#xac;" horiz-adv-x="642" 
d="M80 338c-9.33301 0 -17 3 -23 9s-9 13.333 -9 22v47c0 8.66699 3 16 9 22s13.667 9 23 9h482c9.33301 0 17 -3 23 -9s9 -13.333 9 -22v-192c0 -8.66699 -3 -16 -9 -22s-13.667 -9 -23 -9h-66c-8.66699 0 -16.167 3 -22.5 9s-9.5 13.333 -9.5 22v114h-384z" />
    <glyph glyph-name="uni00AD" unicode="&#xad;" horiz-adv-x="402" 
d="M93 246c-8.66699 0 -16 3 -22 9s-9 13.667 -9 23v46c0 9.33301 3 17 9 23s13.333 9 22 9h254c8.66699 0 16 -3 22 -9s9 -13.667 9 -23v-46c0 -9.33301 -3 -17 -9 -23s-13.333 -9 -22 -9h-254z" />
    <glyph glyph-name="registered" unicode="&#xae;" horiz-adv-x="715" 
d="M244 149c-9.33301 0 -17.001 3.00098 -23.001 9.00098s-9 13.667 -9 23v336c0 9.33301 3 17 9 23s13.667 9 23 9h126c44 0 78.5 -10.333 103.5 -31s37.5 -51.334 37.5 -92.001v-21c0 -26.667 -6.16699 -49.667 -18.5 -69s-30.5 -33.333 -54.5 -42l72 -117
c3.33301 -6.66699 3.33301 -13 0 -19s-8.66602 -9 -15.999 -9h-47c-10 0 -19.167 2.66699 -27.5 8s-14.5 12 -18.5 20l-57 104h-34v-100c0 -9.33301 -3.16699 -17 -9.5 -23s-13.833 -9 -22.5 -9h-34zM309.999 356.001l47 -0.000976562c18.667 0 32.834 4.16699 42.501 12.5
s14.5 23.833 14.5 46.5s-4.83301 37.834 -14.5 45.501s-23.834 11.5 -42.501 11.5h-47v-116zM357.999 -14c-40.667 0 -79.5 5 -116.5 15s-69.5 24.667 -97.5 44s-50.333 42.666 -67 69.999s-25 58.666 -25 93.999v279c0 34.667 8.33301 65.834 25 93.501s39 51 67 70
s60.5 33.5 97.5 43.5s75.833 15 116.5 15c40 0 78.5 -5 115.5 -15s69.5 -24.5 97.5 -43.5s50.333 -42.333 67 -70s25 -58.834 25 -93.501v-279c0 -35.333 -8.33301 -66.666 -25 -93.999s-39 -50.666 -67 -69.999s-60.5 -34 -97.5 -44s-75.5 -15 -115.5 -15zM357.999 628
c-26 0 -52 -3 -78 -9s-49.167 -15 -69.5 -27s-36.833 -26.667 -49.5 -44s-19 -37.333 -19 -60v-280c0 -22.667 6.33301 -42.667 19 -60s29.167 -32 49.5 -44s43.5 -21 69.5 -27s52 -9 78 -9s51.667 3 77 9s48.166 15 68.499 27s36.833 26.667 49.5 44s19 37.333 19 60v280
c0 22.667 -6.33301 42.667 -19 60s-29.167 32 -49.5 44s-43.166 21 -68.499 27s-51 9 -77 9z" />
    <glyph glyph-name="macron" unicode="&#xaf;" horiz-adv-x="401" 
d="M74 619c-9.33301 0 -17 3.16699 -23 9.5s-9 13.833 -9 22.5v46c0 9.33301 3 17 9 23s13.667 9 23 9h253c9.33301 0 17 -3 23 -9s9 -13.667 9 -23v-46c0 -8.66699 -3 -16.167 -9 -22.5s-13.667 -9.5 -23 -9.5h-253z" />
    <glyph glyph-name="degree" unicode="&#xb0;" horiz-adv-x="366" 
d="M180 430c-41.333 0 -74.666 11.667 -99.999 35s-38 56.666 -38 99.999v16c0 41.333 12.667 74.333 38 99s58.666 37 99.999 37c44.667 0 79.834 -12.333 105.501 -37s38.5 -57.667 38.5 -99v-16c0 -43.333 -12.833 -76.666 -38.5 -99.999s-60.834 -35 -105.501 -35z
M123 571c0 -21.333 4.66797 -38 14.001 -50s23.666 -18 42.999 -18c22 0 38 6 48 18s15 28.667 15 50c0 23.333 -5 40.833 -15 52.5s-26 17.5 -48 17.5c-38 0 -57 -23.333 -57 -70z" />
    <glyph glyph-name="plusminus" unicode="&#xb1;" horiz-adv-x="586" 
d="M80 312c-9.33301 0 -17 3.16699 -23 9.5s-9 13.833 -9 22.5v39c0 9.33301 3 17 9 23s13.667 9 23 9h156v113c0 9.33301 3 17 9 23s13.667 9 23 9h50c9.33301 0 17 -3 23 -9s9 -13.667 9 -23v-113h156c9.33301 0 17 -3 23 -9s9 -13.667 9 -23v-39
c0 -8.66699 -3 -16.167 -9 -22.5s-13.667 -9.5 -23 -9.5h-156v-113c0 -9.33301 -3 -17 -9 -23s-13.667 -9 -23 -9h-50c-9.33301 0 -17 3 -23 9s-9 13.667 -9 23v113h-156zM80 21c-9.33301 0 -17 3 -23 9s-9 13.333 -9 22v38c0 8.66699 3 16 9 22s13.667 9 23 9h426
c9.33301 0 17 -3 23 -9s9 -13.333 9 -22v-38c0 -8.66699 -3 -16 -9 -22s-13.667 -9 -23 -9h-426z" />
    <glyph glyph-name="uni00B2" unicode="&#xb2;" horiz-adv-x="431" 
d="M52 559c0 18.667 3.16602 37.0029 9.49902 55.0029s16.333 34.167 30 48.5s30.834 25.833 51.501 34.5s45.334 13 74.001 13c54 0 94.5 -13 121.5 -39s40.5 -58.667 40.5 -98c0 -28 -7.83301 -54.333 -23.5 -79s-32.5 -46 -50.5 -64l-105 -108h154
c8.66699 0 16.167 -3 22.5 -9s9.5 -13.667 9.5 -23v-24c0 -8.66699 -3.16699 -16 -9.5 -22s-13.833 -9 -22.5 -9h-278c-8.66699 0 -15.834 2.66699 -21.501 8s-8.5 12 -8.5 20v9c0 9.33301 1.83301 17.666 5.5 24.999s8.5 14.666 14.5 21.999l168 180
c14 14.667 24 27.667 30 39s9 22.666 9 33.999c0 13.333 -4.5 25 -13.5 35s-23.167 15 -42.5 15c-21.333 0 -37 -7.16699 -47 -21.5s-15 -28.5 -15 -42.5c0 -14.667 -7.33301 -22 -22 -22h-58c-6 0 -11.333 2.16699 -16 6.5s-7 9.83301 -7 16.5z" />
    <glyph glyph-name="uni00B3" unicode="&#xb3;" horiz-adv-x="423" 
d="M46 371c0 14.667 7.33496 22.002 22.002 22.002h60c14.667 0 22 -7 22 -21c0 -13.333 4.66699 -26.333 14 -39s24.333 -19 45 -19c19.333 0 34.166 5 44.499 15s15.5 24 15.5 42v12c0 42 -12.333 63 -37 63h-46c-16.667 0 -25 8.33301 -25 25v21
c0 16.667 8.33301 25 25 25h45c12.667 0 21.5 6.33301 26.5 19s7.5 25 7.5 37c0 14 -4.5 26 -13.5 36s-22.833 15 -41.5 15s-32.334 -5.5 -41.001 -16.5s-13 -23.167 -13 -36.5s-7.33301 -20 -22 -20h-58c-6 0 -11.333 2 -16 6s-7 9.66699 -7 17c0 16 3 32 9 48
s15.5 30.5 28.5 43.5s29.5 23.667 49.5 32s44 12.5 72 12.5c52 0 91.167 -12.833 117.5 -38.5s39.5 -57.5 39.5 -95.5c0 -16 -3.33301 -32.167 -10 -48.5s-16 -30.5 -28 -42.5c13.333 -9.33301 24.333 -23.333 33 -42s13 -37 13 -55v-19c0 -43.333 -14.5 -78 -43.5 -104
s-70.5 -39 -124.5 -39c-28 0 -52.167 4 -72.5 12s-37.333 18.667 -51 32s-23.667 28.666 -30 45.999s-9.5 35.666 -9.5 54.999z" />
    <glyph glyph-name="acute" unicode="&#xb4;" horiz-adv-x="318" 
d="M71.7773 616c-7.33301 0 -12.3301 3 -14.9971 9s-2.33398 11.667 0.999023 17l54 78c5.33301 8 12.666 14.333 21.999 19s18.666 7 27.999 7h80c6 0 10.167 -2.66699 12.5 -8s1.5 -10.333 -2.5 -15l-76 -84c-7.33301 -7.33301 -15.833 -13 -25.5 -17s-19.167 -6 -28.5 -6
h-50z" />
    <glyph glyph-name="uni00B5" unicode="&#xb5;" horiz-adv-x="560" 
d="M59 528c0 9.33301 3.16309 17 9.49609 23s13.833 9 22.5 9h69c9.33301 0 17 -3 23 -9s9 -13.667 9 -23v-339c0.666992 -30.667 6.33398 -53.167 17.001 -67.5s30.334 -21.5 59.001 -21.5c18.667 0 36.834 5.16699 54.501 15.5s32.834 22.833 45.501 37.5v375
c0 9.33301 3 17 9 23s13.667 9 23 9h69c9.33301 0 17 -3 23 -9s9 -13.667 9 -23v-496c0 -9.33301 -3 -17 -9 -23s-13.667 -9 -23 -9h-59c-8.66699 0 -16.167 3 -22.5 9s-9.5 13.667 -9.5 23l-1 21c-18 -20 -38.833 -35.5 -62.5 -46.5s-47.5 -16.5 -71.5 -16.5
c-11.333 0 -22.333 1.33301 -33 4s-20 6.66699 -28 12l2 -124c0 -9.33301 -3 -17 -9 -23s-13.333 -9 -22 -9h-62c-8.66699 0 -16.167 3 -22.5 9s-9.5 13.667 -9.5 23v646z" />
    <glyph glyph-name="paragraph" unicode="&#xb6;" horiz-adv-x="583" 
d="M315 -110c-8.66699 0 -16.168 3.00195 -22.501 9.00195s-9.5 13.667 -9.5 23v342h-17c-32 0 -61 4.5 -87 13.5s-48.5 22.167 -67.5 39.5s-33.667 38.666 -44 63.999s-15.5 54.666 -15.5 87.999v26c0 66 19.333 116.667 58 152s95.334 53 170.001 53h212
c9.33301 0 17 -3 23 -9s9 -13.667 9 -23v-746c0 -9.33301 -3 -17 -9 -23s-13.667 -9 -23 -9h-17c-8.66699 0 -16.167 3 -22.5 9s-9.5 13.667 -9.5 23v692h-80v-692c0 -9.33301 -3 -17 -9 -23s-13.333 -9 -22 -9h-17z" />
    <glyph glyph-name="periodcentered" unicode="&#xb7;" horiz-adv-x="222" 
d="M187 334c0 -24 -7 -41.667 -21 -53s-32.667 -17 -56 -17c-22.667 0 -40.834 5.66699 -54.501 17s-20.5 29 -20.5 53c0 25.333 6.83301 44 20.5 56s31.834 18 54.501 18c23.333 0 42 -6 56 -18s21 -30.667 21 -56z" />
    <glyph glyph-name="cedilla" unicode="&#xb8;" horiz-adv-x="266" 
d="M110 -167l-20.999 0.00195312c-8 0 -15.667 0.666992 -23 2c-16 2 -24 8.33301 -24 19v15c0 10 5.33301 15 16 15h21c13.333 0 23.666 2.16699 30.999 6.5s11 10.166 11 17.499c0 8 -3.5 13.833 -10.5 17.5s-14.833 6.16699 -23.5 7.5
c-17.333 3.33301 -22.666 13.333 -15.999 30l10 24c2.66699 8.66699 9.33398 13 20.001 13h59c4.66699 0 7.5 -1.5 8.5 -4.5s0.833008 -6.16699 -0.5 -9.5l-7 -19c17.333 -2.66699 32.166 -8.83398 44.499 -18.501s18.5 -24.5 18.5 -44.5c0 -14 -3.5 -25.5 -10.5 -34.5
s-16 -16.333 -27 -22s-23.333 -9.5 -37 -11.5s-26.834 -3 -39.501 -3z" />
    <glyph glyph-name="uni00B9" unicode="&#xb9;" horiz-adv-x="259" 
d="M141 235c-9.33301 0 -17 3 -23 9s-9 13.333 -9 22v349h-45c-8.66699 0 -16.167 3 -22.5 9s-9.5 13.333 -9.5 22v23c0 9.33301 3.16699 17 9.5 23s13.833 9 22.5 9h117c9.33301 0 17 -3 23 -9s9 -13.667 9 -23v-403c0 -8.66699 -3 -16 -9 -22s-13.667 -9 -23 -9h-40z" />
    <glyph glyph-name="ordmasculine" unicode="&#xba;" horiz-adv-x="440" 
d="M220 258c-54 0 -96.5 14.667 -127.5 44s-46.5 69.333 -46.5 120v125c0 50.667 15.5 90.667 46.5 120s73.5 44 127.5 44s96.5 -14.667 127.5 -44s46.5 -69.333 46.5 -120v-125c0 -50.667 -15.5 -90.667 -46.5 -120s-73.5 -44 -127.5 -44zM220 632
c-52 0 -78 -31.667 -78 -95v-106c0 -61.333 26 -92 78 -92c53.333 0 80 30.667 80 92v106c0 63.333 -26.667 95 -80 95z" />
    <glyph glyph-name="guillemotright" unicode="&#xbb;" horiz-adv-x="517" 
d="M68 68c-4.66699 -4 -9.66699 -4.83301 -15 -2.5s-8 6.5 -8 12.5v77c0 10 2.16699 19.833 6.5 29.5s10.166 17.5 17.499 23.5l77 71l-77 71c-7.33301 6.66699 -13.166 14.834 -17.499 24.501s-6.5 19.167 -6.5 28.5v77c0 6 2.66699 10.167 8 12.5s10.333 1.5 15 -2.5
l156 -150c7.33301 -6.66699 13 -14.834 17 -24.501s6 -19.5 6 -29.5v-14c0 -20.667 -7.66699 -38.667 -23 -54zM293 68c-4.66699 -4 -9.83398 -4.83301 -15.501 -2.5s-8.5 6.5 -8.5 12.5v77c0 10 2.33301 19.833 7 29.5s10.667 17.5 18 23.5l77 71l-77 71
c-7.33301 6.66699 -13.333 14.834 -18 24.501s-7 19.167 -7 28.5v77c0 6 2.83301 10.167 8.5 12.5s10.834 1.5 15.501 -2.5l156 -150c7.33301 -6.66699 13 -14.834 17 -24.501s6 -19.5 6 -29.5v-14c0 -20.667 -7.66699 -38.667 -23 -54z" />
    <glyph glyph-name="onequarter" unicode="&#xbc;" horiz-adv-x="886" 
d="M492 83c-8 0 -14.832 2.83301 -20.499 8.5s-8.5 12.5 -8.5 20.5v3c0 8 1 16.833 3 26.5s4.66699 18.167 8 25.5l121 270c3.33301 9.33301 9 16.666 17 21.999s17 8 27 8h43c8 0 14.167 -3.16699 18.5 -9.5s5.16602 -13.166 2.49902 -20.499l-113 -267h105v115
c0 9.33301 3 17 9 23s13.333 9 22 9h40c9.33301 0 17 -3 23 -9s9 -13.667 9 -23v-115h14c6.66699 0 11.834 -2.16699 15.501 -6.5s5.5 -9.83301 5.5 -16.5v-41c0 -6.66699 -1.83301 -12.167 -5.5 -16.5s-8.83398 -6.5 -15.501 -6.5h-14v-51c0 -9.33301 -3 -17 -9 -23
s-13.667 -9 -23 -9h-40c-8.66699 0 -16 3 -22 9s-9 13.667 -9 23v51h-203zM144.001 234c-9.33301 0 -17 3 -23 9s-9 13.667 -9 23v348h-45c-9.33301 0 -17 3 -23 9s-9 13.667 -9 23v23c0 8.66699 3 16 9 22s13.667 9 23 9h117c8.66699 0 16 -3 22 -9s9 -13.333 9 -22v-403
c0 -9.33301 -3 -17 -9 -23s-13.333 -9 -22 -9h-40zM148.001 0c-6.66699 0 -11.667 3 -15 9s-3 12 1 18l435 646c5.33301 8.66699 12.5 15.334 21.5 20.001s18.167 7 27.5 7h78c6.66699 0 11.667 -3 15 -9s3 -12 -1 -18l-437 -646
c-5.33301 -8.66699 -12.5 -15.334 -21.5 -20.001s-18.167 -7 -27.5 -7h-76z" />
    <glyph glyph-name="onehalf" unicode="&#xbd;" horiz-adv-x="918" 
d="M144 235c-9.33301 0 -17 3 -23 9s-9 13.333 -9 22v349h-45c-9.33301 0 -17 3 -23 9s-9 13.333 -9 22v23c0 9.33301 3 17 9 23s13.667 9 23 9h117c8.66699 0 16 -3 22 -9s9 -13.667 9 -23v-403c0 -8.66699 -3 -16 -9 -22s-13.333 -9 -22 -9h-40zM130 0
c-7.33301 0 -12.5 3 -15.5 9s-2.83301 12 0.5 18l435 646c5.33301 8.66699 12.5 15.334 21.5 20.001s18.5 7 28.5 7h78c6.66699 0 11.667 -3 15 -9s3 -12 -1 -18l-437 -646c-5.33301 -8.66699 -12.5 -15.334 -21.5 -20.001s-18.167 -7 -27.5 -7h-76zM531 325
c0 18.667 3.33301 37.002 10 55.002s16.667 34.167 30 48.5s30.5 25.833 51.5 34.5s45.5 13 73.5 13c26.667 0 50.334 -3.5 71.001 -10.5s37.667 -16.667 51 -29s23.5 -27 30.5 -44s10.5 -35.167 10.5 -54.5c0 -28 -8 -54.167 -24 -78.5s-33 -45.833 -51 -64.5l-104 -108
h153c9.33301 0 17 -3 23 -9s9 -13.333 9 -22v-24c0 -9.33301 -3 -17 -9 -23s-13.667 -9 -23 -9h-278c-8 0 -15 2.66699 -21 8s-9 12.333 -9 21v9c0 9.33301 2 17.5 6 24.5s9 14.167 15 21.5l167 180c14 15.333 24 28.666 30 39.999s9 22.333 9 33c0 13.333 -4.5 25 -13.5 35
s-23.167 15 -42.5 15c-21.333 0 -37 -7.16699 -47 -21.5s-15 -28.5 -15 -42.5c0 -14.667 -7.33301 -22 -22 -22h-57c-6.66699 0 -12.334 2.16699 -17.001 6.5s-7 10.166 -7 17.499z" />
    <glyph glyph-name="threequarters" unicode="&#xbe;" horiz-adv-x="994" 
d="M258 0c-6.66699 0 -11.667 3 -15 9s-3 12 1 18l435 646c5.33301 8.66699 12.5 15.334 21.5 20.001s18.167 7 27.5 7h78c6.66699 0 11.667 -3 15 -9s3 -12 -1 -18l-437 -646c-5.33301 -8.66699 -12.5 -15.334 -21.5 -20.001s-18.167 -7 -27.5 -7h-76zM52 371
c0 14.667 7.33496 22.002 22.002 22.002h60c14.667 0 22 -7 22 -21c0 -13.333 4.66699 -26.333 14 -39s24.333 -19 45 -19c19.333 0 34.166 5 44.499 15s15.5 24 15.5 42v12c0 42 -12.333 63 -37 63h-45c-17.333 0 -26 8.33301 -26 25v21c0 16.667 8.66699 25 26 25h44
c12.667 0 21.5 6.33301 26.5 19s7.5 25 7.5 37c0 14 -4.5 26 -13.5 36s-22.833 15 -41.5 15s-32.334 -5.5 -41.001 -16.5s-13 -23.167 -13 -36.5s-7.33301 -20 -22 -20h-58c-6 0 -11.333 2 -16 6s-7 9.66699 -7 17c0 16 3 32 9 48s15.5 30.5 28.5 43.5s29.5 23.667 49.5 32
s44 12.5 72 12.5c52 0 91.167 -12.833 117.5 -38.5s39.5 -57.5 39.5 -95.5c0 -16 -3.33301 -32.167 -10 -48.5s-16 -30.5 -28 -42.5c13.333 -9.33301 24.333 -23.333 33 -42s13 -37 13 -55v-19c0 -43.333 -14.5 -78 -43.5 -104s-70.5 -39 -124.5 -39
c-28 0 -52.167 4 -72.5 12s-37.333 18.667 -51 32s-23.667 28.666 -30 45.999s-9.5 35.666 -9.5 54.999zM600.002 83.002c-8 0 -14.6631 2.83301 -19.9961 8.5s-8 12.5 -8 20.5v3c0 8 0.833008 16.833 2.5 26.5s4.16699 18.167 7.5 25.5l121 270
c3.33301 9.33301 9.16602 16.666 17.499 21.999s17.166 8 26.499 8h44c7.33301 0 13.166 -3.16699 17.499 -9.5s5.16602 -13.166 2.49902 -20.499l-113 -267h105v115c0 9.33301 3 17 9 23s13.333 9 22 9h40c9.33301 0 17 -3 23 -9s9 -13.667 9 -23v-115h14
c6.66699 0 12 -2.16699 16 -6.5s6 -9.83301 6 -16.5v-41c0 -6.66699 -2 -12.167 -6 -16.5s-9.33301 -6.5 -16 -6.5h-14v-51c0 -9.33301 -3 -17 -9 -23s-13.667 -9 -23 -9h-40c-8.66699 0 -16 3 -22 9s-9 13.667 -9 23v51h-203z" />
    <glyph glyph-name="questiondown" unicode="&#xbf;" horiz-adv-x="524" 
d="M358 647c0 -23.333 -7.16699 -40.5 -21.5 -51.5s-32.166 -16.5 -53.499 -16.5s-39.333 5.5 -54 16.5s-22 28.167 -22 51.5c0 22 7.33301 38.5 22 49.5s32.667 16.5 54 16.5s39.166 -5.5 53.499 -16.5s21.5 -27.5 21.5 -49.5zM354 178
c0 20.667 9.66895 31.001 29.002 31.001h75c8.66699 0 15.834 -3 21.501 -9s8.5 -13.333 8.5 -22c0 -25.333 -4.5 -49.5 -13.5 -72.5s-22.833 -43.333 -41.5 -61s-41.834 -31.834 -69.501 -42.501s-59.834 -16 -96.501 -16s-68.834 4.5 -96.501 13.5
s-50.834 21.333 -69.501 37s-32.667 34 -42 55s-14 43.833 -14 68.5v14c0 22 2.5 41.667 7.5 59s12 33.333 21 48s19.333 28.5 31 41.5s24.5 26.167 38.5 39.5c25.333 23.333 43.833 44.666 55.5 63.999s17.5 42 17.5 68v13c0 10.667 5.33301 16 16 16h99
c5.33301 0 9.83301 -1.83301 13.5 -5.5s5.5 -8.16699 5.5 -13.5v-18c0 -26 -2.16699 -48 -6.5 -66s-10.666 -34 -18.999 -48s-18.5 -26.833 -30.5 -38.5l-41 -38.5c-20 -17.333 -36.5 -36 -49.5 -56s-19.5 -44.667 -19.5 -74c0 -21.333 6.33301 -38.333 19 -51
s34 -19 64 -19c16 0 29.5 2.33301 40.5 7s20 10.834 27 18.501s12 16.5 15 26.5s4.5 20.333 4.5 31z" />
    <glyph glyph-name="Agrave" unicode="&#xc0;" horiz-adv-x="625" 
d="M26.083 0c-8 0 -14.332 3.16602 -18.999 9.49902s-5.33398 13.166 -2.00098 20.499l227 640c3.33301 8.66699 8.83301 15.834 16.5 21.501s16.167 8.5 25.5 8.5h69c9.33301 0 18 -2.83301 26 -8.5s13.667 -12.834 17 -21.501l228 -640
c3.33301 -7.33301 2.66602 -14.166 -2.00098 -20.499s-11 -9.5 -19 -9.5h-83c-9.33301 0 -17.833 2.83301 -25.5 8.5s-13.167 12.834 -16.5 21.501l-45 139h-231l-44 -138c-2.66699 -9.33301 -7.66699 -16.833 -15 -22.5s-15.666 -8.5 -24.999 -8.5h-82zM225.084 276.999
h164l-83 260zM312.084 755.999c-9.33301 0 -18.8301 2 -28.4971 6s-17.834 9.66699 -24.501 17l-76 84c-4.66699 4.66699 -5.66699 9.66699 -3 15s7 8 13 8h80c9.33301 0 18.666 -2.33301 27.999 -7s16.666 -11 21.999 -19l53 -78c4 -5.33301 4.5 -11 1.5 -17
s-7.83301 -9 -14.5 -9h-51z" />
    <glyph glyph-name="Aacute" unicode="&#xc1;" horiz-adv-x="625" 
d="M26.083 0c-8 0 -14.332 3.16602 -18.999 9.49902s-5.33398 13.166 -2.00098 20.499l227 640c3.33301 8.66699 8.83301 15.834 16.5 21.501s16.167 8.5 25.5 8.5h69c9.33301 0 18 -2.83301 26 -8.5s13.667 -12.834 17 -21.501l228 -640
c3.33301 -7.33301 2.66602 -14.166 -2.00098 -20.499s-11 -9.5 -19 -9.5h-83c-9.33301 0 -17.833 2.83301 -25.5 8.5s-13.167 12.834 -16.5 21.501l-45 139h-231l-44 -138c-2.66699 -9.33301 -7.66699 -16.833 -15 -22.5s-15.666 -8.5 -24.999 -8.5h-82zM225.084 276.999
h164l-83 260zM276.084 755.999c-6.66699 0 -11.499 3 -14.499 9s-2.5 11.667 1.5 17l54 78c12 17.333 28.667 26 50 26h80c6 0 10.167 -2.66699 12.5 -8s1.5 -10.333 -2.5 -15l-77 -84c-6.66699 -7.33301 -14.834 -13 -24.501 -17s-19.167 -6 -28.5 -6h-51z" />
    <glyph glyph-name="Acircumflex" unicode="&#xc2;" horiz-adv-x="625" 
d="M26.083 0c-8 0 -14.332 3.16602 -18.999 9.49902s-5.33398 13.166 -2.00098 20.499l227 640c3.33301 8.66699 8.83301 15.834 16.5 21.501s16.167 8.5 25.5 8.5h69c9.33301 0 18 -2.83301 26 -8.5s13.667 -12.834 17 -21.501l228 -640
c3.33301 -7.33301 2.66602 -14.166 -2.00098 -20.499s-11 -9.5 -19 -9.5h-83c-9.33301 0 -17.833 2.83301 -25.5 8.5s-13.167 12.834 -16.5 21.501l-45 139h-231l-44 -138c-2.66699 -9.33301 -7.66699 -16.833 -15 -22.5s-15.666 -8.5 -24.999 -8.5h-82zM225.084 276.999
h164l-83 260zM184.084 755.999c-6 0 -10.3291 2.83301 -12.9961 8.5s-2.33398 11.167 0.999023 16.5l61 80c6 7.33301 13.667 13.333 23 18s18.666 7 27.999 7h44c9.33301 0 18.666 -2.33301 27.999 -7s17 -10.667 23 -18l61 -80c4 -5.33301 4.66699 -10.833 2 -16.5
s-7.33398 -8.5 -14.001 -8.5h-47c-9.33301 0 -18.5 2.33301 -27.5 7s-16.167 11.334 -21.5 20.001l-26 41l-25 -41c-5.33301 -8.66699 -12.5 -15.334 -21.5 -20.001s-18.167 -7 -27.5 -7h-48z" />
    <glyph glyph-name="Atilde" unicode="&#xc3;" horiz-adv-x="625" 
d="M26.083 0c-8 0 -14.332 3.16602 -18.999 9.49902s-5.33398 13.166 -2.00098 20.499l227 640c3.33301 8.66699 8.83301 15.834 16.5 21.501s16.167 8.5 25.5 8.5h69c9.33301 0 18 -2.83301 26 -8.5s13.667 -12.834 17 -21.501l228 -640
c3.33301 -7.33301 2.66602 -14.166 -2.00098 -20.499s-11 -9.5 -19 -9.5h-83c-9.33301 0 -17.833 2.83301 -25.5 8.5s-13.167 12.834 -16.5 21.501l-45 139h-231l-44 -138c-2.66699 -9.33301 -7.66699 -16.833 -15 -22.5s-15.666 -8.5 -24.999 -8.5h-82zM225.084 276.999
h164l-83 260zM235.084 803.999c-16.667 0 -27.998 -5.33301 -33.998 -16c-5.33301 -10 -10.666 -16.5 -15.999 -19.5s-14 -4.5 -26 -4.5h-25c-7.33301 0 -14 3.5 -20 10.5s-8.33301 14.167 -7 21.5c4.66699 30 16.167 55 34.5 75s43.5 30 75.5 30
c16.667 0 33.167 -2.33301 49.5 -7s31.5 -9.83398 45.5 -15.501l38.5 -15.5c11.667 -4.66699 21.5 -7 29.5 -7c16 0 27 5.33301 33 16c5.33301 10 10.666 16.5 15.999 19.5s13.666 4.5 24.999 4.5h25c8 0 15 -3.33301 21 -10s8.66699 -14 8 -22
c-4.66699 -30 -15.834 -55 -33.501 -75s-43.5 -30 -77.5 -30c-17.333 0 -33.5 2.33301 -48.5 7s-29.167 9.83398 -42.5 15.501l-38 15.5c-12 4.66699 -23 7 -33 7z" />
    <glyph glyph-name="Adieresis" unicode="&#xc4;" horiz-adv-x="625" 
d="M26.083 0c-8 0 -14.332 3.16602 -18.999 9.49902s-5.33398 13.166 -2.00098 20.499l227 640c3.33301 8.66699 8.83301 15.834 16.5 21.501s16.167 8.5 25.5 8.5h69c9.33301 0 18 -2.83301 26 -8.5s13.667 -12.834 17 -21.501l228 -640
c3.33301 -7.33301 2.66602 -14.166 -2.00098 -20.499s-11 -9.5 -19 -9.5h-83c-9.33301 0 -17.833 2.83301 -25.5 8.5s-13.167 12.834 -16.5 21.501l-45 139h-231l-44 -138c-2.66699 -9.33301 -7.66699 -16.833 -15 -22.5s-15.666 -8.5 -24.999 -8.5h-82zM225.084 276.999
h164l-83 260zM252.084 817.999c0 -21.333 -5.66699 -38.5 -17 -51.5s-28.666 -19.5 -51.999 -19.5c-22.667 0 -39.334 6.5 -50.001 19.5s-16 30.167 -16 51.5c0 22 5.33301 39.667 16 53s27.334 20 50.001 20c23.333 0 40.666 -6.66699 51.999 -20s17 -31 17 -53z
M497.084 817.999c0 -21.333 -5.5 -38.5 -16.5 -51.5s-28.5 -19.5 -52.5 -19.5c-22 0 -38.333 6.5 -49 19.5s-16 30.167 -16 51.5c0 22 5.33301 39.667 16 53s27 20 49 20c24 0 41.5 -6.66699 52.5 -20s16.5 -31 16.5 -53z" />
    <glyph glyph-name="Aring" unicode="&#xc5;" horiz-adv-x="625" 
d="M26.083 0c-8 0 -14.332 3.16602 -18.999 9.49902s-5.33398 13.166 -2.00098 20.499l227 640c3.33301 8.66699 8.83301 15.834 16.5 21.501s16.167 8.5 25.5 8.5h69c9.33301 0 18 -2.83301 26 -8.5s13.667 -12.834 17 -21.501l228 -640
c3.33301 -7.33301 2.66602 -14.166 -2.00098 -20.499s-11 -9.5 -19 -9.5h-83c-9.33301 0 -17.833 2.83301 -25.5 8.5s-13.167 12.834 -16.5 21.501l-45 139h-231l-44 -138c-2.66699 -9.33301 -7.66699 -16.833 -15 -22.5s-15.666 -8.5 -24.999 -8.5h-82zM308.084 733.999
c-24 0 -44.167 6.83301 -60.5 20.5s-24.5 33.167 -24.5 58.5v10c0 24 8.16699 43.167 24.5 57.5s36.5 21.5 60.5 21.5s44.167 -7.16699 60.5 -21.5s24.5 -33.5 24.5 -57.5v-10c0 -25.333 -8.16699 -44.833 -24.5 -58.5s-36.5 -20.5 -60.5 -20.5zM308.084 780.999
c10.667 0 18.5 3.16699 23.5 9.5s7.5 15.166 7.5 26.499c0 24.667 -10.333 37 -31 37s-31 -12.333 -31 -37c0 -11.333 2.5 -20.166 7.5 -26.499s12.833 -9.5 23.5 -9.5zM225.084 276.999h164l-83 260z" />
    <glyph glyph-name="AE" unicode="&#xc6;" horiz-adv-x="954" 
d="M21.3809 0c-7.33301 0 -12.834 3 -16.501 9s-3.83398 12.333 -0.500977 19l353 644c4.66699 8.66699 11.334 15.5 20.001 20.5s17.667 7.5 27 7.5h475c9.33301 0 17 -3 23 -9s9 -13.667 9 -23v-51c0 -8.66699 -3 -16 -9 -22s-13.667 -9 -23 -9h-269v-227h219
c8.66699 0 16.167 -3 22.5 -9s9.5 -13.667 9.5 -23v-46c0 -8.66699 -3.16699 -16.167 -9.5 -22.5s-13.833 -9.5 -22.5 -9.5h-219v-136h276c9.33301 0 17 -3 23 -9s9 -13.333 9 -22v-50c0 -9.33301 -3 -17 -9 -23s-13.667 -9 -23 -9h-385c-8.66699 0 -16.167 3 -22.5 9
s-9.5 13.667 -9.5 23v221h-195l-118 -225c-4.66699 -8 -11.167 -14.667 -19.5 -20s-17.166 -8 -26.499 -8h-89zM442.38 587l-118 -228h145v228h-27z" />
    <glyph glyph-name="Ccedilla" unicode="&#xc7;" horiz-adv-x="608" 
d="M306 714c36.667 0 70.502 -5 101.502 -15s57.833 -24 80.5 -42s40.167 -39.167 52.5 -63.5s18.5 -50.833 18.5 -79.5v-25c0 -8.66699 -2.83301 -16 -8.5 -22s-13.167 -9 -22.5 -9h-78c-9.33301 0 -16.5 2.66699 -21.5 8s-7.5 12.666 -7.5 21.999v15
c0 29.333 -10.667 52.833 -32 70.5s-49 26.5 -83 26.5s-61.667 -10.667 -83 -32s-32 -52.666 -32 -93.999v-248c0 -41.333 10.667 -72.666 32 -93.999s49 -32 83 -32s61.667 9 83 27s32 42 32 72v21c0 9.33301 2.5 16.666 7.5 21.999s12.167 8 21.5 8h78
c9.33301 0 16.833 -3 22.5 -9s8.5 -13.333 8.5 -22v-32c0 -26 -5 -50.167 -15 -72.5s-24.167 -42.166 -42.5 -59.499s-40.333 -31.666 -66 -42.999s-53.834 -19 -84.501 -23l-9 -22c17.333 -2.66699 32.166 -8.83398 44.499 -18.501s18.5 -24.5 18.5 -44.5
c0 -14 -3.5 -25.5 -10.5 -34.5s-16 -16.333 -27 -22s-23.333 -9.5 -37 -11.5s-26.834 -3 -39.501 -3h-21c-8 0 -15.667 0.666992 -23 2c-16 2 -24 8.33301 -24 19v15c0 10 5.33301 15 16 15h21c13.333 0 23.666 2.16699 30.999 6.5s11 10.166 11 17.499
c0 8 -3.5 13.833 -10.5 17.5s-14.833 6.16699 -23.5 7.5c-17.333 3.33301 -22.666 13.333 -15.999 30l11 26c-31.333 4 -60 12.167 -86 24.5s-48.167 28.166 -66.5 47.499s-32.666 41.833 -42.999 67.5s-15.5 54.167 -15.5 85.5v273c0 34.667 6.33301 66 19 94
s30.167 51.833 52.5 71.5s49 34.834 80 45.501s65.167 16 102.5 16z" />
    <glyph glyph-name="Egrave" unicode="&#xc8;" horiz-adv-x="531" 
d="M294 756c-9.33301 0 -18.8301 2 -28.4971 6s-18.167 9.66699 -25.5 17l-76 84c-4 4.66699 -4.83301 9.66699 -2.5 15s6.5 8 12.5 8h80c9.33301 0 18.666 -2.33301 27.999 -7s16.666 -11 21.999 -19l54 -78c3.33301 -5.33301 3.66602 -11 0.999023 -17s-7.66699 -9 -15 -9
h-50zM88.0029 0c-9.33301 0 -17 3 -23 9s-9 13.667 -9 23v636c0 9.33301 3 17 9 23s13.667 9 23 9h372c8.66699 0 16 -3 22 -9s9 -13.667 9 -23v-51c0 -8.66699 -3 -16 -9 -22s-13.333 -9 -22 -9h-265v-189h215c8.66699 0 16 -3 22 -9s9 -13.667 9 -23v-49
c0 -8.66699 -3 -16.167 -9 -22.5s-13.333 -9.5 -22 -9.5h-215v-171h272c9.33301 0 17 -3 23 -9s9 -13.333 9 -22v-50c0 -9.33301 -3 -17 -9 -23s-13.667 -9 -23 -9h-379z" />
    <glyph glyph-name="Eacute" unicode="&#xc9;" horiz-adv-x="531" 
d="M228 756c-6.66699 0 -11.4971 3 -14.4971 9s-2.5 11.667 1.5 17l53 78c5.33301 8 12.666 14.333 21.999 19s18.666 7 27.999 7h80c6 0 10.333 -2.66699 13 -8s1.66699 -10.333 -3 -15l-76 -84c-6.66699 -7.33301 -14.834 -13 -24.501 -17s-19.167 -6 -28.5 -6h-51z
M88.0029 0c-9.33301 0 -17 3 -23 9s-9 13.667 -9 23v636c0 9.33301 3 17 9 23s13.667 9 23 9h372c8.66699 0 16 -3 22 -9s9 -13.667 9 -23v-51c0 -8.66699 -3 -16 -9 -22s-13.333 -9 -22 -9h-265v-189h215c8.66699 0 16 -3 22 -9s9 -13.667 9 -23v-49
c0 -8.66699 -3 -16.167 -9 -22.5s-13.333 -9.5 -22 -9.5h-215v-171h272c9.33301 0 17 -3 23 -9s9 -13.333 9 -22v-50c0 -9.33301 -3 -17 -9 -23s-13.667 -9 -23 -9h-379z" />
    <glyph glyph-name="Ecircumflex" unicode="&#xca;" horiz-adv-x="531" 
d="M157 756c-6.66699 0 -11.332 2.83301 -13.999 8.5s-2 11.167 2 16.5l61 80c5.33301 7.33301 12.833 13.333 22.5 18s19.167 7 28.5 7h43c9.33301 0 18.833 -2.33301 28.5 -7s17.167 -10.667 22.5 -18l62 -80c3.33301 -5.33301 3.66602 -10.833 0.999023 -16.5
s-7 -8.5 -13 -8.5h-48c-9.33301 0 -18.5 2.33301 -27.5 7s-16.167 11.334 -21.5 20.001l-25 41l-25 -41c-5.33301 -8.66699 -12.5 -15.334 -21.5 -20.001s-18.167 -7 -27.5 -7h-48zM88.002 0c-9.33301 0 -17 3 -23 9s-9 13.667 -9 23v636c0 9.33301 3 17 9 23s13.667 9 23 9
h372c8.66699 0 16 -3 22 -9s9 -13.667 9 -23v-51c0 -8.66699 -3 -16 -9 -22s-13.333 -9 -22 -9h-265v-189h215c8.66699 0 16 -3 22 -9s9 -13.667 9 -23v-49c0 -8.66699 -3 -16.167 -9 -22.5s-13.333 -9.5 -22 -9.5h-215v-171h272c9.33301 0 17 -3 23 -9s9 -13.333 9 -22v-50
c0 -9.33301 -3 -17 -9 -23s-13.667 -9 -23 -9h-379z" />
    <glyph glyph-name="Edieresis" unicode="&#xcb;" horiz-adv-x="531" 
d="M215 818c0 -21.333 -5.5 -38.5 -16.5 -51.5s-28.167 -19.5 -51.5 -19.5s-40.333 6.5 -51 19.5s-16 30.167 -16 51.5c0 22 5.33301 39.667 16 53s27.667 20 51 20s40.5 -6.66699 51.5 -20s16.5 -31 16.5 -53zM460 818c0 -21.333 -5.5 -38.5 -16.5 -51.5
s-28.167 -19.5 -51.5 -19.5c-22.667 0 -39.334 6.5 -50.001 19.5s-16 30.167 -16 51.5c0 22 5.33301 39.667 16 53s27.334 20 50.001 20c23.333 0 40.5 -6.66699 51.5 -20s16.5 -31 16.5 -53zM88 0c-9.33301 0 -17 3 -23 9s-9 13.667 -9 23v636c0 9.33301 3 17 9 23
s13.667 9 23 9h372c8.66699 0 16 -3 22 -9s9 -13.667 9 -23v-51c0 -8.66699 -3 -16 -9 -22s-13.333 -9 -22 -9h-265v-189h215c8.66699 0 16 -3 22 -9s9 -13.667 9 -23v-49c0 -8.66699 -3 -16.167 -9 -22.5s-13.333 -9.5 -22 -9.5h-215v-171h272c9.33301 0 17 -3 23 -9
s9 -13.333 9 -22v-50c0 -9.33301 -3 -17 -9 -23s-13.667 -9 -23 -9h-379z" />
    <glyph glyph-name="Igrave" unicode="&#xcc;" horiz-adv-x="251" 
d="M117.777 756c-10 0 -19.6699 2.33301 -29.0029 7s-16.666 10.667 -21.999 18l-62 80c-3.33301 5.33301 -3.66602 10.833 -0.999023 16.5s7.33398 8.5 14.001 8.5h80c9.33301 0 18.333 -2.66699 27 -8s15.334 -12 20.001 -20l40 -74
c3.33301 -6.66699 3.16602 -13 -0.500977 -19s-9.16699 -9 -16.5 -9h-50zM85.7744 0c-9.33301 0 -17 3 -23 9s-9 13.667 -9 23v636c0 9.33301 3 17 9 23s13.667 9 23 9h76c8.66699 0 16 -3 22 -9s9 -13.667 9 -23v-636c0 -9.33301 -3 -17 -9 -23s-13.333 -9 -22 -9h-76z" />
    <glyph glyph-name="Iacute" unicode="&#xcd;" horiz-adv-x="251" 
d="M88 0c-9.33301 0 -17 3 -23 9s-9 13.667 -9 23v636c0 9.33301 3 17 9 23s13.667 9 23 9h76c8.66699 0 16 -3 22 -9s9 -13.667 9 -23v-636c0 -9.33301 -3 -17 -9 -23s-13.333 -9 -22 -9h-76zM91 756c-7.33301 0 -12.835 3 -16.502 9s-3.83398 12.333 -0.500977 19l39 74
c4.66699 8 11.334 14.667 20.001 20s17.667 8 27 8h62c6.66699 0 11.334 -2.83301 14.001 -8.5s2 -11.167 -2 -16.5l-62 -80c-6 -7.33301 -13.667 -13.333 -23 -18s-18.666 -7 -27.999 -7h-30z" />
    <glyph glyph-name="Icircumflex" unicode="&#xce;" horiz-adv-x="251" 
d="M85.2725 0c-9.33301 0 -17 3 -23 9s-9 13.667 -9 23v636c0 9.33301 3 17 9 23s13.667 9 23 9h76c8.66699 0 16 -3 22 -9s9 -13.667 9 -23v-636c0 -9.33301 -3 -17 -9 -23s-13.333 -9 -22 -9h-76zM24.2725 756c-7.33301 0 -12.667 3 -16 9s-3 12 1 18l44 75
c5.33301 8.66699 12.333 15.5 21 20.5s17.667 7.5 27 7.5h42c9.33301 0 18.5 -2.5 27.5 -7.5s15.833 -11.833 20.5 -20.5l45 -75c3.33301 -6 3.5 -12 0.5 -18s-8.16699 -9 -15.5 -9h-37c-9.33301 0 -18 2.66699 -26 8s-14 12.666 -18 21.999l-18 38l-17 -38
c-3.33301 -9.33301 -9 -16.666 -17 -21.999s-16.667 -8 -26 -8h-38z" />
    <glyph glyph-name="Idieresis" unicode="&#xcf;" horiz-adv-x="251" 
d="M108 818c0 -21.333 -5.16699 -38.5 -15.5 -51.5s-27.166 -19.5 -50.499 -19.5c-22.667 0 -39 6.5 -49 19.5s-15 30.167 -15 51.5c0 22 5 39.667 15 53s26.333 20 49 20c23.333 0 40.166 -6.66699 50.499 -20s15.5 -31 15.5 -53zM88 0c-9.33301 0 -17 3 -23 9
s-9 13.667 -9 23v636c0 9.33301 3 17 9 23s13.667 9 23 9h76c8.66699 0 16 -3 22 -9s9 -13.667 9 -23v-636c0 -9.33301 -3 -17 -9 -23s-13.333 -9 -22 -9h-76zM275 818c0 -21.333 -5.16699 -38.5 -15.5 -51.5s-27.166 -19.5 -50.499 -19.5c-22 0 -38 6.5 -48 19.5
s-15 30.167 -15 51.5c0 22 5 39.667 15 53s26 20 48 20c23.333 0 40.166 -6.66699 50.499 -20s15.5 -31 15.5 -53z" />
    <glyph glyph-name="Eth" unicode="&#xd0;" horiz-adv-x="619" 
d="M88 0c-9.33301 0 -17 3.00195 -23 9.00195s-9 13.667 -9 23v253h-17c-9.33301 0 -17 3.16699 -23 9.5s-9 13.833 -9 22.5v42c0 8.66699 3 16.167 9 22.5s13.667 9.5 23 9.5h17v277c0 9.33301 3 17 9 23s13.667 9 23 9h237c37.333 0 70.833 -5.33301 100.5 -16
s55 -25.834 76 -45.501s37.167 -43.5 48.5 -71.5s17 -59.333 17 -94v-246c0 -34.667 -5.66699 -66 -17 -94s-27.5 -51.833 -48.5 -71.5s-46.333 -34.834 -76 -45.501s-63.167 -16 -100.5 -16h-237zM195 113.002l130 0.000976562c33.333 0 58.833 10.667 76.5 32
s26.5 52.666 26.5 93.999v222c0 41.333 -8.83301 72.5 -26.5 93.5s-43.167 31.5 -76.5 31.5h-130v-195h103c8.66699 0 16.167 -3.16699 22.5 -9.5s9.5 -13.833 9.5 -22.5v-42c0 -8.66699 -3.16699 -16.167 -9.5 -22.5s-13.833 -9.5 -22.5 -9.5h-103v-172z" />
    <glyph glyph-name="Ntilde" unicode="&#xd1;" horiz-adv-x="640" 
d="M88 0c-9.33301 0 -16.999 3 -22.999 9s-9 13.667 -9 23v636c0 9.33301 3 17 9 23s13.667 9 23 9h82c9.33301 0 18.333 -2.5 27 -7.5s15.667 -11.833 21 -20.5l232 -420l-3 416c-0.666992 9.33301 2 17 8 23s13.667 9 23 9h74c8.66699 0 16.167 -3 22.5 -9
s9.5 -13.667 9.5 -23v-636c0 -9.33301 -3.16699 -17 -9.5 -23s-13.833 -9 -22.5 -9h-85c-20.667 -0 -36.334 9.33301 -47.001 28l-231 418l4 -414c0 -9.33301 -3 -17 -9 -23s-13.333 -9 -22 -9h-74zM246.001 804c-16 0 -26.998 -5.33301 -32.998 -16
c-5.33301 -10 -10.666 -16.5 -15.999 -19.5s-14 -4.5 -26 -4.5h-25c-7.33301 0 -14 3.5 -20 10.5s-8.33301 14.167 -7 21.5c4.66699 30 16.167 55 34.5 75s43.5 30 75.5 30c16.667 0 33.167 -2.33301 49.5 -7s31.5 -9.83398 45.5 -15.501l38.5 -15.5
c11.667 -4.66699 21.5 -7 29.5 -7c16 0 27 5.33301 33 16c5.33301 10 10.666 16.5 15.999 19.5s13.666 4.5 24.999 4.5h25c8 0 15 -3.33301 21 -10s8.33301 -14 7 -22c-4 -30 -14.833 -55 -32.5 -75s-43.5 -30 -77.5 -30c-17.333 0 -33.5 2.33301 -48.5 7
s-29.333 9.83398 -43 15.501l-38 15.5c-11.667 4.66699 -22.834 7 -33.501 7z" />
    <glyph glyph-name="Ograve" unicode="&#xd2;" horiz-adv-x="633" 
d="M317 -14c-36.667 0 -71.167 5.33301 -103.5 16s-60.5 25.834 -84.5 45.501s-42.833 43.5 -56.5 71.5s-20.5 59.667 -20.5 95v273c0 35.333 6.83301 67 20.5 95s32.5 51.833 56.5 71.5s52.167 34.667 84.5 45s66.833 15.5 103.5 15.5s71 -5.16699 103 -15.5
s60 -25.333 84 -45s42.833 -43.5 56.5 -71.5s20.5 -59.667 20.5 -95v-273c0 -35.333 -6.83301 -67 -20.5 -95s-32.5 -51.833 -56.5 -71.5s-52 -34.834 -84 -45.501s-66.333 -16 -103 -16zM317 600c-35.333 0 -65 -10.6729 -89 -32.0059s-36 -52.666 -36 -93.999v-248
c0 -41.333 12 -72.666 36 -93.999s53.667 -32 89 -32c17.333 0 33.5 2.66699 48.5 8s28.167 13.333 39.5 24s20.333 23.834 27 39.501s10 33.834 10 54.501v248c0 20.667 -3.33301 38.834 -10 54.501s-15.667 28.834 -27 39.501s-24.5 18.667 -39.5 24s-31.167 8 -48.5 8z
M312 755.994c-9.33301 0 -18.665 2 -27.998 6s-17.666 9.66699 -24.999 17l-76 84c-4 4.66699 -4.83301 9.66699 -2.5 15s6.5 8 12.5 8h80c9.33301 0 18.666 -2.33301 27.999 -7s16.666 -11 21.999 -19l54 -78c3.33301 -5.33301 3.66602 -11 0.999023 -17
s-7.66699 -9 -15 -9h-51z" />
    <glyph glyph-name="Oacute" unicode="&#xd3;" horiz-adv-x="633" 
d="M317 -14c-36.667 0 -71.167 5.33301 -103.5 16s-60.5 25.834 -84.5 45.501s-42.833 43.5 -56.5 71.5s-20.5 59.667 -20.5 95v273c0 35.333 6.83301 67 20.5 95s32.5 51.833 56.5 71.5s52.167 34.667 84.5 45s66.833 15.5 103.5 15.5s71 -5.16699 103 -15.5
s60 -25.333 84 -45s42.833 -43.5 56.5 -71.5s20.5 -59.667 20.5 -95v-273c0 -35.333 -6.83301 -67 -20.5 -95s-32.5 -51.833 -56.5 -71.5s-52 -34.834 -84 -45.501s-66.333 -16 -103 -16zM317 600c-35.333 0 -65 -10.6729 -89 -32.0059s-36 -52.666 -36 -93.999v-248
c0 -41.333 12 -72.666 36 -93.999s53.667 -32 89 -32c17.333 0 33.5 2.66699 48.5 8s28.167 13.333 39.5 24s20.333 23.834 27 39.501s10 33.834 10 54.501v248c0 20.667 -3.33301 38.834 -10 54.501s-15.667 28.834 -27 39.501s-24.5 18.667 -39.5 24s-31.167 8 -48.5 8z
M291 755.994c-6.66699 0 -11.4971 3 -14.4971 9s-2.5 11.667 1.5 17l53 78c5.33301 8 12.666 14.333 21.999 19s18.666 7 27.999 7h80c6 0 10.333 -2.66699 13 -8s1.66699 -10.333 -3 -15l-76 -84c-6.66699 -7.33301 -14.834 -13 -24.501 -17s-19.167 -6 -28.5 -6h-51z" />
    <glyph glyph-name="Ocircumflex" unicode="&#xd4;" horiz-adv-x="633" 
d="M317 -14c-36.667 0 -71.167 5.33301 -103.5 16s-60.5 25.834 -84.5 45.501s-42.833 43.5 -56.5 71.5s-20.5 59.667 -20.5 95v273c0 35.333 6.83301 67 20.5 95s32.5 51.833 56.5 71.5s52.167 34.667 84.5 45s66.833 15.5 103.5 15.5s71 -5.16699 103 -15.5
s60 -25.333 84 -45s42.833 -43.5 56.5 -71.5s20.5 -59.667 20.5 -95v-273c0 -35.333 -6.83301 -67 -20.5 -95s-32.5 -51.833 -56.5 -71.5s-52 -34.834 -84 -45.501s-66.333 -16 -103 -16zM317 600c-35.333 0 -65 -10.6729 -89 -32.0059s-36 -52.666 -36 -93.999v-248
c0 -41.333 12 -72.666 36 -93.999s53.667 -32 89 -32c17.333 0 33.5 2.66699 48.5 8s28.167 13.333 39.5 24s20.333 23.834 27 39.501s10 33.834 10 54.501v248c0 20.667 -3.33301 38.834 -10 54.501s-15.667 28.834 -27 39.501s-24.5 18.667 -39.5 24s-31.167 8 -48.5 8z
M195 755.994c-6.66699 0 -11.499 2.83301 -14.499 8.5s-2.16699 11.167 2.5 16.5l60 80c6.66699 7.33301 14.5 13.333 23.5 18s18.5 7 28.5 7h43c9.33301 0 18.666 -2.33301 27.999 -7s17 -10.667 23 -18l62 -80c4 -5.33301 4.5 -10.833 1.5 -16.5s-7.83301 -8.5 -14.5 -8.5
h-47c-9.33301 0 -18.5 2.33301 -27.5 7s-16.167 11.334 -21.5 20.001l-26 41l-24 -41c-5.33301 -8.66699 -12.5 -15.334 -21.5 -20.001s-18.167 -7 -27.5 -7h-48z" />
    <glyph glyph-name="Otilde" unicode="&#xd5;" horiz-adv-x="633" 
d="M317 -14c-36.667 0 -71.167 5.33301 -103.5 16s-60.5 25.834 -84.5 45.501s-42.833 43.5 -56.5 71.5s-20.5 59.667 -20.5 95v273c0 35.333 6.83301 67 20.5 95s32.5 51.833 56.5 71.5s52.167 34.667 84.5 45s66.833 15.5 103.5 15.5s71 -5.16699 103 -15.5
s60 -25.333 84 -45s42.833 -43.5 56.5 -71.5s20.5 -59.667 20.5 -95v-273c0 -35.333 -6.83301 -67 -20.5 -95s-32.5 -51.833 -56.5 -71.5s-52 -34.834 -84 -45.501s-66.333 -16 -103 -16zM317 600c-35.333 0 -65 -10.6729 -89 -32.0059s-36 -52.666 -36 -93.999v-248
c0 -41.333 12 -72.666 36 -93.999s53.667 -32 89 -32c17.333 0 33.5 2.66699 48.5 8s28.167 13.333 39.5 24s20.333 23.834 27 39.501s10 33.834 10 54.501v248c0 20.667 -3.33301 38.834 -10 54.501s-15.667 28.834 -27 39.501s-24.5 18.667 -39.5 24s-31.167 8 -48.5 8z
M244 803.994c-16 0 -27 -5.33301 -33 -16c-5.33301 -10 -10.666 -16.5 -15.999 -19.5s-14 -4.5 -26 -4.5h-25c-7.33301 0 -14 3.5 -20 10.5s-8.33301 14.167 -7 21.5c4.66699 30 16.167 55 34.5 75s43.5 30 75.5 30c16.667 0 33.167 -2.33301 49.5 -7
s31.5 -9.83398 45.5 -15.501l38.5 -15.5c11.667 -4.66699 21.5 -7 29.5 -7c16 0 27 5.33301 33 16c5.33301 10 10.5 16.5 15.5 19.5s13.5 4.5 25.5 4.5h25c8 0 15 -3.33301 21 -10s8.33301 -14 7 -22c-4 -30 -14.833 -55 -32.5 -75s-43.5 -30 -77.5 -30
c-17.333 0 -33.5 2.33301 -48.5 7s-29.333 9.83398 -43 15.501l-38 15.5c-11.667 4.66699 -22.834 7 -33.501 7z" />
    <glyph glyph-name="Odieresis" unicode="&#xd6;" horiz-adv-x="636" 
d="M319 -14c-36.667 0 -71.167 5.33301 -103.5 16s-60.5 25.834 -84.5 45.501s-43 43.5 -57 71.5s-21 59.667 -21 95v273c0 35.333 7 67 21 95s33 51.833 57 71.5s52.167 34.667 84.5 45s66.833 15.5 103.5 15.5s71 -5.16699 103 -15.5s60 -25.333 84 -45
s42.833 -43.5 56.5 -71.5s20.5 -59.667 20.5 -95v-273c0 -35.333 -6.83301 -67 -20.5 -95s-32.5 -51.833 -56.5 -71.5s-52 -34.834 -84 -45.501s-66.333 -16 -103 -16zM319 600c-17.333 0 -33.666 -2.66699 -48.999 -8s-28.666 -13.333 -39.999 -24
s-20.333 -23.834 -27 -39.501s-10 -33.834 -10 -54.501v-248c0 -20.667 3.33301 -38.834 10 -54.501s15.667 -28.834 27 -39.501s24.666 -18.667 39.999 -24s31.666 -8 48.999 -8c16.667 0 32.667 2.66699 48 8s28.666 13.333 39.999 24s20.333 23.834 27 39.501
s10 33.834 10 54.501v248c0 20.667 -3.33301 38.834 -10 54.501s-15.667 28.834 -27 39.501s-24.666 18.667 -39.999 24s-31.333 8 -48 8zM508 818c0 -21.333 -5.66699 -38.5 -17 -51.5s-28.666 -19.5 -51.999 -19.5c-22 0 -38.5 6.5 -49.5 19.5s-16.5 30.167 -16.5 51.5
c0 22 5.5 39.667 16.5 53s27.5 20 49.5 20c23.333 0 40.666 -6.66699 51.999 -20s17 -31 17 -53zM263 818c0 -21.333 -5.66699 -38.5 -17 -51.5s-28.666 -19.5 -51.999 -19.5c-22.667 0 -39.334 6.5 -50.001 19.5s-16 30.167 -16 51.5c0 22 5.33301 39.667 16 53
s27.334 20 50.001 20c23.333 0 40.666 -6.66699 51.999 -20s17 -31 17 -53z" />
    <glyph glyph-name="multiply" unicode="&#xd7;" horiz-adv-x="575" 
d="M60 85c-6.66699 6 -10 13.5 -10 22.5s3.33301 16.5 10 22.5l147 147l-147 148c-6.66699 6 -10 13.5 -10 22.5s3.33301 16.5 10 22.5l35 35c6 6 13.5 9 22.5 9s16.5 -3 22.5 -9l147 -148l148 148c6 6 13.5 9 22.5 9s16.5 -3 22.5 -9l35 -35c6 -6 9 -13.5 9 -22.5
s-3 -16.5 -9 -22.5l-148 -148l148 -147c6 -6 9 -13.5 9 -22.5s-3 -16.5 -9 -22.5l-35 -35c-6 -6.66699 -13.5 -10 -22.5 -10s-16.5 3.33301 -22.5 10l-148 147l-147 -147c-6 -6.66699 -13.5 -10 -22.5 -10s-16.5 3.33301 -22.5 10z" />
    <glyph glyph-name="Oslash" unicode="&#xd8;" horiz-adv-x="633" 
d="M34 44c-4.66699 -4 -9.83496 -4.66602 -15.502 -1.99902s-8.5 7.33398 -8.5 14.001v91c0 10 2.16699 19.667 6.5 29s10.166 17 17.499 23l18 14v273c0 34.667 6.83301 66.167 20.5 94.5s32.5 52.333 56.5 72s52.167 34.834 84.5 45.501s66.833 16 103.5 16
c49.333 0 93.5 -9.16699 132.5 -27.5s69.167 -44.5 90.5 -78.5l59 47c4.66699 4 9.83398 4.66699 15.501 2s8.5 -7.33398 8.5 -14.001v-91c0 -9.33301 -2.16699 -18.833 -6.5 -28.5s-10.166 -17.834 -17.499 -24.501l-18 -14v-271c0 -35.333 -6.83301 -67 -20.5 -95
s-32.5 -51.833 -56.5 -71.5s-52 -34.834 -84 -45.501s-66.333 -16 -103 -16c-49.333 0 -93.666 9 -132.999 27s-70 44 -92 78zM316.999 100.001c17.333 0 33.501 2.66699 48.501 8s28.167 13.333 39.5 24s20.333 24 27 40s10 34.333 10 55v146l-243 -196
c8.66699 -25.333 23.667 -44.5 45 -57.5s45.666 -19.5 72.999 -19.5zM192 327.001l240.997 195.001c-8.66699 25.333 -23.5 44.666 -44.5 57.999s-44.833 20 -71.5 20c-17.333 0 -33.666 -2.66699 -48.999 -8s-28.666 -13.333 -39.999 -24s-20.166 -24 -26.499 -40
s-9.5 -34.333 -9.5 -55v-146z" />
    <glyph glyph-name="Ugrave" unicode="&#xd9;" horiz-adv-x="616" 
d="M308 -14c-38 0 -72.667 5.33301 -104 16s-58 25.834 -80 45.501s-39.167 43.5 -51.5 71.5s-18.5 59.333 -18.5 94v455c0 9.33301 3 17 9 23s13.667 9 23 9h76c8.66699 0 16 -3 22 -9s9 -13.667 9 -23v-442c0 -41.333 10.333 -72.666 31 -93.999s48.667 -32 84 -32
s63.333 10.667 84 32s31 52.666 31 93.999v442c0 9.33301 3 17 9 23s13.667 9 23 9h76c8.66699 0 16 -3 22 -9s9 -13.667 9 -23v-455c0 -34.667 -6.16699 -66 -18.5 -94s-29.5 -51.833 -51.5 -71.5s-48.667 -34.834 -80 -45.501s-66 -16 -104 -16zM309 756
c-9.33301 0 -18.8301 2 -28.4971 6s-17.834 9.66699 -24.501 17l-76 84c-4.66699 4.66699 -5.66699 9.66699 -3 15s7 8 13 8h80c9.33301 0 18.666 -2.33301 27.999 -7s16.666 -11 21.999 -19l53 -78c4 -5.33301 4.5 -11 1.5 -17s-7.83301 -9 -14.5 -9h-51z" />
    <glyph glyph-name="Uacute" unicode="&#xda;" horiz-adv-x="616" 
d="M308 -14c-38 0 -72.667 5.33301 -104 16s-58 25.834 -80 45.501s-39.167 43.5 -51.5 71.5s-18.5 59.333 -18.5 94v455c0 9.33301 3 17 9 23s13.667 9 23 9h76c8.66699 0 16 -3 22 -9s9 -13.667 9 -23v-442c0 -41.333 10.333 -72.666 31 -93.999s48.667 -32 84 -32
s63.333 10.667 84 32s31 52.666 31 93.999v442c0 9.33301 3 17 9 23s13.667 9 23 9h76c8.66699 0 16 -3 22 -9s9 -13.667 9 -23v-455c0 -34.667 -6.16699 -66 -18.5 -94s-29.5 -51.833 -51.5 -71.5s-48.667 -34.834 -80 -45.501s-66 -16 -104 -16zM281 756
c-7.33301 0 -12.3311 3 -14.998 9s-2.33398 11.667 0.999023 17l54 78c5.33301 8 12.666 14.333 21.999 19s18.666 7 27.999 7h80c6 0 10.167 -2.66699 12.5 -8s1.5 -10.333 -2.5 -15l-76 -84c-7.33301 -7.33301 -15.666 -13 -24.999 -17s-19 -6 -29 -6h-50z" />
    <glyph glyph-name="Ucircumflex" unicode="&#xdb;" horiz-adv-x="616" 
d="M308 -14c-38 0 -72.667 5.33301 -104 16s-58 25.834 -80 45.501s-39.167 43.5 -51.5 71.5s-18.5 59.333 -18.5 94v455c0 9.33301 3 17 9 23s13.667 9 23 9h76c8.66699 0 16 -3 22 -9s9 -13.667 9 -23v-442c0 -41.333 10.333 -72.666 31 -93.999s48.667 -32 84 -32
s63.333 10.667 84 32s31 52.666 31 93.999v442c0 9.33301 3 17 9 23s13.667 9 23 9h76c8.66699 0 16 -3 22 -9s9 -13.667 9 -23v-455c0 -34.667 -6.16699 -66 -18.5 -94s-29.5 -51.833 -51.5 -71.5s-48.667 -34.834 -80 -45.501s-66 -16 -104 -16zM186 756
c-6.66699 0 -11.3291 2.83301 -13.9961 8.5s-2.33398 11.167 0.999023 16.5l61 80c6 7.33301 13.667 13.333 23 18s18.666 7 27.999 7h44c9.33301 0 18.666 -2.33301 27.999 -7s17 -10.667 23 -18l61 -80c4 -5.33301 4.66699 -10.833 2 -16.5s-7.33398 -8.5 -14.001 -8.5
h-47c-9.33301 0 -18.5 2.33301 -27.5 7s-16.167 11.334 -21.5 20.001l-26 41l-25 -41c-5.33301 -8.66699 -12.333 -15.334 -21 -20.001s-18 -7 -28 -7h-47z" />
    <glyph glyph-name="Udieresis" unicode="&#xdc;" horiz-adv-x="616" 
d="M308 -14c-38 0 -72.667 5.33301 -104 16s-58 25.834 -80 45.501s-39.167 43.5 -51.5 71.5s-18.5 59.333 -18.5 94v455c0 9.33301 3 17 9 23s13.667 9 23 9h76c8.66699 0 16 -3 22 -9s9 -13.667 9 -23v-442c0 -41.333 10.333 -72.666 31 -93.999s48.667 -32 84 -32
s63.333 10.667 84 32s31 52.666 31 93.999v442c0 9.33301 3 17 9 23s13.667 9 23 9h76c8.66699 0 16 -3 22 -9s9 -13.667 9 -23v-455c0 -34.667 -6.16699 -66 -18.5 -94s-29.5 -51.833 -51.5 -71.5s-48.667 -34.834 -80 -45.501s-66 -16 -104 -16zM498 818
c0 -21.333 -5.5 -38.5 -16.5 -51.5s-28.5 -19.5 -52.5 -19.5c-22 0 -38.333 6.5 -49 19.5s-16 30.167 -16 51.5c0 22 5.33301 39.667 16 53s27 20 49 20c24 0 41.5 -6.66699 52.5 -20s16.5 -31 16.5 -53zM253 818c0 -21.333 -5.66699 -38.5 -17 -51.5
s-28.666 -19.5 -51.999 -19.5c-22.667 0 -39.334 6.5 -50.001 19.5s-16 30.167 -16 51.5c0 22 5.33301 39.667 16 53s27.334 20 50.001 20c23.333 0 40.666 -6.66699 51.999 -20s17 -31 17 -53z" />
    <glyph glyph-name="Yacute" unicode="&#xdd;" horiz-adv-x="579" 
d="M249.272 0c-8.66699 0 -16 3 -22 9s-9 13.667 -9 23v208l-210 432c-3.33301 6.66699 -3 13 1 19s9.66699 9 17 9h86c9.33301 0 18 -2.66699 26 -8s13.667 -12.333 17 -21l134 -308l133 308c4 8.66699 10 15.667 18 21s16.667 8 26 8h81c7.33301 0 13 -3 17 -9
s4.33301 -12.333 1 -19l-208 -430v-210c0 -9.33301 -3 -17 -9 -23s-13.667 -9 -23 -9h-76zM247.272 756c-6.66699 0 -11.5 3 -14.5 9s-2.5 11.667 1.5 17l53 78c5.33301 8 12.666 14.333 21.999 19s18.666 7 27.999 7h80c6 0 10.167 -2.66699 12.5 -8s1.5 -10.333 -2.5 -15
l-76 -84c-7.33301 -7.33301 -15.666 -13 -24.999 -17s-18.666 -6 -27.999 -6h-51z" />
    <glyph glyph-name="Thorn" unicode="&#xde;" horiz-adv-x="599" 
d="M88 0c-9.33301 0 -17 3 -23 9s-9 13.667 -9 23v636c0 9.33301 3 17 9 23s13.667 9 23 9h76c8.66699 0 16 -3 22 -9s9 -13.667 9 -23v-88h119c74.667 0 133.667 -18.5 177 -55.5s65 -89.833 65 -158.5v-32c0 -68.667 -21.667 -121.5 -65 -158.5s-102.333 -55.5 -177 -55.5
h-119v-88c0 -9.33301 -3 -17 -9 -23s-13.333 -9 -22 -9h-76zM195 232h119c32.667 0 57.834 8.83301 75.501 26.5s26.5 46.5 26.5 86.5v10c0 40 -8.83301 68.667 -26.5 86s-42.834 26 -75.501 26h-119v-235z" />
    <glyph glyph-name="germandbls" unicode="&#xdf;" horiz-adv-x="588" 
d="M92 0c-8.66699 0 -15.9961 3.00293 -21.9961 9.00293s-9 13.667 -9 23v325h-27c-8.66699 0 -15.667 2.5 -21 7.5s-8 12.167 -8 21.5v47c0 9.33301 2.66699 16.5 8 21.5s12.333 7.5 21 7.5h27v87c0 66 17.667 117.667 53 155s86.333 56 153 56
c55.333 0 100.166 -12.667 134.499 -38s51.5 -62.666 51.5 -111.999c0 -24 -4.66699 -44.5 -14 -61.5s-19.5 -32.5 -30.5 -46.5l-30.5 -40.5c-9.33301 -13 -14 -27.5 -14 -43.5c0 -16.667 4.5 -31.667 13.5 -45s20.167 -26.166 33.5 -38.499s28 -24.666 44 -36.999
s30.667 -25.833 44 -40.5s24.5 -31.334 33.5 -50.001s13.5 -40.334 13.5 -65.001c0 -22 -3.66699 -42.5 -11 -61.5s-19 -35.5 -35 -49.5s-36.5 -25 -61.5 -33s-55.5 -12 -91.5 -12c-10 0 -21.333 0.333008 -34 1s-24.667 2.33398 -36 5.00098c-20.667 4.66699 -31 15 -31 31
v54c0 8.66699 3 15.167 9 19.5s13.333 5.5 22 3.5c11.333 -2 22.333 -3.5 33 -4.5s19.667 -1.5 27 -1.5c19.333 0 37 4.5 53 13.5s24 23.5 24 43.5c0 14 -4.33301 26.833 -13 38.5s-19.334 23 -32.001 34s-26.667 22.333 -42 34s-29.333 24.667 -42 39
s-23.334 30.666 -32.001 48.999s-13 39.5 -13 63.5s4.5 44 13.5 60s18.667 30.667 29 44s20 26.666 29 39.999s13.5 29.666 13.5 48.999c0 6 -0.833008 12.167 -2.5 18.5s-4.66699 12.166 -9 17.499s-10.333 9.66602 -18 12.999s-17.834 5 -30.501 5
c-26 0 -44.5 -9 -55.5 -27s-16.5 -46 -16.5 -84v-513c0 -9.33301 -3 -17 -9 -23s-13.333 -9 -22 -9h-70z" />
    <glyph glyph-name="agrave" unicode="&#xe0;" horiz-adv-x="550" 
d="M248 90c24 0 45.5 4.83398 64.5 14.501s34.833 21.5 47.5 35.5v64c-16 5.33301 -32.833 9.33301 -50.5 12s-36.167 4 -55.5 4c-26 0 -45.333 -6 -58 -18s-19 -28.333 -19 -49s6.66699 -36.334 20 -47.001s30.333 -16 51 -16zM57 390.001
c0 21.333 4.49805 42.6689 13.498 64.002s22.5 40.666 40.5 57.999s40.667 31.333 68 42s59.333 16 96 16c70.667 0 124.667 -16.833 162 -50.5s56 -81.834 56 -144.501v-343c0 -9.33301 -3 -17 -9 -23s-13.667 -9 -23 -9h-54c-9.33301 0 -17.666 3 -24.999 9
s-11.666 13.333 -12.999 22l-3 20c-16.667 -17.333 -39.667 -31.833 -69 -43.5s-60.666 -17.5 -93.999 -17.5c-50.667 0 -90 14.333 -118 43s-42 66.667 -42 114c0 52 16.333 91.167 49 117.5s79.334 39.5 140.001 39.5c10.667 0 22 -0.5 34 -1.5s23.667 -2.16699 35 -3.5
s22.166 -3 32.499 -5s19.166 -4 26.499 -6v80c0 34 -6.83301 58.5 -20.5 73.5s-35.167 22.5 -64.5 22.5c-15.333 0 -28.333 -2.33301 -39 -7s-19.334 -10.667 -26.001 -18s-11.667 -15.5 -15 -24.5s-5 -18.167 -5 -27.5s-2.66699 -16.166 -8 -20.499
s-12.666 -6.5 -21.999 -6.5h-72c-8.66699 0 -16 2.66699 -22 8s-9 12.666 -9 21.999zM287.998 616.004c-10 0 -19.665 2 -28.998 6s-17.666 9.66699 -24.999 17l-76 84c-4 4.66699 -4.83301 9.66699 -2.5 15s6.5 8 12.5 8h80c9.33301 0 18.666 -2.33301 27.999 -7
s16.666 -11 21.999 -19l54 -78c3.33301 -5.33301 3.66602 -11 0.999023 -17s-7.66699 -9 -15 -9h-50z" />
    <glyph glyph-name="aacute" unicode="&#xe1;" horiz-adv-x="550" 
d="M248 90c24 0 45.5 4.83398 64.5 14.501s34.833 21.5 47.5 35.5v64c-16 5.33301 -32.833 9.33301 -50.5 12s-36.167 4 -55.5 4c-26 0 -45.333 -6 -58 -18s-19 -28.333 -19 -49s6.66699 -36.334 20 -47.001s30.333 -16 51 -16zM190 387.001
c0 -9.33301 -2.66895 -16.1631 -8.00195 -20.4961s-12.666 -6.5 -21.999 -6.5h-72c-8.66699 0 -16 2.66699 -22 8s-9 12.666 -9 21.999c0 21.333 4.5 42.666 13.5 63.999s22.5 40.666 40.5 57.999s40.667 31.333 68 42s59.333 16 96 16c70.667 0 124.667 -16.833 162 -50.5
s56 -81.834 56 -144.501v-343c0 -9.33301 -3 -17 -9 -23s-13.667 -9 -23 -9h-54c-9.33301 0 -17.666 3 -24.999 9s-11.666 13.333 -12.999 22l-3 20c-16.667 -17.333 -39.667 -31.833 -69 -43.5s-60.666 -17.5 -93.999 -17.5c-50.667 0 -90 14.333 -118 43
s-42 66.667 -42 114c0 52 16.333 91.167 49 117.5s79.334 39.5 140.001 39.5c10.667 0 22 -0.5 34 -1.5s23.667 -2.16699 35 -3.5s22.166 -3 32.499 -5s19.166 -4 26.499 -6v80c0 34 -6.83301 58.5 -20.5 73.5s-35.167 22.5 -64.5 22.5c-15.333 0 -28.333 -2.33301 -39 -7
s-19.334 -10.667 -26.001 -18s-11.667 -15.5 -15 -24.5s-5 -18.167 -5 -27.5zM239.998 616.004c-6.66699 0 -11.4971 3 -14.4971 9s-2.5 11.667 1.5 17l53 78c5.33301 8 12.666 14.333 21.999 19s18.666 7 27.999 7h80c6 0 10.167 -2.66699 12.5 -8s1.5 -10.333 -2.5 -15
l-76 -84c-6.66699 -7.33301 -14.834 -13 -24.501 -17s-19.167 -6 -28.5 -6h-51z" />
    <glyph glyph-name="acircumflex" unicode="&#xe2;" horiz-adv-x="550" 
d="M248 90c24 0 45.5 4.83398 64.5 14.501s34.833 21.5 47.5 35.5v64c-16 5.33301 -32.833 9.33301 -50.5 12s-36.167 4 -55.5 4c-26 0 -45.333 -6 -58 -18s-19 -28.333 -19 -49s6.66699 -36.334 20 -47.001s30.333 -16 51 -16zM57 390.001
c0 21.333 4.49805 42.6689 13.498 64.002s22.5 40.666 40.5 57.999s40.667 31.333 68 42s59.333 16 96 16c70.667 0 124.667 -16.833 162 -50.5s56 -81.834 56 -144.501v-343c0 -9.33301 -3 -17 -9 -23s-13.667 -9 -23 -9h-54c-9.33301 0 -17.666 3 -24.999 9
s-11.666 13.333 -12.999 22l-3 20c-16.667 -17.333 -39.667 -31.833 -69 -43.5s-60.666 -17.5 -93.999 -17.5c-50.667 0 -90 14.333 -118 43s-42 66.667 -42 114c0 52 16.333 91.167 49 117.5s79.334 39.5 140.001 39.5c10.667 0 22 -0.5 34 -1.5s23.667 -2.16699 35 -3.5
s22.166 -3 32.499 -5s19.166 -4 26.499 -6v80c0 34 -6.83301 58.5 -20.5 73.5s-35.167 22.5 -64.5 22.5c-15.333 0 -28.333 -2.33301 -39 -7s-19.334 -10.667 -26.001 -18s-11.667 -15.5 -15 -24.5s-5 -18.167 -5 -27.5s-2.66699 -16.166 -8 -20.499
s-12.666 -6.5 -21.999 -6.5h-72c-8.66699 0 -16 2.66699 -22 8s-9 12.666 -9 21.999zM162.998 616.004c-6.66699 0 -11.332 2.83301 -13.999 8.5s-2 11.167 2 16.5l61 80c5.33301 7.33301 12.833 13.333 22.5 18s19.167 7 28.5 7h43c10 0 19.667 -2.33301 29 -7
s17 -10.667 23 -18l61 -80c4 -5.33301 4.66699 -10.833 2 -16.5s-7.33398 -8.5 -14.001 -8.5h-47c-10 0 -19.333 2.33301 -28 7s-15.667 11.334 -21 20.001l-26 41l-25 -41c-5.33301 -8.66699 -12.5 -15.334 -21.5 -20.001s-18.167 -7 -27.5 -7h-48z" />
    <glyph glyph-name="atilde" unicode="&#xe3;" horiz-adv-x="550" 
d="M177 153c0 -20.667 6.66699 -36.333 20 -47s30.333 -16 51 -16c24 0 45.5 4.83301 64.5 14.5s34.833 21.5 47.5 35.5v64c-16 5.33301 -32.833 9.33301 -50.5 12s-36.167 4 -55.5 4c-26 0 -45.333 -6 -58 -18s-19 -28.333 -19 -49zM57 390.001
c0 21.333 4.49805 42.6689 13.498 64.002s22.5 40.666 40.5 57.999s40.667 31.333 68 42s59.333 16 96 16c70.667 0 124.667 -16.833 162 -50.5s56 -81.834 56 -144.501v-343c0 -9.33301 -3 -17 -9 -23s-13.667 -9 -23 -9h-54c-9.33301 0 -17.666 3 -24.999 9
s-11.666 13.333 -12.999 22l-3 20c-16.667 -17.333 -39.667 -31.833 -69 -43.5s-60.666 -17.5 -93.999 -17.5c-50.667 0 -90 14.333 -118 43s-42 66.667 -42 114c0 52 16.333 91.167 49 117.5s79.334 39.5 140.001 39.5c10.667 0 22 -0.5 34 -1.5s23.667 -2.16699 35 -3.5
s22.166 -3 32.499 -5s19.166 -4 26.499 -6v80c0 34 -6.83301 58.5 -20.5 73.5s-35.167 22.5 -64.5 22.5c-15.333 0 -28.333 -2.33301 -39 -7s-19.334 -10.667 -26.001 -18s-11.667 -15.5 -15 -24.5s-5 -18.167 -5 -27.5s-2.66699 -16.166 -8 -20.499
s-12.666 -6.5 -21.999 -6.5h-72c-8.66699 0 -16 2.66699 -22 8s-9 12.666 -9 21.999zM83.998 656.004c4.66699 30 16.168 55 34.501 75s43.5 30 75.5 30c16.667 0 33.167 -2.33301 49.5 -7s31.5 -9.83398 45.5 -15.501l38.5 -15.5c11.667 -4.66699 21.5 -7 29.5 -7
c15.333 0 26 5.33301 32 16c6 10 11.5 16.5 16.5 19.5s13.5 4.5 25.5 4.5h25c8 0 15 -3.33301 21 -10s8.33301 -14 7 -22c-4 -30 -14.833 -55 -32.5 -75s-43.834 -30 -78.501 -30c-16.667 0 -32.5 2.33301 -47.5 7s-29.333 9.83398 -43 15.501l-38 15.5
c-11.667 4.66699 -22.834 7 -33.501 7c-16 0 -27 -5.33301 -33 -16c-5.33301 -10 -10.666 -16.5 -15.999 -19.5s-14 -4.5 -26 -4.5h-25c-7.33301 0 -14 3.5 -20 10.5s-8.33301 14.167 -7 21.5z" />
    <glyph glyph-name="adieresis" unicode="&#xe4;" horiz-adv-x="550" 
d="M248 90c24 0 45.5 4.83398 64.5 14.501s34.833 21.5 47.5 35.5v64c-16 5.33301 -32.833 9.33301 -50.5 12s-36.167 4 -55.5 4c-26 0 -45.333 -6 -58 -18s-19 -28.333 -19 -49s6.66699 -36.334 20 -47.001s30.333 -16 51 -16zM57 390.001
c0 21.333 4.49805 42.6689 13.498 64.002s22.5 40.666 40.5 57.999s40.667 31.333 68 42s59.333 16 96 16c70.667 0 124.667 -16.833 162 -50.5s56 -81.834 56 -144.501v-343c0 -9.33301 -3 -17 -9 -23s-13.667 -9 -23 -9h-54c-9.33301 0 -17.666 3 -24.999 9
s-11.666 13.333 -12.999 22l-3 20c-16.667 -17.333 -39.667 -31.833 -69 -43.5s-60.666 -17.5 -93.999 -17.5c-50.667 0 -90 14.333 -118 43s-42 66.667 -42 114c0 52 16.333 91.167 49 117.5s79.334 39.5 140.001 39.5c10.667 0 22 -0.5 34 -1.5s23.667 -2.16699 35 -3.5
s22.166 -3 32.499 -5s19.166 -4 26.499 -6v80c0 34 -6.83301 58.5 -20.5 73.5s-35.167 22.5 -64.5 22.5c-15.333 0 -28.333 -2.33301 -39 -7s-19.334 -10.667 -26.001 -18s-11.667 -15.5 -15 -24.5s-5 -18.167 -5 -27.5s-2.66699 -16.166 -8 -20.499
s-12.666 -6.5 -21.999 -6.5h-72c-8.66699 0 -16 2.66699 -22 8s-9 12.666 -9 21.999zM473.998 678.004c0 -21.333 -5.66699 -38.5 -17 -51.5s-28.666 -19.5 -51.999 -19.5c-22.667 0 -39.334 6.5 -50.001 19.5s-16 30.167 -16 51.5c0 22 5.33301 39.667 16 53
s27.334 20 50.001 20c23.333 0 40.666 -6.66699 51.999 -20s17 -31 17 -53zM228.998 678.004c0 -21.333 -5.66699 -38.5 -17 -51.5s-28.666 -19.5 -51.999 -19.5c-22.667 0 -39.5 6.5 -50.5 19.5s-16.5 30.167 -16.5 51.5c0 22 5.5 39.667 16.5 53s27.833 20 50.5 20
c23.333 0 40.666 -6.66699 51.999 -20s17 -31 17 -53z" />
    <glyph glyph-name="aring" unicode="&#xe5;" horiz-adv-x="550" 
d="M248 90c24 0 45.5 4.83398 64.5 14.501s34.833 21.5 47.5 35.5v64c-16 5.33301 -32.833 9.33301 -50.5 12s-36.167 4 -55.5 4c-26 0 -45.333 -6 -58 -18s-19 -28.333 -19 -49s6.66699 -36.334 20 -47.001s30.333 -16 51 -16zM57 390.001
c0 21.333 4.49805 42.6689 13.498 64.002s22.5 40.666 40.5 57.999s40.667 31.333 68 42s59.333 16 96 16c70.667 0 124.667 -16.833 162 -50.5s56 -81.834 56 -144.501v-343c0 -9.33301 -3 -17 -9 -23s-13.667 -9 -23 -9h-54c-9.33301 0 -17.666 3 -24.999 9
s-11.666 13.333 -12.999 22l-3 20c-16.667 -17.333 -39.667 -31.833 -69 -43.5s-60.666 -17.5 -93.999 -17.5c-50.667 0 -90 14.333 -118 43s-42 66.667 -42 114c0 52 16.333 91.167 49 117.5s79.334 39.5 140.001 39.5c10.667 0 22 -0.5 34 -1.5s23.667 -2.16699 35 -3.5
s22.166 -3 32.499 -5s19.166 -4 26.499 -6v80c0 34 -6.83301 58.5 -20.5 73.5s-35.167 22.5 -64.5 22.5c-15.333 0 -28.333 -2.33301 -39 -7s-19.334 -10.667 -26.001 -18s-11.667 -15.5 -15 -24.5s-5 -18.167 -5 -27.5s-2.66699 -16.166 -8 -20.499
s-12.666 -6.5 -21.999 -6.5h-72c-8.66699 0 -16 2.66699 -22 8s-9 12.666 -9 21.999zM277.998 604.004c-24.667 0 -45 6.83301 -61 20.5s-24 33.167 -24 58.5v10c0 24 8 43.167 24 57.5s36.333 21.5 61 21.5c24 0 44 -7.16699 60 -21.5s24 -33.5 24 -57.5v-10
c0 -25.333 -8 -44.833 -24 -58.5s-36 -20.5 -60 -20.5zM277.998 651.004c10 0 17.5 3.16699 22.5 9.5s7.5 15.166 7.5 26.499c0 24.667 -10 37 -30 37c-20.667 0 -31 -12.333 -31 -37c0 -11.333 2.5 -20.166 7.5 -26.499s12.833 -9.5 23.5 -9.5z" />
    <glyph glyph-name="ae" unicode="&#xe6;" horiz-adv-x="866" 
d="M58 388c0 22 4.32812 44 12.9951 66s22 41.5 40 58.5s40.667 30.833 68 41.5s59.333 16 96 16c36 0 66.833 -5.83301 92.5 -17.5s46.834 -28.167 63.501 -49.5c16 19.333 37 35.333 63 48s57.333 19 94 19c70 0 125.167 -18.667 165.5 -56s60.5 -89 60.5 -155v-82
c0 -9.33301 -3 -17 -9 -23s-13.333 -9 -22 -9h-290v-47c0 -36 8.33301 -62.167 25 -78.5s40 -24.5 70 -24.5s52.833 7 68.5 21s23.5 28.667 23.5 44c0 18.667 9.33301 28 28 28h75c8.66699 0 15.5 -2.66699 20.5 -8s7.5 -12.666 7.5 -21.999
c0 -18.667 -4.66699 -37.834 -14 -57.501s-23.333 -37.667 -42 -54s-42 -29.833 -70 -40.5s-60.333 -16 -97 -16c-40.667 0 -76 6.16699 -106 18.5s-55 31.833 -75 58.5c-28 -29.333 -58.667 -49.5 -92 -60.5s-69.666 -16.5 -108.999 -16.5
c-27.333 0 -51.166 4.16699 -71.499 12.5s-37.166 19.833 -50.499 34.5s-23.5 32 -30.5 52s-10.5 41.667 -10.5 65c0 52 15.833 91.5 47.5 118.5s77.834 40.5 138.501 40.5h131v51c0 32 -6.66699 56.667 -20 74s-35 26 -65 26c-15.333 0 -28.333 -2.33301 -39 -7
s-19.334 -10.834 -26.001 -18.501s-11.667 -16.167 -15 -25.5s-5 -18.666 -5 -27.999c0 -8.66699 -2.66699 -15.167 -8 -19.5s-12.666 -6.5 -21.999 -6.5h-71c-9.33301 0 -16.833 2.66699 -22.5 8s-8.5 12.333 -8.5 21zM248.995 90c23.333 0 44.5 4.83203 63.5 14.499
s34.833 21.5 47.5 35.5v88l-108 1c-26.667 0 -45.667 -6.16699 -57 -18.5s-17 -29.166 -17 -50.499c0 -20.667 5.83301 -37.5 17.5 -50.5s29.5 -19.5 53.5 -19.5zM587.995 464.999c-30 0 -53.332 -10.167 -69.999 -30.5s-25.334 -49.5 -26.001 -87.5v-19l190 3v16
c0 36.667 -7.83301 65.5 -23.5 86.5s-39.167 31.5 -70.5 31.5z" />
    <glyph glyph-name="ccedilla" unicode="&#xe7;" horiz-adv-x="556" 
d="M266 -167l-20.498 0.00292969c-7.66699 0 -15.5 0.666992 -23.5 2c-16 2 -24 8.33301 -24 19v15c0 10 5.66699 15 17 15h21c13.333 0 23.666 2.16699 30.999 6.5s11 10.166 11 17.499c0 8 -3.66699 13.833 -11 17.5s-15.333 6.16699 -24 7.5
c-16.667 3.33301 -21.667 13.333 -15 30l12 31c-58.667 6.66699 -104.5 28 -137.5 64s-49.5 83.667 -49.5 143v158c0 66 20.333 117.5 61 154.5s96.334 55.5 167.001 55.5c35.333 0 67 -4.5 95 -13.5s51.5 -21.833 70.5 -38.5s33.5 -36.334 43.5 -59.001s15 -48 15 -76
c0 -8.66699 -2.83301 -16 -8.5 -22s-12.834 -9 -21.501 -9h-72c-20 0 -30 10.333 -30 31c0 23.333 -7.33301 42.666 -22 57.999s-38 23 -70 23c-30.667 0 -54.167 -9.83301 -70.5 -29.5s-24.5 -48.5 -24.5 -86.5v-134c0 -38 8.16699 -66.833 24.5 -86.5
s39.833 -29.5 70.5 -29.5c32 0 55.333 7.83301 70 23.5s22 34.834 22 57.501c0 20.667 10 31 30 31h71c9.33301 0 16.833 -2.83301 22.5 -8.5s8.5 -13.167 8.5 -22.5c0 -23.333 -4 -45.333 -12 -66s-19.5 -39.167 -34.5 -55.5s-33.5 -29.833 -55.5 -40.5
s-47.333 -18 -76 -22l-10 -27c18 -2.66699 33 -8.83398 45 -18.501s18 -24.5 18 -44.5c0 -14 -3.5 -25.5 -10.5 -34.5s-16 -16.333 -27 -22s-23.333 -9.5 -37 -11.5s-26.834 -3 -39.501 -3z" />
    <glyph glyph-name="egrave" unicode="&#xe8;" horiz-adv-x="559" 
d="M152 723c-4 4.66699 -4.83301 9.66699 -2.5 15s6.5 8 12.5 8h80c21.333 0 38 -8.66699 50 -26l54 -78c4 -5.33301 4.5 -11 1.5 -17s-8.16699 -9 -15.5 -9h-50c-9.33301 0 -18.833 2 -28.5 6s-18.167 9.66699 -25.5 17zM53 359c0 66 20.335 117.666 61.002 154.999
s96.334 56 167.001 56c70 0 125.167 -18.667 165.5 -56s60.5 -89 60.5 -155v-72c0 -8.66699 -3 -16 -9 -22s-13.333 -9 -22 -9h-290v-51c0 -38 8.16699 -65.833 24.5 -83.5s39.833 -26.5 70.5 -26.5c16.667 0 30.834 2.33301 42.501 7s21 10.5 28 17.5
s12.167 14.5 15.5 22.5s5 15.667 5 23c0 18 9.66699 27 29 27h75c8.66699 0 15.5 -2.66699 20.5 -8s7.5 -12.666 7.5 -21.999c0 -19.333 -4.83301 -39 -14.5 -59s-23.834 -38.5 -42.501 -55.5s-41.834 -30.833 -69.501 -41.5s-59.834 -16 -96.501 -16
c-70.667 0 -126.334 18.667 -167.001 56s-61 89 -61 155v158zM281.002 464.999c-30.667 0 -54.333 -9.16699 -71 -27.5s-25 -46.5 -25 -84.5v-14l190 3v13c0 73.333 -31.333 110 -94 110z" />
    <glyph glyph-name="eacute" unicode="&#xe9;" horiz-adv-x="559" 
d="M504 162c0 -19.333 -4.83105 -39.001 -14.498 -59.001s-23.834 -38.5 -42.501 -55.5s-41.834 -30.833 -69.501 -41.5s-59.834 -16 -96.501 -16c-70.667 0 -126.334 18.667 -167.001 56s-61 89 -61 155v158c0 66 20.333 117.667 61 155s96.334 56 167.001 56
c70 0 125.167 -18.667 165.5 -56s60.5 -89 60.5 -155v-72c0 -8.66699 -3 -16 -9 -22s-13.333 -9 -22 -9h-290v-51c0 -38 8.16699 -65.833 24.5 -83.5s39.833 -26.5 70.5 -26.5c16.667 0 30.834 2.33301 42.501 7s21 10.5 28 17.5s12.167 14.5 15.5 22.5s5 15.667 5 23
c0 18 9.66699 27 29 27h75c8.66699 0 15.5 -2.66699 20.5 -8s7.5 -12.666 7.5 -21.999zM252.002 615.999c-7.33301 0 -12.5 3 -15.5 9s-2.5 11.667 1.5 17l54 78c12 17.333 28.667 26 50 26h80c6 0 10.167 -2.66699 12.5 -8s1.5 -10.333 -2.5 -15l-76 -84
c-7.33301 -7.33301 -15.833 -13 -25.5 -17s-19.167 -6 -28.5 -6h-50zM281.002 464.999c-30.667 0 -54.333 -9.16699 -71 -27.5s-25 -46.5 -25 -84.5v-14l190 3v13c0 73.333 -31.333 110 -94 110z" />
    <glyph glyph-name="ecircumflex" unicode="&#xea;" horiz-adv-x="559" 
d="M53 359c0 66 20.335 117.666 61.002 154.999s96.334 56 167.001 56c70 0 125.167 -18.667 165.5 -56s60.5 -89 60.5 -155v-72c0 -8.66699 -3 -16 -9 -22s-13.333 -9 -22 -9h-290v-51c0 -38 8.16699 -65.833 24.5 -83.5s39.833 -26.5 70.5 -26.5
c16.667 0 30.834 2.33301 42.501 7s21 10.5 28 17.5s12.167 14.5 15.5 22.5s5 15.667 5 23c0 18 9.66699 27 29 27h75c8.66699 0 15.5 -2.66699 20.5 -8s7.5 -12.666 7.5 -21.999c0 -19.333 -4.83301 -39 -14.5 -59s-23.834 -38.5 -42.501 -55.5
s-41.834 -30.833 -69.501 -41.5s-59.834 -16 -96.501 -16c-70.667 0 -126.334 18.667 -167.001 56s-61 89 -61 155v158zM167.002 615.999c-6.66699 0 -11.3311 2.83301 -13.998 8.5s-2 11.167 2 16.5l61 80c5.33301 7.33301 12.833 13.333 22.5 18s19.167 7 28.5 7h43
c9.33301 0 18.833 -2.33301 28.5 -7s17.167 -10.667 22.5 -18l62 -80c3.33301 -5.33301 3.66602 -10.833 0.999023 -16.5s-7.33398 -8.5 -14.001 -8.5h-47c-9.33301 0 -18.5 2.33301 -27.5 7s-16.167 11.334 -21.5 20.001l-25 41l-25 -41
c-5.33301 -8.66699 -12.5 -15.334 -21.5 -20.001s-18.167 -7 -27.5 -7h-48zM281.005 464.999c-30.667 0 -54.333 -9.16699 -71 -27.5s-25 -46.5 -25 -84.5v-14l190 3v13c0 73.333 -31.333 110 -94 110z" />
    <glyph glyph-name="edieresis" unicode="&#xeb;" horiz-adv-x="559" 
d="M238 678c0 -21.333 -5.66699 -38.5 -17 -51.5s-28.666 -19.5 -51.999 -19.5c-22.667 0 -39.334 6.5 -50.001 19.5s-16 30.167 -16 51.5c0 22 5.33301 39.667 16 53s27.334 20 50.001 20c23.333 0 40.666 -6.66699 51.999 -20s17 -31 17 -53zM53 359
c0 66 20.335 117.666 61.002 154.999s96.334 56 167.001 56c70 0 125.167 -18.667 165.5 -56s60.5 -89 60.5 -155v-72c0 -8.66699 -3 -16 -9 -22s-13.333 -9 -22 -9h-290v-51c0 -38 8.16699 -65.833 24.5 -83.5s39.833 -26.5 70.5 -26.5c16.667 0 30.834 2.33301 42.501 7
s21 10.5 28 17.5s12.167 14.5 15.5 22.5s5 15.667 5 23c0 18 9.66699 27 29 27h75c8.66699 0 15.5 -2.66699 20.5 -8s7.5 -12.666 7.5 -21.999c0 -19.333 -4.83301 -39 -14.5 -59s-23.834 -38.5 -42.501 -55.5s-41.834 -30.833 -69.501 -41.5s-59.834 -16 -96.501 -16
c-70.667 0 -126.334 18.667 -167.001 56s-61 89 -61 155v158zM483.002 677.999c0 -21.333 -5.66699 -38.5 -17 -51.5s-28.666 -19.5 -51.999 -19.5c-22.667 0 -39.334 6.5 -50.001 19.5s-16 30.167 -16 51.5c0 22 5.33301 39.667 16 53s27.334 20 50.001 20
c23.333 0 40.666 -6.66699 51.999 -20s17 -31 17 -53zM281.002 464.999c-30.667 0 -54.333 -9.16699 -71 -27.5s-25 -46.5 -25 -84.5v-14l190 3v13c0 73.333 -31.333 110 -94 110z" />
    <glyph glyph-name="igrave" unicode="&#xec;" 
d="M103.777 616c-9.33301 0 -18.835 2.33301 -28.502 7s-17.167 10.667 -22.5 18l-61 80c-3.33301 5.33301 -3.66602 10.833 -0.999023 16.5s7.33398 8.5 14.001 8.5h80c9.33301 0 18.333 -2.66699 27 -8s15.334 -12 20.001 -20l39 -74
c3.33301 -6.66699 3.16602 -13 -0.500977 -19s-9.16699 -9 -16.5 -9h-50zM88.7754 0c-8.66699 0 -16.167 3 -22.5 9s-9.5 13.667 -9.5 23v496c0 9.33301 3.16699 17 9.5 23s13.833 9 22.5 9h69c9.33301 0 17 -3 23 -9s9 -13.667 9 -23v-496c0 -9.33301 -3 -17 -9 -23
s-13.667 -9 -23 -9h-69z" />
    <glyph glyph-name="iacute" unicode="&#xed;" 
d="M93 616c-7.33301 0 -12.668 2.99902 -16.001 8.99902s-3 12 1 18l49 76c5.33301 8 12.333 14.5 21 19.5s17.667 7.5 27 7.5h74c6 0 10.333 -2.83301 13 -8.5s2.33398 -11.167 -0.999023 -16.5l-66 -81c-6 -7.33301 -13.667 -13.166 -23 -17.499s-19 -6.5 -29 -6.5h-50z
M90.998 -0.000976562c-8.66699 0 -16.167 3 -22.5 9s-9.5 13.667 -9.5 23v496c0 9.33301 3.16699 17 9.5 23s13.833 9 22.5 9h69c9.33301 0 17 -3 23 -9s9 -13.667 9 -23v-496c0 -9.33301 -3 -17 -9 -23s-13.667 -9 -23 -9h-69z" />
    <glyph glyph-name="icircumflex" unicode="&#xee;" 
d="M24.2725 616c-7.33301 0 -12.6699 3 -16.0029 9s-3 12 1 18l44 75c5.33301 8.66699 12.333 15.5 21 20.5s17.667 7.5 27 7.5h43c9.33301 0 18.333 -2.5 27 -7.5s15.667 -11.833 21 -20.5l45 -75c3.33301 -6 3.33301 -12 0 -18s-8.66602 -9 -15.999 -9h-33
c-9.33301 0 -18.166 2.66699 -26.499 8s-14.5 12.333 -18.5 21l-20 40l-20 -40c-4 -8.66699 -10.167 -15.667 -18.5 -21s-17.166 -8 -26.499 -8h-34zM88.2686 0c-8.66699 0 -16.167 3 -22.5 9s-9.5 13.667 -9.5 23v496c0 9.33301 3.16699 17 9.5 23s13.833 9 22.5 9h69
c9.33301 0 17 -3 23 -9s9 -13.667 9 -23v-496c0 -9.33301 -3 -17 -9 -23s-13.667 -9 -23 -9h-69z" />
    <glyph glyph-name="idieresis" unicode="&#xef;" 
d="M91 0c-8.66699 0 -16.167 3 -22.5 9s-9.5 13.667 -9.5 23v496c0 9.33301 3.16699 17 9.5 23s13.833 9 22.5 9h69c9.33301 0 17 -3 23 -9s9 -13.667 9 -23v-496c0 -9.33301 -3 -17 -9 -23s-13.667 -9 -23 -9h-69zM106 678c0 -19.333 -5 -34.666 -15 -45.999
s-25.333 -17 -46 -17c-20 0 -35 5.66699 -45 17s-15 26.666 -15 45.999s5 35.166 15 47.499s25 18.5 45 18.5c20.667 0 36 -6.16699 46 -18.5s15 -28.166 15 -47.499zM267 678c0 -19.333 -5 -34.666 -15 -45.999s-25.667 -17 -47 -17c-20 0 -34.833 5.66699 -44.5 17
s-14.5 26.666 -14.5 45.999s4.83301 35.166 14.5 47.499s24.5 18.5 44.5 18.5c21.333 0 37 -6.16699 47 -18.5s15 -28.166 15 -47.499z" />
    <glyph glyph-name="eth" unicode="&#xf0;" horiz-adv-x="555" 
d="M271 -10c-32 0 -61.3311 4.16895 -87.998 12.502s-49.667 20.666 -69 36.999s-34.333 36.666 -45 60.999s-16 52.5 -16 84.5v150c0 65.333 16.667 113.5 50 144.5s81.333 46.5 144 46.5c24.667 0 48 -4.16699 70 -12.5s40.667 -19.166 56 -32.499v55
c0 12 -0.833008 23.167 -2.5 33.5s-5.16699 20.166 -10.5 29.499l-39 -30c-6 -4 -12.5 -5.16699 -19.5 -3.5s-13.167 6.16699 -18.5 13.5l-11 16c-12 15.333 -11.333 28.333 2 39l24 18c-6 3.33301 -13.833 5.66602 -23.5 6.99902s-19.834 2 -30.501 2
c-18.667 0 -37.334 -1 -56.001 -3c-9.33301 -1.33301 -16.833 0.5 -22.5 5.5s-8.5 12.167 -8.5 21.5v35c0 8.66699 3 16.834 9 24.501s13.333 12.167 22 13.5c11.333 2.66699 22.333 4.5 33 5.5s21 1.5 31 1.5c27.333 0 53.166 -3 77.499 -9s45.5 -14 63.5 -24l43 32
c14 10 27.333 8.33301 40 -5l13 -16c6 -6.66699 8.83301 -13.834 8.5 -21.501s-4.16602 -14.167 -11.499 -19.5l-28 -22c12 -14 22 -32.167 30 -54.5s12 -46.166 12 -71.499v-359c0 -64.667 -19.333 -115 -58 -151s-95.667 -54 -171 -54zM264.002 428.002
c-34 0 -57.499 -10 -70.499 -30s-19.5 -51 -19.5 -93v-90c0 -44 7.66699 -76.167 23 -96.5s40.666 -30.5 75.999 -30.5c36 0 61.667 10.167 77 30.5s23 52.5 23 96.5v160c-11.333 15.333 -27.333 28 -48 38s-41 15 -61 15z" />
    <glyph glyph-name="ntilde" unicode="&#xf1;" horiz-adv-x="557" 
d="M91 0c-8.66699 0 -16.166 3.00098 -22.499 9.00098s-9.5 13.667 -9.5 23v496c0 9.33301 3.16699 17 9.5 23s13.833 9 22.5 9h54c9.33301 0 17.333 -3 24 -9s10.667 -13.667 12 -23l2 -21c18 19.333 38.667 34.666 62 45.999s48.666 17 75.999 17
c65.333 0 111.5 -17.167 138.5 -51.5s40.5 -81.5 40.5 -141.5v-345c0 -9.33301 -3.16699 -17 -9.5 -23s-13.833 -9 -22.5 -9h-69c-9.33301 0 -17 3 -23 9s-9 13.667 -9 23v333c0 32 -5.5 55.833 -16.5 71.5s-31.167 23.5 -60.5 23.5c-18.667 0 -36.5 -5.16699 -53.5 -15.5
s-31.833 -22.833 -44.5 -37.5v-375c0 -9.33301 -3 -17 -9 -23s-13.667 -9 -23 -9h-69zM209.001 664.001c-16 0 -26.9971 -5.33301 -32.9971 -16c-5.33301 -10 -10.666 -16.5 -15.999 -19.5s-14 -4.5 -26 -4.5h-25c-7.33301 0 -14 3.5 -20 10.5s-8.33301 14.167 -7 21.5
c4.66699 30 16.167 55 34.5 75s43.5 30 75.5 30c16.667 0 33.167 -2.33301 49.5 -7s31.5 -9.83398 45.5 -15.501l38.5 -15.5c11.667 -4.66699 21.5 -7 29.5 -7c16 0 27 5.33301 33 16c5.33301 10 10.666 16.5 15.999 19.5s13.666 4.5 24.999 4.5h25c8 0 15 -3.33301 21 -10
s8.66699 -14 8 -22c-4.66699 -30 -15.834 -55 -33.501 -75s-43.5 -30 -77.5 -30c-17.333 0 -33.5 2.33301 -48.5 7s-29.333 9.83398 -43 15.501l-38 15.5c-11.667 4.66699 -22.834 7 -33.501 7z" />
    <glyph glyph-name="ograve" unicode="&#xf2;" horiz-adv-x="561" 
d="M281 464c-30.667 0 -54.167 -9.83301 -70.5 -29.5s-24.5 -48.5 -24.5 -86.5v-136c0 -38 8.16699 -66.833 24.5 -86.5s39.833 -29.5 70.5 -29.5c30 0 53 9.83301 69 29.5s24 48.5 24 86.5v136c0 38 -8 66.833 -24 86.5s-39 29.5 -69 29.5zM281 -10
c-70.667 0 -126.334 18.667 -167.001 56s-61 89 -61 155v158c0 66 20.333 117.667 61 155s96.334 56 167.001 56c70 0 125.167 -18.667 165.5 -56s60.5 -89 60.5 -155v-158c0 -66 -20.167 -117.667 -60.5 -155s-95.5 -56 -165.5 -56zM282 616c-10 0 -19.665 2 -28.998 6
s-17.666 9.66699 -24.999 17l-76 84c-4 4.66699 -4.83301 9.66699 -2.5 15s6.5 8 12.5 8h80c9.33301 0 18.666 -2.33301 27.999 -7s16.666 -11 21.999 -19l54 -78c3.33301 -5.33301 3.66602 -11 0.999023 -17s-7.66699 -9 -15 -9h-50z" />
    <glyph glyph-name="oacute" unicode="&#xf3;" horiz-adv-x="561" 
d="M281 464c-30.667 0 -54.167 -9.83301 -70.5 -29.5s-24.5 -48.5 -24.5 -86.5v-136c0 -38 8.16699 -66.833 24.5 -86.5s39.833 -29.5 70.5 -29.5c30 0 53 9.83301 69 29.5s24 48.5 24 86.5v136c0 38 -8 66.833 -24 86.5s-39 29.5 -69 29.5zM281 -10
c-70.667 0 -126.334 18.667 -167.001 56s-61 89 -61 155v158c0 66 20.333 117.667 61 155s96.334 56 167.001 56c70 0 125.167 -18.667 165.5 -56s60.5 -89 60.5 -155v-158c0 -66 -20.167 -117.667 -60.5 -155s-95.5 -56 -165.5 -56zM248 616
c-6.66699 0 -11.4971 3 -14.4971 9s-2.5 11.667 1.5 17l53 78c5.33301 8 12.666 14.333 21.999 19s18.666 7 27.999 7h80c6 0 10.167 -2.66699 12.5 -8s1.5 -10.333 -2.5 -15l-76 -84c-6.66699 -7.33301 -14.834 -13 -24.501 -17s-19.167 -6 -28.5 -6h-51z" />
    <glyph glyph-name="ocircumflex" unicode="&#xf4;" horiz-adv-x="561" 
d="M281 464c-30.667 0 -54.167 -9.83301 -70.5 -29.5s-24.5 -48.5 -24.5 -86.5v-136c0 -38 8.16699 -66.833 24.5 -86.5s39.833 -29.5 70.5 -29.5c30 0 53 9.83301 69 29.5s24 48.5 24 86.5v136c0 38 -8 66.833 -24 86.5s-39 29.5 -69 29.5zM281 -10
c-70.667 0 -126.334 18.667 -167.001 56s-61 89 -61 155v158c0 66 20.333 117.667 61 155s96.334 56 167.001 56c70 0 125.167 -18.667 165.5 -56s60.5 -89 60.5 -155v-158c0 -66 -20.167 -117.667 -60.5 -155s-95.5 -56 -165.5 -56zM158 616
c-6.66699 0 -11.3311 2.83398 -13.998 8.50098s-2 11.167 2 16.5l61 80c6 7.33301 13.667 13.333 23 18s18.666 7 27.999 7h43c9.33301 0 18.666 -2.33301 27.999 -7s17 -10.667 23 -18l62 -80c4 -5.33301 4.5 -10.833 1.5 -16.5s-7.5 -8.5 -13.5 -8.5h-48
c-20 0 -36.333 9 -49 27l-25 41l-25 -41c-5.33301 -8.66699 -12.5 -15.334 -21.5 -20.001s-18.167 -7 -27.5 -7h-48z" />
    <glyph glyph-name="otilde" unicode="&#xf5;" horiz-adv-x="561" 
d="M281 464c-30.667 0 -54.167 -9.83301 -70.5 -29.5s-24.5 -48.5 -24.5 -86.5v-136c0 -38 8.16699 -66.833 24.5 -86.5s39.833 -29.5 70.5 -29.5c30 0 53 9.83301 69 29.5s24 48.5 24 86.5v136c0 38 -8 66.833 -24 86.5s-39 29.5 -69 29.5zM281 -10
c-70.667 0 -126.334 18.667 -167.001 56s-61 89 -61 155v158c0 66 20.333 117.667 61 155s96.334 56 167.001 56c70 0 125.167 -18.667 165.5 -56s60.5 -89 60.5 -155v-158c0 -66 -20.167 -117.667 -60.5 -155s-95.5 -56 -165.5 -56zM207 664
c-16 0 -26.9961 -5.33301 -32.9961 -16c-6 -10 -11.667 -16.5 -17 -19.5s-14 -4.5 -26 -4.5h-25c-7.33301 0 -13.833 3.5 -19.5 10.5s-7.83398 14.167 -6.50098 21.5c4 30 15.333 55 34 75s43.667 30 75 30c17.333 0 34 -2.33301 50 -7s31 -9.83398 45 -15.501l38.5 -15.5
c11.667 -4.66699 21.834 -7 30.501 -7c15.333 0 26 5.33301 32 16c5.33301 10 10.666 16.5 15.999 19.5s13.666 4.5 24.999 4.5h26c7.33301 0 14.166 -3.33301 20.499 -10s8.83301 -14 7.5 -22c-4 -30 -15 -55 -33 -75s-44 -30 -78 -30c-16.667 0 -32.5 2.33301 -47.5 7
s-29.333 9.83398 -43 15.501l-38 15.5c-11.667 4.66699 -22.834 7 -33.501 7z" />
    <glyph glyph-name="odieresis" unicode="&#xf6;" horiz-adv-x="561" 
d="M281 464c-30.667 0 -54.167 -9.83301 -70.5 -29.5s-24.5 -48.5 -24.5 -86.5v-136c0 -38 8.16699 -66.833 24.5 -86.5s39.833 -29.5 70.5 -29.5c30 0 53 9.83301 69 29.5s24 48.5 24 86.5v136c0 38 -8 66.833 -24 86.5s-39 29.5 -69 29.5zM281 -10
c-70.667 0 -126.334 18.667 -167.001 56s-61 89 -61 155v158c0 66 20.333 117.667 61 155s96.334 56 167.001 56c70 0 125.167 -18.667 165.5 -56s60.5 -89 60.5 -155v-158c0 -66 -20.167 -117.667 -60.5 -155s-95.5 -56 -165.5 -56zM225 678
c0 -21.333 -5.66699 -38.5 -17 -51.5s-28.666 -19.5 -51.999 -19.5c-22.667 0 -39.334 6.5 -50.001 19.5s-16 30.167 -16 51.5c0 22 5.33301 39.667 16 53s27.334 20 50.001 20c23.333 0 40.666 -6.66699 51.999 -20s17 -31 17 -53zM470 678
c0 -21.333 -5.5 -38.5 -16.5 -51.5s-28.5 -19.5 -52.5 -19.5c-22 0 -38.5 6.5 -49.5 19.5s-16.5 30.167 -16.5 51.5c0 22 5.5 39.667 16.5 53s27.5 20 49.5 20c24 0 41.5 -6.66699 52.5 -20s16.5 -31 16.5 -53z" />
    <glyph glyph-name="divide" unicode="&#xf7;" horiz-adv-x="577" 
d="M359 61c0 -24 -7 -41.833 -21 -53.5s-32.667 -17.5 -56 -17.5c-22.667 0 -41 5.83301 -55 17.5s-21 29.5 -21 53.5c0 25.333 7 43.833 21 55.5s32.333 17.5 55 17.5c23.333 0 42 -5.83301 56 -17.5s21 -30.167 21 -55.5zM359 496c0 -24 -7 -41.667 -21 -53
s-32.667 -17 -56 -17c-22.667 0 -41 5.66699 -55 17s-21 29 -21 53c0 25.333 7 44 21 56s32.333 18 55 18c23.333 0 42 -6 56 -18s21 -30.667 21 -56zM73 225c-9.33301 0 -17 3 -23 9s-9 13.667 -9 23v46c0 9.33301 3 17 9 23s13.667 9 23 9h431c9.33301 0 17 -3 23 -9
s9 -13.667 9 -23v-46c0 -9.33301 -3 -17 -9 -23s-13.667 -9 -23 -9h-431z" />
    <glyph glyph-name="oslash" unicode="&#xf8;" horiz-adv-x="561" 
d="M281 -10c-40 0 -74.834 6.16699 -104.501 18.5s-54.167 29.833 -73.5 52.5l-76 -61c-4.66699 -4 -9.83398 -4.66699 -15.501 -2s-8.5 7 -8.5 13v89c0 9.33301 2.33301 18.666 7 27.999s10.667 17.333 18 24l27 21c-1.33301 4.66699 -2 9.33398 -2 14.001v14v158
c0 66 20.333 117.667 61 155s96.334 56 167.001 56c78.667 0 137.334 -24 176.001 -72l76 62c5.33301 4 10.833 4.66699 16.5 2s8.5 -7 8.5 -13v-89c0 -10 -2.33301 -19.667 -7 -29s-10.667 -17 -18 -23l-27 -22c0.666992 -4 1 -8.5 1 -13.5v-13.5v-158
c0 -66 -20.167 -117.667 -60.5 -155s-95.5 -56 -165.5 -56zM280.999 95c30 0 53.333 10.167 70 30.5s25 49.5 25 87.5v67l-176 -140c15.333 -30 42.333 -45 81 -45zM280.999 464c-30.667 0 -54.333 -10.001 -71 -30.001s-25 -49 -25 -87v-67l176 139
c-7.33301 14.667 -18 25.834 -32 33.501s-30 11.5 -48 11.5z" />
    <glyph glyph-name="ugrave" unicode="&#xf9;" horiz-adv-x="553" 
d="M230 -10c-32.667 0 -60 4.33203 -82 12.999s-39.833 21.167 -53.5 37.5s-23.334 36.333 -29.001 60s-8.5 50.5 -8.5 80.5v347c0 9.33301 3.16699 17 9.5 23s13.833 9 22.5 9h69c9.33301 0 17 -3 23 -9s9 -13.667 9 -23v-335c0 -32 4.83301 -55.5 14.5 -70.5
s28.834 -22.5 57.501 -22.5c19.333 0 37.5 5.16699 54.5 15.5s31.833 22.833 44.5 37.5v375c0 9.33301 3 17 9 23s13.667 9 23 9h69c8.66699 0 16.167 -3 22.5 -9s9.5 -13.667 9.5 -23v-496c0 -9.33301 -3.16699 -17 -9.5 -23s-13.833 -9 -22.5 -9h-55
c-9.33301 0 -17.333 3 -24 9s-10.667 13.667 -12 23l-1 21c-18 -19.333 -38.833 -34.666 -62.5 -45.999s-49.5 -17 -77.5 -17zM286 615.999c-9.33301 0 -18.8301 2 -28.4971 6s-18.167 9.66699 -25.5 17l-76 84c-4 4.66699 -4.83301 9.66699 -2.5 15s6.5 8 12.5 8h80
c9.33301 0 18.666 -2.33301 27.999 -7s16.666 -11 21.999 -19l54 -78c3.33301 -5.33301 3.66602 -11 0.999023 -17s-7.66699 -9 -15 -9h-50z" />
    <glyph glyph-name="uacute" unicode="&#xfa;" horiz-adv-x="553" 
d="M230 -10c-32.667 0 -59.999 4.33203 -81.999 12.999s-39.833 21.167 -53.5 37.5s-23.334 36.333 -29.001 60s-8.5 50.5 -8.5 80.5v347c0 9.33301 3.16699 17 9.5 23s13.833 9 22.5 9h69c9.33301 0 17 -3 23 -9s9 -13.667 9 -23v-335c0 -32 4.83301 -55.5 14.5 -70.5
s29.167 -22.5 58.5 -22.5c18.667 0 36.5 5.16699 53.5 15.5s31.833 22.833 44.5 37.5v375c0 9.33301 3 17 9 23s13.667 9 23 9h69c8.66699 0 16.167 -3 22.5 -9s9.5 -13.667 9.5 -23v-496c0 -9.33301 -3.16699 -17 -9.5 -23s-13.833 -9 -22.5 -9h-55
c-9.33301 0 -17.333 3 -24 9s-10.667 13.667 -12 23l-1 21c-18 -19.333 -38.833 -34.666 -62.5 -45.999s-49.5 -17 -77.5 -17zM232.001 615.999c-7.33301 0 -12.3311 3 -14.998 9s-2.33398 11.667 0.999023 17l54 78c5.33301 8 12.666 14.333 21.999 19s18.666 7 27.999 7
h80c6 0 10.167 -2.66699 12.5 -8s1.5 -10.333 -2.5 -15l-76 -84c-7.33301 -7.33301 -15.666 -13 -24.999 -17s-19 -6 -29 -6h-50z" />
    <glyph glyph-name="ucircumflex" unicode="&#xfb;" horiz-adv-x="553" 
d="M230 -10c-33.333 0 -60.999 4.33203 -82.999 12.999s-39.667 21.167 -53 37.5s-22.833 36.333 -28.5 60s-8.5 50.5 -8.5 80.5v347c0 9.33301 3.16699 17 9.5 23s13.833 9 22.5 9h69c9.33301 0 17 -3 23 -9s9 -13.667 9 -23v-335c0 -32 4.66699 -55.5 14 -70.5
s28.666 -22.5 57.999 -22.5c19.333 0 37.5 5.16699 54.5 15.5s31.833 22.833 44.5 37.5v375c0 9.33301 3 17 9 23s13.667 9 23 9h69c8.66699 0 16.167 -3 22.5 -9s9.5 -13.667 9.5 -23v-496c0 -9.33301 -3.16699 -17 -9.5 -23s-13.833 -9 -22.5 -9h-55
c-9.33301 0 -17.333 3 -24 9s-10.667 13.667 -12 23l-1 21c-18 -19.333 -39 -34.666 -63 -45.999s-49.667 -17 -77 -17zM152.001 615.999c-6.66699 0 -11.333 2.83301 -14 8.5s-2 11.167 2 16.5l61 80c5.33301 7.33301 12.833 13.333 22.5 18s19.167 7 28.5 7h43
c9.33301 0 18.833 -2.33301 28.5 -7s17.167 -10.667 22.5 -18l62 -80c3.33301 -5.33301 3.83301 -10.833 1.5 -16.5s-6.83301 -8.5 -13.5 -8.5h-48c-9.33301 0 -18.333 2.33301 -27 7s-15.667 11.334 -21 20.001l-26 41l-25 -41
c-5.33301 -8.66699 -12.5 -15.334 -21.5 -20.001s-18.167 -7 -27.5 -7h-48z" />
    <glyph glyph-name="udieresis" unicode="&#xfc;" horiz-adv-x="553" 
d="M230 -10c-32.667 0 -60 4.33203 -82 12.999s-39.833 21.167 -53.5 37.5s-23.334 36.333 -29.001 60s-8.5 50.5 -8.5 80.5v347c0 9.33301 3.16699 17 9.5 23s13.833 9 22.5 9h69c9.33301 0 17 -3 23 -9s9 -13.667 9 -23v-335c0 -32 4.83301 -55.5 14.5 -70.5
s28.834 -22.5 57.501 -22.5c19.333 0 37.5 5.16699 54.5 15.5s31.833 22.833 44.5 37.5v375c0 9.33301 3 17 9 23s13.667 9 23 9h69c8.66699 0 16.167 -3 22.5 -9s9.5 -13.667 9.5 -23v-496c0 -9.33301 -3.16699 -17 -9.5 -23s-13.833 -9 -22.5 -9h-55
c-9.33301 0 -17.333 3 -24 9s-10.667 13.667 -12 23l-1 21c-18 -19.333 -38.833 -34.666 -62.5 -45.999s-49.5 -17 -77.5 -17zM219 677.999c0 -21.333 -5.66699 -38.5 -17 -51.5s-28.666 -19.5 -51.999 -19.5c-22.667 0 -39.334 6.5 -50.001 19.5s-16 30.167 -16 51.5
c0 22 5.33301 39.667 16 53s27.334 20 50.001 20c23.333 0 40.666 -6.66699 51.999 -20s17 -31 17 -53zM464 677.999c0 -21.333 -5.5 -38.5 -16.5 -51.5s-28.5 -19.5 -52.5 -19.5c-22 0 -38.333 6.5 -49 19.5s-16 30.167 -16 51.5c0 22 5.33301 39.667 16 53s27 20 49 20
c24 0 41.5 -6.66699 52.5 -20s16.5 -31 16.5 -53z" />
    <glyph glyph-name="yacute" unicode="&#xfd;" horiz-adv-x="509" 
d="M313.523 0c-16.667 -48 -44.1641 -85.998 -82.4971 -113.998s-85.833 -42.667 -142.5 -44c-7.33301 -0.666992 -14.333 2.16602 -21 8.49902s-10 13.5 -10 21.5v36c0 21.333 10.333 33.666 31 36.999c23.333 3.33301 43.333 11.333 60 24s28.667 29.667 36 51l-179 510
c-2.66699 7.33301 -1.83398 14.166 2.49902 20.499s10.5 9.5 18.5 9.5h78c9.33301 0 17.666 -2.83301 24.999 -8.5s12.333 -13.167 15 -22.5l111 -376l109 376c2.66699 9.33301 7.5 16.833 14.5 22.5s15.167 8.5 24.5 8.5h74c8 0 14.167 -3.16699 18.5 -9.5
s5.16602 -13.166 2.49902 -20.499zM211.526 616.002c-7.33301 0 -12.499 3 -15.499 9s-2.5 11.667 1.5 17l54 78c12 17.333 28.667 26 50 26h80c6 0 10.167 -2.66699 12.5 -8s1.5 -10.333 -2.5 -15l-77 -84c-6.66699 -7.33301 -14.834 -13 -24.501 -17s-19.167 -6 -28.5 -6
h-50z" />
    <glyph glyph-name="thorn" unicode="&#xfe;" horiz-adv-x="565" 
d="M297 460c-19.333 0 -38.5 -5.16699 -57.5 -15.5s-34.833 -22.833 -47.5 -37.5v-254c12.667 -14.667 28.5 -27.167 47.5 -37.5s38.167 -15.5 57.5 -15.5c29.333 0 49.833 8 61.5 24s17.5 42 17.5 78v156c0 36 -5.83301 62 -17.5 78s-32.167 24 -61.5 24zM91 -150
c-8.66699 0 -16.167 3.00098 -22.5 9.00098s-9.5 13.667 -9.5 23v836c0 9.33301 3.16699 17 9.5 23s13.833 9 22.5 9h69c9.33301 0 17 -3 23 -9s9 -13.667 9 -23v-202c17.333 15.333 37.666 28.166 60.999 38.499s48 15.5 74 15.5c65.333 0 112 -17.167 140 -51.5
s42 -84.5 42 -150.5v-176c0 -66 -14 -116.167 -42 -150.5s-74.667 -51.5 -140 -51.5c-26 0 -51.167 5.33301 -75.5 16s-44.166 23.667 -59.499 39v-163c0 -9.33301 -3 -17 -9 -23s-13.667 -9 -23 -9h-69z" />
    <glyph glyph-name="ydieresis" unicode="&#xff;" horiz-adv-x="509" 
d="M313.523 0c-16.667 -48 -44.1641 -85.998 -82.4971 -113.998s-85.833 -42.667 -142.5 -44c-7.33301 -0.666992 -14.333 2.16602 -21 8.49902s-10 13.5 -10 21.5v36c0 21.333 10.333 33.666 31 36.999c23.333 3.33301 43.333 11.333 60 24s28.667 29.667 36 51l-179 510
c-2.66699 7.33301 -1.83398 14.166 2.49902 20.499s10.5 9.5 18.5 9.5h78c9.33301 0 17.666 -2.83301 24.999 -8.5s12.333 -13.167 15 -22.5l111 -376l109 376c2.66699 9.33301 7.5 16.833 14.5 22.5s15.167 8.5 24.5 8.5h74c8 0 14.167 -3.16699 18.5 -9.5
s5.16602 -13.166 2.49902 -20.499zM199.526 678.002c0 -21.333 -5.5 -38.5 -16.5 -51.5s-28.167 -19.5 -51.5 -19.5s-40.333 6.5 -51 19.5s-16 30.167 -16 51.5c0 22 5.33301 39.667 16 53s27.667 20 51 20s40.5 -6.66699 51.5 -20s16.5 -31 16.5 -53zM444.526 678.002
c0 -21.333 -5.5 -38.5 -16.5 -51.5s-28.167 -19.5 -51.5 -19.5c-22.667 0 -39.334 6.5 -50.001 19.5s-16 30.167 -16 51.5c0 22 5.33301 39.667 16 53s27.334 20 50.001 20c23.333 0 40.5 -6.66699 51.5 -20s16.5 -31 16.5 -53z" />
    <glyph glyph-name="Amacron" unicode="&#x100;" horiz-adv-x="625" 
d="M26.083 0c-8 0 -14.332 3.16602 -18.999 9.49902s-5.33398 13.166 -2.00098 20.499l227 640c3.33301 8.66699 8.83301 15.834 16.5 21.501s16.167 8.5 25.5 8.5h69c9.33301 0 18 -2.83301 26 -8.5s13.667 -12.834 17 -21.501l228 -640
c3.33301 -7.33301 2.66602 -14.166 -2.00098 -20.499s-11 -9.5 -19 -9.5h-83c-9.33301 0 -17.833 2.83301 -25.5 8.5s-13.167 12.834 -16.5 21.501l-45 139h-231l-44 -138c-2.66699 -9.33301 -7.66699 -16.833 -15 -22.5s-15.666 -8.5 -24.999 -8.5h-82zM225.084 276.999
h164l-83 260zM182.084 758.999c-8.66699 0 -16 3.16699 -22 9.5s-9 13.833 -9 22.5v46c0 9.33301 3 17 9 23s13.333 9 22 9h254c8.66699 0 16 -3 22 -9s9 -13.667 9 -23v-46c0 -8.66699 -3 -16.167 -9 -22.5s-13.333 -9.5 -22 -9.5h-254z" />
    <glyph glyph-name="amacron" unicode="&#x101;" horiz-adv-x="550" 
d="M57 390c0 21.333 4.49805 42.6689 13.498 64.002s22.5 40.666 40.5 57.999s40.667 31.333 68 42s59.333 16 96 16c70.667 0 124.667 -16.833 162 -50.5s56 -81.834 56 -144.501v-343c0 -9.33301 -3 -17 -9 -23s-13.667 -9 -23 -9h-54c-9.33301 0 -17.666 3 -24.999 9
s-11.666 13.333 -12.999 22l-3 20c-16.667 -17.333 -39.667 -31.833 -69 -43.5s-60.666 -17.5 -93.999 -17.5c-50.667 0 -90 14.333 -118 43s-42 66.667 -42 114c0 52 16.333 91.167 49 117.5s79.334 39.5 140.001 39.5c10.667 0 22 -0.5 34 -1.5s23.667 -2.16699 35 -3.5
s22.166 -3 32.499 -5s19.166 -4 26.499 -6v80c0 34 -6.83301 58.5 -20.5 73.5s-35.167 22.5 -64.5 22.5c-15.333 0 -28.333 -2.33301 -39 -7s-19.334 -10.667 -26.001 -18s-11.667 -15.5 -15 -24.5s-5 -18.167 -5 -27.5s-2.66699 -16.166 -8 -20.499
s-12.666 -6.5 -21.999 -6.5h-72c-8.66699 0 -16 2.66699 -22 8s-9 12.666 -9 21.999zM247.998 90.0029c24 0 45.5 4.83398 64.5 14.501s34.833 21.5 47.5 35.5v64c-16 5.33301 -32.833 9.33301 -50.5 12s-36.167 4 -55.5 4c-26 0 -45.333 -6 -58 -18s-19 -28.333 -19 -49
s6.66699 -36.334 20 -47.001s30.333 -16 51 -16zM154.998 619.004c-9.33301 0 -17 3.16699 -23 9.5s-9 13.833 -9 22.5v46c0 9.33301 3 17 9 23s13.667 9 23 9h253c9.33301 0 17 -3 23 -9s9 -13.667 9 -23v-46c0 -8.66699 -3 -16.167 -9 -22.5s-13.667 -9.5 -23 -9.5h-253z
" />
    <glyph glyph-name="Abreve" unicode="&#x102;" horiz-adv-x="625" 
d="M26.083 0c-8 0 -14.332 3.16602 -18.999 9.49902s-5.33398 13.166 -2.00098 20.499l227 640c3.33301 8.66699 8.83301 15.834 16.5 21.501s16.167 8.5 25.5 8.5h69c9.33301 0 18 -2.83301 26 -8.5s13.667 -12.834 17 -21.501l228 -640
c3.33301 -7.33301 2.66602 -14.166 -2.00098 -20.499s-11 -9.5 -19 -9.5h-83c-9.33301 0 -17.833 2.83301 -25.5 8.5s-13.167 12.834 -16.5 21.501l-45 139h-231l-44 -138c-2.66699 -9.33301 -7.66699 -16.833 -15 -22.5s-15.666 -8.5 -24.999 -8.5h-82zM225.084 276.999
h164l-83 260zM311.084 750.999c-19.333 0 -37.333 2.66699 -54 8s-31 12.666 -43 21.999s-21.5 20.666 -28.5 33.999s-10.5 28 -10.5 44c0 14.667 6.33301 22 19 22h39c12.667 0 22 -7.66699 28 -23c8.66699 -22 25.334 -33 50.001 -33c25.333 0 41.666 11 48.999 33
c7.33301 15.333 16.666 23 27.999 23h39c12.667 0 19 -7.33301 19 -22c0 -16 -3.5 -30.667 -10.5 -44s-16.5 -24.666 -28.5 -33.999s-26.167 -16.666 -42.5 -21.999s-34.166 -8 -53.499 -8z" />
    <glyph glyph-name="abreve" unicode="&#x103;" horiz-adv-x="550" 
d="M57 390c0 21.333 4.49805 42.6689 13.498 64.002s22.5 40.666 40.5 57.999s40.667 31.333 68 42s59.333 16 96 16c70.667 0 124.667 -16.833 162 -50.5s56 -81.834 56 -144.501v-343c0 -9.33301 -3 -17 -9 -23s-13.667 -9 -23 -9h-54c-9.33301 0 -17.666 3 -24.999 9
s-11.666 13.333 -12.999 22l-3 20c-16.667 -17.333 -39.667 -31.833 -69 -43.5s-60.666 -17.5 -93.999 -17.5c-50.667 0 -90 14.333 -118 43s-42 66.667 -42 114c0 52 16.333 91.167 49 117.5s79.334 39.5 140.001 39.5c10.667 0 22 -0.5 34 -1.5s23.667 -2.16699 35 -3.5
s22.166 -3 32.499 -5s19.166 -4 26.499 -6v80c0 34 -6.83301 58.5 -20.5 73.5s-35.167 22.5 -64.5 22.5c-15.333 0 -28.333 -2.33301 -39 -7s-19.334 -10.667 -26.001 -18s-11.667 -15.5 -15 -24.5s-5 -18.167 -5 -27.5s-2.66699 -16.166 -8 -20.499
s-12.666 -6.5 -21.999 -6.5h-72c-8.66699 0 -16 2.66699 -22 8s-9 12.666 -9 21.999zM280.998 611.003c-19.333 0 -37.334 2.66602 -54.001 7.99902s-31 12.666 -43 21.999s-21.5 20.666 -28.5 33.999s-10.5 28 -10.5 44c0 14.667 6.66699 22 20 22h38
c12.667 0 22 -7.66699 28 -23c8.66699 -22 25.334 -33 50.001 -33c13.333 0 24 2.83301 32 8.5s14 13.834 18 24.501c6 15.333 15.333 23 28 23h38c13.333 0 20 -7.33301 20 -22c0 -16 -3.5 -30.667 -10.5 -44s-16.5 -24.666 -28.5 -33.999s-26.333 -16.666 -43 -21.999
s-34.667 -8 -54 -8zM247.997 90.002c24 0 45.5 4.83398 64.5 14.501s34.833 21.5 47.5 35.5v64c-16 5.33301 -32.833 9.33301 -50.5 12s-36.167 4 -55.5 4c-26 0 -45.333 -6 -58 -18s-19 -28.333 -19 -49s6.66699 -36.334 20 -47.001s30.333 -16 51 -16z" />
    <glyph glyph-name="Aogonek" unicode="&#x104;" horiz-adv-x="625" 
d="M26.083 0c-8 0 -14.333 3.16699 -19 9.5s-5.33398 13.166 -2.00098 20.499l227 640c3.33301 8.66699 8.83301 15.834 16.5 21.501s16.167 8.5 25.5 8.5h69c9.33301 0 18 -2.83301 26 -8.5s13.667 -12.834 17 -21.501l228 -640
c3.33301 -9.33301 4.16602 -17.166 2.49902 -23.499s-5.83398 -12.5 -12.501 -18.5c-24.667 -20.667 -37 -41.667 -37 -63c0 -9.33301 3.16699 -17 9.5 -23s15.833 -9 28.5 -9c2.66699 0 6.33398 0.333008 11.001 1s8.66699 1 12 1c6 0 11 -1.33301 15 -4s6 -7 6 -13v-12
c0 -7.33301 -2.66699 -12.833 -8 -16.5s-11.666 -6.83398 -18.999 -9.50098c-6 -1.33301 -13.5 -2.66602 -22.5 -3.99902s-16.833 -2 -23.5 -2c-28 0 -52.5 5.5 -73.5 16.5s-31.5 29.5 -31.5 55.5c0 18 6.5 35.833 19.5 53.5s28.167 31.167 45.5 40.5h-31
c-7.33301 -0 -14.333 2.33301 -21 7s-11 10.667 -13 18l-48 144h-231l-44 -138c-2.66699 -9.33301 -7.66699 -16.833 -15 -22.5s-15.666 -8.5 -24.999 -8.5h-82zM225.083 277h164l-83 260z" />
    <glyph glyph-name="aogonek" unicode="&#x105;" horiz-adv-x="550" 
d="M43 147c0 52 16.332 91.1719 48.999 117.505s79.334 39.5 140.001 39.5c10.667 0 22 -0.5 34 -1.5s23.667 -2.16699 35 -3.5s22.166 -3 32.499 -5s19.166 -4 26.499 -6v80c0 34 -6.83301 58.5 -20.5 73.5s-35.167 22.5 -64.5 22.5c-15.333 0 -28.333 -2.33301 -39 -7
s-19.334 -10.667 -26.001 -18s-11.667 -15.5 -15 -24.5s-5 -18.167 -5 -27.5s-2.66699 -16.166 -8 -20.499s-12.666 -6.5 -21.999 -6.5h-72c-8.66699 0 -16 2.66699 -22 8s-9 12.666 -9 21.999c0 21.333 4.5 42.666 13.5 63.999s22.5 40.666 40.5 57.999
s40.667 31.333 68 42s59.333 16 96 16c70.667 0 124.667 -16.833 162 -50.5s56 -81.834 56 -144.501v-345c0 -9.33301 -1.66699 -17.5 -5 -24.5s-8.66602 -14.167 -15.999 -21.5c-22 -18 -33 -37.667 -33 -59c0 -9.33301 3.16699 -17 9.5 -23s15.833 -9 28.5 -9
c2.66699 0 6.33398 0.333008 11.001 1s8.66699 1 12 1c6 0 11 -1.33301 15 -4s6 -7 6 -13v-12c0 -7.33301 -2.66699 -12.833 -8 -16.5s-11.666 -6.83398 -18.999 -9.50098c-6 -1.33301 -13.5 -2.66602 -22.5 -3.99902s-16.833 -2 -23.5 -2c-14 0 -27.333 1.33301 -40 4
s-23.834 7 -33.501 13s-17.334 13.667 -23.001 23s-8.5 20.666 -8.5 33.999c0 18 5.83301 35.167 17.5 51.5s27.167 30.166 46.5 41.499c-12.667 2 -22 6.83301 -28 14.5s-10.333 19.5 -13 35.5c-16.667 -17.333 -39.667 -31.833 -69 -43.5s-60.666 -17.5 -93.999 -17.5
c-50.667 0 -90 14.333 -118 43s-42 66.667 -42 114zM247.999 90.0049c24 0 45.5 4.83398 64.5 14.501s34.833 21.5 47.5 35.5v64c-16 5.33301 -32.833 9.33301 -50.5 12s-36.167 4 -55.5 4c-26 0 -45.333 -6 -58 -18s-19 -28.333 -19 -49s6.66699 -36.334 20 -47.001
s30.333 -16 51 -16z" />
    <glyph glyph-name="Cacute" unicode="&#x106;" horiz-adv-x="608" 
d="M306 714c36.667 0 70.5 -5.00195 101.5 -15.002s57.833 -24 80.5 -42s40.167 -39.167 52.5 -63.5s18.5 -50.833 18.5 -79.5v-25c0 -8.66699 -2.83301 -16 -8.5 -22s-13.167 -9 -22.5 -9h-78c-9.33301 0 -16.5 2.66699 -21.5 8s-7.5 12.666 -7.5 21.999v15
c0 29.333 -10.667 52.833 -32 70.5s-49 26.5 -83 26.5s-61.667 -10.667 -83 -32s-32 -52.666 -32 -93.999v-248c0 -41.333 10.667 -72.666 32 -93.999s49 -32 83 -32s61.667 9 83 27s32 42 32 72v21c0 9.33301 2.5 16.666 7.5 21.999s12.167 8 21.5 8h78
c9.33301 0 16.833 -3 22.5 -9s8.5 -13.333 8.5 -22v-32c0 -29.333 -6.16699 -56.166 -18.5 -80.499s-29.833 -45.5 -52.5 -63.5s-49.5 -32 -80.5 -42s-64.833 -15 -101.5 -15c-37.333 0 -71.5 5.33301 -102.5 16s-57.667 26 -80 46s-39.833 44 -52.5 72s-19 59.333 -19 94
v273c0 34.667 6.33301 66 19 94s30.167 51.833 52.5 71.5s49 34.834 80 45.501s65.167 16 102.5 16zM271 754.998c-7.33301 0 -12.3311 3 -14.998 9s-2.33398 11.667 0.999023 17l54 78c5.33301 8 12.666 14.333 21.999 19s18.666 7 27.999 7h80
c6 0 10.167 -2.66699 12.5 -8s1.5 -10.333 -2.5 -15l-76 -84c-7.33301 -7.33301 -15.666 -13 -24.999 -17s-19 -6 -29 -6h-50z" />
    <glyph glyph-name="cacute" unicode="&#x107;" horiz-adv-x="556" 
d="M53 359c0 66 20.334 117.501 61.001 154.501s96.334 55.5 167.001 55.5c35.333 0 67 -4.5 95 -13.5s51.5 -21.833 70.5 -38.5s33.5 -36.334 43.5 -59.001s15 -48 15 -76c0 -8.66699 -2.83301 -16 -8.5 -22s-12.834 -9 -21.501 -9h-72c-20 0 -30 10.333 -30 31
c0 23.333 -7.33301 42.666 -22 57.999s-38 23 -70 23c-30.667 0 -54.167 -9.83301 -70.5 -29.5s-24.5 -48.5 -24.5 -86.5v-134c0 -38 8.16699 -66.833 24.5 -86.5s39.833 -29.5 70.5 -29.5c32 0 55.333 7.83301 70 23.5s22 34.834 22 57.501c0 20.667 10 31 30 31h71
c9.33301 0 16.833 -2.83301 22.5 -8.5s8.5 -13.167 8.5 -22.5c0 -26.667 -5 -51.5 -15 -74.5s-24.5 -42.833 -43.5 -59.5s-42.5 -29.667 -70.5 -39s-59.667 -14 -95 -14c-70.667 0 -126.334 18.5 -167.001 55.5s-61 88.5 -61 154.5v158zM247.001 616.001
c-6.66699 0 -11.4971 3 -14.4971 9s-2.5 11.667 1.5 17l53 78c5.33301 8 12.666 14.333 21.999 19s18.666 7 27.999 7h80c6 0 10.167 -2.66699 12.5 -8s1.5 -10.333 -2.5 -15l-76 -84c-6.66699 -7.33301 -14.834 -13 -24.501 -17s-19.167 -6 -28.5 -6h-51z" />
    <glyph glyph-name="Ccircumflex" unicode="&#x108;" horiz-adv-x="608" 
d="M191 756c-6.66699 0 -11.165 2.83301 -13.498 8.5s-1.83301 11.167 1.5 16.5l61 80c6 7.33301 13.667 13.333 23 18s18.666 7 27.999 7h43c10 0 19.667 -2.33301 29 -7s17 -10.667 23 -18l61 -80c4 -5.33301 4.66699 -10.833 2 -16.5s-7.33398 -8.5 -14.001 -8.5h-47
c-9.33301 0 -18.5 2.33301 -27.5 7s-16.167 11.334 -21.5 20.001l-26 41l-25 -41c-5.33301 -8.66699 -12.5 -15.334 -21.5 -20.001s-18.167 -7 -27.5 -7h-48zM559.002 187c0 -29.333 -6.16699 -56.168 -18.5 -80.501s-29.833 -45.5 -52.5 -63.5s-49.5 -32 -80.5 -42
s-64.833 -15 -101.5 -15c-37.333 0 -71.5 5.33301 -102.5 16s-57.667 26 -80 46s-39.833 44 -52.5 72s-19 59.333 -19 94v273c0 34.667 6.33301 66 19 94s30.167 51.833 52.5 71.5s49 34.834 80 45.501s65.167 16 102.5 16c36.667 0 70.5 -5 101.5 -15s57.833 -24 80.5 -42
s40.167 -39.167 52.5 -63.5s18.5 -50.833 18.5 -79.5v-25c0 -8.66699 -2.83301 -16 -8.5 -22s-13.167 -9 -22.5 -9h-78c-9.33301 0 -16.5 2.66699 -21.5 8s-7.5 12.666 -7.5 21.999v15c0 29.333 -10.667 52.833 -32 70.5s-49 26.5 -83 26.5s-61.667 -10.667 -83 -32
s-32 -52.666 -32 -93.999v-248c0 -41.333 10.667 -72.666 32 -93.999s49 -32 83 -32s61.667 9 83 27s32 42 32 72v21c0 9.33301 2.5 16.666 7.5 21.999s12.167 8 21.5 8h78c9.33301 0 16.833 -3 22.5 -9s8.5 -13.333 8.5 -22v-32z" />
    <glyph glyph-name="ccircumflex" unicode="&#x109;" horiz-adv-x="556" 
d="M53 359c0 66 20.334 117.501 61.001 154.501s96.334 55.5 167.001 55.5c35.333 0 67 -4.5 95 -13.5s51.5 -21.833 70.5 -38.5s33.5 -36.334 43.5 -59.001s15 -48 15 -76c0 -8.66699 -2.83301 -16 -8.5 -22s-12.834 -9 -21.501 -9h-72c-20 0 -30 10.333 -30 31
c0 23.333 -7.33301 42.666 -22 57.999s-38 23 -70 23c-30.667 0 -54.167 -9.83301 -70.5 -29.5s-24.5 -48.5 -24.5 -86.5v-134c0 -38 8.16699 -66.833 24.5 -86.5s39.833 -29.5 70.5 -29.5c32 0 55.333 7.83301 70 23.5s22 34.834 22 57.501c0 20.667 10 31 30 31h71
c9.33301 0 16.833 -2.83301 22.5 -8.5s8.5 -13.167 8.5 -22.5c0 -26.667 -5 -51.5 -15 -74.5s-24.5 -42.833 -43.5 -59.5s-42.5 -29.667 -70.5 -39s-59.667 -14 -95 -14c-70.667 0 -126.334 18.5 -167.001 55.5s-61 88.5 -61 154.5v158zM162.001 616.001
c-6.66699 0 -11.3291 2.83301 -13.9961 8.5s-2.33398 11.167 0.999023 16.5l61 80c6 7.33301 13.667 13.333 23 18s18.666 7 27.999 7h44c9.33301 0 18.666 -2.33301 27.999 -7s17 -10.667 23 -18l61 -80c4 -5.33301 4.66699 -10.833 2 -16.5s-7.33398 -8.5 -14.001 -8.5
h-47c-9.33301 0 -18.5 2.33301 -27.5 7s-16.167 11.334 -21.5 20.001l-26 41l-25 -41c-5.33301 -8.66699 -12.333 -15.334 -21 -20.001s-18 -7 -28 -7h-47z" />
    <glyph glyph-name="Cdotaccent" unicode="&#x10a;" horiz-adv-x="608" 
d="M306 714c36.667 0 70.5 -5.00195 101.5 -15.002s57.833 -24 80.5 -42s40.167 -39.167 52.5 -63.5s18.5 -50.833 18.5 -79.5v-25c0 -8.66699 -2.83301 -16 -8.5 -22s-13.167 -9 -22.5 -9h-78c-9.33301 0 -16.5 2.66699 -21.5 8s-7.5 12.666 -7.5 21.999v15
c0 29.333 -10.667 52.833 -32 70.5s-49 26.5 -83 26.5s-61.667 -10.667 -83 -32s-32 -52.666 -32 -93.999v-248c0 -41.333 10.667 -72.666 32 -93.999s49 -32 83 -32s61.667 9 83 27s32 42 32 72v21c0 9.33301 2.5 16.666 7.5 21.999s12.167 8 21.5 8h78
c9.33301 0 16.833 -3 22.5 -9s8.5 -13.333 8.5 -22v-32c0 -29.333 -6.16699 -56.166 -18.5 -80.499s-29.833 -45.5 -52.5 -63.5s-49.5 -32 -80.5 -42s-64.833 -15 -101.5 -15c-37.333 0 -71.5 5.33301 -102.5 16s-57.667 26 -80 46s-39.833 44 -52.5 72s-19 59.333 -19 94
v273c0 34.667 6.33301 66 19 94s30.167 51.833 52.5 71.5s49 34.834 80 45.501s65.167 16 102.5 16zM389 822.998c0 -24 -7 -41.667 -21 -53s-32.667 -17 -56 -17c-22.667 0 -41 5.66699 -55 17s-21 29 -21 53c0 25.333 7 44 21 56s32.333 18 55 18c23.333 0 42 -6 56 -18
s21 -30.667 21 -56z" />
    <glyph glyph-name="cdotaccent" unicode="&#x10b;" horiz-adv-x="556" 
d="M53 359c0 66 20.334 117.501 61.001 154.501s96.334 55.5 167.001 55.5c35.333 0 67 -4.5 95 -13.5s51.5 -21.833 70.5 -38.5s33.5 -36.334 43.5 -59.001s15 -48 15 -76c0 -8.66699 -2.83301 -16 -8.5 -22s-12.834 -9 -21.501 -9h-72c-20 0 -30 10.333 -30 31
c0 23.333 -7.33301 42.666 -22 57.999s-38 23 -70 23c-30.667 0 -54.167 -9.83301 -70.5 -29.5s-24.5 -48.5 -24.5 -86.5v-134c0 -38 8.16699 -66.833 24.5 -86.5s39.833 -29.5 70.5 -29.5c32 0 55.333 7.83301 70 23.5s22 34.834 22 57.501c0 20.667 10 31 30 31h71
c9.33301 0 16.833 -2.83301 22.5 -8.5s8.5 -13.167 8.5 -22.5c0 -26.667 -5 -51.5 -15 -74.5s-24.5 -42.833 -43.5 -59.5s-42.5 -29.667 -70.5 -39s-59.667 -14 -95 -14c-70.667 0 -126.334 18.5 -167.001 55.5s-61 88.5 -61 154.5v158zM361.001 682.001
c0 -24 -7 -41.833 -21 -53.5s-32.667 -17.5 -56 -17.5c-22.667 0 -41 5.83301 -55 17.5s-21 29.5 -21 53.5c0 25.333 7 43.833 21 55.5s32.333 17.5 55 17.5c23.333 0 42 -5.83301 56 -17.5s21 -30.167 21 -55.5z" />
    <glyph glyph-name="Ccaron" unicode="&#x10c;" horiz-adv-x="608" 
d="M559 187c0 -29.333 -6.16699 -56.168 -18.5 -80.501s-29.833 -45.5 -52.5 -63.5s-49.5 -32 -80.5 -42s-64.833 -15 -101.5 -15c-37.333 0 -71.5 5.33301 -102.5 16s-57.667 26 -80 46s-39.833 44 -52.5 72s-19 59.333 -19 94v273c0 34.667 6.33301 66 19 94
s30.167 51.833 52.5 71.5s49 34.834 80 45.501s65.167 16 102.5 16c36.667 0 70.5 -5 101.5 -15s57.833 -24 80.5 -42s40.167 -39.167 52.5 -63.5s18.5 -50.833 18.5 -79.5v-25c0 -8.66699 -2.83301 -16 -8.5 -22s-13.167 -9 -22.5 -9h-78c-9.33301 0 -16.5 2.66699 -21.5 8
s-7.5 12.666 -7.5 21.999v15c0 29.333 -10.667 52.833 -32 70.5s-49 26.5 -83 26.5s-61.667 -10.667 -83 -32s-32 -52.666 -32 -93.999v-248c0 -41.333 10.667 -72.666 32 -93.999s49 -32 83 -32s61.667 9 83 27s32 42 32 72v21c0 9.33301 2.5 16.666 7.5 21.999
s12.167 8 21.5 8h78c9.33301 0 16.833 -3 22.5 -9s8.5 -13.333 8.5 -22v-32zM285 754.998c-10 0 -19.6709 2.33301 -29.0039 7s-17 10.667 -23 18l-60 80c-4 5.33301 -4.66699 10.833 -2 16.5s7.33398 8.5 14.001 8.5h48c9.33301 0 18.5 -2.33301 27.5 -7
s16.167 -11.334 21.5 -20.001l24 -41l26 41c5.33301 8.66699 12.5 15.334 21.5 20.001s18.167 7 27.5 7h47c6.66699 0 11.334 -2.83301 14.001 -8.5s2.33398 -11.167 -0.999023 -16.5l-62 -80c-6 -7.33301 -13.667 -13.333 -23 -18s-18.666 -7 -27.999 -7h-43z" />
    <glyph glyph-name="ccaron" unicode="&#x10d;" horiz-adv-x="556" 
d="M53 359c0 66 20.334 117.501 61.001 154.501s96.334 55.5 167.001 55.5c35.333 0 67 -4.5 95 -13.5s51.5 -21.833 70.5 -38.5s33.5 -36.334 43.5 -59.001s15 -48 15 -76c0 -8.66699 -2.83301 -16 -8.5 -22s-12.834 -9 -21.501 -9h-72c-20 0 -30 10.333 -30 31
c0 23.333 -7.33301 42.666 -22 57.999s-38 23 -70 23c-30.667 0 -54.167 -9.83301 -70.5 -29.5s-24.5 -48.5 -24.5 -86.5v-134c0 -38 8.16699 -66.833 24.5 -86.5s39.833 -29.5 70.5 -29.5c32 0 55.333 7.83301 70 23.5s22 34.834 22 57.501c0 20.667 10 31 30 31h71
c9.33301 0 16.833 -2.83301 22.5 -8.5s8.5 -13.167 8.5 -22.5c0 -26.667 -5 -51.5 -15 -74.5s-24.5 -42.833 -43.5 -59.5s-42.5 -29.667 -70.5 -39s-59.667 -14 -95 -14c-70.667 0 -126.334 18.5 -167.001 55.5s-61 88.5 -61 154.5v158zM263.001 616.001
c-9.33301 0 -18.6699 2.33301 -28.0029 7s-17 10.667 -23 18l-61 80c-4 5.33301 -4.66699 10.833 -2 16.5s7.33398 8.5 14.001 8.5h48c9.33301 0 18.5 -2.33301 27.5 -7s16.167 -11.334 21.5 -20.001l25 -41l26 41c5.33301 8.66699 12.333 15.334 21 20.001s17.667 7 27 7
h48c6.66699 0 11.334 -2.83301 14.001 -8.5s2 -11.167 -2 -16.5l-62 -80c-6 -7.33301 -13.667 -13.333 -23 -18s-18.666 -7 -27.999 -7h-43z" />
    <glyph glyph-name="Dcaron" unicode="&#x10e;" horiz-adv-x="618" 
d="M88 0c-9.33301 0 -17 3.00195 -23 9.00195s-9 13.667 -9 23v636c0 9.33301 3 17 9 23s13.667 9 23 9h237c37.333 0 70.833 -5.33301 100.5 -16s55 -25.834 76 -45.501s37 -43.5 48 -71.5s16.5 -59.333 16.5 -94v-246c0 -34.667 -5.5 -66 -16.5 -94s-27 -51.833 -48 -71.5
s-46.333 -34.834 -76 -45.501s-63.167 -16 -100.5 -16h-237zM195 113.002l130 0.000976562c33.333 0 58.666 10.667 75.999 32s26 52.666 26 93.999v222c0 41.333 -8.66699 72.5 -26 93.5s-42.666 31.5 -75.999 31.5h-130v-473zM274 756.003
c-9.33301 0 -18.6709 2.33301 -28.0039 7s-17 10.667 -23 18l-61 80c-3.33301 5.33301 -3.66602 10.833 -0.999023 16.5s7.33398 8.5 14.001 8.5h48c9.33301 0 18.333 -2.33301 27 -7s15.667 -11.334 21 -20.001l25 -41l26 41c5.33301 8.66699 12.5 15.334 21.5 20.001
s18.167 7 27.5 7h47c6.66699 0 11.334 -2.83301 14.001 -8.5s2 -11.167 -2 -16.5l-61 -80c-6 -7.33301 -13.667 -13.333 -23 -18s-18.666 -7 -27.999 -7h-44z" />
    <glyph glyph-name="dcaron" unicode="&#x10f;" horiz-adv-x="577" 
d="M238 -10c-65.333 0 -112 17.165 -140 51.498s-42 84.5 -42 150.5v176c0 66 14 116.167 42 150.5s74.667 51.5 140 51.5c26 0 51 -5.16699 75 -15.5s43.333 -23.166 58 -38.499v202c0 9.33301 3.16699 17 9.5 23s13.833 9 22.5 9h70c8.66699 0 16 -3 22 -9
s9 -13.667 9 -23v-686c0 -9.33301 -3 -17 -9 -23s-13.333 -9 -22 -9h-53c-9.33301 0 -17.5 3 -24.5 9s-11.167 13.333 -12.5 22l-3 22c-16 -17.333 -36.5 -32.166 -61.5 -44.499s-51.833 -18.5 -80.5 -18.5zM268 459.998c-29.333 0 -49.8301 -8 -61.4971 -24
s-17.5 -42 -17.5 -78v-156c0 -36 5.83301 -62 17.5 -78s32.167 -24 61.5 -24c19.333 0 38.166 5.16699 56.499 15.5s33.833 22.833 46.5 37.5v254c-12.667 14.667 -28.334 27.167 -47.001 37.5s-37.334 15.5 -56.001 15.5zM684.003 726.998
c0 -16.667 -3.66797 -33.165 -11.001 -49.498s-16.666 -30.833 -27.999 -43.5s-24.166 -22.834 -38.499 -30.501s-28.5 -11.5 -42.5 -11.5s-21 5.33301 -21 16v7c0 5.33301 1.66699 10 5 14s7.66602 8.66699 12.999 14s9.33301 10.666 12 15.999s4 12 4 20
c-7.33301 4 -13.5 10.167 -18.5 18.5s-7.5 18.166 -7.5 29.499c0 18.667 6 32.834 18 42.501s28.667 14.5 50 14.5c43.333 0 65 -19 65 -57z" />
    <glyph glyph-name="Dcroat" unicode="&#x110;" horiz-adv-x="619" 
d="M88 0c-9.33301 0 -17 3.00195 -23 9.00195s-9 13.667 -9 23v253h-17c-9.33301 0 -17 3.16699 -23 9.5s-9 13.833 -9 22.5v42c0 8.66699 3 16.167 9 22.5s13.667 9.5 23 9.5h17v277c0 9.33301 3 17 9 23s13.667 9 23 9h237c37.333 0 70.833 -5.33301 100.5 -16
s55 -25.834 76 -45.501s37.167 -43.5 48.5 -71.5s17 -59.333 17 -94v-246c0 -34.667 -5.66699 -66 -17 -94s-27.5 -51.833 -48.5 -71.5s-46.333 -34.834 -76 -45.501s-63.167 -16 -100.5 -16h-237zM195 113.002l130 0.000976562c33.333 0 58.833 10.667 76.5 32
s26.5 52.666 26.5 93.999v222c0 41.333 -8.83301 72.5 -26.5 93.5s-43.167 31.5 -76.5 31.5h-130v-195h103c8.66699 0 16.167 -3.16699 22.5 -9.5s9.5 -13.833 9.5 -22.5v-42c0 -8.66699 -3.16699 -16.167 -9.5 -22.5s-13.833 -9.5 -22.5 -9.5h-103v-172z" />
    <glyph glyph-name="dcroat" unicode="&#x111;" horiz-adv-x="564" 
d="M238 -10c-65.333 0 -112 17.165 -140 51.498s-42 84.5 -42 150.5v176c0 66 14 116.167 42 150.5s74.667 51.5 140 51.5c26 0 51 -5.16699 75 -15.5s43.333 -23.166 58 -38.499v107h-49c-8.66699 0 -16 3 -22 9s-9 13.667 -9 23v19c0 8.66699 3 16.167 9 22.5
s13.333 9.5 22 9.5h49v12c0 9.33301 3.16699 17 9.5 23s13.833 9 22.5 9h70c8.66699 0 16 -3 22 -9s9 -13.667 9 -23v-12h17c8.66699 0 16.167 -3.16699 22.5 -9.5s9.5 -13.833 9.5 -22.5v-19c0 -9.33301 -3.16699 -17 -9.5 -23s-13.833 -9 -22.5 -9h-17v-591
c0 -9.33301 -3 -17 -9 -23s-13.333 -9 -22 -9h-53c-9.33301 0 -17.5 3 -24.5 9s-11.167 13.333 -12.5 22l-3 22c-16 -17.333 -36.5 -32.166 -61.5 -44.499s-51.833 -18.5 -80.5 -18.5zM268 459.998c-29.333 0 -49.8301 -8 -61.4971 -24s-17.5 -42 -17.5 -78v-156
c0 -36 5.83301 -62 17.5 -78s32.167 -24 61.5 -24c19.333 0 38.166 5.16699 56.499 15.5s33.833 22.833 46.5 37.5v254c-12.667 14.667 -28.334 27.167 -47.001 37.5s-37.334 15.5 -56.001 15.5z" />
    <glyph glyph-name="Emacron" unicode="&#x112;" horiz-adv-x="530" 
d="M88 0c-9.33301 0 -17 3 -23 9s-9 13.667 -9 23v636c0 9.33301 3 17 9 23s13.667 9 23 9h372c8.66699 0 16 -3 22 -9s9 -13.667 9 -23v-51c0 -8.66699 -3 -16 -9 -22s-13.333 -9 -22 -9h-265v-189h215c8.66699 0 16 -3 22 -9s9 -13.667 9 -23v-49
c0 -8.66699 -3 -16.167 -9 -22.5s-13.333 -9.5 -22 -9.5h-215v-171h272c9.33301 0 17 -3 23 -9s9 -13.333 9 -22v-50c0 -9.33301 -3 -17 -9 -23s-13.667 -9 -23 -9h-379zM149 759c-8.66699 0 -16 3.16699 -22 9.5s-9 13.833 -9 22.5v46c0 9.33301 3 17 9 23s13.333 9 22 9
h254c8.66699 0 16 -3 22 -9s9 -13.667 9 -23v-46c0 -8.66699 -3 -16.167 -9 -22.5s-13.333 -9.5 -22 -9.5h-254z" />
    <glyph glyph-name="emacron" unicode="&#x113;" horiz-adv-x="559" 
d="M160 619c-9.33301 0 -17 3.16699 -23 9.5s-9 13.833 -9 22.5v46c0 9.33301 3 17 9 23s13.667 9 23 9h253c9.33301 0 17 -3 23 -9s9 -13.667 9 -23v-46c0 -8.66699 -3 -16.167 -9 -22.5s-13.667 -9.5 -23 -9.5h-253zM53 359c0 66 20.335 117.666 61.002 154.999
s96.334 56 167.001 56c70 0 125.167 -18.667 165.5 -56s60.5 -89 60.5 -155v-72c0 -8.66699 -3 -16 -9 -22s-13.333 -9 -22 -9h-290v-51c0 -38 8.16699 -65.833 24.5 -83.5s39.833 -26.5 70.5 -26.5c16.667 0 30.834 2.33301 42.501 7s21 10.5 28 17.5
s12.167 14.5 15.5 22.5s5 15.667 5 23c0 18 9.66699 27 29 27h75c8.66699 0 15.5 -2.66699 20.5 -8s7.5 -12.666 7.5 -21.999c0 -19.333 -4.83301 -39 -14.5 -59s-23.834 -38.5 -42.501 -55.5s-41.834 -30.833 -69.501 -41.5s-59.834 -16 -96.501 -16
c-70.667 0 -126.334 18.667 -167.001 56s-61 89 -61 155v158zM281.002 464.999c-30.667 0 -54.333 -9.16699 -71 -27.5s-25 -46.5 -25 -84.5v-14l190 3v13c0 73.333 -31.333 110 -94 110z" />
    <glyph glyph-name="Ebreve" unicode="&#x114;" horiz-adv-x="530" 
d="M88 0c-9.33301 0 -17 3 -23 9s-9 13.667 -9 23v636c0 9.33301 3 17 9 23s13.667 9 23 9h372c8.66699 0 16 -3 22 -9s9 -13.667 9 -23v-51c0 -8.66699 -3 -16 -9 -22s-13.333 -9 -22 -9h-265v-189h215c8.66699 0 16 -3 22 -9s9 -13.667 9 -23v-49
c0 -8.66699 -3 -16.167 -9 -22.5s-13.333 -9.5 -22 -9.5h-215v-171h272c9.33301 0 17 -3 23 -9s9 -13.333 9 -22v-50c0 -9.33301 -3 -17 -9 -23s-13.667 -9 -23 -9h-379zM277 752c-19.333 0 -37.333 2.66699 -54 8s-31.167 12.666 -43.5 21.999s-22 20.666 -29 33.999
s-10.5 28 -10.5 44c0 14.667 6.66699 22 20 22h39c11.333 0 20.666 -7.66699 27.999 -23c7.33301 -22.667 24 -34 50 -34c13.333 0 23.833 3 31.5 9s13.5 14.333 17.5 25c6 15.333 15.333 23 28 23h39c12.667 0 19 -7.33301 19 -22c0 -16 -3.5 -30.667 -10.5 -44
s-16.5 -24.666 -28.5 -33.999s-26.167 -16.666 -42.5 -21.999s-34.166 -8 -53.499 -8z" />
    <glyph glyph-name="ebreve" unicode="&#x115;" horiz-adv-x="559" 
d="M283 611c-19.333 0 -37.333 2.66699 -54 8s-31 12.666 -43 21.999s-21.5 20.666 -28.5 33.999s-10.5 28 -10.5 44c0 14.667 6.33301 22 19 22h39c12.667 0 22 -7.66699 28 -23c8.66699 -22 25.334 -33 50.001 -33c25.333 0 41.666 11 48.999 33
c7.33301 15.333 16.666 23 27.999 23h39c12.667 0 19 -7.33301 19 -22c0 -16 -3.5 -30.667 -10.5 -44s-16.5 -24.666 -28.5 -33.999s-26.167 -16.666 -42.5 -21.999s-34.166 -8 -53.499 -8zM53 359c0 66 20.335 117.666 61.002 154.999s96.334 56 167.001 56
c70 0 125.167 -18.667 165.5 -56s60.5 -89 60.5 -155v-72c0 -8.66699 -3 -16 -9 -22s-13.333 -9 -22 -9h-290v-51c0 -38 8.16699 -65.833 24.5 -83.5s39.833 -26.5 70.5 -26.5c16.667 0 30.834 2.33301 42.501 7s21 10.5 28 17.5s12.167 14.5 15.5 22.5s5 15.667 5 23
c0 18 9.66699 27 29 27h75c8.66699 0 15.5 -2.66699 20.5 -8s7.5 -12.666 7.5 -21.999c0 -19.333 -4.83301 -39 -14.5 -59s-23.834 -38.5 -42.501 -55.5s-41.834 -30.833 -69.501 -41.5s-59.834 -16 -96.501 -16c-70.667 0 -126.334 18.667 -167.001 56s-61 89 -61 155v158z
M281.002 464.999c-30.667 0 -54.333 -9.16699 -71 -27.5s-25 -46.5 -25 -84.5v-14l190 3v13c0 73.333 -31.333 110 -94 110z" />
    <glyph glyph-name="Edotaccent" unicode="&#x116;" horiz-adv-x="530" 
d="M88 0c-9.33301 0 -17 3 -23 9s-9 13.667 -9 23v636c0 9.33301 3 17 9 23s13.667 9 23 9h372c8.66699 0 16 -3 22 -9s9 -13.667 9 -23v-51c0 -8.66699 -3 -16 -9 -22s-13.333 -9 -22 -9h-265v-189h215c8.66699 0 16 -3 22 -9s9 -13.667 9 -23v-49
c0 -8.66699 -3 -16.167 -9 -22.5s-13.333 -9.5 -22 -9.5h-215v-171h272c9.33301 0 17 -3 23 -9s9 -13.333 9 -22v-50c0 -9.33301 -3 -17 -9 -23s-13.667 -9 -23 -9h-379zM349 822c0 -24 -7 -41.833 -21 -53.5s-32.667 -17.5 -56 -17.5c-22.667 0 -41 5.83301 -55 17.5
s-21 29.5 -21 53.5c0 25.333 7 43.833 21 55.5s32.333 17.5 55 17.5c23.333 0 42 -5.83301 56 -17.5s21 -30.167 21 -55.5z" />
    <glyph glyph-name="edotaccent" unicode="&#x117;" horiz-adv-x="559" 
d="M367 682c0 -24 -7 -41.833 -21 -53.5s-32.667 -17.5 -56 -17.5c-22.667 0 -41 5.83301 -55 17.5s-21 29.5 -21 53.5c0 25.333 7 43.833 21 55.5s32.333 17.5 55 17.5c23.333 0 42 -5.83301 56 -17.5s21 -30.167 21 -55.5zM53 359c0 66 20.335 117.666 61.002 154.999
s96.334 56 167.001 56c70 0 125.167 -18.667 165.5 -56s60.5 -89 60.5 -155v-72c0 -8.66699 -3 -16 -9 -22s-13.333 -9 -22 -9h-290v-51c0 -38 8.16699 -65.833 24.5 -83.5s39.833 -26.5 70.5 -26.5c16.667 0 30.834 2.33301 42.501 7s21 10.5 28 17.5
s12.167 14.5 15.5 22.5s5 15.667 5 23c0 18 9.66699 27 29 27h75c8.66699 0 15.5 -2.66699 20.5 -8s7.5 -12.666 7.5 -21.999c0 -19.333 -4.83301 -39 -14.5 -59s-23.834 -38.5 -42.501 -55.5s-41.834 -30.833 -69.501 -41.5s-59.834 -16 -96.501 -16
c-70.667 0 -126.334 18.667 -167.001 56s-61 89 -61 155v158zM281.002 464.999c-30.667 0 -54.333 -9.16699 -71 -27.5s-25 -46.5 -25 -84.5v-14l190 3v13c0 73.333 -31.333 110 -94 110z" />
    <glyph glyph-name="Eogonek" unicode="&#x118;" horiz-adv-x="530" 
d="M345 -92c0 19.333 6.16895 37.167 18.502 53.5s27.833 29.166 46.5 38.499h-322c-9.33301 0 -17 3 -23 9s-9 13.667 -9 23v636c0 9.33301 3 17 9 23s13.667 9 23 9h372c8.66699 0 16 -3 22 -9s9 -13.667 9 -23v-51c0 -8.66699 -3 -16 -9 -22s-13.333 -9 -22 -9h-265v-189
h215c8.66699 0 16 -3 22 -9s9 -13.667 9 -23v-49c0 -8.66699 -3 -16.167 -9 -22.5s-13.333 -9.5 -22 -9.5h-215v-171h272c9.33301 0 17 -3 23 -9s9 -13.333 9 -22v-53c0 -15.333 -6.33301 -28.333 -19 -39c-11.333 -9.33301 -20.666 -19.666 -27.999 -30.999
s-11 -22.666 -11 -33.999c0 -9.33301 3.33301 -17 10 -23s16 -9 28 -9c3.33301 0 7.33301 0.333008 12 1s8.66699 1 12 1c13.333 0 20 -5.66699 20 -17v-12c0 -7.33301 -2.5 -12.833 -7.5 -16.5s-11.167 -6.83398 -18.5 -9.50098
c-6.66699 -1.33301 -14.334 -2.66602 -23.001 -3.99902s-16.334 -2 -23.001 -2c-14 0 -27.5 1.33301 -40.5 4s-24.333 7 -34 13s-17.334 13.667 -23.001 23s-8.5 20.666 -8.5 33.999z" />
    <glyph glyph-name="eogonek" unicode="&#x119;" horiz-adv-x="559" 
d="M53 359c0 66 20.3311 117.668 60.998 155.001s96.334 56 167.001 56c70 0 125.167 -18.667 165.5 -56s60.5 -89 60.5 -155v-72c0 -8.66699 -3 -16 -9 -22s-13.333 -9 -22 -9h-290v-51c0 -38 8.16699 -65.833 24.5 -83.5s39.833 -26.5 70.5 -26.5
c16.667 0 30.834 2.33301 42.501 7s21 10.5 28 17.5s12.167 14.5 15.5 22.5s5 15.667 5 23c0 18 9.66699 27 29 27h75c8.66699 0 15.5 -2.66699 20.5 -8s7.5 -12.666 7.5 -21.999c0 -16.667 -3.66699 -34 -11 -52s-18.166 -35 -32.499 -51s-32.5 -29.833 -54.5 -41.5
s-47.667 -19.5 -77 -23.5c-14.667 -11.333 -25.5 -22.833 -32.5 -34.5s-10.5 -23.167 -10.5 -34.5c0 -9.33301 3.33301 -17 10 -23s16 -9 28 -9c3.33301 0 7.33301 0.333008 12 1s8.33398 1 11.001 1c6 0 11 -1.33301 15 -4s6 -7 6 -13v-12
c0 -7.33301 -2.5 -12.833 -7.5 -16.5s-11.167 -6.83398 -18.5 -9.50098c-6.66699 -1.33301 -14.5 -2.5 -23.5 -3.5s-16.833 -1.5 -23.5 -1.5c-14 0 -27.333 1.33301 -40 4s-23.834 6.83398 -33.501 12.501s-17.334 13.167 -23.001 22.5s-8.5 20.666 -8.5 33.999
c0 17.333 4.66699 33.333 14 48s21.333 27 36 37c-58.667 6.66699 -104.5 28.167 -137.5 64.5s-49.5 84.166 -49.5 143.499v158zM280.998 465.001c-30.667 0 -54.333 -9.16699 -71 -27.5s-25 -46.5 -25 -84.5v-14l190 3v13c0 73.333 -31.333 110 -94 110z" />
    <glyph glyph-name="Ecaron" unicode="&#x11a;" horiz-adv-x="530" 
d="M88 0c-9.33301 0 -17 3 -23 9s-9 13.667 -9 23v636c0 9.33301 3 17 9 23s13.667 9 23 9h372c8.66699 0 16 -3 22 -9s9 -13.667 9 -23v-51c0 -8.66699 -3 -16 -9 -22s-13.333 -9 -22 -9h-265v-189h215c8.66699 0 16 -3 22 -9s9 -13.667 9 -23v-49
c0 -8.66699 -3 -16.167 -9 -22.5s-13.333 -9.5 -22 -9.5h-215v-171h272c9.33301 0 17 -3 23 -9s9 -13.333 9 -22v-50c0 -9.33301 -3 -17 -9 -23s-13.667 -9 -23 -9h-379zM253 756c-9.33301 0 -18.6709 2.33301 -28.0039 7s-17 10.667 -23 18l-61 80
c-3.33301 5.33301 -3.66602 10.833 -0.999023 16.5s7.33398 8.5 14.001 8.5h48c9.33301 0 18.333 -2.33301 27 -7s15.667 -11.334 21 -20.001l25 -41l26 41c5.33301 8.66699 12.5 15.334 21.5 20.001s18.167 7 27.5 7h47c6.66699 0 11.334 -2.83301 14.001 -8.5
s2 -11.167 -2 -16.5l-61 -80c-6 -7.33301 -13.667 -13.333 -23 -18s-18.666 -7 -27.999 -7h-44z" />
    <glyph glyph-name="ecaron" unicode="&#x11b;" horiz-adv-x="559" 
d="M262 616c-9.33301 0 -18.6689 2.33398 -28.002 7.00098s-17 10.667 -23 18l-61 80c-4 5.33301 -4.66699 10.833 -2 16.5s7.33398 8.5 14.001 8.5h48c9.33301 0 18.5 -2.33301 27.5 -7s16.167 -11.334 21.5 -20.001l25 -41l25 41c12.667 18 29 27 49 27h48
c6 0 10.5 -2.83301 13.5 -8.5s2.5 -11.167 -1.5 -16.5l-62 -80c-6 -7.33301 -13.667 -13.333 -23 -18s-18.666 -7 -27.999 -7h-43zM52.9971 359.001c0 66 20.335 117.666 61.002 154.999s96.334 56 167.001 56c70 0 125.167 -18.667 165.5 -56s60.5 -89 60.5 -155v-72
c0 -8.66699 -3 -16 -9 -22s-13.333 -9 -22 -9h-290v-51c0 -38 8.16699 -65.833 24.5 -83.5s39.833 -26.5 70.5 -26.5c16.667 0 30.834 2.33301 42.501 7s21 10.5 28 17.5s12.167 14.5 15.5 22.5s5 15.667 5 23c0 18 9.66699 27 29 27h75c8.66699 0 15.5 -2.66699 20.5 -8
s7.5 -12.666 7.5 -21.999c0 -19.333 -4.83301 -39 -14.5 -59s-23.834 -38.5 -42.501 -55.5s-41.834 -30.833 -69.501 -41.5s-59.834 -16 -96.501 -16c-70.667 0 -126.334 18.667 -167.001 56s-61 89 -61 155v158zM280.999 465c-30.667 0 -54.333 -9.16699 -71 -27.5
s-25 -46.5 -25 -84.5v-14l190 3v13c0 73.333 -31.333 110 -94 110z" />
    <glyph glyph-name="Gcircumflex" unicode="&#x11c;" horiz-adv-x="620" 
d="M309 714c37.333 0 71.833 -4.67285 103.5 -14.0059s59 -22.666 82 -39.999s41 -38.166 54 -62.499s19.5 -51.5 19.5 -81.5v-19c0 -8.66699 -2.83301 -16 -8.5 -22s-13.167 -9 -22.5 -9h-78c-8.66699 0 -15.667 2.66699 -21 8s-8 12.666 -8 21.999v11
c0 28.667 -11 51.334 -33 68.001s-51.333 25 -88 25c-34.667 0 -63 -10.667 -85 -32s-33 -52.666 -33 -93.999v-248c0 -41.333 10.5 -72.666 31.5 -93.999s50.833 -32 89.5 -32c24 0 46 4.66699 66 14s36.667 22 50 38v99h-105c-9.33301 0 -17 3 -23 9s-9 13.667 -9 23v48
c0 9.33301 3 17 9 23s13.667 9 23 9h213c9.33301 0 17 -3 23 -9s9 -13.667 9 -23v-303c0 -8.66699 -3 -16 -9 -22s-13.667 -9 -23 -9h-58c-9.33301 0 -17.666 2.83301 -24.999 8.5s-12 13.167 -14 22.5l-2 12c-16.667 -17.333 -38 -30.666 -64 -39.999s-53 -14 -81 -14
c-34 0 -65.5 5.33301 -94.5 16s-54.333 26 -76 46s-38.667 44 -51 72s-18.5 59.333 -18.5 94v273c0 34.667 6.33301 66 19 94s30.5 51.833 53.5 71.5s50.167 34.834 81.5 45.501s65.666 16 102.999 16zM199 754.994c-6.66699 0 -11.3301 2.83301 -13.9971 8.5
s-2.33398 11.167 0.999023 16.5l61 80c6 8 13.667 14.167 23 18.5s19 6.5 29 6.5h43c9.33301 0 18.666 -2.16699 27.999 -6.5s17 -10.5 23 -18.5l61 -80c4 -5.33301 4.66699 -10.833 2 -16.5s-7.33398 -8.5 -14.001 -8.5h-47c-9.33301 0 -18.5 2.5 -27.5 7.5
s-16.167 11.5 -21.5 19.5l-26 41l-25 -41c-5.33301 -8 -12.333 -14.5 -21 -19.5s-17.667 -7.5 -27 -7.5h-48z" />
    <glyph glyph-name="gcircumflex" unicode="&#x11d;" horiz-adv-x="506" 
d="M244 570c20 0 39.8291 -2.16895 59.4961 -6.50195s35.834 -9.83301 48.501 -16.5c14 8.66699 21 22 21 40c0 2.66699 -0.166992 4.83398 -0.5 6.50098s-0.5 3.5 -0.5 5.5c0 13.333 7 20 21 20h66c18 0 27 -8.66699 27 -26v-20c0 -18.667 -5 -36 -15 -52
s-23.333 -29.667 -40 -41c5.33301 -10.667 9.33301 -22.667 12 -36s4 -24.666 4 -33.999v-62c0 -18.667 -4.5 -36.667 -13.5 -54s-21.667 -32.666 -38 -45.999s-36.5 -24 -60.5 -32s-51 -12 -81 -12c-6 0 -13 0.333008 -21 1s-14.667 1.66699 -20 3
c-9.33301 -8 -14 -18.667 -14 -32c0 -14 4.33301 -25.333 13 -34c4.66699 0.666992 9.66699 1 15 1h16h68c55.333 0 99 -12.167 131 -36.5s48 -59.5 48 -105.5c0 -54 -17.5 -94.333 -52.5 -121s-83.167 -40 -144.5 -40h-78c-62 0 -110.333 13.333 -145 40s-52 67 -52 121
c0 28 7 53 21 75s32.667 38.667 56 50c-8 16 -12 33 -12 51c0 24.667 6.66699 47.667 20 69c-17.333 9.33301 -31.833 24 -43.5 44s-17.5 39.333 -17.5 58v62c0 22 4.83301 42.667 14.5 62s23.334 36.166 41.001 50.499s38.834 25.833 63.501 34.5s52.334 13 83.001 13z
M243.996 472.998c-21.333 0 -39 -5.83301 -53 -17.5s-21 -27.167 -21 -46.5v-49c0 -19.333 7 -35 21 -47s31.667 -18 53 -18s39.166 6 53.499 18s21.5 27.667 21.5 47v49c0 19.333 -7.16699 34.833 -21.5 46.5s-32.166 17.5 -53.499 17.5zM145.996 -5.00195
c0 -40 25 -60 75 -60h65c49.333 0 74 20 74 60c0 38.667 -24.667 58 -74 58h-65c-50 0 -75 -19.333 -75 -58zM129.996 630.998c-6 0 -10.335 2.66699 -13.002 8s-1.66699 10.666 3 15.999l57 67c6.66699 7.33301 14.834 13.166 24.501 17.499s19.167 6.5 28.5 6.5h43
c10 0 19.667 -2.16699 29 -6.5s17.333 -10.166 24 -17.499l58 -68c4.66699 -4.66699 5.66699 -9.66699 3 -15s-7 -8 -13 -8h-47c-21.333 0 -39 8 -53 24l-22 29l-22 -29c-6.66699 -7.33301 -14.667 -13.166 -24 -17.499s-18.666 -6.5 -27.999 -6.5h-48z" />
    <glyph glyph-name="Gbreve" unicode="&#x11e;" horiz-adv-x="620" 
d="M316 752c-19.333 0 -37.333 2.66699 -54 8s-31 12.666 -43 21.999s-21.5 20.666 -28.5 33.999s-10.5 28 -10.5 44c0 14.667 6.33301 22 19 22h39c11.333 0 20.666 -7.66699 27.999 -23c7.33301 -22.667 24 -34 50 -34c13.333 0 23.833 3 31.5 9s13.5 14.333 17.5 25
c6 15.333 15.333 23 28 23h39c12.667 0 19 -7.33301 19 -22c0 -16 -3.5 -30.667 -10.5 -44s-16.5 -24.666 -28.5 -33.999s-26.167 -16.666 -42.5 -21.999s-34.166 -8 -53.499 -8zM568 497c0 -8.66699 -2.83301 -16.0059 -8.5 -22.0059s-13.167 -9 -22.5 -9h-78
c-8.66699 0 -15.667 2.66699 -21 8s-8 12.666 -8 21.999v11c0 28.667 -11 51.334 -33 68.001s-51.333 25 -88 25c-34.667 0 -63 -10.667 -85 -32s-33 -52.666 -33 -93.999v-248c0 -41.333 10.5 -72.666 31.5 -93.999s50.833 -32 89.5 -32c24 0 46 4.66699 66 14
s36.667 22 50 38v99h-105c-9.33301 0 -17 3 -23 9s-9 13.667 -9 23v48c0 9.33301 3 17 9 23s13.667 9 23 9h213c9.33301 0 17 -3 23 -9s9 -13.667 9 -23v-303c0 -8.66699 -3 -16 -9 -22s-13.667 -9 -23 -9h-58c-9.33301 0 -17.666 2.83301 -24.999 8.5s-12 13.167 -14 22.5
l-2 12c-16.667 -17.333 -38 -30.666 -64 -39.999s-53 -14 -81 -14c-34 0 -65.5 5.33301 -94.5 16s-54.333 26 -76 46s-38.667 44 -51 72s-18.5 59.333 -18.5 94v273c0 34.667 6.33301 66 19 94s30.5 51.833 53.5 71.5s50.167 34.834 81.5 45.501s65.666 16 102.999 16
s71.833 -4.66699 103.5 -14s59 -22.666 82 -39.999s41 -38.166 54 -62.499s19.5 -51.5 19.5 -81.5v-19z" />
    <glyph glyph-name="gbreve" unicode="&#x11f;" horiz-adv-x="506" 
d="M447 348c0 -18.667 -4.50391 -36.6689 -13.5039 -54.002s-21.667 -32.666 -38 -45.999s-36.5 -24 -60.5 -32s-51 -12 -81 -12c-6 0 -13 0.333008 -21 1s-14.667 1.66699 -20 3c-9.33301 -8 -14 -18.667 -14 -32c0 -14 4.33301 -25.333 13 -34
c4.66699 0.666992 9.66699 1 15 1h16h68c55.333 0 99 -12.167 131 -36.5s48 -59.5 48 -105.5c0 -54 -17.5 -94.333 -52.5 -121s-83.167 -40 -144.5 -40h-78c-62 0 -110.333 13.333 -145 40s-52 67 -52 121c0 28 7 53 21 75s32.667 38.667 56 50c-8 16 -12 33 -12 51
c0 24.667 6.66699 47.667 20 69c-17.333 9.33301 -31.833 24 -43.5 44s-17.5 39.333 -17.5 58v62c0 22 4.83301 42.667 14.5 62s23.334 36.166 41.001 50.499s38.834 25.833 63.501 34.5s52.334 13 83.001 13c20 0 39.833 -2.16699 59.5 -6.5s35.834 -9.83301 48.501 -16.5
c14 10.667 21 25.334 21 44.001c0 2 -0.166992 4 -0.5 6s-0.5 4 -0.5 6c0 12.667 7 19 21 19h66c18 0 27 -8.66699 27 -26v-19c0 -19.333 -5 -37.5 -15 -54.5s-23.333 -31.167 -40 -42.5c5.33301 -10.667 9.33301 -22.667 12 -36s4 -24.666 4 -33.999v-62zM249.996 610.998
c-19.333 0 -37.334 2.66602 -54.001 7.99902s-31 12.666 -43 21.999s-21.5 20.666 -28.5 33.999s-10.5 28 -10.5 44c0 14.667 6.66699 22 20 22h39c12 0 21 -7.66699 27 -23c8.66699 -22 25.334 -33 50.001 -33c13.333 0 24 2.83301 32 8.5s14 13.834 18 24.501
c6 15.333 15.333 23 28 23h39c12.667 0 19 -7.33301 19 -22c0 -16 -3.5 -30.667 -10.5 -44s-16.5 -24.666 -28.5 -33.999s-26.333 -16.666 -43 -21.999s-34.667 -8 -54 -8zM243.995 472.997c-21.333 0 -39 -5.83301 -53 -17.5s-21 -27.167 -21 -46.5v-49
c0 -19.333 7 -35 21 -47s31.667 -18 53 -18s39.166 6 53.499 18s21.5 27.667 21.5 47v49c0 19.333 -7.16699 34.833 -21.5 46.5s-32.166 17.5 -53.499 17.5zM145.995 -5.00293c0 -40 25 -60 75 -60h65c49.333 0 74 20 74 60c0 38.667 -24.667 58 -74 58h-65
c-50 0 -75 -19.333 -75 -58z" />
    <glyph glyph-name="Gdotaccent" unicode="&#x120;" horiz-adv-x="620" 
d="M309 714c37.333 0 71.833 -4.67285 103.5 -14.0059s59 -22.666 82 -39.999s41 -38.166 54 -62.499s19.5 -51.5 19.5 -81.5v-19c0 -8.66699 -2.83301 -16 -8.5 -22s-13.167 -9 -22.5 -9h-78c-8.66699 0 -15.667 2.66699 -21 8s-8 12.666 -8 21.999v11
c0 28.667 -11 51.334 -33 68.001s-51.333 25 -88 25c-34.667 0 -63 -10.667 -85 -32s-33 -52.666 -33 -93.999v-248c0 -41.333 10.5 -72.666 31.5 -93.999s50.833 -32 89.5 -32c24 0 46 4.66699 66 14s36.667 22 50 38v99h-105c-9.33301 0 -17 3 -23 9s-9 13.667 -9 23v48
c0 9.33301 3 17 9 23s13.667 9 23 9h213c9.33301 0 17 -3 23 -9s9 -13.667 9 -23v-303c0 -8.66699 -3 -16 -9 -22s-13.667 -9 -23 -9h-58c-9.33301 0 -17.666 2.83301 -24.999 8.5s-12 13.167 -14 22.5l-2 12c-16.667 -17.333 -38 -30.666 -64 -39.999s-53 -14 -81 -14
c-34 0 -65.5 5.33301 -94.5 16s-54.333 26 -76 46s-38.667 44 -51 72s-18.5 59.333 -18.5 94v273c0 34.667 6.33301 66 19 94s30.5 51.833 53.5 71.5s50.167 34.834 81.5 45.501s65.666 16 102.999 16zM389 822.994c0 -24 -7 -41.667 -21 -53s-32.667 -17 -56 -17
s-41.833 5.66699 -55.5 17s-20.5 29 -20.5 53c0 25.333 6.83301 44 20.5 56s32.167 18 55.5 18s42 -6 56 -18s21 -30.667 21 -56z" />
    <glyph glyph-name="gdotaccent" unicode="&#x121;" horiz-adv-x="506" 
d="M325 682c0 -24 -7.16699 -41.833 -21.5 -53.5s-33.166 -17.5 -56.499 -17.5c-22.667 0 -40.834 5.83301 -54.501 17.5s-20.5 29.5 -20.5 53.5c0 25.333 6.83301 43.833 20.5 55.5s31.834 17.5 54.501 17.5c23.333 0 42.166 -5.83301 56.499 -17.5
s21.5 -30.167 21.5 -55.5zM146 -5c0 -40 25 -60 75 -60h65c49.333 0 74 20 74 60c0 38.667 -24.667 58 -74 58h-65c-50 0 -75 -19.333 -75 -58zM244 473c-21.333 0 -39 -5.83301 -53 -17.5s-21 -27.167 -21 -46.5v-49c0 -19.333 7 -35 21 -47s31.667 -18 53 -18
s39.166 6 53.499 18s21.5 27.667 21.5 47v49c0 19.333 -7.16699 34.833 -21.5 46.5s-32.166 17.5 -53.499 17.5zM244 570c20 0 39.8291 -2.1709 59.4961 -6.50391s35.834 -9.83301 48.501 -16.5c14 12.667 21 31.667 21 57c0 2 -0.166992 4.16699 -0.5 6.5
s-0.5 4.5 -0.5 6.5c0 14.667 7.33301 22 22 22h60c8.66699 0 15.334 -2.16699 20.001 -6.5s7.66699 -10.166 9 -17.499c1.33301 -3.33301 2.16602 -7.5 2.49902 -12.5s0.5 -10.167 0.5 -15.5c0 -25.333 -5.33301 -46.666 -16 -63.999s-23.667 -31.666 -39 -42.999
c5.33301 -10.667 9.33301 -22.667 12 -36s4 -24.666 4 -33.999v-62c0 -18.667 -4.5 -36.667 -13.5 -54s-21.667 -32.666 -38 -45.999s-36.5 -24 -60.5 -32s-51 -12 -81 -12c-6 0 -13 0.333008 -21 1s-14.667 1.66699 -20 3c-9.33301 -8 -14 -18.667 -14 -32
c0 -14 4.33301 -25.333 13 -34c4.66699 0.666992 9.66699 1 15 1h16h68c55.333 0 99 -12.167 131 -36.5s48 -59.5 48 -105.5c0 -54 -17.5 -94.333 -52.5 -121s-83.167 -40 -144.5 -40h-78c-62 0 -110.333 13.333 -145 40s-52 67 -52 121c0 28 7 53 21 75
s32.667 38.667 56 50c-8 16 -12 33 -12 51c0 24.667 6.66699 47.667 20 69c-17.333 9.33301 -31.833 24 -43.5 44s-17.5 39.333 -17.5 58v62c0 22 4.83301 42.667 14.5 62s23.334 36.166 41.001 50.499s38.834 25.833 63.501 34.5s52.334 13 83.001 13z" />
    <glyph glyph-name="Gcommaaccent" unicode="&#x122;" horiz-adv-x="620" 
d="M376 -100c0 -19.333 -4.00098 -37.4971 -12.001 -54.4971s-18.333 -31.833 -31 -44.5s-26.5 -22.834 -41.5 -30.501s-29.833 -11.5 -44.5 -11.5c-14 0 -21 5.33301 -21 16v7c0 5.33301 1.5 10.166 4.5 14.499s7.83301 9.16602 14.5 14.499c6.66699 6 11.834 12 15.501 18
s5.5 13 5.5 21c-17.333 10 -26 26.667 -26 50c0 19.333 6.33301 34.333 19 45s29.667 16 51 16c44 0 66 -20.333 66 -61zM308.999 714.003c37.333 0 71.833 -4.67285 103.5 -14.0059s59 -22.666 82 -39.999s41 -38.166 54 -62.499s19.5 -51.5 19.5 -81.5v-19
c0 -8.66699 -2.83301 -16 -8.5 -22s-13.167 -9 -22.5 -9h-78c-8.66699 0 -15.667 2.66699 -21 8s-8 12.666 -8 21.999v11c0 28.667 -11 51.334 -33 68.001s-51.333 25 -88 25c-34.667 0 -63 -10.667 -85 -32s-33 -52.666 -33 -93.999v-248
c0 -41.333 10.5 -72.666 31.5 -93.999s50.833 -32 89.5 -32c24 0 46 4.66699 66 14s36.667 22 50 38v99h-105c-9.33301 0 -17 3 -23 9s-9 13.667 -9 23v48c0 9.33301 3 17 9 23s13.667 9 23 9h213c9.33301 0 17 -3 23 -9s9 -13.667 9 -23v-303c0 -8.66699 -3 -16 -9 -22
s-13.667 -9 -23 -9h-58c-9.33301 0 -17.666 2.83301 -24.999 8.5s-12 13.167 -14 22.5l-2 12c-16.667 -17.333 -38 -30.666 -64 -39.999s-53 -14 -81 -14c-34 0 -65.5 5.33301 -94.5 16s-54.333 26 -76 46s-38.667 44 -51 72s-18.5 59.333 -18.5 94v273
c0 34.667 6.33301 66 19 94s30.5 51.833 53.5 71.5s50.167 34.834 81.5 45.501s65.666 16 102.999 16z" />
    <glyph glyph-name="gcommaaccent" unicode="&#x123;" horiz-adv-x="506" 
d="M146 -5c0 -40 25 -60 75 -60h65c49.333 0 74 20 74 60c0 38.667 -24.667 58 -74 58h-65c-50 0 -75 -19.333 -75 -58zM244 473c-21.333 0 -39 -5.83301 -53 -17.5s-21 -27.167 -21 -46.5v-49c0 -19.333 7 -35 21 -47s31.667 -18 53 -18s39.166 6 53.499 18
s21.5 27.667 21.5 47v49c0 19.333 -7.16699 34.833 -21.5 46.5s-32.166 17.5 -53.499 17.5zM182 663c0 18.667 3.99902 36.5 11.999 53.5s18.167 32 30.5 45s26 23.167 41 30.5s29.5 11 43.5 11s21 -5.33301 21 -16v-7c0 -5.33301 -1.66699 -9.83301 -5 -13.5
s-8 -8.16699 -14 -13.5c-6.66699 -6 -11.667 -12 -15 -18s-5.33301 -13.333 -6 -22c7.33301 -4 13.5 -10.333 18.5 -19s7.5 -19 7.5 -31c0 -19.333 -6.16699 -34 -18.5 -44s-28.833 -15 -49.5 -15c-21.333 0 -37.666 5 -48.999 15s-17 24.667 -17 44zM243.999 570
c20 0 39.8291 -2.1709 59.4961 -6.50391s35.834 -9.83301 48.501 -16.5c14 12.667 21 31.667 21 57c0 2 -0.166992 4.16699 -0.5 6.5s-0.5 4.5 -0.5 6.5c0 14.667 7.33301 22 22 22h60c8.66699 0 15.334 -2.16699 20.001 -6.5s7.66699 -10.166 9 -17.499
c1.33301 -3.33301 2.16602 -7.5 2.49902 -12.5s0.5 -10.167 0.5 -15.5c0 -25.333 -5.33301 -46.666 -16 -63.999s-23.667 -31.666 -39 -42.999c5.33301 -10.667 9.33301 -22.667 12 -36s4 -24.666 4 -33.999v-62c0 -18.667 -4.5 -36.667 -13.5 -54
s-21.667 -32.666 -38 -45.999s-36.5 -24 -60.5 -32s-51 -12 -81 -12c-6 0 -13 0.333008 -21 1s-14.667 1.66699 -20 3c-9.33301 -8 -14 -18.667 -14 -32c0 -14 4.33301 -25.333 13 -34c4.66699 0.666992 9.66699 1 15 1h16h68c55.333 0 99 -12.167 131 -36.5
s48 -59.5 48 -105.5c0 -54 -17.5 -94.333 -52.5 -121s-83.167 -40 -144.5 -40h-78c-62 0 -110.333 13.333 -145 40s-52 67 -52 121c0 28 7 53 21 75s32.667 38.667 56 50c-8 16 -12 33 -12 51c0 24.667 6.66699 47.667 20 69c-17.333 9.33301 -31.833 24 -43.5 44
s-17.5 39.333 -17.5 58v62c0 22 4.83301 42.667 14.5 62s23.334 36.166 41.001 50.499s38.834 25.833 63.501 34.5s52.334 13 83.001 13z" />
    <glyph glyph-name="Hcircumflex" unicode="&#x124;" horiz-adv-x="622" 
d="M88 0c-9.33301 0 -17 3 -23 9s-9 13.667 -9 23v636c0 9.33301 3 17 9 23s13.667 9 23 9h76c8.66699 0 16 -3 22 -9s9 -13.667 9 -23v-272h232v272c0 9.33301 3 17 9 23s13.667 9 23 9h76c8.66699 0 16 -3 22 -9s9 -13.667 9 -23v-636c0 -9.33301 -3 -17 -9 -23
s-13.333 -9 -22 -9h-76c-9.33301 0 -17 3 -23 9s-9 13.667 -9 23v250h-232v-250c0 -9.33301 -3 -17 -9 -23s-13.333 -9 -22 -9h-76zM189 756c-6.66699 0 -11.3301 2.83398 -13.9971 8.50098s-2 11.167 2 16.5l61 80c6 7.33301 13.667 13.333 23 18s18.666 7 27.999 7h43
c9.33301 0 18.666 -2.33301 27.999 -7s17 -10.667 23 -18l62 -80c4 -5.33301 4.66699 -10.833 2 -16.5s-7.33398 -8.5 -14.001 -8.5h-48c-20.667 0 -36.667 9 -48 27l-26 41l-25 -41c-5.33301 -8.66699 -12.5 -15.334 -21.5 -20.001s-18.167 -7 -27.5 -7h-48z" />
    </font>
</defs>
</svg>
