<?xml version="1.0" standalone="no"?>
<!DOCTYPE svg PUBLIC "-//W3C//DTD SVG 1.1//EN" "http://www.w3.org/Graphics/SVG/1.1/DTD/svg11.dtd" >
<svg xmlns="http://www.w3.org/2000/svg" xmlns:xlink="http://www.w3.org/1999/xlink" version="1.1">
<metadata>
Created by FontForge 20150318 at Mon Apr 27 01:24:37 2015
 By uniteet7
Copyright (c) 2012 by Luciano Vergara. All rights reserved.
</metadata>
<defs>
<font id="AntartidaRndW04-Md" horiz-adv-x="235" >
  <font-face 
    font-family="AntartidaRndW04-Md"
    font-weight="500"
    font-stretch="normal"
    units-per-em="1000"
    panose-1="2 0 0 0 0 0 0 0 0 0"
    ascent="750"
    descent="-250"
    x-height="560"
    cap-height="700"
    bbox="-141 -235.571 1432 908"
    underline-thickness="50"
    underline-position="-100"
    unicode-range="U+0020-FB04"
  />
<missing-glyph horiz-adv-x="286" 
 />
    <glyph glyph-name="uniFB00" unicode="ff" horiz-adv-x="638" 
d="M94 0q-11 0 -18.5 7t-7.5 18v419h-38q-11 0 -18 7t-7 18v30q0 11 7 18t18 7h38v32q0 97 51.5 141.5t139.5 44.5q36 0 73 -12t65 -29q57 59 156 59q26 0 54 -5q11 -2 18.5 -10.5t7.5 -18.5v-33q0 -10 -7 -16t-17 -4q-12 2 -25 3t-25 1q-54 0 -83.5 -31t-29.5 -98v-24h138
q11 0 18.5 -7t7.5 -18v-30q0 -11 -7.5 -18t-18.5 -7h-138v-419q0 -11 -7.5 -18t-18.5 -7h-49q-11 0 -18 7t-7 18v419h-178v-419q0 -11 -7.5 -18t-18.5 -7h-48zM168 524h178v32q0 41 14 77q-23 12 -48 19t-47 7q-49 0 -73 -24.5t-24 -91.5v-19z" />
    <glyph glyph-name="uniFB01" unicode="fi" horiz-adv-x="543" 
d="M94 0q-11 0 -18.5 7t-7.5 18v453h-38q-11 0 -18 7t-7 18v32q0 11 7 18t18 7h38v22q0 92 54.5 135t147.5 43q36 0 74 -5.5t65 -13.5q9 -2 16.5 -11.5t7.5 -19.5v-30q0 -11 -7 -16.5t-18 -3.5q-29 6 -66 11.5t-69 5.5q-51 0 -78 -23t-27 -81v-13h276q11 0 18.5 -7t7.5 -18
v-510q0 -11 -7.5 -18t-18.5 -7h-48q-11 0 -18.5 7t-7.5 18v453h-202v-453q0 -11 -7.5 -18t-18.5 -7h-48z" />
    <glyph glyph-name="uniFB02" unicode="fl" horiz-adv-x="535" 
d="M94 0q-11 0 -18.5 7t-7.5 18v419h-38q-11 0 -18 7t-7 18v30q0 11 7 18t18 7h38v37q0 97 55.5 148t151.5 51q47 0 90.5 -11t78.5 -27q10 -5 16.5 -15t6.5 -21v-661q0 -11 -7 -18t-18 -7h-49q-11 0 -18 7t-7 18v638q-20 6 -41.5 10t-47.5 4q-54 0 -82.5 -30.5t-28.5 -97.5
v-25h121q11 0 18.5 -7t7.5 -18v-30q0 -11 -7.5 -18t-18.5 -7h-121v-419q0 -11 -7.5 -18t-18.5 -7h-48z" />
    <glyph glyph-name="uniFB03" unicode="ffi" horiz-adv-x="786" 
d="M94 0q-11 0 -18.5 7t-7.5 18v455h-38q-11 0 -18 7t-7 18v30q0 11 7 18t18 7h38q0 51 13 86t37 56t58.5 30.5t78.5 9.5q35 0 73 -12.5t65 -29.5q30 32 69 46t89 14q26 0 58 -4.5t59 -10.5q10 -2 17 -12t7 -20v-27q0 -11 -7 -16.5t-17 -3.5q-26 7 -55.5 11t-55.5 4
q-54 0 -82.5 -26.5t-28.5 -94.5h247q11 0 18 -7t7 -18v-510q0 -11 -7 -18t-18 -7h-49q-11 0 -18 7t-7 18v455h-173v-455q0 -11 -7.5 -18t-18.5 -7h-49q-11 0 -18 7t-7 18v455h-178v-455q0 -11 -7.5 -18t-18.5 -7h-48zM265 662q-24 0 -42.5 -4t-30.5 -15t-18 -31t-6 -52h178
q0 29 3.5 44.5t10.5 31.5q-23 12 -48 19t-47 7z" />
    <glyph glyph-name="uniFB04" unicode="ffl" horiz-adv-x="812" 
d="M94 0q-11 0 -18.5 7t-7.5 18v419h-38q-11 0 -18 7t-7 18v30q0 11 7 18t18 7h38v36q0 97 51.5 139.5t139.5 42.5q36 0 73 -12t65 -29q57 59 156 59q47 0 90 -11t78 -27q10 -5 16.5 -15t6.5 -21v-661q0 -11 -7 -18t-18 -7h-49q-11 0 -18 7t-7 18v638q-20 6 -41.5 10
t-46.5 4q-54 0 -82.5 -30t-28.5 -97v-26h121q11 0 18 -7t7 -18v-30q0 -11 -7 -18t-18 -7h-121v-419q0 -11 -7.5 -18t-18.5 -7h-49q-11 0 -18 7t-7 18v419h-178v-419q0 -11 -7.5 -18t-18.5 -7h-48zM168 524h178v38q0 23 3.5 39.5t10.5 31.5q-23 12 -48 19t-47 7
q-24 0 -42.5 -5t-30.5 -17.5t-18 -34t-6 -54.5v-24z" />
    <glyph glyph-name=".notdef" horiz-adv-x="286" 
 />
    <glyph glyph-name=".null" horiz-adv-x="0" 
 />
    <glyph glyph-name="nonmarkingreturn" horiz-adv-x="333" 
 />
    <glyph glyph-name="space" unicode=" " horiz-adv-x="282" 
 />
    <glyph glyph-name="exclam" unicode="!" horiz-adv-x="247" 
d="M108 175q-10 0 -17.5 7t-7.5 18l-9 326v149q0 11 7 18t18 7h49q11 0 18 -7t7 -18v-149l-9 -326q0 -11 -7.5 -18t-18.5 -7h-30zM178 46q0 -29 -15.5 -42.5t-40.5 -13.5q-23 0 -38 13.5t-15 42.5q0 27 15 40t38 13q25 0 40.5 -13t15.5 -40z" />
    <glyph glyph-name="quotedbl" unicode="&#x22;" horiz-adv-x="295" 
d="M68 557q-11 0 -18 7t-9 18l-8 143q-1 10 6 17.5t17 7.5h45q11 0 18 -7.5t6 -17.5l-9 -143q-1 -11 -8.5 -18t-18.5 -7h-21zM204 557q-11 0 -18.5 7t-8.5 18l-9 143q0 10 7 17.5t17 7.5h45q11 0 17.5 -7.5t6.5 -17.5l-9 -143q-1 -11 -8.5 -18t-18.5 -7h-21z" />
    <glyph glyph-name="numbersign" unicode="#" horiz-adv-x="683" 
d="M133 0q-9 0 -15.5 7.5t-4.5 17.5l37 172h-91q-11 0 -18 7t-7 18v28q0 11 7 18.5t18 7.5h108l32 148h-91q-11 0 -18.5 7.5t-7.5 18.5v27q0 11 7.5 18.5t18.5 7.5h108l38 172q2 11 10.5 18t19.5 7h40q9 0 15.5 -7.5t4.5 -17.5l-38 -172h136l38 172q2 11 11 18t20 7h39
q10 0 16 -7.5t4 -17.5l-38 -172h92q11 0 18 -7.5t7 -18.5v-27q0 -11 -7 -18.5t-18 -7.5h-108l-33 -148h92q11 0 18 -7.5t7 -18.5v-28q0 -11 -7 -18t-18 -7h-109l-37 -172q-2 -11 -11 -18t-20 -7h-38q-10 0 -16.5 7.5t-4.5 17.5l38 172h-138l-37 -172q-2 -11 -10.5 -18
t-19.5 -7h-39zM257 276h137l32 148h-136z" />
    <glyph glyph-name="dollar" unicode="$" horiz-adv-x="594" 
d="M150 202q0 -16 7.5 -34.5t22 -35.5t36 -30t49.5 -17v224q-40 6 -76 18.5t-63.5 34t-43.5 53.5t-16 77v20q0 78 47.5 130t151.5 59v74q0 11 7 18t18 7h18q11 0 18 -7t7 -18v-75q50 -6 87 -25.5t61 -47t36 -61t12 -67.5q0 -11 -6.5 -18t-17.5 -7h-52q-23 0 -23 24
q0 18 -6 36.5t-18 34.5t-30 28t-43 17v-223q39 -5 76.5 -16t67 -31.5t47.5 -51.5t18 -77v-24q0 -83 -52 -134.5t-157 -58.5v-73q0 -11 -7 -18t-18 -7h-18q-11 0 -18 7t-7 18v74q-53 5 -93 24t-67 46.5t-40.5 62t-13.5 69.5q0 11 6 18t17 7h53q23 0 23 -24zM444 198
q0 47 -30 69t-81 31v-215q55 6 83 36t28 79zM164 510q0 -26 7 -44.5t20.5 -31t32 -20t41.5 -11.5v213q-53 -6 -77 -35t-24 -71z" />
    <glyph glyph-name="percent" unicode="%" horiz-adv-x="921" 
d="M213 285q-73 0 -117.5 40.5t-44.5 109.5v127q0 70 44.5 110t117.5 40t117.5 -40t44.5 -110v-127q0 -69 -44.5 -109.5t-117.5 -40.5zM213 639q-33 0 -53 -21.5t-20 -64.5v-110q0 -42 20 -63.5t53 -21.5t53 21.5t20 63.5v110q0 43 -20 64.5t-53 21.5zM709 -11
q-74 0 -118.5 40.5t-44.5 110.5v126q0 71 44.5 111t118.5 40q72 0 116.5 -40t44.5 -111v-126q0 -70 -44.5 -110.5t-116.5 -40.5zM709 344q-34 0 -54 -22t-20 -64v-111q0 -42 20 -63.5t54 -21.5q33 0 53 21.5t20 63.5v111q0 42 -20 64t-53 22zM179 0q-8 0 -11.5 7t1.5 14
l476 658q15 21 40 21h56q8 0 12 -7t-1 -14l-479 -658q-15 -21 -40 -21h-54z" />
    <glyph glyph-name="ampersand" unicode="&#x26;" horiz-adv-x="685" 
d="M285 -14q-107 0 -169 43.5t-62 133.5v12q0 32 13.5 60.5t34.5 53.5t46 45.5t48 36.5q-17 18 -33.5 38t-30 42t-22 45.5t-8.5 47.5q0 36 12.5 67t36.5 54t59.5 36t82.5 13q52 0 88.5 -12t59 -33t33 -50t10.5 -64q0 -33 -11.5 -59t-32 -48.5t-47.5 -42.5l-58 -42l145 -160
q17 27 26.5 55.5t12.5 53.5q2 25 29 25h41q11 0 18 -8t6 -17q-4 -43 -22 -91t-48 -90l102 -112q5 -5 2 -12t-10 -7h-74q-11 0 -23 5t-20 14l-40 42q-36 -34 -85 -54.5t-110 -20.5zM257 308q-48 -35 -73.5 -67.5t-25.5 -71.5v-5q0 -52 36 -73.5t95 -21.5q42 0 75 16t59 42z
M202 548q0 -18 6.5 -34t17 -30.5t23.5 -28.5l27 -29l41 28q19 14 34 29t24.5 31.5t9.5 36.5q0 38 -19.5 59.5t-72.5 21.5q-91 0 -91 -84z" />
    <glyph glyph-name="quotesingle" unicode="'" horiz-adv-x="160" 
d="M68 557q-11 0 -18 7t-9 18l-8 143q-1 10 6 17.5t17 7.5h45q11 0 18 -7.5t6 -17.5l-9 -143q-1 -11 -8.5 -18t-18.5 -7h-21z" />
    <glyph glyph-name="parenleft" unicode="(" horiz-adv-x="310" 
d="M62 511q0 57 20 102.5t50 77t65.5 48.5t67.5 17q9 0 15 -5.5t6 -14.5v-30q0 -14 -6 -22t-19 -13q-47 -16 -74.5 -62.5t-27.5 -110.5v-356q0 -64 27.5 -110.5t74.5 -62.5q13 -5 19 -13t6 -22v-30q0 -9 -6 -14.5t-15 -5.5q-32 0 -67.5 17t-65.5 48.5t-50 77t-20 102.5v382z
" />
    <glyph glyph-name="parenright" unicode=")" horiz-adv-x="310" 
d="M248 129q0 -57 -20 -102.5t-50 -77t-65.5 -48.5t-67.5 -17q-9 0 -15 5.5t-6 14.5v30q0 14 5.5 22t19.5 13q46 16 73.5 62.5t27.5 110.5v356q0 64 -27.5 110.5t-73.5 62.5q-14 5 -19.5 13t-5.5 22v30q0 9 6 14.5t15 5.5q32 0 67.5 -17t65.5 -48.5t50 -77t20 -102.5v-382z
" />
    <glyph glyph-name="asterisk" unicode="*" horiz-adv-x="458" 
d="M105 392q-9 6 -10.5 16.5t5.5 18.5l71 90l-111 30q-10 3 -15 12t-2 19l10 30q3 9 12.5 14t19.5 1l106 -37l-3 112q-1 11 6.5 18t17.5 7h31q11 0 18 -7t7 -18l-3 -111l103 36q10 4 19.5 -0.5t12.5 -14.5l10 -30q3 -10 -1.5 -19t-15.5 -12l-108 -31l69 -90q6 -8 4.5 -18
t-9.5 -17l-24 -17q-8 -7 -18.5 -4.5t-16.5 10.5l-63 94l-63 -94q-6 -8 -16.5 -10.5t-18.5 4.5z" />
    <glyph glyph-name="plus" unicode="+" horiz-adv-x="587" 
d="M273 44q-11 0 -18.5 7t-7.5 18v190h-171q-11 0 -18.5 7t-7.5 18v38q0 11 7.5 18t18.5 7h171v190q0 11 7.5 18t18.5 7h42q11 0 18 -7t7 -18v-190h172q11 0 18 -7t7 -18v-38q0 -11 -7 -18t-18 -7h-172v-190q0 -11 -7 -18t-18 -7h-42z" />
    <glyph glyph-name="comma" unicode="," horiz-adv-x="201" 
d="M161 50q0 -32 -12 -61t-30.5 -51t-40.5 -34.5t-41 -12.5t-19 16v8q0 16 15 28q14 9 22 24.5t8 32.5q-23 15 -23 50q0 31 16.5 46.5t42.5 15.5q28 0 45 -15.5t17 -46.5z" />
    <glyph glyph-name="hyphen" unicode="-" horiz-adv-x="397" 
d="M76 259q-11 0 -18.5 7t-7.5 18v36q0 11 7.5 18.5t18.5 7.5h245q11 0 18.5 -7.5t7.5 -18.5v-36q0 -11 -7.5 -18t-18.5 -7h-245z" />
    <glyph glyph-name="period" unicode="." horiz-adv-x="201" 
d="M161 49q0 -31 -17 -45.5t-45 -14.5q-26 0 -42.5 14.5t-16.5 45.5q0 32 16.5 47.5t42.5 15.5q28 0 45 -15.5t17 -47.5z" />
    <glyph glyph-name="slash" unicode="/" horiz-adv-x="492" 
d="M28 -110q-8 0 -13.5 7.5t-1.5 16.5l363 812q11 24 36 24h47q9 0 14 -7.5t1 -16.5l-363 -812q-11 -24 -36 -24h-47z" />
    <glyph glyph-name="zero" unicode="0" horiz-adv-x="580" 
d="M290 -14q-52 0 -95 15t-74 43.5t-48 69.5t-17 92v288q0 51 17 91.5t48 69t74 44t95 15.5t95 -15.5t74 -44t48 -69t17 -91.5v-288q0 -51 -17 -92t-48 -69.5t-74 -43.5t-95 -15zM290 625q-60 0 -95.5 -36.5t-35.5 -108.5v-260q0 -72 35.5 -108.5t95.5 -36.5t95 36.5
t35 108.5v260q0 72 -35 108.5t-95 36.5z" />
    <glyph glyph-name="one" unicode="1" horiz-adv-x="288" 
d="M149 0q-11 0 -18 7t-7 18v587h-78q-10 0 -17.5 7t-7.5 18v38q0 11 7.5 18t17.5 7h156q11 0 18 -7t7 -18v-650q0 -11 -7 -18t-18 -7h-53z" />
    <glyph glyph-name="two" unicode="2" horiz-adv-x="574" 
d="M163 495q0 -24 -23 -24h-56q-11 0 -17 6.5t-6 17.5q0 42 14 81.5t42.5 70t71.5 49t102 18.5q57 0 99.5 -14.5t71 -40.5t43 -62t14.5 -78q0 -32 -9.5 -60t-24.5 -53.5t-35 -49.5l-41 -47l-203 -221h298q11 0 18 -7t7 -18v-38q0 -11 -7 -18t-18 -7h-428q-10 0 -17.5 7
t-7.5 18v14q0 11 4.5 22.5t12.5 20.5l275 303q36 40 52.5 71.5t16.5 61.5q0 44 -30 75.5t-91 31.5q-33 0 -57 -11.5t-40 -30.5t-23.5 -42t-7.5 -46z" />
    <glyph glyph-name="three" unicode="3" horiz-adv-x="573" 
d="M51 203q0 11 6.5 17.5t16.5 6.5h58q23 0 23 -23t7 -46t22 -41.5t39 -30t58 -11.5q63 0 95 29.5t32 85.5v17q0 57 -24.5 89.5t-63.5 32.5h-90q-11 0 -18.5 7t-7.5 18v33q0 11 7.5 18t18.5 7h89q21 0 36 12t25.5 29t15.5 36t5 33q0 45 -28.5 75.5t-88.5 30.5
q-30 0 -52.5 -10t-37.5 -27t-22 -38.5t-7 -43.5q0 -23 -23 -23h-56q-11 0 -17 6.5t-6 17.5q0 39 13.5 75.5t41 65t69 46t97.5 17.5q55 0 96.5 -14.5t69 -40t41 -60.5t13.5 -75q0 -41 -18.5 -81.5t-52.5 -68.5q19 -9 34.5 -26t26.5 -38t17 -44.5t6 -46.5v-31q0 -45 -15.5 -82
t-46 -64t-74.5 -41.5t-101 -14.5q-58 0 -101 17.5t-71.5 47.5t-42.5 69.5t-14 82.5z" />
    <glyph glyph-name="four" unicode="4" horiz-adv-x="583" 
d="M56 135q-10 0 -17.5 7t-7.5 18v11q0 11 3 24t8 24l233 458q5 11 15 17t21 6h62q8 0 13 -7.5t1 -15.5l-228 -454h226v239q0 11 7 18.5t18 7.5h52q11 0 18.5 -7.5t7.5 -18.5v-239h47q11 0 18.5 -7.5t7.5 -18.5v-37q0 -11 -7.5 -18t-18.5 -7h-47v-110q0 -11 -7.5 -18
t-18.5 -7h-52q-11 0 -18 7t-7 18v110h-329z" />
    <glyph glyph-name="five" unicode="5" horiz-adv-x="561" 
d="M150 201q0 -20 6.5 -42t21 -40.5t38.5 -30.5t59 -12q63 0 94.5 29.5t31.5 83.5v69q0 72 -31.5 98.5t-88.5 26.5q-30 0 -60.5 -8.5t-54.5 -21.5q-14 -7 -27 -9.5t-28 -2.5h-26q-10 0 -17 7.5t-5 17.5l45 309q2 11 10 18t19 7h318q11 0 18.5 -7t7.5 -18v-37
q0 -11 -7.5 -18.5t-18.5 -7.5h-252l-25 -171q21 13 51.5 21.5t62.5 8.5q49 0 89.5 -11.5t69 -36.5t44 -63t15.5 -91v-82q0 -90 -60.5 -145t-174.5 -55q-59 0 -102 18t-71 47.5t-42 68t-14 79.5q0 11 6 17.5t17 6.5h58q23 0 23 -23z" />
    <glyph glyph-name="six" unicode="6" horiz-adv-x="589" 
d="M308 333q-43 0 -82.5 -12.5t-65.5 -33.5v-83q0 -71 37.5 -100t98.5 -29q60 0 97 31.5t37 103.5q0 69 -30 96t-92 27zM421 513q0 51 -34 81.5t-96 30.5t-96.5 -37t-34.5 -108v-103q29 20 71.5 32.5t85.5 12.5q47 0 87 -11t68.5 -35t44.5 -61t16 -89v-31q0 -52 -17.5 -91
t-49 -65.5t-75 -39.5t-95.5 -13t-96 12t-76 36.5t-50 62.5t-18 90v307q0 50 17 91t47.5 69.5t74 44t96.5 15.5t96 -14t73 -40t46.5 -63t16.5 -83q0 -11 -6.5 -18t-17.5 -7h-55q-23 0 -23 24z" />
    <glyph glyph-name="seven" unicode="7" horiz-adv-x="469" 
d="M101 0q-9 0 -14 7.5t-1 16.5l254 588h-302q-10 0 -17.5 7t-7.5 18v38q0 11 7.5 18t17.5 7h396q11 0 18.5 -7t7.5 -18v-11q0 -11 -2.5 -24.5t-7.5 -24.5l-253 -591q-5 -11 -14.5 -17.5t-20.5 -6.5h-61z" />
    <glyph glyph-name="eight" unicode="8" horiz-adv-x="599" 
d="M169 523q0 -47 24.5 -78.5t63.5 -31.5h80q40 0 66.5 31.5t26.5 78.5q0 45 -35 75t-96 30q-60 0 -95 -30t-35 -75zM299 -14q-60 0 -106 14.5t-77 41.5t-47 64t-16 82v34q0 48 23.5 90t61.5 65q-33 28 -52 68t-19 81t15.5 75.5t45.5 59.5t73 39t98 14t98.5 -14t73.5 -39
t45.5 -59.5t15.5 -75.5q0 -40 -18.5 -80t-52.5 -69q39 -22 62 -64.5t23 -90.5v-34q0 -45 -16 -82t-47 -64t-77.5 -41.5t-106.5 -14.5zM254 331q-38 0 -65 -32t-27 -87v-22q0 -54 34 -84.5t103 -30.5q70 0 104 30.5t34 84.5v22q0 55 -27.5 87t-65.5 32h-90z" />
    <glyph glyph-name="nine" unicode="9" horiz-adv-x="586" 
d="M281 375q43 0 79 7t66 24v92q0 70 -37 98.5t-97 28.5t-96 -29.5t-36 -101.5q0 -66 29.5 -92.5t91.5 -26.5zM294 -14q-53 0 -96.5 14t-74.5 40.5t-47.5 63.5t-16.5 84q0 11 6.5 18t17.5 7h55q11 0 17 -6.5t6 -17.5q0 -51 35 -82.5t98 -31.5q62 0 97 37t35 108v98
q-29 -18 -70 -25t-84 -7q-47 0 -87 11t-68.5 35t-44.5 60.5t-16 87.5v28q0 51 17.5 90t48.5 64.5t74.5 38.5t95.5 13t96 -11.5t75.5 -36t49 -62t17.5 -89.5v-309q0 -50 -17 -91t-48 -69.5t-74.5 -44t-96.5 -15.5z" />
    <glyph glyph-name="colon" unicode=":" horiz-adv-x="222" 
d="M171 50q0 -31 -16.5 -45.5t-44.5 -14.5q-27 0 -43 14.5t-16 45.5q0 32 16 47.5t43 15.5q28 0 44.5 -15.5t16.5 -47.5zM171 507q0 -31 -16.5 -45.5t-44.5 -14.5q-27 0 -43 14.5t-16 45.5q0 32 16 47.5t43 15.5q28 0 44.5 -15.5t16.5 -47.5z" />
    <glyph glyph-name="semicolon" unicode=";" horiz-adv-x="225" 
d="M174 507q0 -31 -16.5 -45.5t-45.5 -14.5q-26 0 -42.5 14.5t-16.5 45.5q0 32 16.5 47.5t42.5 15.5q29 0 45.5 -15.5t16.5 -47.5zM174 50q0 -32 -12 -61t-30.5 -51t-40.5 -34.5t-41 -12.5q-20 0 -20 16v8q0 16 16 28q14 9 21.5 24.5t8.5 32.5q-23 15 -23 50q0 31 16.5 46.5
t42.5 15.5q28 0 45 -15.5t17 -46.5z" />
    <glyph glyph-name="less" unicode="&#x3c;" horiz-adv-x="370" 
d="M69 227q-8 7 -13.5 18.5t-5.5 22.5v23q0 11 5.5 22.5t13.5 19.5l232 211q5 5 12 1.5t7 -10.5v-70q0 -12 -5.5 -23t-13.5 -19l-157 -143l156 -143q20 -17 20 -42v-70q0 -7 -7 -10.5t-12 1.5z" />
    <glyph glyph-name="equal" unicode="=" horiz-adv-x="581" 
d="M76 134q-11 0 -18.5 7t-7.5 18v36q0 11 7.5 18.5t18.5 7.5h430q11 0 18 -7.5t7 -18.5v-36q0 -11 -7 -18t-18 -7h-430zM76 359q-11 0 -18.5 7.5t-7.5 18.5v36q0 11 7.5 18t18.5 7h430q11 0 18 -7t7 -18v-36q0 -11 -7 -18.5t-18 -7.5h-430z" />
    <glyph glyph-name="greater" unicode="&#x3e;" horiz-adv-x="370" 
d="M69 16q-5 -5 -12 -1.5t-7 10.5v70q0 12 5.5 23t14.5 19l156 143l-157 143q-8 8 -13.5 19t-5.5 23v70q0 7 7 10.5t12 -1.5l232 -211q8 -8 13.5 -19.5t5.5 -22.5v-23q0 -11 -5.5 -22.5t-13.5 -18.5z" />
    <glyph glyph-name="question" unicode="?" horiz-adv-x="513" 
d="M139 530q0 -11 -6.5 -18t-17.5 -7h-54q-11 0 -17.5 7t-6.5 18q0 35 13 68t39.5 59t66.5 41.5t94 15.5q53 0 93 -13t66.5 -35.5t40 -53.5t13.5 -66v-16q0 -33 -7.5 -59t-20.5 -48t-31 -41t-38 -38q-42 -41 -62.5 -73.5t-20.5 -75.5v-9q0 -8 -5 -13.5t-13 -5.5h-63
q-8 0 -13.5 6t-5.5 14v16q0 41 7 68.5t20.5 48.5t33.5 39l43 42q32 31 51 62t19 77q0 39 -25 63.5t-82 24.5q-30 0 -51 -8.5t-34.5 -22t-19.5 -31t-6 -36.5zM292 44q0 -29 -16.5 -43t-42.5 -14q-24 0 -40.5 14t-16.5 43t16.5 42.5t40.5 13.5q26 0 42.5 -13.5t16.5 -42.5z
" />
    <glyph glyph-name="at" unicode="@" horiz-adv-x="751" 
d="M340 205q14 0 28.5 5t28 12.5t24.5 17.5t19 20l26 186q-12 17 -35 31.5t-49 14.5q-40 0 -60 -23.5t-27 -68.5l-14 -104q-6 -44 7 -67.5t52 -23.5zM89 496q7 51 37.5 91t76 67.5t102 42t115.5 14.5t112 -15t91 -43t57.5 -68t12.5 -90l-31 -220q-8 -57 -38.5 -90t-87.5 -33
q-35 0 -56.5 15t-30.5 41q-11 -11 -25 -21t-30 -18t-32 -12.5t-31 -4.5q-66 0 -95 35.5t-20 101.5l17 120q9 66 47 101t101 35q28 0 53 -11t41 -28l1 13q5 20 24 20h18q10 0 17 -7.5t5 -17.5l-34 -244q-5 -33 3 -48t32 -15q48 0 57 66l31 216q6 41 -10.5 72t-47 51.5
t-72 30.5t-85.5 10q-45 0 -89 -10t-81 -31t-62 -52t-31 -73l-39 -278q-6 -42 10.5 -73t47 -51.5t71.5 -30.5t85 -10q76 0 145 24q9 3 15.5 -2.5t5.5 -14.5l-1 -12q-2 -11 -9 -19.5t-19 -12.5q-68 -21 -143 -21q-59 0 -111.5 15t-90.5 43t-57.5 68t-12.5 90z" />
    <glyph glyph-name="A" unicode="A" horiz-adv-x="608" 
d="M25 0q-10 0 -15 7.5t-2 16.5l234 652q4 11 13.5 17.5t20.5 6.5h52q11 0 20.5 -6.5t13.5 -17.5l234 -652q3 -9 -2 -16.5t-14 -7.5h-60q-11 0 -20.5 6.5t-13.5 17.5l-58 170h-255l-56 -170q-4 -11 -13 -17.5t-20 -6.5h-59zM201 281h199l-101 297z" />
    <glyph glyph-name="B" unicode="B" horiz-adv-x="594" 
d="M86 0q-11 0 -18 7t-7 18v650q0 11 7 18t18 7h229q108 0 164 -45t56 -137v-35q0 -36 -16.5 -73.5t-53.5 -58.5q38 -16 62.5 -54.5t24.5 -86.5v-37q0 -37 -12.5 -68.5t-39 -55t-66 -36.5t-93.5 -13h-255zM165 386h175q42 0 66.5 25t24.5 82v11q0 60 -27.5 83t-86.5 23h-152
v-224zM165 89h174q57 0 82.5 27t25.5 69v15q0 47 -24.5 74.5t-72.5 27.5h-185v-213z" />
    <glyph glyph-name="C" unicode="C" horiz-adv-x="597" 
d="M543 180q0 -42 -18 -77.5t-50 -61.5t-76.5 -40.5t-98.5 -14.5q-53 0 -97.5 15.5t-77 44.5t-51 70t-18.5 92v284q0 51 18.5 92t51 70t77 44.5t97.5 15.5q54 0 98.5 -14.5t76.5 -40.5t50 -61.5t18 -77.5v-20q0 -11 -6.5 -17.5t-17.5 -6.5h-56q-23 0 -23 24v10
q0 51 -38.5 82.5t-101.5 31.5q-62 0 -100.5 -37t-38.5 -109v-256q0 -72 38.5 -109t100.5 -37q63 0 101.5 32t38.5 86v15q0 24 23 24h56q11 0 17.5 -6.5t6.5 -17.5v-29z" />
    <glyph glyph-name="D" unicode="D" horiz-adv-x="608" 
d="M86 0q-11 0 -18 7t-7 18v650q0 11 7 18t18 7h235q53 0 96 -15.5t73 -44.5t46 -70t16 -92v-256q0 -51 -16 -92t-46 -70t-73 -44.5t-96 -15.5h-235zM165 89h156q61 0 93.5 37t32.5 109v230q0 72 -32.5 108.5t-93.5 36.5h-156v-521z" />
    <glyph glyph-name="E" unicode="E" horiz-adv-x="519" 
d="M86 0q-11 0 -18 7t-7 18v650q0 11 7 18t18 7h368q11 0 18.5 -7t7.5 -18v-40q0 -11 -7.5 -18t-18.5 -7h-289v-226h237q11 0 18.5 -7t7.5 -18v-39q0 -11 -7.5 -18t-18.5 -7h-237v-206h297q11 0 18.5 -7t7.5 -18v-39q0 -11 -7.5 -18t-18.5 -7h-376z" />
    <glyph glyph-name="F" unicode="F" horiz-adv-x="505" 
d="M86 0q-11 0 -18 7t-7 18v650q0 11 7 18t18 7h369q11 0 18 -7t7 -18v-40q0 -11 -7 -18t-18 -7h-290v-233h238q11 0 18 -7t7 -18v-39q0 -11 -7 -18t-18 -7h-238v-263q0 -11 -7 -18t-18 -7h-54z" />
    <glyph glyph-name="G" unicode="G" horiz-adv-x="603" 
d="M548 508q0 -11 -6 -17.5t-17 -6.5h-56q-23 0 -23 24v7q0 46 -38.5 77.5t-104.5 31.5q-63 0 -102.5 -37t-39.5 -109v-256q0 -72 38 -109t104 -37q44 0 81 18t60 47v128h-122q-11 0 -18 7.5t-7 18.5v38q0 11 7 18t18 7h201q11 0 18 -7t7 -18v-309q0 -11 -7 -18t-18 -7h-41
q-11 0 -19.5 7t-10.5 18l-2 20q-26 -26 -69 -42t-87 -16q-51 0 -95 15.5t-75.5 44.5t-49.5 70t-18 92v284q0 51 18.5 92t51 70t78 44.5t99.5 15.5t99 -14t77.5 -39.5t50.5 -61t18 -78.5v-13z" />
    <glyph glyph-name="H" unicode="H" horiz-adv-x="612" 
d="M86 0q-11 0 -18 7t-7 18v650q0 11 7 18t18 7h54q11 0 18 -7t7 -18v-294h282v294q0 11 7 18t18 7h54q11 0 18.5 -7t7.5 -18v-650q0 -11 -7.5 -18t-18.5 -7h-54q-11 0 -18 7t-7 18v267h-282v-267q0 -11 -7 -18t-18 -7h-54z" />
    <glyph glyph-name="I" unicode="I" horiz-adv-x="226" 
d="M86 0q-11 0 -18 7t-7 18v650q0 11 7 18t18 7h54q11 0 18 -7t7 -18v-650q0 -11 -7 -18t-18 -7h-54z" />
    <glyph glyph-name="J" unicode="J" horiz-adv-x="296" 
d="M236 209q0 -48 -15.5 -88t-42.5 -69t-65 -45t-83 -16q-11 0 -18.5 6t-7.5 17v36q0 26 25 33q50 8 76 44t26 99v449q0 11 7.5 18t18.5 7h54q11 0 18 -7t7 -18v-466z" />
    <glyph glyph-name="K" unicode="K" horiz-adv-x="561" 
d="M86 0q-11 0 -18 7t-7 18v650q0 11 7 18t18 7h51q11 0 18.5 -7t7.5 -18v-293h40l224 298q17 20 41 20h67q8 0 11 -7t-2 -13l-268 -344l275 -317q5 -6 1.5 -12.5t-11.5 -6.5h-76q-11 0 -22.5 5t-19.5 14l-222 266h-38v-260q0 -11 -7.5 -18t-18.5 -7h-51z" />
    <glyph glyph-name="L" unicode="L" horiz-adv-x="493" 
d="M86 0q-11 0 -18 7t-7 18v650q0 11 7 18t18 7h54q11 0 18 -7t7 -18v-586h294q11 0 18.5 -7t7.5 -18v-39q0 -11 -7.5 -18t-18.5 -7h-373z" />
    <glyph glyph-name="M" unicode="M" horiz-adv-x="805" 
d="M86 0q-11 0 -18 7t-7 18v650q0 11 7 18t18 7h64q26 0 38 -23l216 -387l213 387q5 11 15.5 17t22.5 6h64q11 0 18 -7t7 -18v-650q0 -11 -7 -18t-18 -7h-53q-11 0 -18 7t-7 18l3 511l-181 -327q-13 -23 -38 -23h-46q-11 0 -21.5 6t-15.5 17l-181 326l3 -510q0 -11 -7 -18
t-18 -7h-53z" />
    <glyph glyph-name="N" unicode="N" horiz-adv-x="630" 
d="M86 0q-11 0 -18 7t-7 18v650q0 11 7 18t18 7h67q12 0 22.5 -6t15.5 -16l277 -505l-2 502q0 11 7 18t18 7h53q11 0 18 -7t7 -18v-650q0 -11 -7 -18t-18 -7h-69q-12 0 -22.5 6t-15.5 16l-275 504l2 -501q1 -11 -6.5 -18t-18.5 -7h-53z" />
    <glyph glyph-name="O" unicode="O" horiz-adv-x="623" 
d="M311 -14q-53 0 -99.5 15.5t-81 44t-54.5 70t-20 92.5v284q0 52 20 93t54.5 69.5t81 44t99.5 15.5t100 -15.5t81.5 -44t54.5 -69.5t20 -93v-284q0 -51 -20 -92.5t-54.5 -70t-81.5 -44t-100 -15.5zM311 624q-31 0 -58.5 -9.5t-47.5 -27.5t-32 -45.5t-12 -63.5v-256
q0 -36 12 -63.5t32 -45.5t47.5 -27.5t58.5 -9.5t59 9.5t48 27.5t32 45.5t12 63.5v256q0 36 -12 63.5t-32 45.5t-48 27.5t-59 9.5z" />
    <glyph glyph-name="P" unicode="P" horiz-adv-x="595" 
d="M86 0q-11 0 -18 7t-7 18v650q0 11 7 18t18 7h235q53 0 96 -15.5t73 -44.5t46 -70t16 -92v-47q0 -51 -16 -92t-46 -70t-73 -44.5t-96 -15.5h-156v-184q0 -11 -7 -18t-18 -7h-54zM165 298h156q61 0 93.5 37t32.5 109v21q0 72 -32.5 108.5t-93.5 36.5h-156v-312z" />
    <glyph glyph-name="Q" unicode="Q" horiz-adv-x="623" 
d="M311 -14q-53 0 -99.5 15.5t-81 44.5t-54.5 70t-20 92v284q0 51 20 92t54.5 70t81 44.5t99.5 15.5q54 0 100.5 -15.5t81 -44.5t54.5 -70t20 -92v-284q0 -63 -30 -110.5t-80 -76.5l69 -105q5 -8 1 -15t-12 -7h-54q-12 0 -22.5 6t-16.5 16l-50 76q-29 -6 -61 -6zM161 221
q0 -74 45 -109.5t114 -36.5l-54 82q-4 7 0 14t12 7h53q26 0 39 -21l33 -51q27 17 43 45.5t16 69.5v258q0 36 -11.5 63t-32 45.5t-48 28t-59.5 9.5t-59 -9.5t-47.5 -28t-32 -45.5t-11.5 -63v-258z" />
    <glyph glyph-name="R" unicode="R" horiz-adv-x="605" 
d="M86 0q-11 0 -18 7t-7 18v650q0 11 7 18t18 7h235q107 0 169 -54.5t62 -157.5v-39q0 -77 -36.5 -128t-103.5 -69l151 -230q4 -8 0 -15t-12 -7h-73q-12 0 -22.5 6t-16.5 16l-138 215h-136v-212q0 -11 -7 -18t-18 -7h-54zM165 325h156q61 0 93.5 32.5t32.5 103.5v14
q0 71 -32.5 103t-93.5 32h-156v-285z" />
    <glyph glyph-name="S" unicode="S" horiz-adv-x="600" 
d="M48 201q0 11 6 18t17 7h59q23 0 23 -24q0 -21 10 -43t29.5 -40t48.5 -30t66 -12q71 0 106 32.5t35 86.5q0 27 -10.5 46t-30 31.5t-46.5 19.5t-59 10q-46 4 -89.5 15.5t-77 33.5t-53.5 57.5t-20 87.5v20q0 42 14 78t43 62.5t73 41t105 14.5q62 0 107.5 -18t75 -48
t44 -68.5t14.5 -79.5q0 -11 -6.5 -18t-17.5 -7h-57q-23 0 -23 24q0 20 -7 42t-23.5 40.5t-42.5 30.5t-64 12q-68 0 -99.5 -31.5t-31.5 -79.5q0 -33 12 -54.5t32 -34t47.5 -18.5t59.5 -9q42 -4 84 -14.5t75.5 -31.5t54.5 -55t21 -84v-25q0 -90 -62 -145t-183 -55
q-62 0 -110 17t-81 46.5t-50.5 68.5t-17.5 83z" />
    <glyph glyph-name="T" unicode="T" horiz-adv-x="508" 
d="M227 0q-11 0 -18 7t-7 18v586h-170q-11 0 -18.5 7t-7.5 18v39q0 11 7.5 18t18.5 7h444q11 0 18.5 -7t7.5 -18v-39q0 -11 -7.5 -18t-18.5 -7h-170v-586q0 -11 -7 -18t-18 -7h-54z" />
    <glyph glyph-name="U" unicode="U" horiz-adv-x="606" 
d="M303 -14q-55 0 -100 15.5t-77 44.5t-49.5 70t-17.5 92v467q0 11 7 18t18 7h54q11 0 18 -7t7 -18v-453q0 -72 37.5 -109t102.5 -37t102.5 37t37.5 109v453q0 11 7 18t18 7h54q11 0 18.5 -7t7.5 -18v-467q0 -51 -18 -92t-50 -70t-77 -44.5t-100 -15.5z" />
    <glyph glyph-name="V" unicode="V" horiz-adv-x="589" 
d="M267 0q-11 0 -20.5 6.5t-13.5 17.5l-225 652q-4 9 1.5 16.5t15.5 7.5h60q11 0 20.5 -6.5t11.5 -17.5l179 -554l173 554q3 11 12.5 17.5t20.5 6.5h58q10 0 15.5 -7.5t1.5 -16.5l-223 -652q-4 -11 -13.5 -17.5t-20.5 -6.5h-53z" />
    <glyph glyph-name="W" unicode="W" horiz-adv-x="922" 
d="M235 0q-25 0 -33 25l-195 650q-3 10 2.5 17.5t15.5 7.5h61q11 0 20 -7t12 -18l145 -535l135 535q2 11 11 18t20 7h63q11 0 20 -7t11 -18l135 -535l145 535q7 25 32 25h58q9 0 15 -7.5t3 -17.5l-196 -650q-8 -25 -33 -25h-62q-11 0 -20 7t-11 18l-133 521l-131 -521
q-7 -25 -32 -25h-58z" />
    <glyph glyph-name="X" unicode="X" horiz-adv-x="566" 
d="M25 0q-9 0 -13.5 7t0.5 15l173 308l-171 347q-4 8 0.5 15.5t13.5 7.5h62q12 0 22 -6t15 -17l139 -296h21l151 296q5 11 15 17t22 6h61q9 0 13.5 -7.5t-0.5 -15.5l-184 -346l185 -309q4 -8 0 -15t-13 -7h-68q-11 0 -21.5 6t-15.5 16l-147 260h-20l-139 -259
q-12 -23 -37 -23h-64z" />
    <glyph glyph-name="Y" unicode="Y" horiz-adv-x="555" 
d="M250 0q-11 0 -18.5 7t-7.5 18v212l-213 440q-4 8 0.5 15.5t13.5 7.5h63q24 0 36 -23l153 -339l154 339q10 23 36 23h60q8 0 13 -7.5t1 -15.5l-212 -438v-214q0 -11 -7.5 -18t-18.5 -7h-53z" />
    <glyph glyph-name="Z" unicode="Z" horiz-adv-x="550" 
d="M55 0q-11 0 -18.5 7t-7.5 18v30q0 11 3.5 24t10.5 23l335 509h-312q-11 0 -18 7t-7 18v39q0 11 7 18t18 7h414q11 0 18 -7t7 -18v-30q0 -11 -3.5 -24t-10.5 -23l-334 -509h338q11 0 18 -7t7 -18v-39q0 -11 -7 -18t-18 -7h-440z" />
    <glyph glyph-name="bracketleft" unicode="[" horiz-adv-x="279" 
d="M93 -110q-11 0 -18 7t-7 18v810q0 11 7 18t18 7h133q11 0 18.5 -7t7.5 -18v-32q0 -11 -7.5 -18t-18.5 -7h-66v-696h66q11 0 18.5 -7t7.5 -18v-32q0 -11 -7.5 -18t-18.5 -7h-133z" />
    <glyph glyph-name="backslash" unicode="\" horiz-adv-x="492" 
d="M413 -110q-26 0 -36 24l-364 812q-5 9 0.5 16.5t13.5 7.5h48q25 0 36 -24l362 -812q5 -9 0 -16.5t-14 -7.5h-46z" />
    <glyph glyph-name="bracketright" unicode="]" horiz-adv-x="279" 
d="M53 -110q-11 0 -18 7t-7 18v32q0 11 7 18t18 7h67v696h-67q-11 0 -18 7t-7 18v32q0 11 7 18t18 7h133q11 0 18.5 -7t7.5 -18v-810q0 -11 -7.5 -18t-18.5 -7h-133z" />
    <glyph glyph-name="asciicircum" unicode="^" horiz-adv-x="399" 
d="M48 500q-8 0 -13 7t0 15l106 194q5 10 15.5 16t22.5 6h37q12 0 22.5 -6t15.5 -16l105 -194q5 -8 0.5 -15t-12.5 -7h-45q-11 0 -21 6t-15 17l-70 144l-70 -144q-11 -23 -36 -23h-42z" />
    <glyph glyph-name="underscore" unicode="_" horiz-adv-x="503" 
d="M30 -121q-11 0 -18 7.5t-7 18.5v20q0 11 7 18t18 7h443q10 0 17.5 -7t7.5 -18v-20q0 -11 -7.5 -18.5t-17.5 -7.5h-443z" />
    <glyph glyph-name="grave" unicode="`" horiz-adv-x="293" 
d="M178 616q-26 0 -42 19l-72 87q-5 6 -2 13t10 7h62q11 0 21.5 -6t17.5 -16l55 -83q5 -7 1 -14t-12 -7h-39z" />
    <glyph glyph-name="a" unicode="a" horiz-adv-x="550" 
d="M244 69q46 0 82.5 21t57.5 47v73q-29 10 -62.5 15.5t-69.5 5.5q-51 0 -75.5 -21.5t-24.5 -59.5q0 -40 25 -60.5t67 -20.5zM66 394q0 31 13 62.5t39 57t65 41t91 15.5q102 0 156 -47t54 -139v-359q0 -11 -7.5 -18t-18.5 -7h-37q-11 0 -19 7t-10 18l-3 32
q-29 -30 -74.5 -48.5t-96.5 -18.5q-80 0 -123 41t-43 116q0 80 52.5 117.5t141.5 37.5q35 0 73.5 -6t64.5 -14v90q0 62 -26.5 88.5t-83.5 26.5q-27 0 -47.5 -8t-34 -21.5t-20.5 -30.5t-7 -36q0 -21 -25 -21h-49q-11 0 -18 6.5t-7 17.5z" />
    <glyph glyph-name="b" unicode="b" horiz-adv-x="562" 
d="M296 485q-37 0 -72 -21t-57 -47v-274q22 -26 57 -47t72 -21q57 0 80.5 32t23.5 95v156q0 63 -23.5 95t-80.5 32zM93 0q-11 0 -18 7t-7 18v700q0 11 7 18t18 7h49q11 0 18 -7t7 -18v-218q29 28 66.5 45.5t79.5 17.5q97 0 141.5 -51.5t44.5 -148.5v-180q0 -97 -44.5 -148.5
t-141.5 -51.5q-44 0 -83.5 19t-67.5 48l-3 -32q-2 -11 -10 -18t-19 -7h-37z" />
    <glyph glyph-name="c" unicode="c" horiz-adv-x="556" 
d="M496 168q0 -36 -14.5 -68.5t-42 -57t-67.5 -38.5t-92 -14q-101 0 -159.5 55t-58.5 152v166q0 97 58.5 152t159.5 55q52 0 92 -13.5t67.5 -37.5t42 -56.5t14.5 -70.5q0 -11 -6.5 -18t-17.5 -7h-51q-11 0 -17.5 6.5t-6.5 17.5q0 41 -29 68t-88 27q-57 0 -88 -34t-31 -101
v-142q0 -67 31 -101t88 -34q61 0 89 28t28 66q0 24 24 24h50q11 0 18 -6.5t7 -17.5z" />
    <glyph glyph-name="d" unicode="d" horiz-adv-x="562" 
d="M266 485q-57 0 -80.5 -32t-23.5 -95v-156q0 -63 23.5 -95t80.5 -32q19 0 37.5 5.5t35.5 15t31 22t25 25.5v274q-22 26 -57.5 47t-71.5 21zM469 750q11 0 18 -7t7 -18v-700q0 -11 -7 -18t-18 -7h-37q-11 0 -19 7t-10 18l-2 32q-29 -29 -68.5 -48t-83.5 -19
q-97 0 -141.5 51.5t-44.5 148.5v180q0 97 44.5 148.5t141.5 51.5q42 0 81 -17t65 -44v216q0 11 7 18t18 7h49z" />
    <glyph glyph-name="e" unicode="e" horiz-adv-x="558" 
d="M280 487q-57 0 -88 -33.5t-31 -100.5v-20l238 1v20q0 66 -30.5 99.5t-88.5 33.5zM495 160q0 -29 -14 -59.5t-41.5 -55t-67.5 -40t-92 -15.5q-101 0 -159.5 55t-58.5 152v166q0 97 58.5 152t159.5 55q102 0 160 -55t58 -152v-78q0 -10 -7 -17.5t-18 -7.5h-312v-55
q0 -67 31 -99.5t88 -32.5q32 0 54.5 9t36.5 22t20 28.5t6 29.5q0 23 23 23h52q23 0 23 -25z" />
    <glyph glyph-name="f" unicode="f" horiz-adv-x="360" 
d="M94 0q-11 0 -18.5 7t-7.5 18v455h-38q-11 0 -18 7t-7 18v30q0 11 7 18t18 7h38v17q0 92 53 137.5t149 45.5q14 0 30 -1.5t30 -3.5q10 -2 17.5 -10.5t7.5 -18.5v-32q0 -11 -7 -17t-18 -4q-14 2 -28 3t-27 1q-107 0 -107 -100v-17h138q11 0 18.5 -7t7.5 -18v-30
q0 -11 -7.5 -18t-18.5 -7h-138v-455q0 -11 -7.5 -18t-18.5 -7h-48z" />
    <glyph glyph-name="g" unicode="g" horiz-adv-x="501" 
d="M247 570q34 0 64 -8t51 -21q30 22 30 68v7q0 19 20 19h45q21 0 23 -20q1 -2 1.5 -8.5t0.5 -10.5q0 -39 -17.5 -66t-43.5 -45q8 -15 12.5 -33.5t4.5 -35.5v-64q0 -29 -13 -55.5t-37 -46.5t-59 -32t-78 -12q-31 0 -55 6q-15 -13 -15 -36q0 -20 14 -37q8 1 16.5 1.5
t17.5 0.5h77q83 0 130.5 -37t47.5 -109q0 -78 -49.5 -116.5t-136.5 -38.5h-82q-88 0 -137.5 38.5t-49.5 116.5q0 45 20.5 77.5t56.5 49.5q-15 24 -15 55q0 37 23 69q-26 17 -41.5 46.5t-15.5 59.5v64q0 31 13.5 59t38 49t59.5 33.5t79 12.5zM126 -8q0 -40 24.5 -57.5
t74.5 -17.5h63q50 0 73.5 17.5t23.5 57.5t-23.5 57t-73.5 17h-63q-50 0 -74.5 -17t-24.5 -57zM247 491q-43 0 -68 -22t-25 -59v-46q0 -37 25 -59.5t68 -22.5q44 0 69 22.5t25 59.5v46q0 37 -25 59t-69 22z" />
    <glyph glyph-name="h" unicode="h" horiz-adv-x="559" 
d="M93 0q-11 0 -18 7t-7 18v700q0 11 7 18t18 7h49q11 0 18 -7t7 -18v-218q29 29 65 46t78 17q97 0 140 -47.5t43 -141.5v-356q0 -11 -7 -18t-18 -7h-49q-11 0 -18 7t-7 18v343q0 61 -22 89t-79 28q-37 0 -70.5 -21t-55.5 -47v-392q0 -11 -7 -18t-18 -7h-49z" />
    <glyph glyph-name="i" unicode="i" 
d="M93 0q-11 0 -18 7t-7 18v510q0 11 7 18t18 7h49q11 0 18 -7t7 -18v-510q0 -11 -7 -18t-18 -7h-49zM177 689q0 -31 -17 -44.5t-45 -13.5q-26 0 -42.5 13.5t-16.5 44.5q0 32 16.5 46.5t42.5 14.5q28 0 45 -14.5t17 -46.5z" />
    <glyph glyph-name="j" unicode="j" horiz-adv-x="242" 
d="M174 33q0 -48 -15.5 -84t-41 -60t-59 -36t-70.5 -12q-10 0 -18 6t-8 17v25q0 25 26 33q47 7 67 37.5t20 87.5v488q0 11 7 18t18 7h49q11 0 18 -7t7 -18v-502zM184 692q0 -31 -16.5 -44.5t-45.5 -13.5q-26 0 -42.5 13.5t-16.5 44.5q0 32 16.5 46.5t42.5 14.5
q29 0 45.5 -14.5t16.5 -46.5z" />
    <glyph glyph-name="k" unicode="k" horiz-adv-x="509" 
d="M93 0q-11 0 -18 7t-7 18v700q0 11 7 18t18 7h49q11 0 18 -7t7 -18v-408h39l168 223q17 20 41 20h65q8 0 11.5 -7t-1.5 -13l-208 -265l218 -256q5 -5 2 -12t-11 -7h-68q-11 0 -22.5 5t-19.5 14l-175 209h-39v-203q0 -11 -7 -18t-18 -7h-49z" />
    <glyph glyph-name="l" unicode="l" 
d="M93 0q-11 0 -18 7t-7 18v700q0 11 7 18t18 7h49q11 0 18 -7t7 -18v-700q0 -11 -7 -18t-18 -7h-49z" />
    <glyph glyph-name="m" unicode="m" horiz-adv-x="837" 
d="M93 0q-11 0 -18 7t-7 18v510q0 11 7 18t18 7h37q11 0 19 -7t10 -18l3 -32q29 30 63 48.5t76 18.5q60 0 95.5 -20.5t54.5 -58.5q29 34 65.5 56.5t84.5 22.5q95 0 132.5 -48t37.5 -141v-356q0 -11 -7 -18t-18 -7h-49q-11 0 -18 7t-7 18v343q0 30 -3.5 52.5t-13.5 36.5
t-27 21t-45 7q-36 0 -65 -19.5t-50 -44.5q2 -12 3 -24t1 -26v-346q0 -11 -7.5 -18t-18.5 -7h-48q-11 0 -18 7t-7 18v336q0 30 -3.5 53.5t-13.5 39t-27 23.5t-45 8q-38 0 -67.5 -21t-49.5 -47v-392q0 -11 -7 -18t-18 -7h-49z" />
    <glyph glyph-name="n" unicode="n" horiz-adv-x="557" 
d="M93 0q-11 0 -18 7t-7 18v510q0 11 7 18t18 7h37q11 0 19 -7t10 -18l3 -32q29 30 66.5 48.5t80.5 18.5q96 0 139 -47.5t43 -141.5v-356q0 -11 -7 -18t-18 -7h-49q-11 0 -18 7t-7 18v343q0 61 -21.5 89t-78.5 28q-38 0 -70.5 -21t-54.5 -47v-392q0 -11 -7 -18t-18 -7h-49z
" />
    <glyph glyph-name="o" unicode="o" horiz-adv-x="560" 
d="M280 487q-57 0 -88 -34.5t-31 -101.5v-142q0 -67 31 -101.5t88 -34.5q58 0 88.5 34.5t30.5 101.5v142q0 67 -30.5 101.5t-88.5 34.5zM280 -10q-101 0 -159.5 55t-58.5 152v166q0 97 58.5 152t159.5 55q102 0 160 -55t58 -152v-166q0 -97 -58 -152t-160 -55z" />
    <glyph glyph-name="p" unicode="p" horiz-adv-x="562" 
d="M296 485q-37 0 -72 -21t-57 -47v-274q22 -26 57 -47t72 -21q57 0 80.5 32t23.5 95v156q0 63 -23.5 95t-80.5 32zM93 -150q-11 0 -18 7t-7 18v660q0 11 7 18t18 7h37q11 0 19 -7t10 -18l3 -32q28 29 67.5 48t83.5 19q97 0 141.5 -51.5t44.5 -148.5v-180
q0 -97 -44.5 -148.5t-141.5 -51.5q-42 0 -79.5 16t-66.5 44v-175q0 -11 -7 -18t-18 -7h-49z" />
    <glyph glyph-name="q" unicode="q" horiz-adv-x="562" 
d="M266 485q-57 0 -80.5 -32t-23.5 -95v-156q0 -63 23.5 -95t80.5 -32q19 0 37.5 5.5t35.5 15t31 22t25 25.5v274q-11 13 -25 25.5t-31 22t-35.5 15t-37.5 5.5zM249 -10q-97 0 -141.5 51.5t-44.5 148.5v180q0 97 44.5 148.5t141.5 51.5q44 0 83.5 -19t68.5 -48l3 32
q2 11 10 18t19 7h36q11 0 18 -7t7 -18v-660q0 -11 -7 -18t-18 -7h-49q-11 0 -18 7t-7 18v178q-29 -28 -66.5 -45.5t-79.5 -17.5z" />
    <glyph glyph-name="r" unicode="r" horiz-adv-x="333" 
d="M293 569q23 0 23 -20v-47q0 -21 -22 -21q-16 0 -34 -5.5t-35.5 -15.5t-32.5 -24t-25 -31v-380q0 -11 -7 -18t-18 -7h-49q-11 0 -18 7t-7 18v510q0 11 7 18t18 7h36q11 0 19 -7t10 -18l4 -43q10 17 27 31.5t35.5 24.5t36.5 15.5t32 5.5z" />
    <glyph glyph-name="s" unicode="s" horiz-adv-x="520" 
d="M143 153q0 -14 8 -29t23.5 -27.5t38.5 -20.5t53 -8q57 0 83.5 25t26.5 63q0 22 -10 36.5t-27.5 24.5t-42.5 15.5t-55 10.5q-36 5 -69.5 14.5t-59 27.5t-41 45.5t-15.5 67.5v16q0 69 50 114t151 45q52 0 90 -14.5t63 -38t37.5 -52.5t12.5 -59q0 -11 -6 -17.5t-17 -6.5h-47
q-11 0 -18 6t-7 17q0 13 -5.5 28t-18.5 27.5t-33.5 20.5t-50.5 8q-54 0 -78 -24t-24 -61q0 -23 9 -38t25.5 -24.5t40.5 -15.5t53 -10q36 -5 70 -14t61 -25.5t43.5 -43.5t16.5 -67v-20q0 -34 -13.5 -63.5t-40 -51.5t-65 -34.5t-89.5 -12.5t-92 13.5t-69.5 36t-43.5 52.5
t-15 63q0 11 6.5 17.5t17.5 6.5h49q11 0 17.5 -6t6.5 -17z" />
    <glyph glyph-name="t" unicode="t" horiz-adv-x="359" 
d="M261 -13q-191 0 -191 192v301h-34q-11 0 -18.5 7t-7.5 18v30q0 11 7.5 18t18.5 7h36l9 115q1 11 8.5 18t18.5 7h36q11 0 18 -7t7 -18v-115h136q11 0 18.5 -7t7.5 -18v-30q0 -11 -7.5 -18t-18.5 -7h-136v-295q0 -60 24.5 -88t77.5 -28q12 0 25 1t27 3q10 2 17 -3.5
t7 -16.5v-30q0 -10 -7.5 -18.5t-18.5 -10.5q-15 -3 -30.5 -5t-29.5 -2z" />
    <glyph glyph-name="u" unicode="u" horiz-adv-x="553" 
d="M240 -10q-49 0 -82 12t-53.5 36t-29.5 59t-9 82v356q0 11 7 18t18 7h49q11 0 18 -7t7 -18v-343q0 -61 18.5 -89t75.5 -28q38 0 71.5 21t55.5 47v392q0 11 7 18t18 7h49q11 0 18 -7t7 -18v-510q0 -11 -7 -18t-18 -7h-38q-11 0 -19 7t-9 18l-3 32q-29 -30 -68.5 -48.5
t-82.5 -18.5z" />
    <glyph glyph-name="v" unicode="v" horiz-adv-x="493" 
d="M221 0q-11 0 -20.5 6.5t-13.5 17.5l-179 512q-4 9 1.5 16.5t15.5 7.5h56q11 0 20 -6.5t12 -17.5l133 -421l132 421q3 11 12.5 17.5t20.5 6.5h53q10 0 15 -7.5t2 -16.5l-180 -512q-3 -11 -12.5 -17.5t-20.5 -6.5h-47z" />
    <glyph glyph-name="w" unicode="w" horiz-adv-x="783" 
d="M197 0q-11 0 -20 6.5t-13 17.5l-157 512q-3 9 2.5 16.5t15.5 7.5h55q11 0 20 -7t12 -18l113 -418l106 418q2 11 11 18t20 7h55q11 0 20 -7t11 -18l109 -418l113 418q3 11 11.5 18t19.5 7h54q9 0 14.5 -7.5t2.5 -16.5l-159 -512q-3 -11 -12.5 -17.5t-20.5 -6.5h-55
q-11 0 -20 7t-11 18l-107 403l-104 -403q-2 -11 -11 -18t-20 -7h-55z" />
    <glyph glyph-name="x" unicode="x" horiz-adv-x="510" 
d="M28 0q-9 0 -13 7t1 14l150 250l-147 267q-5 8 -0.5 15t13.5 7h60q12 0 22 -6t15 -17l112 -216h20l114 216q5 11 15.5 17t21.5 6h59q8 0 12 -7t0 -15l-151 -265l158 -252q5 -7 1 -14t-12 -7h-65q-11 0 -21.5 6t-16.5 16l-118 203h-20l-113 -202q-13 -23 -38 -23h-59z" />
    <glyph glyph-name="y" unicode="y" horiz-adv-x="493" 
d="M290 -10q-24 -69 -76 -108t-123 -41q-10 0 -18 7.5t-8 17.5v28q0 25 26 28q37 3 63.5 24t39.5 61l-186 529q-3 9 2 16.5t15 7.5h56q11 0 20 -6.5t12 -17.5l133 -421l132 421q3 11 12.5 17.5t20.5 6.5h53q10 0 15 -7.5t2 -16.5z" />
    <glyph glyph-name="z" unicode="z" horiz-adv-x="468" 
d="M58 0q-11 0 -18.5 7t-7.5 18v23q0 11 4 24t10 23l257 383h-240q-11 0 -18 7.5t-7 18.5v31q0 11 7 18t18 7h340q11 0 18 -7t7 -18v-23q0 -11 -3.5 -24t-10.5 -23l-257 -383h258q11 0 18 -7.5t7 -18.5v-31q0 -11 -7 -18t-18 -7h-357z" />
    <glyph glyph-name="braceleft" unicode="{" horiz-adv-x="351" 
d="M146 172q0 52 -22 77.5t-56 25.5h-13q-9 0 -15 6.5t-6 15.5v46q0 9 6 15.5t15 6.5h13q34 0 56 25.5t22 77.5v138q0 78 37.5 111t110.5 33q11 0 18 -6.5t7 -17.5v-33q0 -11 -6.5 -18t-17.5 -7q-32 0 -42.5 -19t-10.5 -54v-133q0 -51 -18.5 -87.5t-56.5 -54.5
q38 -17 56.5 -54.5t18.5 -87.5v-133q0 -35 10.5 -54t42.5 -19q11 0 17.5 -7t6.5 -18v-33q0 -11 -7 -17.5t-18 -6.5q-73 0 -110.5 33t-37.5 111v138z" />
    <glyph glyph-name="bar" unicode="|" horiz-adv-x="224" 
d="M94 -170q-11 0 -18.5 7t-7.5 18v890q0 11 7.5 18t18.5 7h36q11 0 18 -7t7 -18v-890q0 -11 -7 -18t-18 -7h-36z" />
    <glyph glyph-name="braceright" unicode="}" horiz-adv-x="351" 
d="M205 34q0 -78 -37.5 -111t-110.5 -33q-11 0 -17.5 6.5t-6.5 17.5v33q0 11 6 18t17 7q32 0 43 19t11 54v133q0 50 18.5 87.5t55.5 54.5q-38 18 -56 54.5t-18 87.5v133q0 35 -11 54t-43 19q-11 0 -17 7t-6 18v33q0 11 6.5 17.5t17.5 6.5q73 0 110.5 -33t37.5 -111v-138
q0 -52 22.5 -77.5t56.5 -25.5h12q9 0 15 -6.5t6 -15.5v-46q0 -9 -6 -15.5t-15 -6.5h-12q-34 0 -56.5 -25.5t-22.5 -77.5v-138z" />
    <glyph glyph-name="asciitilde" unicode="~" horiz-adv-x="597" 
d="M522 397q10 0 16 -7t4 -15q-6 -45 -41 -78t-98 -33q-31 0 -58.5 10.5t-52.5 22.5l-50 23q-25 10 -50 10q-22 0 -35 -10t-21 -26q-7 -11 -14.5 -16.5t-21.5 -5.5h-27q-9 0 -15 7t-5 15q4 21 15 41t29 35.5t42 24.5t53 9q30 0 59 -10t55.5 -22.5t51 -22.5t46.5 -10
q20 0 33.5 9.5t21.5 26.5q7 11 14.5 16.5t21.5 5.5h27z" />
    <glyph glyph-name="uni00A0" unicode="&#xa0;" horiz-adv-x="282" 
 />
    <glyph glyph-name="exclamdown" unicode="&#xa1;" horiz-adv-x="247" 
d="M99 0q-11 0 -18 7t-7 18v149l9 326q0 11 7.5 18t17.5 7h30q11 0 18.5 -7t7.5 -18l9 -326v-149q0 -11 -7 -18t-18 -7h-49zM178 654q0 -27 -15.5 -40t-40.5 -13q-23 0 -38 13t-15 40q0 29 15 42.5t38 13.5q25 0 40.5 -13.5t15.5 -42.5z" />
    <glyph glyph-name="cent" unicode="&#xa2;" horiz-adv-x="558" 
d="M162 300q0 -116 93 -133v365q-93 -15 -93 -132v-100zM405 258q0 23 23 23h48q11 0 17.5 -6.5t6.5 -17.5q0 -33 -12 -63t-35.5 -53t-58 -38.5t-78.5 -19.5v-61q0 -22 -22 -22h-18q-21 0 -21 22v61q-89 8 -139 61.5t-50 144.5v122q0 91 50 144t139 61v62q0 22 21 22h18
q22 0 22 -22v-61q89 -8 136.5 -56.5t47.5 -117.5q0 -25 -23 -25h-49q-23 0 -23 24q0 32 -22 58t-67 32v-365q45 7 67 33t22 58z" />
    <glyph glyph-name="sterling" unicode="&#xa3;" horiz-adv-x="570" 
d="M529 513q0 -11 -6 -18t-17 -7h-56q-23 0 -23 24q0 25 -5 46t-17 36t-31.5 23t-49.5 8q-60 0 -83 -36.5t-23 -106.5v-94h118q11 0 18 -7t7 -18v-35q0 -11 -7 -18t-18 -7h-118v-72q0 -33 -7 -58.5t-16 -43.5t-17.5 -28t-10.5 -13h345q11 0 18 -7t7 -18v-38q0 -11 -7 -18
t-18 -7h-453q-11 0 -18.5 7t-7.5 18v19q0 28 21 45q28 23 44.5 56t16.5 71v87h-56q-11 0 -18.5 7t-7.5 18v35q0 11 7.5 18t18.5 7h56v106q0 50 12.5 91t38.5 69.5t65 44t93 15.5q53 0 92 -14.5t64 -40.5t37 -63t12 -83z" />
    <glyph glyph-name="currency" unicode="&#xa4;" horiz-adv-x="602" 
d="M301 126q-73 0 -122 32l-50 -51q-7 -8 -17.5 -8t-18.5 7l-27 27q-8 8 -8 18.5t8 17.5l53 53q-22 42 -22 98v44q0 54 22 96l-54 53q-7 8 -7 18.5t8 18.5l27 27q7 7 17.5 7t18.5 -7l51 -52q49 32 121 32t121 -32l51 52q8 7 18.5 7t17.5 -7l27 -27q8 -8 8 -18.5t-8 -17.5
l-53 -54q22 -42 22 -96v-44q0 -28 -6 -53t-16 -45l53 -53q8 -7 8 -17.5t-8 -18.5l-27 -27q-7 -7 -17.5 -7t-18.5 7l-51 52q-23 -16 -54.5 -24t-66.5 -8zM301 479q-54 0 -85.5 -31t-31.5 -94v-25q0 -63 31.5 -94t85.5 -31t85.5 31t31.5 94v25q0 63 -31.5 94t-85.5 31z" />
    <glyph glyph-name="yen" unicode="&#xa5;" horiz-adv-x="557" 
d="M62 94q-10 0 -17 7t-7 18v29q0 11 7 18t18 7h164v73h-164q-11 0 -18 7.5t-7 18.5v28q0 11 7 18.5t18 7.5h146l-194 351q-5 8 0 15.5t13 7.5h66q26 0 38 -23l147 -281l147 281q5 11 15.5 17t22.5 6h61q8 0 12.5 -7.5t0.5 -15.5l-192 -351h146q11 0 18.5 -7.5t7.5 -18.5
v-28q0 -11 -7 -18.5t-19 -7.5h-162v-73h162q11 0 18.5 -7t7.5 -18v-29q0 -11 -7 -18t-19 -7h-162v-69q0 -11 -7.5 -18t-18.5 -7h-52q-11 0 -18.5 7t-7.5 18v69h-164z" />
    <glyph glyph-name="brokenbar" unicode="&#xa6;" horiz-adv-x="224" 
d="M94 -170q-11 0 -18.5 7t-7.5 18v296q0 11 7.5 18t18.5 7h36q11 0 18 -7t7 -18v-296q0 -11 -7 -18t-18 -7h-36zM94 422q-11 0 -18.5 7.5t-7.5 18.5v297q0 11 7.5 18t18.5 7h36q11 0 18 -7t7 -18v-297q0 -11 -7 -18.5t-18 -7.5h-36z" />
    <glyph glyph-name="section" unicode="&#xa7;" horiz-adv-x="529" 
d="M204 401q-20 -11 -35.5 -33t-15.5 -47v-6q0 -23 11 -38t31.5 -25.5t50.5 -18.5t69 -16q26 14 44 37.5t18 47.5q0 30 -19.5 47t-46.5 26.5t-56.5 14.5t-50.5 11zM153 65q0 -15 6 -30t19 -27t33.5 -19.5t48.5 -7.5q54 0 79 23.5t25 59.5q0 19 -9 32t-24.5 22.5t-37.5 16
t-47 11.5q-36 7 -71 17.5t-62.5 29.5t-45 47.5t-17.5 70.5q0 41 21 75.5t54 54.5q-27 17 -44 44t-17 62v14q0 66 47.5 109.5t145.5 43.5q50 0 86 -14t59.5 -37t35 -52t11.5 -59q0 -10 -6 -16.5t-16 -6.5h-49q-11 0 -17.5 5.5t-6.5 16.5q0 32 -22 57.5t-75 25.5
q-52 0 -71.5 -21.5t-19.5 -56.5q0 -21 9.5 -35t26 -24t38.5 -16.5t47 -11.5q33 -6 67 -16.5t62 -28t45.5 -44.5t17.5 -67v-13q0 -16 -7 -33.5t-19 -33.5t-26.5 -30t-29.5 -23q30 -17 49.5 -44t19.5 -65v-14q0 -33 -14 -61.5t-40.5 -49.5t-64.5 -33t-87 -12q-50 0 -88.5 13.5
t-64.5 36t-39 52t-13 61.5q0 23 22 23h52q11 0 17.5 -5.5t6.5 -16.5z" />
    <glyph glyph-name="dieresis" unicode="&#xa8;" horiz-adv-x="426" 
d="M384 671q0 -29 -14.5 -44.5t-42.5 -15.5q-26 0 -40.5 15.5t-14.5 44.5q0 30 14.5 46.5t40.5 16.5q28 0 42.5 -16.5t14.5 -46.5zM154 671q0 -29 -14.5 -44.5t-42.5 -15.5q-26 0 -40.5 15.5t-14.5 44.5q0 30 14.5 46.5t40.5 16.5q28 0 42.5 -16.5t14.5 -46.5z" />
    <glyph glyph-name="copyright" unicode="&#xa9;" horiz-adv-x="714" 
d="M505 260q0 -54 -40 -88.5t-107 -34.5t-108 37.5t-41 101.5v146q0 63 41 100.5t108 37.5t107 -34.5t40 -87.5v-10q0 -20 -19 -20h-38q-18 0 -18 19v3q0 29 -20 44.5t-52 15.5t-52 -18.5t-20 -55.5v-135q0 -36 20 -55t53 -19q32 0 51.5 16t19.5 44v9q0 19 18 19h38
q19 0 19 -19v-16zM357 -14q-60 0 -114.5 15t-96 43t-66 68.5t-24.5 92.5v287q0 51 24.5 91.5t66 68.5t96 43t114.5 15t114.5 -15t96 -43t66 -68.5t24.5 -91.5v-287q0 -52 -24.5 -92.5t-66 -68.5t-96 -43t-114.5 -15zM357 640q-42 0 -82.5 -9.5t-72.5 -29t-51.5 -48
t-19.5 -65.5v-279q0 -38 19.5 -66.5t51.5 -47.5t72.5 -28.5t82.5 -9.5t82.5 9.5t72.5 28.5t51.5 47.5t19.5 66.5v279q0 37 -19.5 65.5t-51.5 48t-72.5 29t-82.5 9.5z" />
    <glyph glyph-name="ordfeminine" unicode="&#xaa;" horiz-adv-x="412" 
d="M189 359q30 0 56 13.5t42 30.5v53q-44 11 -92 11q-35 0 -52 -14t-17 -39q0 -27 17 -41t46 -14zM61 583q0 25 9.5 48.5t28.5 41.5t47 28.5t65 10.5q73 0 111.5 -37t38.5 -104v-245q0 -23 -23 -23h-24q-9 0 -16 6t-7 15v12q-22 -18 -51 -29t-61 -11q-60 0 -94 29.5
t-34 88.5q0 31 11 52t30.5 34.5t46.5 19.5t60 6q21 0 44.5 -3.5t43.5 -8.5v49q0 86 -76 86q-38 0 -56.5 -20t-18.5 -48q0 -17 -18 -17h-38q-8 0 -13.5 5t-5.5 14z" />
    <glyph glyph-name="guillemotleft" unicode="&#xab;" horiz-adv-x="499" 
d="M68 229q-8 8 -13 20t-5 23v15q0 11 5 23t13 20l155 151q5 5 11.5 2t6.5 -10v-64q0 -11 -5 -23t-14 -20l-91 -87l91 -87q9 -8 14 -19.5t5 -22.5v-64q0 -8 -6.5 -10.5t-11.5 2.5zM276 229q-8 8 -13 20t-5 23v15q0 25 18 43l155 151q5 5 11.5 2t6.5 -10v-64q0 -11 -5.5 -23
t-13.5 -20l-92 -87l92 -87q8 -8 13.5 -19.5t5.5 -22.5v-64q0 -8 -6.5 -10.5t-11.5 2.5z" />
    <glyph glyph-name="logicalnot" unicode="&#xac;" horiz-adv-x="656" 
d="M83 355q-11 0 -18.5 7t-7.5 18v36q0 11 7.5 18.5t18.5 7.5h490q11 0 18 -7.5t7 -18.5v-188q0 -11 -7 -18t-18 -7h-46q-11 0 -18 7t-7 18v127h-419z" />
    <glyph glyph-name="uni00AD" unicode="&#xad;" horiz-adv-x="395" 
d="M83 259q-11 0 -18 7t-7 18v36q0 11 7 18.5t18 7.5h246q11 0 18 -7.5t7 -18.5v-36q0 -11 -7 -18t-18 -7h-246z" />
    <glyph glyph-name="registered" unicode="&#xae;" horiz-adv-x="714" 
d="M238 145q-11 0 -18 7.5t-7 18.5v356q0 11 7 18t18 7h132q66 0 104 -30.5t38 -91.5v-23q0 -42 -21 -71t-58 -41l83 -128q5 -7 0.5 -14.5t-12.5 -7.5h-39q-11 0 -22 6t-16 16l-74 118h-63v-114q0 -11 -7.5 -18.5t-18.5 -7.5h-26zM290 349h74q35 0 53 15.5t18 54.5t-18 53.5
t-53 14.5h-74v-138zM357 -14q-60 0 -114.5 15t-96 43t-66 68.5t-24.5 92.5v287q0 51 24.5 91.5t66 68.5t96 43t114.5 15t114.5 -15t96 -43t66 -68.5t24.5 -91.5v-287q0 -52 -24.5 -92.5t-66 -68.5t-96 -43t-114.5 -15zM357 640q-42 0 -82.5 -9.5t-72.5 -29t-51.5 -48
t-19.5 -65.5v-279q0 -38 19.5 -66.5t51.5 -47.5t72.5 -28.5t82.5 -9.5t82.5 9.5t72.5 28.5t51.5 47.5t19.5 66.5v279q0 37 -19.5 65.5t-51.5 48t-72.5 29t-82.5 9.5z" />
    <glyph glyph-name="macron" unicode="&#xaf;" horiz-adv-x="394" 
d="M74 623q-11 0 -18 7t-7 18v37q0 11 7 18t18 7h246q11 0 18 -7t7 -18v-37q0 -11 -7 -18t-18 -7h-246z" />
    <glyph glyph-name="degree" unicode="&#xb0;" horiz-adv-x="359" 
d="M177 439q-60 0 -96.5 33.5t-36.5 96.5v16q0 59 36.5 94.5t96.5 35.5q64 0 101 -35.5t37 -94.5v-16q0 -63 -37 -96.5t-101 -33.5zM112 575q0 -36 16 -56t48 -20q38 0 54.5 20t16.5 56q0 38 -16.5 58t-54.5 20q-64 0 -64 -78z" />
    <glyph glyph-name="plusminus" unicode="&#xb1;" horiz-adv-x="601" 
d="M83 320q-11 0 -18.5 7t-7.5 18v33q0 11 7.5 18.5t18.5 7.5h173v131q0 11 7 18t18 7h39q11 0 18 -7t7 -18v-131h174q11 0 18 -7.5t7 -18.5v-33q0 -11 -7 -18t-18 -7h-174v-131q0 -11 -7 -18.5t-18 -7.5h-39q-11 0 -18 7.5t-7 18.5v131h-173zM83 31q-11 0 -18.5 7t-7.5 18
v32q0 11 7.5 18.5t18.5 7.5h436q11 0 18 -7.5t7 -18.5v-32q0 -11 -7 -18t-18 -7h-436z" />
    <glyph glyph-name="uni00B2" unicode="&#xb2;" horiz-adv-x="427" 
d="M57 565q0 27 9.5 53.5t29 47t49 33t69.5 12.5q78 0 116.5 -37.5t38.5 -94.5q0 -42 -23 -77t-50 -63l-123 -131h178q11 0 18 -7t7 -18v-19q0 -10 -7 -17.5t-18 -7.5h-277q-10 0 -16.5 6.5t-6.5 15.5v8q0 20 16 36l176 190q23 26 33.5 45t10.5 38q0 26 -17.5 45t-55.5 19
q-20 0 -35 -7t-24.5 -18.5t-14.5 -25.5t-5 -28q0 -17 -18 -17h-41q-8 0 -13.5 5t-5.5 14z" />
    <glyph glyph-name="uni00B3" unicode="&#xb3;" horiz-adv-x="418" 
d="M51 374q0 18 19 18h42q19 0 19 -17q0 -28 18.5 -52t56.5 -24q37 0 56.5 18.5t19.5 51.5v12q0 35 -12.5 54.5t-35.5 19.5h-52q-10 0 -16.5 6t-6.5 16v16q0 9 6.5 15.5t16.5 6.5h51q12 0 20.5 7t14 17t8 21.5t2.5 20.5q0 26 -17 44.5t-53 18.5q-35 0 -53.5 -21t-18.5 -50
q0 -17 -18 -17h-41q-8 0 -13.5 5t-5.5 13q0 25 9 50t27.5 44t47 31t67.5 12q75 0 112.5 -36.5t37.5 -91.5q0 -26 -11 -51.5t-32 -43.5q23 -14 37 -43t14 -58v-19q0 -62 -41.5 -100t-119.5 -38q-40 0 -69 12t-48 32t-28.5 46t-9.5 54z" />
    <glyph glyph-name="acute" unicode="&#xb4;" horiz-adv-x="293" 
d="M72 616q-8 0 -12 7t1 14l55 83q7 10 17.5 16t21.5 6h62q7 0 10 -7t-2 -13l-72 -87q-16 -19 -42 -19h-39z" />
    <glyph glyph-name="uni00B5" unicode="&#xb5;" horiz-adv-x="560" 
d="M68 535q0 11 7 18t18 7h49q11 0 18 -7t7 -18v-350q1 -56 22 -83t76 -27q38 0 72 21t55 47v392q0 11 7.5 18t18.5 7h48q11 0 18.5 -7t7.5 -18v-510q0 -11 -7.5 -18t-18.5 -7h-39q-11 0 -18.5 7t-8.5 18l-2 32q-30 -31 -68.5 -49t-79.5 -18q-27 0 -49 6t-38 20v-141
q1 -11 -6.5 -18t-18.5 -7h-45q-11 0 -18 7t-7 18v660z" />
    <glyph glyph-name="paragraph" unicode="&#xb6;" horiz-adv-x="585" 
d="M333 -110q-11 0 -18.5 7t-7.5 18v356h-30q-100 0 -156.5 51.5t-56.5 149.5v27q0 97 56.5 149t163.5 52h208q11 0 18 -7t7 -18v-760q0 -11 -7 -18t-18 -7h-16q-11 0 -18 7t-7 18v712h-77v-712q0 -11 -7 -18t-18 -7h-16z" />
    <glyph glyph-name="periodcentered" unicode="&#xb7;" horiz-adv-x="201" 
d="M161 314q0 -31 -17 -45.5t-45 -14.5q-26 0 -42.5 14.5t-16.5 45.5q0 32 16.5 47.5t42.5 15.5q28 0 45 -15.5t17 -47.5z" />
    <glyph glyph-name="cedilla" unicode="&#xb8;" horiz-adv-x="266" 
d="M110 -164h-20q-10 0 -20 1q-21 3 -21 17v11q0 15 17 15h20q20 0 32.5 6.5t12.5 20.5t-12 20t-25 8q-11 2 -14.5 9t0.5 16l12 29q4 11 17 11h43q8 0 10 -4.5t0 -9.5l-8 -21q26 -3 44.5 -17.5t18.5 -43.5q0 -20 -10 -33.5t-25.5 -21t-34.5 -10.5t-37 -3z" />
    <glyph glyph-name="uni00B9" unicode="&#xb9;" horiz-adv-x="244" 
d="M139 239q-11 0 -18.5 7.5t-7.5 17.5v370h-54q-11 0 -18 7.5t-7 18.5v17q0 11 7 18t18 7h109q11 0 18 -7t7 -18v-413q0 -10 -7 -17.5t-18 -7.5h-29z" />
    <glyph glyph-name="ordmasculine" unicode="&#xba;" horiz-adv-x="415" 
d="M208 296q-73 0 -115 40t-42 109v118q0 69 42 109t115 40q72 0 114 -40t42 -109v-118q0 -69 -42 -109t-114 -40zM208 649q-82 0 -82 -95v-101q0 -93 82 -93t82 93v101q0 95 -82 95z" />
    <glyph glyph-name="guillemotright" unicode="&#xbb;" horiz-adv-x="499" 
d="M68 78q-5 -5 -11.5 -2.5t-6.5 10.5v64q0 11 5.5 22.5t13.5 19.5l91 87l-91 87q-8 8 -13.5 20t-5.5 23v64q0 7 6.5 10t11.5 -2l155 -151q18 -18 18 -43v-15q0 -11 -5 -23t-13 -20zM276 78q-5 -5 -11.5 -2.5t-6.5 10.5v64q0 11 5 22.5t14 19.5l91 87l-91 87q-9 8 -14 20
t-5 23v64q0 7 6.5 10t11.5 -2l155 -151q8 -8 13 -20t5 -23v-15q0 -11 -5 -23t-13 -20z" />
    <glyph glyph-name="onequarter" unicode="&#xbc;" horiz-adv-x="826" 
d="M431 87q-9 0 -15.5 6.5t-6.5 16.5v2q0 23 9 43l140 285q5 11 15 17t21 6h34q9 0 13.5 -7.5t1.5 -15.5l-135 -285h134v141q0 11 7 18.5t18 7.5h29q11 0 18.5 -7.5t7.5 -18.5v-141h23q9 0 15 -6t6 -15v-26q0 -9 -6 -15t-15 -6h-23v-62q0 -11 -7.5 -18t-18.5 -7h-29
q-11 0 -18 7t-7 18v62h-211zM156 238q-11 0 -18 7t-7 18v370h-54q-11 0 -18.5 7t-7.5 18v17q0 11 7.5 18.5t18.5 7.5h109q10 0 17.5 -7.5t7.5 -18.5v-412q0 -11 -7.5 -18t-17.5 -7h-30zM130 0q-8 0 -12 7t1 14l442 658q15 21 39 21h54q8 0 12 -7t-1 -14l-444 -658
q-15 -21 -39 -21h-52z" />
    <glyph glyph-name="onehalf" unicode="&#xbd;" horiz-adv-x="877" 
d="M156 239q-11 0 -18 7.5t-7 17.5v370h-54q-11 0 -18.5 7.5t-7.5 18.5v17q0 11 7.5 18t18.5 7h109q10 0 17.5 -7t7.5 -18v-413q0 -10 -7.5 -17.5t-17.5 -7.5h-30zM120 0q-8 0 -12 7t1 14l442 658q6 10 17 15.5t22 5.5h54q8 0 12.5 -7t-0.5 -14l-444 -658q-15 -21 -40 -21
h-52zM497 325q0 28 9.5 54.5t29 47t49 33t69.5 12.5q78 0 116.5 -37.5t38.5 -94.5q0 -42 -23 -77t-50 -64l-124 -130h178q11 0 18.5 -7.5t7.5 -18.5v-18q0 -11 -7.5 -18t-18.5 -7h-276q-10 0 -16.5 6t-6.5 16v8q0 11 4 19.5t11 16.5l176 190q24 26 34.5 45t10.5 38
q0 26 -18 45t-55 19q-20 0 -35 -7t-24.5 -18.5t-14.5 -25.5t-5 -28q0 -17 -18 -17h-41q-19 0 -19 18z" />
    <glyph glyph-name="threequarters" unicode="&#xbe;" horiz-adv-x="936" 
d="M241 0q-8 0 -12.5 7t0.5 14l442 658q15 21 40 21h53q8 0 12.5 -7t-0.5 -14l-444 -658q-15 -21 -40 -21h-51zM59 374q0 18 19 18h43q18 0 18 -17q0 -28 19 -52t57 -24q36 0 56 18.5t20 51.5v12q0 35 -13 54.5t-36 19.5h-52q-10 0 -16.5 6t-6.5 16v16q0 9 6.5 15.5
t16.5 6.5h51q12 0 20.5 7t14.5 17t8.5 21.5t2.5 20.5q0 26 -17.5 44.5t-52.5 18.5t-53.5 -21t-18.5 -50q0 -17 -19 -17h-41q-8 0 -13.5 5t-5.5 13q0 25 9 50t27.5 44t47.5 31t68 12q74 0 111.5 -36.5t37.5 -91.5q0 -26 -11 -51.5t-32 -43.5q23 -14 37.5 -43t14.5 -58v-19
q0 -62 -42 -100t-119 -38q-40 0 -69.5 12t-48.5 32t-28.5 46t-9.5 54zM542 87q-10 0 -16.5 6.5t-6.5 16.5v2q0 23 9 43l140 285q5 11 15 17t21 6h34q9 0 14 -7.5t1 -15.5l-135 -285h134v141q0 11 7 18.5t18 7.5h30q11 0 18 -7.5t7 -18.5v-141h23q9 0 15 -6t6 -15v-26
q0 -9 -6 -15t-15 -6h-23v-62q0 -11 -7 -18t-18 -7h-30q-11 0 -18 7t-7 18v62h-210z" />
    <glyph glyph-name="questiondown" unicode="&#xbf;" horiz-adv-x="513" 
d="M337 656q0 -29 -16 -42.5t-41 -13.5t-41.5 13.5t-16.5 42.5t16.5 43t41.5 14t41 -14t16 -43zM374 170q0 11 6.5 18t17.5 7h54q11 0 17.5 -7t6.5 -18q0 -35 -13 -68t-39.5 -59t-66.5 -41.5t-94 -15.5q-53 0 -92.5 13t-66.5 35.5t-40.5 53.5t-13.5 66v16q0 33 7.5 59
t20.5 48t31 41t38 38q43 40 63 73t20 76v9q0 8 5 13.5t13 5.5h63q8 0 13.5 -6t5.5 -14v-16q0 -41 -7 -68.5t-20.5 -48.5t-32.5 -39l-44 -42q-32 -31 -51 -62t-19 -77q0 -39 25 -63.5t82 -24.5q30 0 51 8.5t34.5 22t19.5 31t6 36.5z" />
    <glyph glyph-name="Agrave" unicode="&#xc0;" horiz-adv-x="608" 
d="M25 0q-10 0 -15 7.5t-2 16.5l234 652q4 11 13.5 17.5t20.5 6.5h52q11 0 20.5 -6.5t13.5 -17.5l234 -652q3 -9 -2 -16.5t-14 -7.5h-60q-11 0 -20.5 6.5t-13.5 17.5l-58 170h-255l-56 -170q-4 -11 -13 -17.5t-20 -6.5h-59zM201 281h199l-101 297zM311 756q-25 0 -41 19
l-73 87q-5 6 -2 13t11 7h61q12 0 22.5 -6t17.5 -16l54 -83q5 -7 1 -14t-12 -7h-39z" />
    <glyph glyph-name="Aacute" unicode="&#xc1;" horiz-adv-x="608" 
d="M25 0q-10 0 -15 7.5t-2 16.5l234 652q4 11 13.5 17.5t20.5 6.5h52q11 0 20.5 -6.5t13.5 -17.5l234 -652q3 -9 -2 -16.5t-14 -7.5h-60q-11 0 -20.5 6.5t-13.5 17.5l-58 170h-255l-56 -170q-4 -11 -13 -17.5t-20 -6.5h-59zM201 281h199l-101 297zM281 756q-8 0 -12 7t1 14
l54 83q7 10 18 16t22 6h61q8 0 11 -7t-2 -13l-72 -87q-8 -9 -19.5 -14t-22.5 -5h-39z" />
    <glyph glyph-name="Acircumflex" unicode="&#xc2;" horiz-adv-x="608" 
d="M25 0q-10 0 -15 7.5t-2 16.5l234 652q4 11 13.5 17.5t20.5 6.5h52q11 0 20.5 -6.5t13.5 -17.5l234 -652q3 -9 -2 -16.5t-14 -7.5h-60q-11 0 -20.5 6.5t-13.5 17.5l-58 170h-255l-56 -170q-4 -11 -13 -17.5t-20 -6.5h-59zM201 281h199l-101 297zM195 756q-8 0 -12 7t1 14
l58 84q7 9 18 15t22 6h36q11 0 22 -6t18 -15l58 -84q5 -7 1.5 -14t-11.5 -7h-38q-25 0 -38 22l-30 50l-29 -50q-13 -22 -38 -22h-38z" />
    <glyph glyph-name="Atilde" unicode="&#xc3;" horiz-adv-x="608" 
d="M25 0q-10 0 -15 7.5t-2 16.5l234 652q4 11 13.5 17.5t20.5 6.5h52q11 0 20.5 -6.5t13.5 -17.5l234 -652q3 -9 -2 -16.5t-14 -7.5h-60q-11 0 -20.5 6.5t-13.5 17.5l-58 170h-255l-56 -170q-4 -11 -13 -17.5t-20 -6.5h-59zM201 281h199l-101 297zM232 804q-22 0 -32 -16
q-7 -13 -14 -17t-23 -4h-18q-8 0 -15.5 8t-5.5 17q5 38 30.5 63.5t68.5 25.5q22 0 43.5 -6.5t41.5 -15.5l35 -15q16 -6 27 -6q12 0 19 4t12 12q8 13 15 17t23 4h17q10 0 17 -8t6 -17q-5 -38 -29.5 -63.5t-69.5 -25.5q-21 0 -41 6.5t-38.5 15t-36 15t-32.5 6.5z" />
    <glyph glyph-name="Adieresis" unicode="&#xc4;" horiz-adv-x="608" 
d="M25 0q-10 0 -15 7.5t-2 16.5l234 652q4 11 13.5 17.5t20.5 6.5h52q11 0 20.5 -6.5t13.5 -17.5l234 -652q3 -9 -2 -16.5t-14 -7.5h-60q-11 0 -20.5 6.5t-13.5 17.5l-58 170h-255l-56 -170q-4 -11 -13 -17.5t-20 -6.5h-59zM201 281h199l-101 297zM242 811
q0 -29 -14.5 -44.5t-42.5 -15.5q-27 0 -41 15.5t-14 44.5q0 30 14 46.5t41 16.5q28 0 42.5 -16.5t14.5 -46.5zM472 811q0 -29 -14.5 -44.5t-42.5 -15.5q-27 0 -41 15.5t-14 44.5q0 30 14 46.5t41 16.5q28 0 42.5 -16.5t14.5 -46.5z" />
    <glyph glyph-name="Aring" unicode="&#xc5;" horiz-adv-x="608" 
d="M25 0q-10 0 -15 7.5t-2 16.5l234 652q4 11 13.5 17.5t20.5 6.5h52q11 0 20.5 -6.5t13.5 -17.5l234 -652q3 -9 -2 -16.5t-14 -7.5h-60q-11 0 -20.5 6.5t-13.5 17.5l-58 170h-255l-56 -170q-4 -11 -13 -17.5t-20 -6.5h-59zM303 742q-35 0 -57 20t-22 55v10q0 35 22 55.5
t57 20.5t57.5 -20.5t22.5 -55.5v-10q0 -35 -22.5 -55t-57.5 -20zM303 782q17 0 25.5 10.5t8.5 28.5q0 41 -34 41q-33 0 -33 -41q0 -18 8 -28.5t25 -10.5zM201 281h199l-101 297z" />
    <glyph glyph-name="AE" unicode="&#xc6;" horiz-adv-x="950" 
d="M22 0q-8 0 -12.5 7t-0.5 15l359 656q5 10 15.5 16t21.5 6h476q11 0 18 -7t7 -18v-40q0 -11 -7 -18t-18 -7h-288v-264h236q11 0 18 -7t7 -18v-37q0 -11 -7 -18t-18 -7h-236v-170h296q11 0 18 -7t7 -18v-39q0 -11 -7 -18t-18 -7h-376q-11 0 -18 7t-7 18v236h-236l-126 -238
q-13 -23 -38 -23h-66zM435 610l-140 -264h193v264h-53z" />
    <glyph glyph-name="Ccedilla" unicode="&#xc7;" horiz-adv-x="597" 
d="M300 714q54 0 98.5 -14.5t76.5 -40.5t50 -61.5t18 -77.5v-20q0 -11 -6.5 -17.5t-17.5 -6.5h-56q-23 0 -23 24v10q0 51 -38.5 82.5t-101.5 31.5q-62 0 -100.5 -37t-38.5 -109v-256q0 -72 38.5 -109t100.5 -37q63 0 101.5 32t38.5 86v15q0 24 23 24h56q11 0 17.5 -6.5
t6.5 -17.5v-29q0 -38 -15 -71t-42 -58t-64.5 -41t-83.5 -21l-8 -24q26 -3 44.5 -17.5t18.5 -43.5q0 -20 -10 -33.5t-25 -21t-34 -10.5t-37 -3h-20q-11 0 -21 1q-21 3 -21 17v11q0 15 17 15h20q20 0 33 6.5t13 20.5t-12 20t-26 8q-11 2 -14 9t0 16l11 28q-47 5 -86 22.5
t-66.5 45.5t-43 66.5t-15.5 85.5v284q0 51 18.5 92t51 70t77 44.5t97.5 15.5z" />
    <glyph glyph-name="Egrave" unicode="&#xc8;" horiz-adv-x="521" 
d="M291 756q-26 0 -42 19l-72 87q-5 6 -2 13t10 7h62q11 0 21.5 -6t17.5 -16l55 -83q5 -7 1 -14t-12 -7h-39zM86 0q-11 0 -18 7t-7 18v650q0 11 7 18t18 7h368q11 0 18.5 -7t7.5 -18v-40q0 -11 -7.5 -18t-18.5 -7h-289v-226h237q11 0 18.5 -7t7.5 -18v-39q0 -11 -7.5 -18
t-18.5 -7h-237v-206h297q11 0 18.5 -7t7.5 -18v-39q0 -11 -7.5 -18t-18.5 -7h-376z" />
    <glyph glyph-name="Eacute" unicode="&#xc9;" horiz-adv-x="521" 
d="M236 756q-8 0 -12 7t1 14l54 83q7 10 17.5 16t22.5 6h61q8 0 11 -7t-2 -13l-73 -87q-16 -19 -41 -19h-39zM86 0q-11 0 -18 7t-7 18v650q0 11 7 18t18 7h368q11 0 18.5 -7t7.5 -18v-40q0 -11 -7.5 -18t-18.5 -7h-289v-226h237q11 0 18.5 -7t7.5 -18v-39q0 -11 -7.5 -18
t-18.5 -7h-237v-206h297q11 0 18.5 -7t7.5 -18v-39q0 -11 -7.5 -18t-18.5 -7h-376z" />
    <glyph glyph-name="Ecircumflex" unicode="&#xca;" horiz-adv-x="521" 
d="M173 756q-8 0 -11.5 7t1.5 14l57 84q8 9 18.5 15t22.5 6h35q12 0 22.5 -6t18.5 -15l58 -84q5 -7 1 -14t-12 -7h-37q-26 0 -39 22l-30 50l-28 -50q-14 -22 -39 -22h-38zM86 0q-11 0 -18 7t-7 18v650q0 11 7 18t18 7h368q11 0 18.5 -7t7.5 -18v-40q0 -11 -7.5 -18t-18.5 -7
h-289v-226h237q11 0 18.5 -7t7.5 -18v-39q0 -11 -7.5 -18t-18.5 -7h-237v-206h297q11 0 18.5 -7t7.5 -18v-39q0 -11 -7.5 -18t-18.5 -7h-376z" />
    <glyph glyph-name="Edieresis" unicode="&#xcb;" horiz-adv-x="521" 
d="M204 811q0 -29 -15 -44.5t-43 -15.5q-26 0 -40.5 15.5t-14.5 44.5q0 30 14.5 46.5t40.5 16.5q28 0 43 -16.5t15 -46.5zM434 811q0 -29 -14.5 -44.5t-43.5 -15.5q-26 0 -40 15.5t-14 44.5q0 30 14 46.5t40 16.5q29 0 43.5 -16.5t14.5 -46.5zM86 0q-11 0 -18 7t-7 18v650
q0 11 7 18t18 7h368q11 0 18.5 -7t7.5 -18v-40q0 -11 -7.5 -18t-18.5 -7h-289v-226h237q11 0 18.5 -7t7.5 -18v-39q0 -11 -7.5 -18t-18.5 -7h-237v-206h297q11 0 18.5 -7t7.5 -18v-39q0 -11 -7.5 -18t-18.5 -7h-376z" />
    <glyph glyph-name="Igrave" unicode="&#xcc;" horiz-adv-x="226" 
d="M114 756q-11 0 -22.5 5.5t-18.5 14.5l-65 85q-5 7 -1.5 14t11.5 7h61q11 0 21.5 -6.5t16.5 -15.5l48 -82q5 -8 1 -15t-13 -7h-39zM84 0q-11 0 -18 7t-7 18v650q0 11 7 18t18 7h54q11 0 18 -7t7 -18v-650q0 -11 -7 -18t-18 -7h-54z" />
    <glyph glyph-name="Iacute" unicode="&#xcd;" horiz-adv-x="226" 
d="M86 0q-11 0 -18 7t-7 18v650q0 11 7 18t18 7h54q11 0 18 -7t7 -18v-650q0 -11 -7 -18t-18 -7h-54zM87 756q-9 0 -13 7t0 15l48 82q6 9 16.5 15.5t21.5 6.5h53q8 0 11.5 -7t-1.5 -14l-65 -85q-8 -9 -19 -14.5t-22 -5.5h-30z" />
    <glyph glyph-name="Icircumflex" unicode="&#xce;" horiz-adv-x="226" 
d="M84 0q-11 0 -18 7t-7 18v650q0 11 7 18t18 7h54q11 0 18 -7t7 -18v-650q0 -11 -7 -18t-18 -7h-54zM16 756q-8 0 -12.5 7t0.5 15l51 82q6 10 16.5 16t21.5 6h35q12 0 22.5 -6t16.5 -16l51 -82q5 -8 0.5 -15t-12.5 -7h-33q-11 0 -21 6t-15 17l-26 49l-26 -49
q-5 -11 -15 -17t-21 -6h-33z" />
    <glyph glyph-name="Idieresis" unicode="&#xcf;" horiz-adv-x="226" 
d="M92 811q0 -29 -14 -44.5t-42 -15.5q-26 0 -40 15.5t-14 44.5q0 30 14 46.5t40 16.5q28 0 42 -16.5t14 -46.5zM86 0q-11 0 -18 7t-7 18v650q0 11 7 18t18 7h54q11 0 18 -7t7 -18v-650q0 -11 -7 -18t-18 -7h-54zM245 811q0 -29 -14 -44.5t-42 -15.5q-26 0 -39.5 15.5
t-13.5 44.5q0 30 13.5 46.5t39.5 16.5q28 0 42 -16.5t14 -46.5z" />
    <glyph glyph-name="Eth" unicode="&#xd0;" horiz-adv-x="608" 
d="M86 0q-11 0 -18 7t-7 18v270h-29q-11 0 -18 7t-7 18v35q0 11 7 18t18 7h29v295q0 11 7 18t18 7h235q53 0 96 -15.5t73 -44.5t46 -70t16 -92v-256q0 -51 -16 -92t-46 -70t-73 -44.5t-96 -15.5h-235zM165 89h156q61 0 93.5 37t32.5 109v230q0 72 -32.5 108.5t-93.5 36.5
h-156v-230h130q11 0 18 -7t7 -18v-35q0 -11 -7 -18t-18 -7h-130v-206z" />
    <glyph glyph-name="Ntilde" unicode="&#xd1;" horiz-adv-x="630" 
d="M86 0q-11 0 -18 7t-7 18v650q0 11 7 18t18 7h67q12 0 22.5 -6t15.5 -16l277 -505l-2 502q0 11 7 18t18 7h53q11 0 18 -7t7 -18v-650q0 -11 -7 -18t-18 -7h-69q-12 0 -22.5 6t-15.5 16l-275 504l2 -501q1 -11 -6.5 -18t-18.5 -7h-53zM246 804q-22 0 -32 -16
q-7 -13 -14 -17t-23 -4h-18q-9 0 -16 8t-6 17q6 38 31.5 63.5t67.5 25.5q22 0 43.5 -6.5t40.5 -15.5l36 -15q16 -6 28 -6t19 4t12 12q8 13 15 17t22 4h18q10 0 17 -8t6 -17q-6 -38 -30 -63.5t-70 -25.5q-21 0 -41 6.5t-38.5 15t-35.5 15t-32 6.5z" />
    <glyph glyph-name="Ograve" unicode="&#xd2;" horiz-adv-x="623" 
d="M311 -14q-53 0 -99.5 15.5t-81 44t-54.5 70t-20 92.5v284q0 52 20 93t54.5 69.5t81 44t99.5 15.5t100 -15.5t81.5 -44t54.5 -69.5t20 -93v-284q0 -51 -20 -92.5t-54.5 -70t-81.5 -44t-100 -15.5zM311 624q-31 0 -58.5 -9.5t-47.5 -27.5t-32 -45.5t-12 -63.5v-256
q0 -36 12 -63.5t32 -45.5t47.5 -27.5t58.5 -9.5t59 9.5t48 27.5t32 45.5t12 63.5v256q0 36 -12 63.5t-32 45.5t-48 27.5t-59 9.5zM316 756q-11 0 -22.5 5t-19.5 14l-72 87q-5 6 -2 13t11 7h61q11 0 22 -6t18 -16l54 -83q5 -7 1 -14t-12 -7h-39z" />
    <glyph glyph-name="Oacute" unicode="&#xd3;" horiz-adv-x="623" 
d="M311 -14q-53 0 -99.5 15.5t-81 44t-54.5 70t-20 92.5v284q0 52 20 93t54.5 69.5t81 44t99.5 15.5t100 -15.5t81.5 -44t54.5 -69.5t20 -93v-284q0 -51 -20 -92.5t-54.5 -70t-81.5 -44t-100 -15.5zM311 624q-31 0 -58.5 -9.5t-47.5 -27.5t-32 -45.5t-12 -63.5v-256
q0 -36 12 -63.5t32 -45.5t47.5 -27.5t58.5 -9.5t59 9.5t48 27.5t32 45.5t12 63.5v256q0 36 -12 63.5t-32 45.5t-48 27.5t-59 9.5zM288 756q-8 0 -12 7t1 14l55 83q6 10 17 16t22 6h62q7 0 10 -7t-2 -13l-72 -87q-16 -19 -42 -19h-39z" />
    <glyph glyph-name="Ocircumflex" unicode="&#xd4;" horiz-adv-x="623" 
d="M311 -14q-53 0 -99.5 15.5t-81 44t-54.5 70t-20 92.5v284q0 52 20 93t54.5 69.5t81 44t99.5 15.5t100 -15.5t81.5 -44t54.5 -69.5t20 -93v-284q0 -51 -20 -92.5t-54.5 -70t-81.5 -44t-100 -15.5zM311 624q-31 0 -58.5 -9.5t-47.5 -27.5t-32 -45.5t-12 -63.5v-256
q0 -36 12 -63.5t32 -45.5t47.5 -27.5t58.5 -9.5t59 9.5t48 27.5t32 45.5t12 63.5v256q0 36 -12 63.5t-32 45.5t-48 27.5t-59 9.5zM206 756q-8 0 -12 7t1 14l58 84q7 9 18 15t22 6h36q11 0 22 -6t18 -15l58 -84q5 -7 1.5 -14t-11.5 -7h-38q-25 0 -39 22l-29 50l-29 -50
q-13 -22 -39 -22h-37z" />
    <glyph glyph-name="Otilde" unicode="&#xd5;" horiz-adv-x="623" 
d="M311 -14q-53 0 -99.5 15.5t-81 44t-54.5 70t-20 92.5v284q0 52 20 93t54.5 69.5t81 44t99.5 15.5t100 -15.5t81.5 -44t54.5 -69.5t20 -93v-284q0 -51 -20 -92.5t-54.5 -70t-81.5 -44t-100 -15.5zM311 624q-31 0 -58.5 -9.5t-47.5 -27.5t-32 -45.5t-12 -63.5v-256
q0 -36 12 -63.5t32 -45.5t47.5 -27.5t58.5 -9.5t59 9.5t48 27.5t32 45.5t12 63.5v256q0 36 -12 63.5t-32 45.5t-48 27.5t-59 9.5zM242 804q-21 0 -31 -16q-7 -13 -14 -17t-23 -4h-18q-9 0 -16 8t-6 17q6 38 31.5 63.5t67.5 25.5q22 0 43.5 -6.5t40.5 -15.5l36 -15
q16 -6 28 -6t19 4t12 12q8 13 15 17t22 4h18q10 0 17 -8t6 -17q-6 -38 -30 -63.5t-70 -25.5q-21 0 -41 6.5t-38.5 15t-36 15t-32.5 6.5z" />
    <glyph glyph-name="Odieresis" unicode="&#xd6;" horiz-adv-x="630" 
d="M315 -14q-53 0 -99.5 15.5t-81 44t-54.5 70t-20 92.5v284q0 52 20 93t54.5 69.5t81 44t99.5 15.5t99.5 -15.5t81 -44t54.5 -69.5t20 -93v-284q0 -51 -20 -92.5t-54.5 -70t-81 -44t-99.5 -15.5zM315 624q-31 0 -58.5 -9.5t-47.5 -27.5t-32 -45.5t-12 -63.5v-256
q0 -36 12 -63.5t32 -45.5t47.5 -27.5t58.5 -9.5t58.5 9.5t47.5 27.5t32 45.5t12 63.5v256q0 36 -12 63.5t-32 45.5t-47.5 27.5t-58.5 9.5zM486 811q0 -29 -14.5 -44.5t-43.5 -15.5q-26 0 -40 15.5t-14 44.5q0 30 14 46.5t40 16.5q29 0 43.5 -16.5t14.5 -46.5zM256 811
q0 -29 -15 -44.5t-43 -15.5q-26 0 -40 15.5t-14 44.5q0 30 14 46.5t40 16.5q28 0 43 -16.5t15 -46.5z" />
    <glyph glyph-name="multiply" unicode="&#xd7;" horiz-adv-x="560" 
d="M59 81q-7 7 -7 17.5t7 17.5l161 161l-161 161q-7 7 -7 17.5t7 18.5l25 24q7 7 17.5 7t17.5 -7l161 -161l161 161q7 7 17.5 7t18.5 -7l24 -24q7 -8 7 -18.5t-7 -17.5l-161 -161l161 -161q7 -7 7 -17.5t-7 -17.5l-24 -25q-8 -7 -18.5 -7t-17.5 7l-161 161l-161 -161
q-7 -7 -17.5 -7t-17.5 7z" />
    <glyph glyph-name="Oslash" unicode="&#xd8;" horiz-adv-x="623" 
d="M24 59q-6 -5 -13 -2t-7 11v68q0 24 20 42l32 25v288q0 52 20 93t54.5 70t81 44.5t99.5 15.5q77 0 137.5 -31.5t89.5 -89.5l60 48q6 5 13 2t7 -11v-68q0 -11 -5 -22.5t-15 -19.5l-31 -26v-287q0 -52 -20 -93t-54.5 -70t-81.5 -44.5t-100 -15.5q-77 0 -137.5 31.5
t-90.5 89.5zM311 76q31 0 59 9.5t48 27.5t32 45.5t12 63.5v190l-295 -238q14 -49 53.5 -73.5t90.5 -24.5zM161 288l294 237q-14 49 -53.5 74t-90.5 25q-31 0 -58.5 -9.5t-47.5 -27.5t-32 -45.5t-12 -63.5v-190z" />
    <glyph glyph-name="Ugrave" unicode="&#xd9;" horiz-adv-x="606" 
d="M303 -14q-55 0 -100 15.5t-77 44.5t-49.5 70t-17.5 92v467q0 11 7 18t18 7h54q11 0 18 -7t7 -18v-453q0 -72 37.5 -109t102.5 -37t102.5 37t37.5 109v453q0 11 7 18t18 7h54q11 0 18.5 -7t7.5 -18v-467q0 -51 -18 -92t-50 -70t-77 -44.5t-100 -15.5zM315 756
q-26 0 -42 19l-73 87q-5 6 -2 13t11 7h61q12 0 22.5 -6t17.5 -16l54 -83q5 -7 1 -14t-12 -7h-38z" />
    <glyph glyph-name="Uacute" unicode="&#xda;" horiz-adv-x="606" 
d="M303 -14q-55 0 -100 15.5t-77 44.5t-49.5 70t-17.5 92v467q0 11 7 18t18 7h54q11 0 18 -7t7 -18v-453q0 -72 37.5 -109t102.5 -37t102.5 37t37.5 109v453q0 11 7 18t18 7h54q11 0 18.5 -7t7.5 -18v-467q0 -51 -18 -92t-50 -70t-77 -44.5t-100 -15.5zM279 756q-8 0 -12 7
t1 14l54 83q7 10 17.5 16t22.5 6h61q8 0 11 -7t-2 -13l-72 -87q-8 -9 -19.5 -14t-22.5 -5h-39z" />
    <glyph glyph-name="Ucircumflex" unicode="&#xdb;" horiz-adv-x="606" 
d="M303 -14q-55 0 -100 15.5t-77 44.5t-49.5 70t-17.5 92v467q0 11 7 18t18 7h54q11 0 18 -7t7 -18v-453q0 -72 37.5 -109t102.5 -37t102.5 37t37.5 109v453q0 11 7 18t18 7h54q11 0 18.5 -7t7.5 -18v-467q0 -51 -18 -92t-50 -70t-77 -44.5t-100 -15.5zM197 756
q-8 0 -11.5 7t1.5 14l57 84q7 9 18 15t23 6h35q11 0 22 -6t18 -15l58 -84q5 -7 1.5 -14t-11.5 -7h-37q-26 0 -39 22l-30 50l-29 -50q-13 -22 -38 -22h-38z" />
    <glyph glyph-name="Udieresis" unicode="&#xdc;" horiz-adv-x="606" 
d="M303 -14q-55 0 -100 15.5t-77 44.5t-49.5 70t-17.5 92v467q0 11 7 18t18 7h54q11 0 18 -7t7 -18v-453q0 -72 37.5 -109t102.5 -37t102.5 37t37.5 109v453q0 11 7 18t18 7h54q11 0 18.5 -7t7.5 -18v-467q0 -51 -18 -92t-50 -70t-77 -44.5t-100 -15.5zM474 811
q0 -29 -14.5 -44.5t-42.5 -15.5q-26 0 -40.5 15.5t-14.5 44.5q0 30 14.5 46.5t40.5 16.5q28 0 42.5 -16.5t14.5 -46.5zM244 811q0 -29 -14.5 -44.5t-42.5 -15.5q-26 0 -40.5 15.5t-14.5 44.5q0 30 14.5 46.5t40.5 16.5q28 0 42.5 -16.5t14.5 -46.5z" />
    <glyph glyph-name="Yacute" unicode="&#xdd;" horiz-adv-x="555" 
d="M250 0q-11 0 -18.5 7t-7.5 18v212l-213 440q-4 8 0.5 15.5t13.5 7.5h63q24 0 36 -23l153 -339l154 339q10 23 36 23h60q8 0 13 -7.5t1 -15.5l-212 -438v-214q0 -11 -7.5 -18t-18.5 -7h-53zM242 756q-8 0 -12 7t1 14l54 83q7 10 18 16t22 6h61q8 0 11 -7t-2 -13l-72 -87
q-8 -9 -19.5 -14t-22.5 -5h-39z" />
    <glyph glyph-name="Thorn" unicode="&#xde;" horiz-adv-x="588" 
d="M86 0q-11 0 -18 7t-7 18v650q0 11 7 18t18 7h54q11 0 18 -7t7 -18v-100h144q108 0 169.5 -54t61.5 -155v-32q0 -101 -61.5 -155t-169.5 -54h-144v-100q0 -11 -7 -18t-18 -7h-54zM165 214h144q61 0 94 31t33 101v8q0 70 -33 100.5t-94 30.5h-144v-271z" />
    <glyph glyph-name="germandbls" unicode="&#xdf;" horiz-adv-x="584" 
d="M94 0q-11 0 -18.5 7t-7.5 18v350h-39q-11 0 -17.5 6.5t-6.5 17.5v34q0 11 6.5 17.5t17.5 6.5h39v96q0 97 50.5 152t146.5 55q87 0 135 -38t48 -113q0 -38 -18.5 -64t-41 -47t-41 -41t-18.5 -45q0 -27 15.5 -47t38 -37t49.5 -34t49.5 -38t38 -49t15.5 -67q0 -33 -11.5 -61
t-35.5 -49t-60.5 -32.5t-87.5 -11.5q-17 0 -36.5 1.5t-36.5 4.5q-25 5 -25 27v38q0 11 6.5 16.5t17.5 2.5q17 -3 35 -4.5t34 -1.5q39 0 68 17.5t29 53.5q0 24 -15 42.5t-37 35.5t-48.5 34t-48.5 38t-37 48t-15 65q0 29 8.5 49.5t21.5 36t27.5 28t27.5 25.5t21.5 28.5
t8.5 37.5q0 10 -2.5 22t-11.5 22.5t-25 17t-43 6.5q-51 0 -73.5 -33t-22.5 -100v-519q0 -11 -7.5 -18t-18.5 -7h-48z" />
    <glyph glyph-name="agrave" unicode="&#xe0;" horiz-adv-x="550" 
d="M244 69q46 0 82.5 21t57.5 47v73q-29 10 -62.5 15.5t-69.5 5.5q-51 0 -75.5 -21.5t-24.5 -59.5q0 -40 25 -60.5t67 -20.5zM66 394q0 31 13 62.5t39 57t65 41t91 15.5q102 0 156 -47t54 -139v-359q0 -11 -7.5 -18t-18.5 -7h-37q-11 0 -19 7t-10 18l-3 32
q-29 -30 -74.5 -48.5t-96.5 -18.5q-80 0 -123 41t-43 116q0 80 52.5 117.5t141.5 37.5q35 0 73.5 -6t64.5 -14v90q0 62 -26.5 88.5t-83.5 26.5q-27 0 -47.5 -8t-34 -21.5t-20.5 -30.5t-7 -36q0 -21 -25 -21h-49q-11 0 -18 6.5t-7 17.5zM285 616q-11 0 -22.5 5t-19.5 14
l-72 87q-5 6 -2 13t11 7h61q11 0 22 -6t18 -16l54 -83q5 -7 1 -14t-12 -7h-39z" />
    <glyph glyph-name="aacute" unicode="&#xe1;" horiz-adv-x="550" 
d="M244 69q46 0 82.5 21t57.5 47v73q-29 10 -62.5 15.5t-69.5 5.5q-51 0 -75.5 -21.5t-24.5 -59.5q0 -40 25 -60.5t67 -20.5zM165 391q0 -21 -25 -21h-49q-11 0 -18 6.5t-7 17.5q0 31 13 62.5t39 57t65 41t91 15.5q102 0 156 -47t54 -139v-359q0 -11 -7.5 -18t-18.5 -7h-37
q-11 0 -19 7t-10 18l-3 32q-29 -30 -74.5 -48.5t-96.5 -18.5q-80 0 -123 41t-43 116q0 80 52.5 117.5t141.5 37.5q35 0 73.5 -6t64.5 -14v90q0 62 -26.5 88.5t-83.5 26.5q-27 0 -47.5 -8t-34 -21.5t-20.5 -30.5t-7 -36zM243 616q-8 0 -12 7t1 14l55 83q6 10 17 16t22 6h61
q8 0 11 -7t-2 -13l-72 -87q-8 -9 -19.5 -14t-22.5 -5h-39z" />
    <glyph glyph-name="acircumflex" unicode="&#xe2;" horiz-adv-x="550" 
d="M244 69q46 0 82.5 21t57.5 47v73q-29 10 -62.5 15.5t-69.5 5.5q-51 0 -75.5 -21.5t-24.5 -59.5q0 -40 25 -60.5t67 -20.5zM66 394q0 31 13 62.5t39 57t65 41t91 15.5q102 0 156 -47t54 -139v-359q0 -11 -7.5 -18t-18.5 -7h-37q-11 0 -19 7t-10 18l-3 32
q-29 -30 -74.5 -48.5t-96.5 -18.5q-80 0 -123 41t-43 116q0 80 52.5 117.5t141.5 37.5q35 0 73.5 -6t64.5 -14v90q0 62 -26.5 88.5t-83.5 26.5q-27 0 -47.5 -8t-34 -21.5t-20.5 -30.5t-7 -36q0 -21 -25 -21h-49q-11 0 -18 6.5t-7 17.5zM177 616q-8 0 -12 7t1 14l58 84
q7 9 18 15t22 6h36q11 0 22 -6t18 -15l58 -84q5 -7 1 -14t-12 -7h-37q-11 0 -22 5.5t-17 16.5l-29 50l-29 -50q-13 -22 -39 -22h-37z" />
    <glyph glyph-name="atilde" unicode="&#xe3;" horiz-adv-x="550" 
d="M152 150q0 -40 25 -60.5t67 -20.5q46 0 82.5 21t57.5 47v73q-29 10 -62.5 15.5t-69.5 5.5q-51 0 -75.5 -21.5t-24.5 -59.5zM66 394q0 31 13 62.5t39 57t65 41t91 15.5q102 0 156 -47t54 -139v-359q0 -11 -7.5 -18t-18.5 -7h-37q-11 0 -19 7t-10 18l-3 32
q-29 -30 -74.5 -48.5t-96.5 -18.5q-80 0 -123 41t-43 116q0 80 52.5 117.5t141.5 37.5q35 0 73.5 -6t64.5 -14v90q0 62 -26.5 88.5t-83.5 26.5q-27 0 -47.5 -8t-34 -21.5t-20.5 -30.5t-7 -36q0 -21 -25 -21h-49q-11 0 -18 6.5t-7 17.5zM106 652q5 38 31 63.5t68 25.5
q22 0 43.5 -6.5t40.5 -15.5l36 -15q16 -6 28 -6q21 0 31 16q8 13 15 17t22 4h18q9 0 16.5 -8t5.5 -17q-5 -38 -29.5 -63.5t-69.5 -25.5q-21 0 -41 6.5t-38.5 15t-36 15t-32.5 6.5q-12 0 -19 -4t-12 -12q-8 -13 -15 -17t-22 -4h-18q-9 0 -16 8t-6 17z" />
    <glyph glyph-name="adieresis" unicode="&#xe4;" horiz-adv-x="550" 
d="M244 69q46 0 82.5 21t57.5 47v73q-29 10 -62.5 15.5t-69.5 5.5q-51 0 -75.5 -21.5t-24.5 -59.5q0 -40 25 -60.5t67 -20.5zM66 394q0 31 13 62.5t39 57t65 41t91 15.5q102 0 156 -47t54 -139v-359q0 -11 -7.5 -18t-18.5 -7h-37q-11 0 -19 7t-10 18l-3 32
q-29 -30 -74.5 -48.5t-96.5 -18.5q-80 0 -123 41t-43 116q0 80 52.5 117.5t141.5 37.5q35 0 73.5 -6t64.5 -14v90q0 62 -26.5 88.5t-83.5 26.5q-27 0 -47.5 -8t-34 -21.5t-20.5 -30.5t-7 -36q0 -21 -25 -21h-49q-11 0 -18 6.5t-7 17.5zM452 671q0 -29 -14.5 -44.5
t-42.5 -15.5q-26 0 -40.5 15.5t-14.5 44.5q0 30 14.5 46.5t40.5 16.5q28 0 42.5 -16.5t14.5 -46.5zM222 671q0 -29 -14.5 -44.5t-42.5 -15.5q-27 0 -41 15.5t-14 44.5q0 30 14 46.5t41 16.5q28 0 42.5 -16.5t14.5 -46.5z" />
    <glyph glyph-name="aring" unicode="&#xe5;" horiz-adv-x="550" 
d="M244 69q46 0 82.5 21t57.5 47v73q-29 10 -62.5 15.5t-69.5 5.5q-51 0 -75.5 -21.5t-24.5 -59.5q0 -40 25 -60.5t67 -20.5zM66 394q0 31 13 62.5t39 57t65 41t91 15.5q102 0 156 -47t54 -139v-359q0 -11 -7.5 -18t-18.5 -7h-37q-11 0 -19 7t-10 18l-3 32
q-29 -30 -74.5 -48.5t-96.5 -18.5q-80 0 -123 41t-43 116q0 80 52.5 117.5t141.5 37.5q35 0 73.5 -6t64.5 -14v90q0 62 -26.5 88.5t-83.5 26.5q-27 0 -47.5 -8t-34 -21.5t-20.5 -30.5t-7 -36q0 -21 -25 -21h-49q-11 0 -18 6.5t-7 17.5zM278 606q-35 0 -57 20t-22 56v10
q0 35 22 55.5t57 20.5t57.5 -20.5t22.5 -55.5v-10q0 -36 -22.5 -56t-57.5 -20zM278 647q17 0 25.5 10.5t8.5 28.5q0 40 -34 40q-33 0 -33 -40q0 -18 8 -28.5t25 -10.5z" />
    <glyph glyph-name="ae" unicode="&#xe6;" horiz-adv-x="882" 
d="M67 392q0 33 13 65t39 57t65 40.5t91 15.5q57 0 98 -18.5t66 -52.5q26 33 67 52t98 19q101 0 159.5 -55t58.5 -152v-88q0 -11 -7.5 -18t-18.5 -7h-312v-48q0 -66 31.5 -97.5t88.5 -31.5q29 0 50.5 7.5t36 20t22 28t7.5 31.5q0 22 24 22h51q11 0 17.5 -6.5t6.5 -17.5
q0 -29 -14 -59t-41.5 -54t-67.5 -39.5t-92 -15.5q-123 0 -181 82q-45 -47 -97.5 -64.5t-105.5 -17.5q-82 0 -125 45.5t-43 120.5q0 81 48.5 119.5t138.5 38.5h146v51q0 60 -26.5 91t-83.5 31q-29 0 -49.5 -8t-33.5 -21.5t-19.5 -31.5t-6.5 -37q0 -11 -7 -16t-18 -5h-49
q-11 0 -18 6.5t-7 17.5zM245 71q45 0 82 20t58 46v105h-137q-51 0 -73 -23t-22 -61q0 -39 24 -63t68 -24zM604 487q-57 0 -88 -34t-32 -99v-33l239 1v29q0 66 -30.5 101t-88.5 35z" />
    <glyph glyph-name="ccedilla" unicode="&#xe7;" horiz-adv-x="556" 
d="M269 -164h-20q-10 0 -20 1q-21 3 -21 17v11q0 15 17 15h20q20 0 32.5 6.5t12.5 20.5t-12 20t-25 8q-11 2 -14.5 9t0.5 16l12 32q-89 8 -139 61.5t-50 143.5v166q0 97 58.5 152t159.5 55q52 0 92 -13.5t67.5 -37.5t42 -56.5t14.5 -70.5q0 -11 -6.5 -18t-17.5 -7h-51
q-11 0 -17.5 6.5t-6.5 17.5q0 41 -29 68t-88 27q-57 0 -88 -34t-31 -101v-142q0 -67 31 -101t88 -34q61 0 89 28t28 66q0 24 24 24h50q11 0 18 -6.5t7 -17.5q0 -33 -11.5 -62.5t-33.5 -52.5t-54.5 -38.5t-73.5 -20.5l-10 -29q26 -3 44.5 -17.5t18.5 -43.5q0 -20 -10 -33.5
t-25.5 -21t-34.5 -10.5t-37 -3z" />
    <glyph glyph-name="egrave" unicode="&#xe8;" horiz-adv-x="558" 
d="M167 722q-5 6 -2 13t11 7h61q11 0 22 -6t17 -16l55 -83q5 -7 1 -14t-12 -7h-39q-11 0 -22.5 5t-19.5 14zM62 363q0 97 58.5 152t159.5 55q102 0 160 -55t58 -152v-78q0 -10 -7 -17.5t-18 -7.5h-312v-55q0 -67 31 -99.5t88 -32.5q32 0 54.5 9t36.5 22t20 28.5t6 29.5
q0 23 23 23h52q23 0 23 -25q0 -29 -14 -59.5t-41.5 -55t-67.5 -40t-92 -15.5q-101 0 -159.5 55t-58.5 152v166zM280 487q-57 0 -88 -33.5t-31 -100.5v-20l238 1v20q0 66 -30.5 99.5t-88.5 33.5z" />
    <glyph glyph-name="eacute" unicode="&#xe9;" horiz-adv-x="558" 
d="M495 160q0 -29 -14 -59.5t-41.5 -55t-67.5 -40t-92 -15.5q-101 0 -159.5 55t-58.5 152v166q0 97 58.5 152t159.5 55q102 0 160 -55t58 -152v-78q0 -10 -7 -17.5t-18 -7.5h-312v-55q0 -67 31 -99.5t88 -32.5q32 0 54.5 9t36.5 22t20 28.5t6 29.5q0 23 23 23h52
q23 0 23 -25zM258 616q-8 0 -12 7t1 14l55 83q6 10 17 16t22 6h61q8 0 11 -7t-2 -13l-72 -87q-8 -9 -19.5 -14t-22.5 -5h-39zM280 487q-57 0 -88 -33.5t-31 -100.5v-20l238 1v20q0 66 -30.5 99.5t-88.5 33.5z" />
    <glyph glyph-name="ecircumflex" unicode="&#xea;" horiz-adv-x="558" 
d="M62 363q0 97 58.5 152t159.5 55q102 0 160 -55t58 -152v-78q0 -10 -7 -17.5t-18 -7.5h-312v-55q0 -67 31 -99.5t88 -32.5q32 0 54.5 9t36.5 22t20 28.5t6 29.5q0 23 23 23h52q23 0 23 -25q0 -29 -14 -59.5t-41.5 -55t-67.5 -40t-92 -15.5q-101 0 -159.5 55t-58.5 152v166
zM180 616q-8 0 -12 7t1 14l58 84q7 9 18 15t22 6h36q11 0 22 -6t18 -15l58 -84q5 -7 1.5 -14t-11.5 -7h-38q-25 0 -38 22l-30 50l-29 -50q-13 -22 -38 -22h-38zM280 487q-57 0 -88 -33.5t-31 -100.5v-20l238 1v20q0 66 -30.5 99.5t-88.5 33.5z" />
    <glyph glyph-name="edieresis" unicode="&#xeb;" horiz-adv-x="558" 
d="M228 671q0 -29 -15 -44.5t-43 -15.5q-26 0 -40.5 15.5t-14.5 44.5q0 30 14.5 46.5t40.5 16.5q28 0 43 -16.5t15 -46.5zM62 363q0 97 58.5 152t159.5 55q102 0 160 -55t58 -152v-78q0 -10 -7 -17.5t-18 -7.5h-312v-55q0 -67 31 -99.5t88 -32.5q32 0 54.5 9t36.5 22
t20 28.5t6 29.5q0 23 23 23h52q23 0 23 -25q0 -29 -14 -59.5t-41.5 -55t-67.5 -40t-92 -15.5q-101 0 -159.5 55t-58.5 152v166zM458 671q0 -29 -15 -44.5t-43 -15.5q-26 0 -40.5 15.5t-14.5 44.5q0 30 14.5 46.5t40.5 16.5q28 0 43 -16.5t15 -46.5zM280 487q-57 0 -88 -33.5
t-31 -100.5v-20l238 1v20q0 66 -30.5 99.5t-88.5 33.5z" />
    <glyph glyph-name="igrave" unicode="&#xec;" 
d="M96 616q-25 0 -40 20l-66 85q-5 7 -1 14t12 7h61q11 0 21.5 -6.5t16.5 -15.5l48 -82q5 -8 0.5 -15t-13.5 -7h-39zM91 0q-11 0 -18 7t-7 18v510q0 11 7 18t18 7h49q11 0 18 -7t7 -18v-510q0 -11 -7 -18t-18 -7h-49z" />
    <glyph glyph-name="iacute" unicode="&#xed;" 
d="M92 616q-8 0 -12.5 7t0.5 14l52 83q7 10 17.5 16t21.5 6h58q8 0 11.5 -7t-1.5 -13l-67 -86q-7 -10 -18.5 -15t-22.5 -5h-39zM93 0q-11 0 -18 7t-7 18v510q0 11 7 18t18 7h49q11 0 18 -7t7 -18v-510q0 -11 -7 -18t-18 -7h-49z" />
    <glyph glyph-name="icircumflex" unicode="&#xee;" 
d="M21 616q-9 0 -13 7t1 15l50 82q6 10 16.5 16t22.5 6h35q11 0 22 -6t17 -16l50 -82q5 -8 1 -15t-13 -7h-31q-11 0 -21.5 6t-15.5 17l-27 49l-26 -49q-12 -23 -37 -23h-31zM91 0q-11 0 -18 7t-7 18v510q0 11 7 18t18 7h49q11 0 18 -7t7 -18v-510q0 -11 -7 -18t-18 -7h-49z
" />
    <glyph glyph-name="idieresis" unicode="&#xef;" 
d="M93 0q-11 0 -18 7t-7 18v510q0 11 7 18t18 7h49q11 0 18 -7t7 -18v-510q0 -11 -7 -18t-18 -7h-49zM95 671q0 -27 -14 -42t-40 -15q-25 0 -38.5 15t-13.5 42q0 59 52 59q26 0 40 -15t14 -44zM247 671q0 -27 -14 -42t-40 -15q-25 0 -38.5 15t-13.5 42q0 59 52 59
q26 0 40 -15t14 -44z" />
    <glyph glyph-name="eth" unicode="&#xf0;" horiz-adv-x="558" 
d="M274 -10q-97 0 -154.5 51.5t-57.5 148.5v148q0 97 49 146.5t143 49.5q41 0 78.5 -15.5t63.5 -41.5v63q0 47 -20 81l-46 -35q-8 -5 -17 -3.5t-16 9.5l-13 18q-6 9 -5.5 18t8.5 15l32 25q-27 11 -66 11q-32 0 -59 -3q-11 -2 -18 4.5t-7 17.5v30q0 10 7 19.5t18 11.5
q30 6 62 6q85 0 140 -35l50 38q8 6 17.5 4.5t16.5 -9.5l13 -17q8 -8 7 -18t-10 -16l-38 -30q18 -23 29 -55.5t11 -70.5v-362q0 -97 -56 -150.5t-162 -53.5zM264 454q-60 0 -84 -34t-24 -102v-108q0 -140 119 -140q121 0 121 140v176q-21 27 -57.5 47.5t-74.5 20.5z" />
    <glyph glyph-name="ntilde" unicode="&#xf1;" horiz-adv-x="557" 
d="M93 0q-11 0 -18 7t-7 18v510q0 11 7 18t18 7h37q11 0 19 -7t10 -18l3 -32q29 30 66.5 48.5t80.5 18.5q96 0 139 -51t43 -145v-349q0 -11 -7 -18t-18 -7h-49q-11 0 -18 7t-7 18v336q0 61 -21.5 92.5t-78.5 31.5q-38 0 -70.5 -21t-54.5 -47v-392q0 -11 -7 -18t-18 -7h-49z
M213 664q-12 0 -19 -4t-12 -12q-8 -13 -15 -17t-23 -4h-18q-8 0 -15.5 8t-5.5 17q5 38 30.5 63.5t68.5 25.5q22 0 43.5 -6.5t40.5 -15.5l36 -15q16 -6 27 -6q12 0 19 4t12 12q8 13 15 17t23 4h17q10 0 17 -8t6 -17q-5 -38 -29.5 -63.5t-69.5 -25.5q-21 0 -41 6.5t-38.5 15
t-36 15t-32.5 6.5z" />
    <glyph glyph-name="ograve" unicode="&#xf2;" horiz-adv-x="560" 
d="M280 487q-57 0 -88 -34.5t-31 -101.5v-142q0 -67 31 -101.5t88 -34.5q58 0 88.5 34.5t30.5 101.5v142q0 67 -30.5 101.5t-88.5 34.5zM280 -10q-101 0 -159.5 55t-58.5 152v166q0 97 58.5 152t159.5 55q102 0 160 -55t58 -152v-166q0 -97 -58 -152t-160 -55zM287 616
q-11 0 -22.5 5t-19.5 14l-72 87q-5 6 -2 13t11 7h61q11 0 22 -6t18 -16l54 -83q5 -7 1 -14t-12 -7h-39z" />
    <glyph glyph-name="oacute" unicode="&#xf3;" horiz-adv-x="560" 
d="M280 487q-57 0 -88 -34.5t-31 -101.5v-142q0 -67 31 -101.5t88 -34.5q58 0 88.5 34.5t30.5 101.5v142q0 67 -30.5 101.5t-88.5 34.5zM280 -10q-101 0 -159.5 55t-58.5 152v166q0 97 58.5 152t159.5 55q102 0 160 -55t58 -152v-166q0 -97 -58 -152t-160 -55zM257 616
q-8 0 -12 7t1 14l55 83q6 10 17 16t22 6h61q8 0 11 -7t-2 -13l-72 -87q-8 -9 -19.5 -14t-22.5 -5h-39z" />
    <glyph glyph-name="ocircumflex" unicode="&#xf4;" horiz-adv-x="560" 
d="M280 487q-57 0 -88 -34.5t-31 -101.5v-142q0 -67 31 -101.5t88 -34.5q58 0 88.5 34.5t30.5 101.5v142q0 67 -30.5 101.5t-88.5 34.5zM280 -10q-101 0 -159.5 55t-58.5 152v166q0 97 58.5 152t159.5 55q102 0 160 -55t58 -152v-166q0 -97 -58 -152t-160 -55zM174 616
q-8 0 -11.5 7t1.5 14l57 84q8 9 18.5 15t22.5 6h35q12 0 22.5 -6t18.5 -15l58 -84q5 -7 1 -14t-12 -7h-37q-26 0 -39 22l-30 50l-28 -50q-14 -22 -39 -22h-38z" />
    <glyph glyph-name="otilde" unicode="&#xf5;" horiz-adv-x="560" 
d="M280 487q-57 0 -88 -34.5t-31 -101.5v-142q0 -67 31 -101.5t88 -34.5q58 0 88.5 34.5t30.5 101.5v142q0 67 -30.5 101.5t-88.5 34.5zM280 -10q-101 0 -159.5 55t-58.5 152v166q0 97 58.5 152t159.5 55q102 0 160 -55t58 -152v-166q0 -97 -58 -152t-160 -55zM211 664
q-22 0 -32 -16q-7 -13 -14 -17t-23 -4h-18q-9 0 -16 8t-5 17q5 38 30.5 63.5t68.5 25.5q22 0 43.5 -6.5t40.5 -15.5l36 -15q16 -6 27 -6q12 0 19 4t12 12q8 13 15 17t22 4h18q10 0 17 -8t6 -17q-6 -38 -30 -63.5t-70 -25.5q-20 0 -40 6.5t-39 15t-36 15t-32 6.5z" />
    <glyph glyph-name="odieresis" unicode="&#xf6;" horiz-adv-x="560" 
d="M280 487q-57 0 -88 -34.5t-31 -101.5v-142q0 -67 31 -101.5t88 -34.5q58 0 88.5 34.5t30.5 101.5v142q0 67 -30.5 101.5t-88.5 34.5zM280 -10q-101 0 -159.5 55t-58.5 152v166q0 97 58.5 152t159.5 55q102 0 160 -55t58 -152v-166q0 -97 -58 -152t-160 -55zM221 671
q0 -29 -14.5 -44.5t-42.5 -15.5q-27 0 -41 15.5t-14 44.5q0 30 14 46.5t41 16.5q28 0 42.5 -16.5t14.5 -46.5zM451 671q0 -29 -14.5 -44.5t-42.5 -15.5q-26 0 -40.5 15.5t-14.5 44.5q0 30 14.5 46.5t40.5 16.5q28 0 42.5 -16.5t14.5 -46.5z" />
    <glyph glyph-name="divide" unicode="&#xf7;" horiz-adv-x="575" 
d="M345 50q0 -31 -16.5 -45.5t-44.5 -14.5q-27 0 -43.5 14.5t-16.5 45.5q0 32 16.5 47.5t43.5 15.5q28 0 44.5 -15.5t16.5 -47.5zM345 507q0 -31 -16.5 -45.5t-44.5 -14.5q-27 0 -43.5 14.5t-16.5 45.5q0 32 16.5 47.5t43.5 15.5q28 0 44.5 -15.5t16.5 -47.5zM69 236
q-11 0 -18.5 7.5t-7.5 18.5v36q0 11 7.5 18.5t18.5 7.5h438q11 0 18 -7.5t7 -18.5v-36q0 -11 -7 -18.5t-18 -7.5h-438z" />
    <glyph glyph-name="oslash" unicode="&#xf8;" horiz-adv-x="560" 
d="M280 -10q-63 0 -109.5 21.5t-72.5 63.5l-77 -63q-7 -5 -13.5 -2t-6.5 11v66q0 12 5.5 23t14.5 19l43 34q-2 9 -2 17v17v166q0 97 58.5 152t159.5 55q63 0 109 -22t73 -63l78 63q6 5 13 2t7 -11v-67q0 -25 -21 -41l-43 -35q2 -8 2 -16v-17v-166q0 -97 -58 -152t-160 -55z
M280 73q58 0 89 34.5t31 101.5v108l-227 -181q27 -63 107 -63zM280 487q-57 0 -88 -34.5t-31 -101.5v-108l225 180q-26 64 -106 64z" />
    <glyph glyph-name="ugrave" unicode="&#xf9;" horiz-adv-x="553" 
d="M240 -10q-49 0 -82 12.5t-53.5 37t-29.5 60t-9 82.5v353q0 11 7 18t18 7h49q11 0 18 -7t7 -18v-340q0 -62 18.5 -91t75.5 -29q38 0 71.5 21t55.5 47v392q0 11 7 18t18 7h49q11 0 18 -7t7 -18v-510q0 -11 -7 -18t-18 -7h-38q-11 0 -19 7t-9 18l-3 32q-29 -30 -68.5 -48.5
t-82.5 -18.5zM290 616q-26 0 -42 19l-72 87q-5 6 -2 13t10 7h62q11 0 21.5 -6t17.5 -16l55 -83q5 -7 1 -14t-12 -7h-39z" />
    <glyph glyph-name="uacute" unicode="&#xfa;" horiz-adv-x="553" 
d="M241 -10q-49 0 -82.5 12.5t-54 37t-29.5 60t-9 82.5v353q0 11 7 18t18 7h49q11 0 18 -7t7 -18v-340q0 -62 19 -91t76 -29q38 0 71 21t55 47v392q0 11 7 18t18 7h49q11 0 18 -7t7 -18v-510q0 -11 -7 -18t-18 -7h-38q-11 0 -19 7t-9 18l-3 32q-29 -30 -68 -48.5t-82 -18.5z
M239 616q-8 0 -12 7t1 14l54 83q7 10 18 16t22 6h61q8 0 11 -7t-2 -13l-72 -87q-8 -9 -19.5 -14t-22.5 -5h-39z" />
    <glyph glyph-name="ucircumflex" unicode="&#xfb;" horiz-adv-x="553" 
d="M240 -10q-49 0 -82.5 12.5t-53.5 37t-29 60t-9 82.5v353q0 11 7 18t18 7h49q11 0 18 -7t7 -18v-340q0 -62 18.5 -91t75.5 -29q38 0 71.5 21t55.5 47v392q0 11 7 18t18 7h49q11 0 18 -7t7 -18v-510q0 -11 -7 -18t-18 -7h-38q-11 0 -19 7t-9 18l-3 32q-29 -30 -68.5 -48.5
t-82.5 -18.5zM169 616q-8 0 -11.5 7t1.5 14l58 84q7 9 18 15t22 6h35q12 0 23 -6t18 -15l58 -84q5 -7 1 -14t-12 -7h-37q-26 0 -39 22l-30 50l-28 -50q-6 -11 -17 -16.5t-22 -5.5h-38z" />
    <glyph glyph-name="udieresis" unicode="&#xfc;" horiz-adv-x="553" 
d="M240 -10q-49 0 -82 12.5t-53.5 37t-29.5 60t-9 82.5v353q0 11 7 18t18 7h49q11 0 18 -7t7 -18v-340q0 -62 18.5 -91t75.5 -29q38 0 71.5 21t55.5 47v392q0 11 7 18t18 7h49q11 0 18 -7t7 -18v-510q0 -11 -7 -18t-18 -7h-38q-11 0 -19 7t-9 18l-3 32q-29 -30 -68.5 -48.5
t-82.5 -18.5zM217 671q0 -29 -14.5 -44.5t-42.5 -15.5q-26 0 -40.5 15.5t-14.5 44.5q0 30 14.5 46.5t40.5 16.5q28 0 42.5 -16.5t14.5 -46.5zM447 671q0 -29 -14.5 -44.5t-42.5 -15.5q-26 0 -40.5 15.5t-14.5 44.5q0 30 14.5 46.5t40.5 16.5q28 0 42.5 -16.5t14.5 -46.5z
" />
    <glyph glyph-name="yacute" unicode="&#xfd;" horiz-adv-x="493" 
d="M290 -10q-24 -69 -76 -108t-123 -41q-10 0 -18 7.5t-8 17.5v28q0 25 26 28q37 3 63.5 24t39.5 61l-186 529q-3 9 2 16.5t15 7.5h56q11 0 20 -6.5t12 -17.5l133 -421l132 421q3 11 12.5 17.5t20.5 6.5h53q10 0 15 -7.5t2 -16.5zM208 616q-8 0 -12 7t1 14l54 83q7 10 18 16
t22 6h61q8 0 11 -7t-2 -13l-72 -87q-8 -9 -19.5 -14t-22.5 -5h-39z" />
    <glyph glyph-name="thorn" unicode="&#xfe;" horiz-adv-x="563" 
d="M297 485q-38 0 -73 -21t-57 -47v-274q22 -26 57 -47t73 -21q57 0 80 32t23 95v156q0 63 -23 95t-80 32zM93 -150q-11 0 -18 7t-7 18v850q0 11 7 18t18 7h49q11 0 18 -7t7 -18v-217q29 28 66.5 45t79.5 17q97 0 142 -51.5t45 -148.5v-180q0 -97 -45 -148.5t-142 -51.5
q-42 0 -81 18t-65 44v-177q0 -11 -7 -18t-18 -7h-49z" />
    <glyph glyph-name="ydieresis" unicode="&#xff;" horiz-adv-x="493" 
d="M290 -10q-24 -69 -76 -108t-123 -41q-10 0 -18 7.5t-8 17.5v28q0 25 26 28q37 3 63.5 24t39.5 61l-186 529q-3 9 2 16.5t15 7.5h56q11 0 20 -6.5t12 -17.5l133 -421l132 421q3 11 12.5 17.5t20.5 6.5h53q10 0 15 -7.5t2 -16.5zM187 671q0 -29 -15 -44.5t-43 -15.5
q-26 0 -40.5 15.5t-14.5 44.5q0 30 14.5 46.5t40.5 16.5q28 0 43 -16.5t15 -46.5zM417 671q0 -29 -15 -44.5t-43 -15.5q-26 0 -40.5 15.5t-14.5 44.5q0 30 14.5 46.5t40.5 16.5q28 0 43 -16.5t15 -46.5z" />
    <glyph glyph-name="Amacron" unicode="&#x100;" horiz-adv-x="608" 
d="M25 0q-10 0 -15 7.5t-2 16.5l234 652q4 11 13.5 17.5t20.5 6.5h52q11 0 20.5 -6.5t13.5 -17.5l234 -652q3 -9 -2 -16.5t-14 -7.5h-60q-11 0 -20.5 6.5t-13.5 17.5l-58 170h-255l-56 -170q-4 -11 -13 -17.5t-20 -6.5h-59zM201 281h199l-101 297zM179 763q-11 0 -18 7
t-7 18v37q0 11 7 18t18 7h245q11 0 18.5 -7t7.5 -18v-37q0 -11 -7.5 -18t-18.5 -7h-245z" />
    <glyph glyph-name="amacron" unicode="&#x101;" horiz-adv-x="550" 
d="M66 394q0 31 13 62.5t39 57t65 41t91 15.5q102 0 156 -47t54 -139v-359q0 -11 -7.5 -18t-18.5 -7h-37q-11 0 -19 7t-10 18l-3 32q-29 -30 -74.5 -48.5t-96.5 -18.5q-80 0 -123 41t-43 116q0 80 52.5 117.5t141.5 37.5q35 0 73.5 -6t64.5 -14v90q0 62 -26.5 88.5
t-83.5 26.5q-27 0 -47.5 -8t-34 -21.5t-20.5 -30.5t-7 -36q0 -21 -25 -21h-49q-11 0 -18 6.5t-7 17.5zM244 69q46 0 82.5 21t57.5 47v73q-29 10 -62.5 15.5t-69.5 5.5q-51 0 -75.5 -21.5t-24.5 -59.5q0 -40 25 -60.5t67 -20.5zM154 623q-11 0 -18 7t-7 18v37q0 11 7 18t18 7
h245q11 0 18.5 -7t7.5 -18v-37q0 -11 -7.5 -18t-18.5 -7h-245z" />
    <glyph glyph-name="Abreve" unicode="&#x102;" horiz-adv-x="608" 
d="M25 0q-10 0 -15 7.5t-2 16.5l234 652q4 11 13.5 17.5t20.5 6.5h52q11 0 20.5 -6.5t13.5 -17.5l234 -652q3 -9 -2 -16.5t-14 -7.5h-60q-11 0 -20.5 6.5t-13.5 17.5l-58 170h-255l-56 -170q-4 -11 -13 -17.5t-20 -6.5h-59zM201 281h199l-101 297zM303 752q-57 0 -93.5 28.5
t-36.5 76.5q0 9 4.5 15.5t13.5 6.5h28q11 0 16.5 -5t9.5 -16q5 -20 19.5 -31t38.5 -11q23 0 37 11t19 31q7 21 26 21h28q9 0 13.5 -6.5t4.5 -15.5q0 -48 -36 -76.5t-92 -28.5z" />
    <glyph glyph-name="abreve" unicode="&#x103;" horiz-adv-x="550" 
d="M66 394q0 31 13 62.5t39 57t65 41t91 15.5q102 0 156 -47t54 -139v-359q0 -11 -7.5 -18t-18.5 -7h-37q-11 0 -19 7t-10 18l-3 32q-29 -30 -74.5 -48.5t-96.5 -18.5q-80 0 -123 41t-43 116q0 80 52.5 117.5t141.5 37.5q35 0 73.5 -6t64.5 -14v90q0 62 -26.5 88.5
t-83.5 26.5q-27 0 -47.5 -8t-34 -21.5t-20.5 -30.5t-7 -36q0 -21 -25 -21h-49q-11 0 -18 6.5t-7 17.5zM281 612q-57 0 -93.5 28.5t-36.5 76.5q0 9 4.5 15.5t13.5 6.5h28q19 0 25 -21q6 -20 20.5 -31t38.5 -11q23 0 37 11t19 31q7 21 26 21h28q9 0 13.5 -6.5t4.5 -15.5
q0 -48 -36 -76.5t-92 -28.5zM244 69q46 0 82.5 21t57.5 47v73q-29 10 -62.5 15.5t-69.5 5.5q-51 0 -75.5 -21.5t-24.5 -59.5q0 -40 25 -60.5t67 -20.5z" />
    <glyph glyph-name="Aogonek" unicode="&#x104;" horiz-adv-x="608" 
d="M25 0q-10 0 -15 7.5t-2 16.5l234 652q4 11 13.5 17.5t20.5 6.5h52q11 0 20.5 -6.5t13.5 -17.5l234 -651q7 -23 -10 -35q-48 -33 -48 -69q0 -15 11.5 -24.5t32.5 -9.5h21q19 0 19 -15v-13q0 -8 -6.5 -12.5t-16.5 -6.5q-9 -2 -20.5 -3t-20.5 -1q-20 0 -38.5 4t-32.5 12.5
t-22.5 22t-8.5 33.5q0 27 21 52.5t48 39.5h-15q-6 0 -11 4t-7 10l-64 180h-255l-56 -170q-4 -11 -13 -17.5t-20 -6.5h-59zM201 281h199l-101 297z" />
    <glyph glyph-name="aogonek" unicode="&#x105;" horiz-adv-x="550" 
d="M52 147q0 80 52.5 117.5t141.5 37.5q35 0 73.5 -6t64.5 -14v90q0 62 -26.5 88.5t-83.5 26.5q-27 0 -47.5 -8t-34 -21.5t-20.5 -30.5t-7 -36q0 -21 -25 -21h-49q-11 0 -18 6.5t-7 17.5q0 31 13 62.5t39 57t65 41t91 15.5q102 0 156 -47t54 -139v-361q0 -12 -5 -21t-15 -17
q-40 -27 -40 -64q0 -15 11.5 -24.5t32.5 -9.5h21q19 0 19 -15v-13q0 -8 -6.5 -12.5t-16.5 -6.5q-9 -2 -20.5 -3t-20.5 -1q-20 0 -38.5 4t-32.5 12.5t-22.5 22t-8.5 33.5q0 29 19.5 53t49.5 41q-10 6 -15 17.5t-7 37.5q-29 -30 -74.5 -48.5t-96.5 -18.5q-80 0 -123 41
t-43 116zM244 69q46 0 82.5 21t57.5 47v73q-29 10 -62.5 15.5t-69.5 5.5q-51 0 -75.5 -21.5t-24.5 -59.5q0 -40 25 -60.5t67 -20.5z" />
    <glyph glyph-name="Cacute" unicode="&#x106;" horiz-adv-x="597" 
d="M300 714q54 0 98.5 -14.5t76.5 -40.5t50 -61.5t18 -77.5v-20q0 -11 -6.5 -17.5t-17.5 -6.5h-56q-23 0 -23 24v10q0 51 -38.5 82.5t-101.5 31.5q-62 0 -100.5 -37t-38.5 -109v-256q0 -72 38.5 -109t100.5 -37q63 0 101.5 32t38.5 86v15q0 24 23 24h56q11 0 17.5 -6.5
t6.5 -17.5v-29q0 -42 -18 -77.5t-50 -61.5t-76.5 -40.5t-98.5 -14.5q-53 0 -97.5 15.5t-77 44.5t-51 70t-18.5 92v284q0 51 18.5 92t51 70t77 44.5t97.5 15.5zM270 755q-8 0 -12 7t1 14l54 83q15 21 40 21h61q8 0 11 -6.5t-2 -12.5l-72 -87q-8 -9 -19.5 -14t-22.5 -5h-39z
" />
    <glyph glyph-name="cacute" unicode="&#x107;" horiz-adv-x="556" 
d="M62 363q0 97 58.5 152t159.5 55q52 0 92 -13.5t67.5 -37.5t42 -56.5t14.5 -70.5q0 -11 -6.5 -18t-17.5 -7h-51q-11 0 -17.5 6.5t-6.5 17.5q0 41 -29 68t-88 27q-57 0 -88 -34t-31 -101v-142q0 -67 31 -101t88 -34q61 0 89 28t28 66q0 24 24 24h50q11 0 18 -6.5t7 -17.5
q0 -36 -14.5 -68.5t-42 -57t-67.5 -38.5t-92 -14q-101 0 -159.5 55t-58.5 152v166zM250 616q-8 0 -12 7t1 14l55 83q6 10 17 16t22 6h61q8 0 11 -7t-2 -13l-72 -87q-8 -9 -19.5 -14t-22.5 -5h-39z" />
    <glyph glyph-name="Ccircumflex" unicode="&#x108;" horiz-adv-x="597" 
d="M200 756q-8 0 -12 7t1 14l58 84q7 9 18 15t22 6h36q11 0 22 -6t18 -15l58 -84q5 -7 1.5 -14t-11.5 -7h-38q-25 0 -38 22l-30 50l-29 -50q-13 -22 -39 -22h-37zM543 180q0 -42 -18 -77.5t-50 -61.5t-76.5 -40.5t-98.5 -14.5q-53 0 -97.5 15.5t-77 44.5t-51 70t-18.5 92
v284q0 51 18.5 92t51 70t77 44.5t97.5 15.5q54 0 98.5 -14.5t76.5 -40.5t50 -61.5t18 -77.5v-20q0 -11 -6.5 -17.5t-17.5 -6.5h-56q-23 0 -23 24v10q0 51 -38.5 82.5t-101.5 31.5q-62 0 -100.5 -37t-38.5 -109v-256q0 -72 38.5 -109t100.5 -37q63 0 101.5 32t38.5 86v15
q0 24 23 24h56q11 0 17.5 -6.5t6.5 -17.5v-29z" />
    <glyph glyph-name="ccircumflex" unicode="&#x109;" horiz-adv-x="556" 
d="M62 363q0 97 58.5 152t159.5 55q52 0 92 -13.5t67.5 -37.5t42 -56.5t14.5 -70.5q0 -11 -6.5 -18t-17.5 -7h-51q-11 0 -17.5 6.5t-6.5 17.5q0 41 -29 68t-88 27q-57 0 -88 -34t-31 -101v-142q0 -67 31 -101t88 -34q61 0 89 28t28 66q0 24 24 24h50q11 0 18 -6.5t7 -17.5
q0 -36 -14.5 -68.5t-42 -57t-67.5 -38.5t-92 -14q-101 0 -159.5 55t-58.5 152v166zM175 616q-8 0 -11.5 7t1.5 14l58 84q7 9 18 15t22 6h35q12 0 23 -6t18 -15l58 -84q5 -7 1 -14t-12 -7h-37q-26 0 -39 22l-30 50l-28 -50q-6 -11 -17 -16.5t-22 -5.5h-38z" />
    <glyph glyph-name="Cdotaccent" unicode="&#x10a;" horiz-adv-x="597" 
d="M300 714q54 0 98.5 -14.5t76.5 -40.5t50 -61.5t18 -77.5v-20q0 -11 -6.5 -17.5t-17.5 -6.5h-56q-23 0 -23 24v10q0 51 -38.5 82.5t-101.5 31.5q-62 0 -100.5 -37t-38.5 -109v-256q0 -72 38.5 -109t100.5 -37q63 0 101.5 32t38.5 86v15q0 24 23 24h56q11 0 17.5 -6.5
t6.5 -17.5v-29q0 -42 -18 -77.5t-50 -61.5t-76.5 -40.5t-98.5 -14.5q-53 0 -97.5 15.5t-77 44.5t-51 70t-18.5 92v284q0 51 18.5 92t51 70t77 44.5t97.5 15.5zM368 813q0 -31 -16.5 -45.5t-45.5 -14.5q-26 0 -42.5 14.5t-16.5 45.5q0 33 16.5 48t42.5 15q29 0 45.5 -15
t16.5 -48z" />
    <glyph glyph-name="cdotaccent" unicode="&#x10b;" horiz-adv-x="556" 
d="M62 363q0 97 58.5 152t159.5 55q52 0 92 -13.5t67.5 -37.5t42 -56.5t14.5 -70.5q0 -11 -6.5 -18t-17.5 -7h-51q-11 0 -17.5 6.5t-6.5 17.5q0 41 -29 68t-88 27q-57 0 -88 -34t-31 -101v-142q0 -67 31 -101t88 -34q61 0 89 28t28 66q0 24 24 24h50q11 0 18 -6.5t7 -17.5
q0 -36 -14.5 -68.5t-42 -57t-67.5 -38.5t-92 -14q-101 0 -159.5 55t-58.5 152v166zM345 673q0 -31 -16.5 -45.5t-44.5 -14.5q-26 0 -42.5 14.5t-16.5 45.5q0 32 16.5 47.5t42.5 15.5q28 0 44.5 -15.5t16.5 -47.5z" />
    <glyph glyph-name="Ccaron" unicode="&#x10c;" horiz-adv-x="597" 
d="M543 180q0 -42 -18 -77.5t-50 -61.5t-76.5 -40.5t-98.5 -14.5q-53 0 -97.5 15.5t-77 44.5t-51 70t-18.5 92v284q0 51 18.5 92t51 70t77 44.5t97.5 15.5q54 0 98.5 -14.5t76.5 -40.5t50 -61.5t18 -77.5v-20q0 -11 -6.5 -17.5t-17.5 -6.5h-56q-23 0 -23 24v10
q0 51 -38.5 82.5t-101.5 31.5q-62 0 -100.5 -37t-38.5 -109v-256q0 -72 38.5 -109t100.5 -37q63 0 101.5 32t38.5 86v15q0 24 23 24h56q11 0 17.5 -6.5t6.5 -17.5v-29zM282 755q-25 0 -40 20l-58 85q-5 6 -1 13t12 7h37q26 0 39 -22l29 -50l29 50q6 11 17 16.5t22 5.5h37
q8 0 12 -7t-1 -13l-58 -85q-15 -20 -40 -20h-36z" />
    <glyph glyph-name="ccaron" unicode="&#x10d;" horiz-adv-x="556" 
d="M62 363q0 97 58.5 152t159.5 55q52 0 92 -13.5t67.5 -37.5t42 -56.5t14.5 -70.5q0 -11 -6.5 -18t-17.5 -7h-51q-11 0 -17.5 6.5t-6.5 17.5q0 41 -29 68t-88 27q-57 0 -88 -34t-31 -101v-142q0 -67 31 -101t88 -34q61 0 89 28t28 66q0 24 24 24h50q11 0 18 -6.5t7 -17.5
q0 -36 -14.5 -68.5t-42 -57t-67.5 -38.5t-92 -14q-101 0 -159.5 55t-58.5 152v166zM268 616q-25 0 -40 21l-58 84q-5 6 -1.5 13.5t11.5 7.5h38q11 0 22 -6t17 -17l28 -49l30 49q13 23 39 23h37q8 0 12 -7.5t-1 -13.5l-58 -84q-16 -21 -41 -21h-35z" />
    <glyph glyph-name="Dcaron" unicode="&#x10e;" horiz-adv-x="608" 
d="M86 0q-11 0 -18 7t-7 18v650q0 11 7 18t18 7h235q53 0 96 -15.5t73 -44.5t46 -70t16 -92v-256q0 -51 -16 -92t-46 -70t-73 -44.5t-96 -15.5h-235zM165 89h156q61 0 93.5 37t32.5 109v230q0 72 -32.5 108.5t-93.5 36.5h-156v-521zM278 756q-25 0 -40 21l-58 84
q-5 6 -1 13.5t12 7.5h37q26 0 39 -23l29 -49l29 49q6 11 17 17t22 6h37q8 0 12 -7.5t-1 -13.5l-58 -84q-15 -21 -40 -21h-36z" />
    <glyph glyph-name="dcaron" unicode="&#x10f;" horiz-adv-x="576" 
d="M249 -10q-97 0 -141.5 51.5t-44.5 148.5v180q0 97 44.5 148.5t141.5 51.5q42 0 81 -17t65 -44v216q0 11 7 18t18 7h49q11 0 18 -7t7 -18v-700q0 -11 -7 -18t-18 -7h-37q-11 0 -19 7t-10 18l-2 32q-29 -29 -68.5 -48t-83.5 -19zM266 485q-57 0 -80.5 -32t-23.5 -95v-156
q0 -63 23.5 -95t80.5 -32q19 0 37.5 5.5t35.5 15t31 22t25 25.5v274q-22 26 -57.5 47t-71.5 21zM653 720q0 -24 -10 -46.5t-25 -39t-32.5 -26.5t-33.5 -10q-18 0 -18 14v6q0 8 4.5 13.5t12.5 13.5q8 7 10.5 14t4.5 18q-24 13 -24 43q0 26 15 38.5t40 12.5q26 0 41 -12.5
t15 -38.5z" />
    <glyph glyph-name="Dcroat" unicode="&#x110;" horiz-adv-x="608" 
d="M86 0q-11 0 -18 7t-7 18v270h-29q-11 0 -18 7t-7 18v35q0 11 7 18t18 7h29v295q0 11 7 18t18 7h235q53 0 96 -15.5t73 -44.5t46 -70t16 -92v-256q0 -51 -16 -92t-46 -70t-73 -44.5t-96 -15.5h-235zM165 89h156q61 0 93.5 37t32.5 109v230q0 72 -32.5 108.5t-93.5 36.5
h-156v-230h130q11 0 18 -7t7 -18v-35q0 -11 -7 -18t-18 -7h-130v-206z" />
    <glyph glyph-name="dcroat" unicode="&#x111;" horiz-adv-x="562" 
d="M249 -10q-97 0 -141.5 51.5t-44.5 148.5v180q0 97 44.5 148.5t141.5 51.5q42 0 81 -17t65 -44v121h-59q-11 0 -18.5 7t-7.5 18v22q0 11 7.5 18t18.5 7h59v23q0 11 7 18t18 7h49q11 0 18 -7t7 -18v-23h30q11 0 18 -7t7 -18v-22q0 -11 -7 -18t-18 -7h-30v-605q0 -11 -7 -18
t-18 -7h-37q-11 0 -19 7t-10 18l-2 32q-29 -29 -68.5 -48t-83.5 -19zM266 485q-57 0 -80.5 -32t-23.5 -95v-156q0 -63 23.5 -95t80.5 -32q19 0 37.5 5.5t35.5 15t31 22t25 25.5v274q-22 26 -57.5 47t-71.5 21z" />
    <glyph glyph-name="Emacron" unicode="&#x112;" horiz-adv-x="519" 
d="M86 0q-11 0 -18 7t-7 18v650q0 11 7 18t18 7h368q11 0 18.5 -7t7.5 -18v-40q0 -11 -7.5 -18t-18.5 -7h-289v-226h237q11 0 18.5 -7t7.5 -18v-39q0 -11 -7.5 -18t-18.5 -7h-237v-206h297q11 0 18.5 -7t7.5 -18v-39q0 -11 -7.5 -18t-18.5 -7h-376zM149 763q-11 0 -18.5 7
t-7.5 18v37q0 11 7.5 18t18.5 7h245q11 0 18.5 -7t7.5 -18v-37q0 -11 -7.5 -18t-18.5 -7h-245z" />
    <glyph glyph-name="emacron" unicode="&#x113;" horiz-adv-x="558" 
d="M167 623q-11 0 -18 7t-7 18v37q0 11 7 18t18 7h246q11 0 18 -7t7 -18v-37q0 -11 -7 -18t-18 -7h-246zM62 363q0 97 58.5 152t159.5 55q102 0 160 -55t58 -152v-78q0 -10 -7 -17.5t-18 -7.5h-312v-55q0 -67 31 -99.5t88 -32.5q32 0 54.5 9t36.5 22t20 28.5t6 29.5
q0 23 23 23h52q23 0 23 -25q0 -29 -14 -59.5t-41.5 -55t-67.5 -40t-92 -15.5q-101 0 -159.5 55t-58.5 152v166zM280 487q-57 0 -88 -33.5t-31 -100.5v-20l238 1v20q0 66 -30.5 99.5t-88.5 33.5z" />
    <glyph glyph-name="Ebreve" unicode="&#x114;" horiz-adv-x="519" 
d="M86 0q-11 0 -18 7t-7 18v650q0 11 7 18t18 7h368q11 0 18.5 -7t7.5 -18v-40q0 -11 -7.5 -18t-18.5 -7h-289v-226h237q11 0 18.5 -7t7.5 -18v-39q0 -11 -7.5 -18t-18.5 -7h-237v-206h297q11 0 18.5 -7t7.5 -18v-39q0 -11 -7.5 -18t-18.5 -7h-376zM274 752q-56 0 -93 28.5
t-37 76.5q0 9 5 15.5t14 6.5h27q11 0 16.5 -5t9.5 -16q5 -20 20 -31t38 -11q24 0 38 11t19 31q6 21 26 21h27q9 0 14 -6.5t5 -15.5q0 -48 -36.5 -76.5t-92.5 -28.5z" />
    <glyph glyph-name="ebreve" unicode="&#x115;" horiz-adv-x="558" 
d="M284 612q-56 0 -93 28.5t-37 76.5q0 9 5 15.5t14 6.5h27q11 0 16.5 -5t9.5 -16q5 -20 20 -31t38 -11q24 0 38 11t19 31q6 21 26 21h27q9 0 14 -6.5t5 -15.5q0 -48 -36.5 -76.5t-92.5 -28.5zM62 363q0 97 58.5 152t159.5 55q102 0 160 -55t58 -152v-78q0 -10 -7 -17.5
t-18 -7.5h-312v-55q0 -67 31 -99.5t88 -32.5q32 0 54.5 9t36.5 22t20 28.5t6 29.5q0 23 23 23h52q23 0 23 -25q0 -29 -14 -59.5t-41.5 -55t-67.5 -40t-92 -15.5q-101 0 -159.5 55t-58.5 152v166zM280 487q-57 0 -88 -33.5t-31 -100.5v-20l238 1v20q0 66 -30.5 99.5
t-88.5 33.5z" />
    <glyph glyph-name="Edotaccent" unicode="&#x116;" horiz-adv-x="519" 
d="M86 0q-11 0 -18 7t-7 18v650q0 11 7 18t18 7h368q11 0 18.5 -7t7.5 -18v-40q0 -11 -7.5 -18t-18.5 -7h-289v-226h237q11 0 18.5 -7t7.5 -18v-39q0 -11 -7.5 -18t-18.5 -7h-237v-206h297q11 0 18.5 -7t7.5 -18v-39q0 -11 -7.5 -18t-18.5 -7h-376zM332 813
q0 -31 -16.5 -45.5t-44.5 -14.5q-26 0 -42.5 14.5t-16.5 45.5q0 32 16.5 47.5t42.5 15.5q28 0 44.5 -15.5t16.5 -47.5z" />
    <glyph glyph-name="edotaccent" unicode="&#x117;" horiz-adv-x="558" 
d="M348 673q0 -31 -16.5 -45.5t-44.5 -14.5q-27 0 -43 14.5t-16 45.5q0 32 16 47.5t43 15.5q28 0 44.5 -15.5t16.5 -47.5zM62 363q0 97 58.5 152t159.5 55q102 0 160 -55t58 -152v-78q0 -10 -7 -17.5t-18 -7.5h-312v-55q0 -67 31 -99.5t88 -32.5q32 0 54.5 9t36.5 22
t20 28.5t6 29.5q0 23 23 23h52q23 0 23 -25q0 -29 -14 -59.5t-41.5 -55t-67.5 -40t-92 -15.5q-101 0 -159.5 55t-58.5 152v166zM280 487q-57 0 -88 -33.5t-31 -100.5v-20l238 1v20q0 66 -30.5 99.5t-88.5 33.5z" />
    <glyph glyph-name="Eogonek" unicode="&#x118;" horiz-adv-x="519" 
d="M339 -92q0 29 19 54t49 38h-321q-11 0 -18 7t-7 18v650q0 11 7 18t18 7h368q11 0 18.5 -7t7.5 -18v-40q0 -11 -7.5 -18t-18.5 -7h-289v-226h237q11 0 18.5 -7t7.5 -18v-39q0 -11 -7.5 -18t-18.5 -7h-237v-206h297q11 0 18.5 -7t7.5 -18v-39q0 -22 -19 -35
q-23 -14 -35.5 -31.5t-12.5 -37.5q0 -15 11.5 -24.5t32.5 -9.5h21q19 0 19 -15v-13q0 -8 -6.5 -12.5t-16.5 -6.5q-9 -2 -20.5 -3t-20.5 -1q-20 0 -38.5 4t-32.5 12.5t-22.5 22t-8.5 33.5z" />
    <glyph glyph-name="eogonek" unicode="&#x119;" horiz-adv-x="558" 
d="M62 363q0 97 58.5 152t159.5 55q102 0 160 -55t58 -152v-78q0 -10 -7 -17.5t-18 -7.5h-312v-55q0 -67 31 -99.5t88 -32.5q32 0 54.5 9t36.5 22t20 28.5t6 29.5q0 23 23 23h52q23 0 23 -25t-10.5 -51.5t-31 -49.5t-51.5 -40.5t-71 -23.5q-54 -33 -54 -74q0 -15 11 -24.5
t33 -9.5h21q19 0 19 -15v-13q0 -8 -7 -12.5t-16 -6.5t-20.5 -2.5t-20.5 -0.5q-20 0 -39 4t-33 12t-22.5 21.5t-8.5 33.5q0 26 14.5 48t38.5 36q-88 9 -136.5 62.5t-48.5 142.5v166zM280 487q-57 0 -88 -33.5t-31 -100.5v-20l238 1v20q0 66 -30.5 99.5t-88.5 33.5z" />
    <glyph glyph-name="Ecaron" unicode="&#x11a;" horiz-adv-x="519" 
d="M86 0q-11 0 -18 7t-7 18v650q0 11 7 18t18 7h368q11 0 18.5 -7t7.5 -18v-40q0 -11 -7.5 -18t-18.5 -7h-289v-226h237q11 0 18.5 -7t7.5 -18v-39q0 -11 -7.5 -18t-18.5 -7h-237v-206h297q11 0 18.5 -7t7.5 -18v-39q0 -11 -7.5 -18t-18.5 -7h-376zM257 756q-25 0 -40 21
l-58 84q-5 6 -1 13.5t12 7.5h37q26 0 39 -23l29 -49l29 49q6 11 17 17t22 6h37q8 0 12 -7.5t-1 -13.5l-58 -84q-15 -21 -40 -21h-36z" />
    <glyph glyph-name="ecaron" unicode="&#x11b;" horiz-adv-x="558" 
d="M265 616q-25 0 -41 21l-57 84q-5 6 -1.5 13.5t11.5 7.5h38q25 0 38 -23l29 -49l30 49q13 23 39 23h37q8 0 11.5 -7.5t-1.5 -13.5l-58 -84q-15 -21 -40 -21h-35zM62 363q0 97 58.5 152t159.5 55q102 0 160 -55t58 -152v-78q0 -10 -7 -17.5t-18 -7.5h-312v-55
q0 -67 31 -99.5t88 -32.5q32 0 54.5 9t36.5 22t20 28.5t6 29.5q0 23 23 23h52q23 0 23 -25q0 -29 -14 -59.5t-41.5 -55t-67.5 -40t-92 -15.5q-101 0 -159.5 55t-58.5 152v166zM280 487q-57 0 -88 -33.5t-31 -100.5v-20l238 1v20q0 66 -30.5 99.5t-88.5 33.5z" />
    <glyph glyph-name="Gcircumflex" unicode="&#x11c;" horiz-adv-x="603" 
d="M303 714q54 0 99 -14t77.5 -39.5t50.5 -61t18 -78.5v-13q0 -11 -6 -17.5t-17 -6.5h-56q-23 0 -23 24v7q0 46 -38.5 77.5t-104.5 31.5q-63 0 -102.5 -37t-39.5 -109v-256q0 -72 38 -109t104 -37q44 0 81 18t60 47v128h-122q-11 0 -18 7.5t-7 18.5v38q0 11 7 18t18 7h201
q11 0 18 -7t7 -18v-309q0 -11 -7 -18t-18 -7h-41q-11 0 -19.5 7t-10.5 18l-2 20q-26 -26 -69 -42t-87 -16q-51 0 -95 15.5t-75.5 44.5t-49.5 70t-18 92v284q0 51 18.5 92t51 70t78 44.5t99.5 15.5zM208 755q-8 0 -12 7t1 13l58 85q15 20 40 20h36q25 0 40 -20l58 -85
q5 -6 1 -13t-12 -7h-37q-11 0 -22 5.5t-17 16.5l-29 49l-29 -49q-6 -11 -17 -16.5t-22 -5.5h-37z" />
    <glyph glyph-name="gcircumflex" unicode="&#x11d;" horiz-adv-x="506" 
d="M247 570q34 0 64 -8t51 -21q17 8 23.5 21.5t6.5 33.5v6q0 19 19 19h48q23 0 23 -22v-15q0 -35 -16.5 -58t-44.5 -41q8 -15 12.5 -33.5t4.5 -35.5v-64q0 -29 -13 -55.5t-37 -46.5t-59 -32t-78 -12q-31 0 -55 6q-15 -13 -15 -36q0 -20 14 -37q8 1 16.5 1.5t17.5 0.5h77
q83 0 130.5 -37t47.5 -109q0 -78 -49.5 -116.5t-136.5 -38.5h-82q-88 0 -137.5 38.5t-49.5 116.5q0 45 20.5 77.5t56.5 49.5q-15 24 -15 55q0 37 23 69q-26 17 -41.5 46.5t-15.5 59.5v64q0 31 13.5 59t38 49t59.5 33.5t79 12.5zM126 -8q0 -40 24.5 -57.5t74.5 -17.5h63
q50 0 73.5 17.5t23.5 57.5t-23.5 57t-73.5 17h-63q-50 0 -74.5 -17t-24.5 -57zM247 491q-43 0 -68 -22t-25 -59v-46q0 -37 25 -59.5t68 -22.5q44 0 69 22.5t25 59.5v46q0 37 -25 59t-69 22zM151 629q-8 0 -11.5 7t1.5 13l56 72q7 9 18.5 15t22.5 6h36q11 0 22.5 -6t18.5 -14
l56 -73q5 -6 1.5 -13t-11.5 -7h-37q-11 0 -22.5 5.5t-18.5 14.5l-27 39l-27 -38q-8 -9 -18.5 -15t-22.5 -6h-37z" />
    <glyph glyph-name="Gbreve" unicode="&#x11e;" horiz-adv-x="603" 
d="M309 752q-56 0 -93 28.5t-37 76.5q0 9 5 15.5t14 6.5h27q20 0 26 -21q6 -20 20.5 -31t37.5 -11q24 0 38 11t19 31q7 21 26 21h27q9 0 14 -6.5t5 -15.5q0 -48 -36 -76.5t-93 -28.5zM548 508q0 -11 -6 -17.5t-17 -6.5h-56q-23 0 -23 24v7q0 46 -38.5 77.5t-104.5 31.5
q-63 0 -102.5 -37t-39.5 -109v-256q0 -72 38 -109t104 -37q44 0 81 18t60 47v128h-122q-11 0 -18 7.5t-7 18.5v38q0 11 7 18t18 7h201q11 0 18 -7t7 -18v-309q0 -11 -7 -18t-18 -7h-41q-11 0 -19.5 7t-10.5 18l-2 20q-26 -26 -69 -42t-87 -16q-51 0 -95 15.5t-75.5 44.5
t-49.5 70t-18 92v284q0 51 18.5 92t51 70t78 44.5t99.5 15.5t99 -14t77.5 -39.5t50.5 -61t18 -78.5v-13z" />
    <glyph glyph-name="gbreve" unicode="&#x11f;" horiz-adv-x="506" 
d="M438 352q0 -29 -13 -55.5t-37 -46.5t-59 -32t-78 -12q-31 0 -55 6q-15 -13 -15 -36q0 -20 14 -37q8 1 16.5 1.5t17.5 0.5h77q83 0 130.5 -37t47.5 -109q0 -78 -49.5 -116.5t-136.5 -38.5h-82q-88 0 -137.5 38.5t-49.5 116.5q0 45 20.5 77.5t56.5 49.5q-15 24 -15 55
q0 37 23 69q-26 17 -41.5 46.5t-15.5 59.5v64q0 31 13.5 59t38 49t59.5 33.5t79 12.5q34 0 64 -8t51 -21q30 21 30 62v6q0 19 19 19h48q23 0 23 -22v-15q0 -35 -16.5 -61.5t-44.5 -44.5q8 -15 12.5 -33.5t4.5 -35.5v-64zM126 -8q0 -40 24.5 -57.5t74.5 -17.5h63
q50 0 73.5 17.5t23.5 57.5t-23.5 57t-73.5 17h-63q-50 0 -74.5 -17t-24.5 -57zM247 491q-43 0 -68 -22t-25 -59v-46q0 -37 25 -59.5t68 -22.5q44 0 69 22.5t25 59.5v46q0 37 -25 59t-69 22zM254 612q-56 0 -93 28.5t-37 76.5q0 9 5 15.5t14 6.5h27q11 0 16.5 -5t9.5 -16
q5 -20 19.5 -31t38.5 -11t37.5 11t19.5 31q6 21 26 21h27q9 0 14 -6.5t5 -15.5q0 -48 -36.5 -76.5t-92.5 -28.5z" />
    <glyph glyph-name="Gdotaccent" unicode="&#x120;" horiz-adv-x="603" 
d="M303 714q54 0 99 -14t77.5 -39.5t50.5 -61t18 -78.5v-13q0 -11 -6 -17.5t-17 -6.5h-56q-23 0 -23 24v7q0 46 -38.5 77.5t-104.5 31.5q-63 0 -102.5 -37t-39.5 -109v-256q0 -72 38 -109t104 -37q44 0 81 18t60 47v128h-122q-11 0 -18 7.5t-7 18.5v38q0 11 7 18t18 7h201
q11 0 18 -7t7 -18v-309q0 -11 -7 -18t-18 -7h-41q-11 0 -19.5 7t-10.5 18l-2 20q-26 -26 -69 -42t-87 -16q-51 0 -95 15.5t-75.5 44.5t-49.5 70t-18 92v284q0 51 18.5 92t51 70t78 44.5t99.5 15.5zM362 813q0 -31 -16.5 -45.5t-44.5 -14.5q-26 0 -42.5 14.5t-16.5 45.5
q0 33 16.5 48t42.5 15q28 0 44.5 -15t16.5 -48z" />
    <glyph glyph-name="gdotaccent" unicode="&#x121;" horiz-adv-x="506" 
d="M247 570q34 0 64 -8t51 -21q30 22 30 68v7q0 19 20 19h45q21 0 23 -20q1 -2 1.5 -8.5t0.5 -10.5q0 -39 -17.5 -66t-43.5 -45q8 -15 12.5 -33.5t4.5 -35.5v-64q0 -29 -13 -55.5t-37 -46.5t-59 -32t-78 -12q-31 0 -55 6q-15 -13 -15 -36q0 -20 14 -37q8 1 16.5 1.5
t17.5 0.5h77q83 0 130.5 -37t47.5 -109q0 -78 -49.5 -116.5t-136.5 -38.5h-82q-88 0 -137.5 38.5t-49.5 116.5q0 45 20.5 77.5t56.5 49.5q-15 24 -15 55q0 37 23 69q-26 17 -41.5 46.5t-15.5 59.5v64q0 31 13.5 59t38 49t59.5 33.5t79 12.5zM126 -8q0 -40 24.5 -57.5
t74.5 -17.5h63q50 0 73.5 17.5t23.5 57.5t-23.5 57t-73.5 17h-63q-50 0 -74.5 -17t-24.5 -57zM247 491q-43 0 -68 -22t-25 -59v-46q0 -37 25 -59.5t68 -22.5q44 0 69 22.5t25 59.5v46q0 37 -25 59t-69 22zM311 673q0 -31 -16.5 -45.5t-44.5 -14.5q-26 0 -42.5 14.5
t-16.5 45.5q0 32 16.5 47.5t42.5 15.5q28 0 44.5 -15.5t16.5 -47.5z" />
    <glyph glyph-name="Gcommaaccent" unicode="&#x122;" horiz-adv-x="603" 
d="M358 -98q0 -32 -12 -57t-29.5 -42t-37.5 -26t-36 -9q-19 0 -19 15v6q0 8 4.5 13.5t14.5 13.5t16.5 17t7.5 23q-22 13 -22 46q0 28 15 41.5t41 13.5q27 0 42 -13.5t15 -41.5zM303 714q54 0 99 -14t77.5 -39.5t50.5 -61t18 -78.5v-13q0 -11 -6 -17.5t-17 -6.5h-56
q-23 0 -23 24v7q0 46 -38.5 77.5t-104.5 31.5q-63 0 -102.5 -37t-39.5 -109v-256q0 -72 38 -109t104 -37q44 0 81 18t60 47v128h-122q-11 0 -18 7.5t-7 18.5v38q0 11 7 18t18 7h201q11 0 18 -7t7 -18v-309q0 -11 -7 -18t-18 -7h-41q-11 0 -19.5 7t-10.5 18l-2 20
q-26 -26 -69 -42t-87 -16q-51 0 -95 15.5t-75.5 44.5t-49.5 70t-18 92v284q0 51 18.5 92t51 70t78 44.5t99.5 15.5z" />
    <glyph glyph-name="gcommaaccent" unicode="&#x123;" horiz-adv-x="506" 
d="M247 570q34 0 64 -8t51 -21q30 22 30 68v7q0 19 20 19h45q21 0 23 -20q1 -2 1.5 -8.5t0.5 -10.5q0 -39 -17.5 -66t-43.5 -45q8 -15 12.5 -33.5t4.5 -35.5v-64q0 -29 -13 -55.5t-37 -46.5t-59 -32t-78 -12q-31 0 -55 6q-15 -13 -15 -36q0 -20 14 -37q8 1 16.5 1.5
t17.5 0.5h77q83 0 130.5 -37t47.5 -109q0 -78 -49.5 -116.5t-136.5 -38.5h-82q-88 0 -137.5 38.5t-49.5 116.5q0 45 20.5 77.5t56.5 49.5q-15 24 -15 55q0 37 23 69q-26 17 -41.5 46.5t-15.5 59.5v64q0 31 13.5 59t38 49t59.5 33.5t79 12.5zM126 -8q0 -40 24.5 -57.5
t74.5 -17.5h63q50 0 73.5 17.5t23.5 57.5t-23.5 57t-73.5 17h-63q-50 0 -74.5 -17t-24.5 -57zM247 491q-43 0 -68 -22t-25 -59v-46q0 -37 25 -59.5t68 -22.5q44 0 69 22.5t25 59.5v46q0 37 -25 59t-69 22zM198 664q0 32 12 57t29 42t37 26t36 9q18 0 18 -16v-6
q0 -8 -4.5 -13.5t-14.5 -12.5t-16.5 -16.5t-7.5 -23.5q22 -13 22 -46q0 -27 -15 -40.5t-40 -13.5q-26 0 -41 13.5t-15 40.5z" />
    <glyph glyph-name="Hcircumflex" unicode="&#x124;" horiz-adv-x="612" 
d="M86 0q-11 0 -18 7t-7 18v650q0 11 7 18t18 7h54q11 0 18 -7t7 -18v-294h282v294q0 11 7 18t18 7h54q11 0 18.5 -7t7.5 -18v-650q0 -11 -7.5 -18t-18.5 -7h-54q-11 0 -18 7t-7 18v267h-282v-267q0 -11 -7 -18t-18 -7h-54zM200 756q-8 0 -11.5 7t1.5 14l58 84q7 9 18 15
t22 6h35q12 0 22.5 -6t18.5 -15l58 -84q5 -7 1 -14t-12 -7h-37q-25 0 -39 22l-30 50l-28 -50q-6 -11 -17 -16.5t-22 -5.5h-38z" />
    <glyph glyph-name="hcircumflex" unicode="&#x125;" horiz-adv-x="559" 
d="M93 0q-11 0 -18 7t-7 18v700q0 11 7 18t18 7h49q11 0 18 -7t7 -18v-218q29 29 65 46t78 17q97 0 140 -47.5t43 -141.5v-356q0 -11 -7 -18t-18 -7h-49q-11 0 -18 7t-7 18v343q0 61 -22 89t-79 28q-37 0 -70.5 -21t-55.5 -47v-392q0 -11 -7 -18t-18 -7h-49zM239 615
q-8 0 -12.5 7.5t0.5 14.5l53 83q6 10 17 16t22 6h27q12 0 22.5 -6t17.5 -16l52 -83q5 -7 1 -14.5t-12 -7.5h-29q-25 0 -38 23l-28 49l-27 -49q-12 -23 -37 -23h-29z" />
    <glyph glyph-name="Hbar" unicode="&#x126;" horiz-adv-x="612" 
d="M86 0q-11 0 -18 7t-7 18v496h-19q-10 0 -17 7t-7 17v35q0 11 7 18t17 7h19v70q0 11 7 18t18 7h54q11 0 18 -7t7 -18v-70h282v70q0 11 7 18t18 7h54q11 0 18.5 -7t7.5 -18v-70h18q10 0 17.5 -7t7.5 -18v-35q0 -10 -7.5 -17t-17.5 -7h-18v-496q0 -11 -7.5 -18t-18.5 -7h-54
q-11 0 -18 7t-7 18v253h-282v-253q0 -11 -7 -18t-18 -7h-54zM165 367h282v154h-282v-154z" />
    <glyph glyph-name="hbar" unicode="&#x127;" horiz-adv-x="559" 
d="M93 0q-11 0 -18 7t-7 18v596h-29q-10 0 -16.5 6.5t-6.5 16.5v31q0 10 6.5 16.5t16.5 6.5h29v27q0 11 7 18t18 7h49q11 0 18 -7t7 -18v-27h59q11 0 18 -7t7 -18v-27q0 -11 -7 -18t-18 -7h-59v-114q29 29 65 46t78 17q97 0 140 -47.5t43 -141.5v-356q0 -11 -7 -18t-18 -7
h-49q-11 0 -18 7t-7 18v343q0 61 -22 89t-79 28q-37 0 -70.5 -21t-55.5 -47v-392q0 -11 -7 -18t-18 -7h-49z" />
    <glyph glyph-name="Itilde" unicode="&#x128;" horiz-adv-x="226" 
d="M66 799q-14 0 -21 -13q-5 -11 -11.5 -15t-17.5 -4h-9q-10 0 -17.5 7.5t-6.5 17.5q3 34 19.5 57.5t54.5 23.5q19 0 33.5 -6t26.5 -13l22 -14q10 -6 20 -6q14 0 21 14q5 11 11.5 15t19.5 4h8q10 0 17 -7.5t6 -17.5q-3 -34 -18.5 -57.5t-53.5 -23.5q-20 0 -35.5 6t-27.5 13
l-21 13q-10 6 -20 6zM85 0q-11 0 -18 7t-7 18v650q0 11 7 18t18 7h54q11 0 18 -7t7 -18v-650q0 -11 -7 -18t-18 -7h-54z" />
    <glyph glyph-name="itilde" unicode="&#x129;" 
d="M71 661q-9 0 -14 -4.5t-7 -10.5q-7 -19 -28 -19h-15q-9 0 -16.5 8t-6.5 16q3 35 21 58.5t56 23.5q19 0 33.5 -6.5t26.5 -13.5l21 -14q10 -6 20 -6q18 0 23 15q7 19 27 19h15q10 0 17 -7.5t6 -17.5q-3 -34 -19.5 -57.5t-57.5 -23.5q-18 0 -31.5 6t-25.5 13l-22 14
q-11 7 -23 7zM92 0q-11 0 -18 7t-7 18v510q0 11 7 18t18 7h49q11 0 18 -7t7 -18v-510q0 -11 -7 -18t-18 -7h-49z" />
    <glyph glyph-name="Imacron" unicode="&#x12a;" horiz-adv-x="226" 
d="M27 763q-11 0 -18 7t-7 18v37q0 11 7 18t18 7h172q11 0 18 -7t7 -18v-37q0 -11 -7 -18t-18 -7h-172zM86 0q-11 0 -18 7t-7 18v650q0 11 7 18t18 7h54q11 0 18 -7t7 -18v-650q0 -11 -7 -18t-18 -7h-54z" />
    <glyph glyph-name="imacron" unicode="&#x12b;" 
d="M30 623q-11 0 -18 7t-7 18v37q0 11 7 18t18 7h175q11 0 18 -7t7 -18v-37q0 -11 -7 -18t-18 -7h-175zM93 0q-11 0 -18 7t-7 18v510q0 11 7 18t18 7h49q11 0 18 -7t7 -18v-510q0 -11 -7 -18t-18 -7h-49z" />
    <glyph glyph-name="Ibreve" unicode="&#x12c;" horiz-adv-x="226" 
d="M86 0q-11 0 -18 7t-7 18v650q0 11 7 18t18 7h54q11 0 18 -7t7 -18v-650q0 -11 -7 -18t-18 -7h-54zM114 752q-52 0 -86 29.5t-34 76.5q0 9 5 15.5t14 6.5h26q19 0 25 -21q5 -20 16.5 -31t33.5 -11t33 11t16 31q6 21 25 21h26q9 0 13.5 -6.5t4.5 -15.5q0 -47 -33 -76.5
t-85 -29.5z" />
    <glyph glyph-name="Iogonek" unicode="&#x12e;" horiz-adv-x="226" 
d="M118 -166q-21 0 -39.5 4t-32.5 12.5t-22.5 22.5t-8.5 34q0 30 20 54.5t53 38.5h-11q-7 0 -11.5 5.5t-4.5 12.5v657q0 11 7 18t18 7h54q11 0 18 -7t7 -18v-646q0 -14 -5 -23.5t-16 -18.5q-47 -28 -47 -66q0 -15 11.5 -25.5t32.5 -10.5h21q19 0 19 -15v-12q0 -9 -6.5 -13.5
t-15.5 -6.5q-10 -2 -21.5 -3t-19.5 -1z" />
    <glyph glyph-name="iogonek" unicode="&#x12f;" 
d="M68 535q0 11 7 18t18 7h49q11 0 18 -7t7 -18v-507q0 -14 -4.5 -24t-16.5 -20q-44 -26 -44 -62q0 -16 11 -25.5t33 -9.5h21q19 0 19 -15v-13q0 -8 -6.5 -12.5t-16.5 -6.5q-9 -2 -20.5 -3t-20.5 -1q-20 0 -38.5 4t-32.5 12.5t-22.5 22t-8.5 33.5q0 29 20 54t53 38h-9
q-7 0 -11.5 5.5t-4.5 12.5v517zM175 689q0 -31 -16.5 -44.5t-44.5 -13.5q-27 0 -43 13.5t-16 44.5q0 32 16 46.5t43 14.5q28 0 44.5 -14.5t16.5 -46.5z" />
    <glyph glyph-name="Idotaccent" unicode="&#x130;" horiz-adv-x="226" 
d="M86 0q-11 0 -18 7t-7 18v650q0 11 7 18t18 7h54q11 0 18 -7t7 -18v-650q0 -11 -7 -18t-18 -7h-54zM173 813q0 -31 -16.5 -45.5t-44.5 -14.5q-27 0 -43 14.5t-16 45.5q0 32 16 47.5t43 15.5q28 0 44.5 -15.5t16.5 -47.5z" />
    <glyph glyph-name="dotlessi" unicode="&#x131;" 
d="M93 0q-11 0 -18 7t-7 18v510q0 11 7 18t18 7h49q11 0 18 -7t7 -18v-510q0 -11 -7 -18t-18 -7h-49z" />
    <glyph glyph-name="IJ" unicode="&#x132;" horiz-adv-x="525" 
d="M86 0q-11 0 -18 7t-7 18v650q0 11 7 18t18 7h54q11 0 18 -7t7 -18v-650q0 -11 -7 -18t-18 -7h-54zM465 209q0 -48 -15 -88t-41.5 -69t-64 -45t-82.5 -16q-11 0 -18.5 6t-7.5 17v37q0 23 25 32q99 17 99 143v449q0 11 7 18t18 7h54q11 0 18.5 -7t7.5 -18v-466z" />
    <glyph glyph-name="ij" unicode="&#x133;" horiz-adv-x="476" 
d="M177 689q0 -31 -17 -44.5t-45 -13.5q-26 0 -42.5 13.5t-16.5 44.5q0 32 16.5 46.5t42.5 14.5q28 0 45 -14.5t17 -46.5zM408 33q0 -48 -15.5 -84t-41 -60t-59 -36t-70.5 -12q-10 0 -17.5 6t-7.5 17v25q0 26 25 33q47 7 67 37.5t20 87.5v488q0 11 7 18t18 7h49q11 0 18 -7
t7 -18v-502zM95 0q-11 0 -18.5 7t-7.5 18v510q0 11 7.5 18t18.5 7h48q11 0 18.5 -7t7.5 -18v-510q0 -11 -7.5 -18t-18.5 -7h-48zM418 692q0 -31 -16.5 -44.5t-44.5 -13.5q-27 0 -43 13.5t-16 44.5q0 32 16 46.5t43 14.5q28 0 44.5 -14.5t16.5 -46.5z" />
    <glyph glyph-name="Jcircumflex" unicode="&#x134;" horiz-adv-x="317" 
d="M109 756q-8 0 -12 7t0 15l51 82q6 10 16.5 16t22.5 6h35q12 0 22.5 -6t16.5 -16l51 -82q5 -8 0.5 -15t-12.5 -7h-31q-26 0 -37 23l-28 49l-26 -49q-12 -23 -37 -23h-32zM257 209q0 -48 -15.5 -88t-42.5 -69t-65 -45t-83 -16q-11 0 -18.5 6t-7.5 17v36q0 26 25 33
q50 8 76 44t26 99v449q0 11 7.5 18t18.5 7h54q11 0 18 -7t7 -18v-466z" />
    <glyph glyph-name="jcircumflex" unicode="&#x135;" horiz-adv-x="247" 
d="M31 616q-8 0 -12.5 7t0.5 15l50 82q7 10 17.5 16t21.5 6h35q12 0 22.5 -6t16.5 -16l50 -82q5 -8 1 -15t-13 -7h-30q-26 0 -37 23l-28 49l-26 -49q-12 -23 -37 -23h-31zM179 33q0 -48 -15.5 -84t-41 -60t-59 -36t-70.5 -12q-10 0 -18 6t-8 17v25q0 25 25 33q48 7 68 37.5
t20 87.5v488q0 11 7 18t18 7h49q11 0 18 -7t7 -18v-502z" />
    <glyph glyph-name="Kcommaaccent" unicode="&#x136;" horiz-adv-x="561" 
d="M346 -98q0 -32 -12 -57t-29.5 -42t-38 -26t-36.5 -9q-18 0 -18 15v6q0 8 4.5 13.5t14.5 13.5t16.5 17t7.5 23q-22 13 -22 46q0 28 15 41.5t41 13.5q27 0 42 -13.5t15 -41.5zM86 0q-11 0 -18 7t-7 18v650q0 11 7 18t18 7h51q11 0 18.5 -7t7.5 -18v-293h40l224 298
q17 20 41 20h67q8 0 11 -7t-2 -13l-268 -344l275 -317q5 -6 1.5 -12.5t-11.5 -6.5h-76q-11 0 -22.5 5t-19.5 14l-222 266h-38v-260q0 -11 -7.5 -18t-18.5 -7h-51z" />
    <glyph glyph-name="kcommaaccent" unicode="&#x137;" horiz-adv-x="509" 
d="M93 0q-11 0 -18 7t-7 18v700q0 11 7 18t18 7h49q11 0 18 -7t7 -18v-408h39l168 223q17 20 41 20h65q8 0 11.5 -7t-1.5 -13l-208 -265l218 -256q5 -5 2 -12t-11 -7h-68q-11 0 -22.5 5t-19.5 14l-175 209h-39v-203q0 -11 -7 -18t-18 -7h-49zM328 -98q0 -32 -12 -57
t-29.5 -42t-38 -26t-36.5 -9q-18 0 -18 15v6q0 8 4.5 13.5t14.5 13.5t16.5 17t7.5 23q-22 13 -22 46q0 28 15 41.5t41 13.5q27 0 42 -13.5t15 -41.5z" />
    <glyph glyph-name="kgreenlandic" unicode="&#x138;" horiz-adv-x="509" 
d="M93 0q-11 0 -18 7t-7 18v510q0 11 7 18t18 7h49q11 0 18 -7t7 -18v-218h39l168 223q17 20 41 20h65q8 0 11.5 -7t-1.5 -13l-208 -265l218 -256q5 -5 2 -12t-11 -7h-68q-11 0 -22.5 5t-19.5 14l-175 209h-39v-203q0 -11 -7 -18t-18 -7h-49z" />
    <glyph glyph-name="Lacute" unicode="&#x139;" horiz-adv-x="493" 
d="M86 0q-11 0 -18 7t-7 18v650q0 11 7 18t18 7h54q11 0 18 -7t7 -18v-586h294q11 0 18.5 -7t7.5 -18v-39q0 -11 -7.5 -18t-18.5 -7h-373zM95 756q-8 0 -12 7t1 14l54 83q7 10 17.5 16t22.5 6h61q8 0 11 -7t-2 -13l-73 -87q-16 -19 -41 -19h-39z" />
    <glyph glyph-name="lacute" unicode="&#x13a;" 
d="M103 780q-7 0 -10 6.5t2 12.5l51 50q17 20 42 20h58q6 0 8 -6t-3 -11l-73 -56q-9 -8 -21.5 -12t-24.5 -4h-29zM93 0q-11 0 -18 7t-7 18v700q0 11 7 18t18 7h49q11 0 18 -7t7 -18v-700q0 -11 -7 -18t-18 -7h-49z" />
    <glyph glyph-name="Lcommaaccent" unicode="&#x13b;" horiz-adv-x="493" 
d="M86 0q-11 0 -18 7t-7 18v650q0 11 7 18t18 7h54q11 0 18 -7t7 -18v-586h294q11 0 18.5 -7t7.5 -18v-39q0 -11 -7.5 -18t-18.5 -7h-373zM323 -98q0 -32 -12 -57t-29.5 -42t-37.5 -26t-36 -9q-19 0 -19 15v6q0 8 4.5 13.5t14.5 13.5t17 17t7 23q-10 6 -16 17.5t-6 28.5
q0 28 15 41.5t41 13.5q27 0 42 -13.5t15 -41.5z" />
    <glyph glyph-name="lcommaaccent" unicode="&#x13c;" 
d="M93 0q-11 0 -18 7t-7 18v700q0 11 7 18t18 7h49q11 0 18 -7t7 -18v-700q0 -11 -7 -18t-18 -7h-49zM173 -98q0 -32 -12 -57t-29.5 -42t-37.5 -26t-36 -9q-18 0 -18 15v6q0 8 4.5 13.5t14.5 13.5t16.5 17t7.5 23q-23 13 -23 46q0 28 15.5 41.5t41.5 13.5t41 -13.5t15 -41.5
z" />
    <glyph glyph-name="Lcaron" unicode="&#x13d;" horiz-adv-x="493" 
d="M86 0q-11 0 -18 7t-7 18v650q0 11 7 18t18 7h54q11 0 18 -7t7 -18v-586h294q11 0 18.5 -7t7.5 -18v-39q0 -11 -7.5 -18t-18.5 -7h-373zM402 707q0 -24 -10 -46.5t-25 -39t-33 -26.5t-34 -10q-17 0 -17 14v6q0 8 4 13.5t12 13.5q14 12 15 32q-24 13 -24 43q0 26 15 38.5
t40 12.5q26 0 41.5 -12.5t15.5 -38.5z" />
    <glyph glyph-name="lcaron" unicode="&#x13e;" horiz-adv-x="251" 
d="M68 725q0 11 7 18t18 7h49q11 0 18 -7t7 -18v-700q0 -11 -7 -18t-18 -7h-49q-11 0 -18 7t-7 18v700zM215 720q0 26 15 38.5t40 12.5q26 0 41 -12.5t15 -38.5q0 -24 -10 -46.5t-25 -39t-32.5 -26.5t-33.5 -10q-18 0 -18 14v6q0 8 4.5 13.5t12.5 13.5q8 7 10.5 14t4.5 18
q-24 13 -24 43z" />
    <glyph glyph-name="Ldot" unicode="&#x13f;" horiz-adv-x="493" 
d="M86 0q-11 0 -18 7t-7 18v650q0 11 7 18t18 7h54q11 0 18 -7t7 -18v-586h294q11 0 18.5 -7t7.5 -18v-39q0 -11 -7.5 -18t-18.5 -7h-373zM434 398q0 -31 -16.5 -45.5t-44.5 -14.5q-27 0 -43 14.5t-16 45.5q0 32 16 47.5t43 15.5q28 0 44.5 -15.5t16.5 -47.5z" />
    <glyph glyph-name="ldot" unicode="&#x140;" horiz-adv-x="381" 
d="M93 0q-11 0 -18 7t-7 18v700q0 11 7 18t18 7h49q11 0 18 -7t7 -18v-700q0 -11 -7 -18t-18 -7h-49zM350 314q0 -31 -16 -45t-41 -14q-24 0 -39.5 14t-15.5 45q0 32 15.5 47t39.5 15q25 0 41 -15t16 -47z" />
    <glyph glyph-name="Lslash" unicode="&#x141;" horiz-adv-x="493" 
d="M86 0q-11 0 -18 7t-7 18v258l-30 -13q-9 -4 -15.5 1.5t-6.5 13.5v48q0 24 22 33l30 13v296q0 11 7 18t18 7h54q11 0 18 -7t7 -18v-251l118 51q8 4 16 -1.5t8 -13.5v-46q0 -12 -6.5 -21.5t-17.5 -14.5l-118 -51v-238h294q11 0 18.5 -7t7.5 -18v-39q0 -11 -7.5 -18
t-18.5 -7h-373z" />
    <glyph glyph-name="lslash" unicode="&#x142;" 
d="M93 0q-11 0 -18 7t-7 18v262l-41 -17q-8 -4 -15 1.5t-7 13.5v46q0 24 22 33l41 17v344q0 11 7 18t18 7h49q11 0 18 -7t7 -18v-303l41 18q8 3 15 -2t7 -13v-47q0 -23 -22 -32l-41 -18v-303q0 -11 -7 -18t-18 -7h-49z" />
    <glyph glyph-name="Nacute" unicode="&#x143;" horiz-adv-x="630" 
d="M86 0q-11 0 -18 7t-7 18v650q0 11 7 18t18 7h67q12 0 22.5 -6t15.5 -16l277 -505l-2 502q0 11 7 18t18 7h53q11 0 18 -7t7 -18v-650q0 -11 -7 -18t-18 -7h-69q-12 0 -22.5 6t-15.5 16l-275 504l2 -501q1 -11 -6.5 -18t-18.5 -7h-53zM284 756q-8 0 -12 7t1 14l55 83
q7 10 17.5 16t21.5 6h62q7 0 10 -7t-2 -13l-72 -87q-16 -19 -42 -19h-39z" />
    <glyph glyph-name="nacute" unicode="&#x144;" horiz-adv-x="557" 
d="M93 0q-11 0 -18 7t-7 18v510q0 11 7 18t18 7h37q11 0 19 -7t10 -18l3 -32q29 30 66.5 48.5t80.5 18.5q96 0 139 -47.5t43 -141.5v-356q0 -11 -7 -18t-18 -7h-49q-11 0 -18 7t-7 18v343q0 61 -21.5 89t-78.5 28q-38 0 -70.5 -21t-54.5 -47v-392q0 -11 -7 -18t-18 -7h-49z
M253 616q-8 0 -12 7t1 14l55 83q7 10 17.5 16t21.5 6h62q7 0 10 -7t-2 -13l-72 -87q-16 -19 -42 -19h-39z" />
    <glyph glyph-name="Ncommaaccent" unicode="&#x145;" horiz-adv-x="630" 
d="M86 0q-11 0 -18 7t-7 18v650q0 11 7 18t18 7h67q12 0 22.5 -6t15.5 -16l277 -505l-2 502q0 11 7 18t18 7h53q11 0 18 -7t7 -18v-650q0 -11 -7 -18t-18 -7h-69q-12 0 -22.5 6t-15.5 16l-275 504l2 -501q1 -11 -6.5 -18t-18.5 -7h-53zM381 -98q0 -32 -12 -57t-29.5 -42
t-37.5 -26t-36 -9q-18 0 -18 15v6q0 8 4.5 13.5t14.5 13.5t16.5 17t7.5 23q-23 13 -23 46q0 28 15.5 41.5t41.5 13.5t41 -13.5t15 -41.5z" />
    <glyph glyph-name="ncommaaccent" unicode="&#x146;" horiz-adv-x="557" 
d="M93 0q-11 0 -18 7t-7 18v510q0 11 7 18t18 7h37q11 0 19 -7t10 -18l3 -32q29 30 66.5 48.5t80.5 18.5q96 0 139 -47.5t43 -141.5v-356q0 -11 -7 -18t-18 -7h-49q-11 0 -18 7t-7 18v343q0 61 -21.5 89t-78.5 28q-38 0 -70.5 -21t-54.5 -47v-392q0 -11 -7 -18t-18 -7h-49z
M338 -98q0 -32 -12 -57t-29.5 -42t-37.5 -26t-36 -9q-18 0 -18 15v6q0 8 4.5 13.5t14.5 13.5t16.5 17t6.5 23q-10 6 -16 17.5t-6 28.5q0 28 15 41.5t41 13.5q27 0 42 -13.5t15 -41.5z" />
    <glyph glyph-name="Ncaron" unicode="&#x147;" horiz-adv-x="630" 
d="M86 0q-11 0 -18 7t-7 18v650q0 11 7 18t18 7h67q12 0 22.5 -6t15.5 -16l277 -505l-2 502q0 11 7 18t18 7h53q11 0 18 -7t7 -18v-650q0 -11 -7 -18t-18 -7h-69q-12 0 -22.5 6t-15.5 16l-275 504l2 -501q1 -11 -6.5 -18t-18.5 -7h-53zM297 756q-25 0 -41 21l-57 84
q-5 6 -1.5 13.5t11.5 7.5h38q25 0 38 -23l29 -49l30 49q13 23 39 23h37q8 0 11.5 -7.5t-1.5 -13.5l-58 -84q-15 -21 -40 -21h-35z" />
    <glyph glyph-name="ncaron" unicode="&#x148;" horiz-adv-x="557" 
d="M93 0q-11 0 -18 7t-7 18v510q0 11 7 18t18 7h37q11 0 19 -7t10 -18l3 -32q29 30 66.5 48.5t80.5 18.5q96 0 139 -47.5t43 -141.5v-356q0 -11 -7 -18t-18 -7h-49q-11 0 -18 7t-7 18v343q0 61 -21.5 89t-78.5 28q-38 0 -70.5 -21t-54.5 -47v-392q0 -11 -7 -18t-18 -7h-49z
M275 616q-25 0 -41 21l-57 84q-5 6 -1.5 13.5t11.5 7.5h38q11 0 22 -6t17 -17l28 -49l30 49q13 23 39 23h37q8 0 12 -7.5t-1 -13.5l-58 -84q-16 -21 -41 -21h-35z" />
    <glyph glyph-name="napostrophe" unicode="&#x149;" horiz-adv-x="557" 
d="M93 0q-11 0 -18 7t-7 18v510q0 11 7 18t18 7h37q11 0 19 -7t10 -18l3 -32q29 30 66.5 48.5t80.5 18.5q96 0 139 -47.5t43 -141.5v-356q0 -11 -7 -18t-18 -7h-49q-11 0 -18 7t-7 18v343q0 61 -21.5 89t-78.5 28q-38 0 -70.5 -21t-54.5 -47v-392q0 -11 -7 -18t-18 -7h-49z
M183 711q0 -24 -9.5 -45t-24 -37t-31.5 -25.5t-32 -9.5q-17 0 -17 14v7q0 8 4.5 13.5t11.5 12.5q14 11 15 29q-23 11 -23 41q0 24 14 36t38 12q26 0 40 -12t14 -36z" />
    <glyph glyph-name="Eng" unicode="&#x14a;" horiz-adv-x="630" 
d="M86 0q-11 0 -18 7t-7 18v650q0 11 7 18t18 7h67q12 0 22.5 -6t15.5 -16l277 -505l-2 502q0 11 7 18t18 7h53q11 0 18 -7t7 -18v-674q0 -91 -41.5 -133.5t-129.5 -47.5q-10 -1 -17.5 6t-7.5 18v30q0 28 25 32q35 5 52.5 26t17.5 64h-1q-19 5 -26 20l-279 510l2 -501
q1 -11 -6.5 -18t-18.5 -7h-53z" />
    <glyph glyph-name="eng" unicode="&#x14b;" horiz-adv-x="557" 
d="M93 0q-11 0 -18 7t-7 18v510q0 11 7 18t18 7h37q11 0 19 -7t10 -18l3 -32q29 30 66.5 48.5t80.5 18.5q96 0 139 -47.5t43 -141.5v-381q0 -90 -42 -132.5t-130 -47.5q-10 -1 -17.5 6t-7.5 18v27q0 28 25 32q73 10 73 98v367q0 61 -21.5 89t-78.5 28q-38 0 -70.5 -21
t-54.5 -47v-392q0 -11 -7 -18t-18 -7h-49z" />
    <glyph glyph-name="Omacron" unicode="&#x14c;" horiz-adv-x="623" 
d="M311 -14q-53 0 -99.5 15.5t-81 44t-54.5 70t-20 92.5v284q0 52 20 93t54.5 69.5t81 44t99.5 15.5t100 -15.5t81.5 -44t54.5 -69.5t20 -93v-284q0 -51 -20 -92.5t-54.5 -70t-81.5 -44t-100 -15.5zM311 624q-31 0 -58.5 -9.5t-47.5 -27.5t-32 -45.5t-12 -63.5v-256
q0 -36 12 -63.5t32 -45.5t47.5 -27.5t58.5 -9.5t59 9.5t48 27.5t32 45.5t12 63.5v256q0 36 -12 63.5t-32 45.5t-48 27.5t-59 9.5zM188 763q-11 0 -18 7t-7 18v37q0 11 7 18t18 7h246q11 0 18 -7t7 -18v-37q0 -11 -7 -18t-18 -7h-246z" />
    <glyph glyph-name="omacron" unicode="&#x14d;" horiz-adv-x="560" 
d="M280 487q-57 0 -88 -34.5t-31 -101.5v-142q0 -67 31 -101.5t88 -34.5q58 0 88.5 34.5t30.5 101.5v142q0 67 -30.5 101.5t-88.5 34.5zM280 -10q-101 0 -159.5 55t-58.5 152v166q0 97 58.5 152t159.5 55q102 0 160 -55t58 -152v-166q0 -97 -58 -152t-160 -55zM157 623
q-11 0 -18 7t-7 18v37q0 11 7 18t18 7h246q11 0 18 -7t7 -18v-37q0 -11 -7 -18t-18 -7h-246z" />
    <glyph glyph-name="Obreve" unicode="&#x14e;" horiz-adv-x="623" 
d="M311 -14q-53 0 -99.5 15.5t-81 44t-54.5 70t-20 92.5v284q0 52 20 93t54.5 69.5t81 44t99.5 15.5t100 -15.5t81.5 -44t54.5 -69.5t20 -93v-284q0 -51 -20 -92.5t-54.5 -70t-81.5 -44t-100 -15.5zM311 624q-31 0 -58.5 -9.5t-47.5 -27.5t-32 -45.5t-12 -63.5v-256
q0 -36 12 -63.5t32 -45.5t47.5 -27.5t58.5 -9.5t59 9.5t48 27.5t32 45.5t12 63.5v256q0 36 -12 63.5t-32 45.5t-48 27.5t-59 9.5zM311 752q-56 0 -93 28.5t-37 76.5q0 9 5 15.5t14 6.5h27q20 0 26 -21q5 -20 20 -31t38 -11q24 0 38 11t19 31q6 21 26 21h27q9 0 14 -6.5
t5 -15.5q0 -48 -36 -76.5t-93 -28.5z" />
    <glyph glyph-name="obreve" unicode="&#x14f;" horiz-adv-x="560" 
d="M280 487q-57 0 -88 -34.5t-31 -101.5v-142q0 -67 31 -101.5t88 -34.5q58 0 88.5 34.5t30.5 101.5v142q0 67 -30.5 101.5t-88.5 34.5zM280 -10q-101 0 -159.5 55t-58.5 152v166q0 97 58.5 152t159.5 55q102 0 160 -55t58 -152v-166q0 -97 -58 -152t-160 -55zM280 612
q-56 0 -93 28.5t-37 76.5q0 9 5 15.5t14 6.5h27q11 0 16.5 -5t9.5 -16q5 -20 19.5 -31t38.5 -11t37.5 11t19.5 31q6 21 26 21h27q9 0 14 -6.5t5 -15.5q0 -48 -36.5 -76.5t-92.5 -28.5z" />
    <glyph glyph-name="Ohungarumlaut" unicode="&#x150;" horiz-adv-x="623" 
d="M311 -14q-53 0 -99.5 15.5t-81 44t-54.5 70t-20 92.5v284q0 52 20 93t54.5 69.5t81 44t99.5 15.5t100 -15.5t81.5 -44t54.5 -69.5t20 -93v-284q0 -51 -20 -92.5t-54.5 -70t-81.5 -44t-100 -15.5zM311 624q-31 0 -58.5 -9.5t-47.5 -27.5t-32 -45.5t-12 -63.5v-256
q0 -36 12 -63.5t32 -45.5t47.5 -27.5t58.5 -9.5t59 9.5t48 27.5t32 45.5t12 63.5v256q0 36 -12 63.5t-32 45.5t-48 27.5t-59 9.5zM225 756q-8 0 -12 7t1 14l53 83q7 10 17.5 16t22.5 6h40q8 0 11.5 -7t-1.5 -13l-68 -86q-8 -10 -19 -15t-22 -5h-23zM347 756q-8 0 -11.5 7
t1.5 14l61 84q7 9 18.5 15t22.5 6h41q8 0 11 -7t-2 -13l-76 -87q-17 -19 -43 -19h-23z" />
    <glyph glyph-name="ohungarumlaut" unicode="&#x151;" horiz-adv-x="560" 
d="M280 487q-57 0 -88 -34.5t-31 -101.5v-142q0 -67 31 -101.5t88 -34.5q58 0 88.5 34.5t30.5 101.5v142q0 67 -30.5 101.5t-88.5 34.5zM280 -10q-101 0 -159.5 55t-58.5 152v166q0 97 58.5 152t159.5 55q102 0 160 -55t58 -152v-166q0 -97 -58 -152t-160 -55zM191 616
q-8 0 -12 7t1 14l53 83q7 10 17.5 16t21.5 6h41q8 0 11.5 -7t-1.5 -13l-68 -86q-8 -10 -19 -15t-23 -5h-22zM313 616q-8 0 -11.5 7t1.5 14l61 84q7 9 18 15t23 6h41q8 0 10.5 -7t-2.5 -13l-76 -87q-8 -9 -19.5 -14t-22.5 -5h-23z" />
    <glyph glyph-name="OE" unicode="&#x152;" horiz-adv-x="888" 
d="M300 -14q-53 0 -97.5 15.5t-76 44.5t-49 70t-17.5 93v282q0 52 17.5 93t49 70t76 44.5t97.5 15.5q43 0 83.5 -16t62.5 -46v29q0 8 5.5 13.5t13.5 5.5h356q11 0 18 -7t7 -18v-40q0 -11 -7 -18t-18 -7h-270v-232h217q11 0 18.5 -7t7.5 -18v-39q0 -11 -7.5 -18t-18.5 -7
h-217v-200h277q11 0 18.5 -7t7.5 -18v-39q0 -11 -7.5 -18t-18.5 -7h-363q-19 0 -19 19v26q-28 -32 -64.5 -45.5t-81.5 -13.5zM305 624q-62 0 -101 -37t-39 -109v-256q0 -72 39 -109t101 -37q60 0 100.5 37.5t40.5 106.5v260q0 69 -40.5 106.5t-100.5 37.5z" />
    <glyph glyph-name="oe" unicode="&#x153;" horiz-adv-x="896" 
d="M280 487q-57 0 -88 -34.5t-31 -101.5v-142q0 -67 31 -101.5t88 -34.5q56 0 87.5 29.5t31.5 92.5v164q0 66 -31 97t-88 31zM498 333h239v22q0 66 -30.5 99t-88.5 33q-57 0 -88.5 -30.5t-31.5 -93.5v-30zM618 -10q-56 0 -100 18.5t-70 55.5q-26 -37 -69 -55.5t-99 -18.5
q-101 0 -159.5 55t-58.5 152v166q0 97 58.5 152t159.5 55q56 0 98.5 -19.5t69.5 -55.5q27 36 70.5 55.5t99.5 19.5q101 0 159.5 -55t58.5 -152v-78q0 -10 -7.5 -17.5t-18.5 -7.5h-312v-62q0 -65 31.5 -95t88.5 -30q32 0 54 9t36 22t20 28.5t6 29.5q0 23 24 23h51
q11 0 17.5 -7t6.5 -18q0 -29 -14 -59.5t-41.5 -55t-67.5 -40t-92 -15.5z" />
    <glyph glyph-name="Racute" unicode="&#x154;" horiz-adv-x="606" 
d="M86 0q-11 0 -18 7t-7 18v650q0 11 7 18t18 7h235q107 0 169 -54.5t62 -157.5v-39q0 -77 -36.5 -128t-103.5 -69l151 -230q4 -8 0 -15t-12 -7h-73q-12 0 -22.5 6t-16.5 16l-138 215h-136v-212q0 -11 -7 -18t-18 -7h-54zM165 325h156q61 0 93.5 32.5t32.5 103.5v14
q0 71 -32.5 103t-93.5 32h-156v-285zM247 756q-8 0 -12 7t1 14l54 83q7 10 18 16t22 6h61q8 0 11 -7t-2 -13l-72 -87q-8 -9 -19.5 -14t-22.5 -5h-39z" />
    <glyph glyph-name="racute" unicode="&#x155;" horiz-adv-x="333" 
d="M293 569q23 0 23 -20v-47q0 -21 -22 -21q-16 0 -34 -5.5t-35.5 -15.5t-32.5 -24t-25 -31v-380q0 -11 -7 -18t-18 -7h-49q-11 0 -18 7t-7 18v510q0 11 7 18t18 7h36q11 0 19 -7t10 -18l4 -43q10 17 27 31.5t35.5 24.5t36.5 15.5t32 5.5zM132 616q-8 0 -12 7t1 14l54 83
q7 10 18 16t22 6h61q8 0 11 -7t-2 -13l-72 -87q-8 -9 -19.5 -14t-22.5 -5h-39z" />
    <glyph glyph-name="Rcommaaccent" unicode="&#x156;" horiz-adv-x="606" 
d="M86 0q-11 0 -18 7t-7 18v650q0 11 7 18t18 7h235q107 0 169 -54.5t62 -157.5v-39q0 -77 -36.5 -128t-103.5 -69l151 -230q4 -8 0 -15t-12 -7h-73q-12 0 -22.5 6t-16.5 16l-138 215h-136v-212q0 -11 -7 -18t-18 -7h-54zM165 325h156q61 0 93.5 32.5t32.5 103.5v14
q0 71 -32.5 103t-93.5 32h-156v-285zM358 -98q0 -32 -12 -57t-29.5 -42t-37.5 -26t-36 -9q-18 0 -18 15v6q0 8 4.5 13.5t14.5 13.5t16.5 17t6.5 23q-10 6 -16 17.5t-6 28.5q0 28 15 41.5t41 13.5q27 0 42 -13.5t15 -41.5z" />
    <glyph glyph-name="rcommaaccent" unicode="&#x157;" horiz-adv-x="333" 
d="M293 569q23 0 23 -20v-47q0 -21 -22 -21q-16 0 -34 -5.5t-35.5 -15.5t-32.5 -24t-25 -31v-380q0 -11 -7 -18t-18 -7h-49q-11 0 -18 7t-7 18v510q0 11 7 18t18 7h36q11 0 19 -7t10 -18l4 -43q10 17 27 31.5t35.5 24.5t36.5 15.5t32 5.5zM172 -98q0 -32 -12 -57t-29.5 -42
t-37.5 -26t-36 -9q-18 0 -18 15v6q0 8 4.5 13.5t14.5 13.5t16.5 17t7.5 23q-23 13 -23 46q0 28 15.5 41.5t41.5 13.5t41 -13.5t15 -41.5z" />
    <glyph glyph-name="Rcaron" unicode="&#x158;" horiz-adv-x="606" 
d="M86 0q-11 0 -18 7t-7 18v650q0 11 7 18t18 7h235q107 0 169 -54.5t62 -157.5v-39q0 -77 -36.5 -128t-103.5 -69l151 -230q4 -8 0 -15t-12 -7h-73q-12 0 -22.5 6t-16.5 16l-138 215h-136v-212q0 -11 -7 -18t-18 -7h-54zM165 325h156q61 0 93.5 32.5t32.5 103.5v14
q0 71 -32.5 103t-93.5 32h-156v-285zM284 756q-26 0 -41 21l-57 84q-5 6 -1.5 13.5t11.5 7.5h38q25 0 38 -23l29 -49l30 49q13 23 39 23h37q8 0 11.5 -7.5t-1.5 -13.5l-58 -84q-15 -21 -40 -21h-35z" />
    <glyph glyph-name="rcaron" unicode="&#x159;" horiz-adv-x="333" 
d="M173 616q-26 0 -41 21l-57 84q-5 6 -1.5 13.5t11.5 7.5h38q25 0 38 -23l29 -49l30 49q13 23 38 23h38q8 0 11.5 -7.5t-1.5 -13.5l-58 -84q-15 -21 -40 -21h-35zM293 569q23 0 23 -20v-47q0 -21 -22 -21q-16 0 -34 -5.5t-35.5 -15.5t-32.5 -24t-25 -31v-380q0 -11 -7 -18
t-18 -7h-49q-11 0 -18 7t-7 18v510q0 11 7 18t18 7h36q11 0 19 -7t10 -18l4 -43q10 17 27 31.5t35.5 24.5t36.5 15.5t32 5.5z" />
    <glyph glyph-name="Sacute" unicode="&#x15a;" horiz-adv-x="600" 
d="M265 756q-8 0 -12 7t1 14l54 83q7 10 17.5 16t22.5 6h61q8 0 11 -7t-2 -13l-72 -87q-8 -9 -19.5 -14t-22.5 -5h-39zM48 201q0 11 6 18t17 7h59q23 0 23 -24q0 -21 10 -43t29.5 -40t48.5 -30t66 -12q71 0 106 32.5t35 86.5q0 27 -10.5 46t-30 31.5t-46.5 19.5t-59 10
q-46 4 -89.5 15.5t-77 33.5t-53.5 57.5t-20 87.5v20q0 42 14 78t43 62.5t73 41t105 14.5q62 0 107.5 -18t75 -48t44 -68.5t14.5 -79.5q0 -11 -6.5 -18t-17.5 -7h-57q-23 0 -23 24q0 20 -7 42t-23.5 40.5t-42.5 30.5t-64 12q-68 0 -99.5 -31.5t-31.5 -79.5q0 -33 12 -54.5
t32 -34t47.5 -18.5t59.5 -9q42 -4 84 -14.5t75.5 -31.5t54.5 -55t21 -84v-25q0 -90 -62 -145t-183 -55q-62 0 -110 17t-81 46.5t-50.5 68.5t-17.5 83z" />
    <glyph glyph-name="sacute" unicode="&#x15b;" horiz-adv-x="520" 
d="M226 616q-8 0 -12 7t1 14l54 83q7 10 17.5 16t22.5 6h61q8 0 11 -7t-2 -13l-73 -87q-16 -19 -41 -19h-39zM143 153q0 -14 8 -29t23.5 -27.5t38.5 -20.5t53 -8q57 0 83.5 25t26.5 63q0 22 -10 36.5t-27.5 24.5t-42.5 15.5t-55 10.5q-36 5 -69.5 14.5t-59 27.5t-41 45.5
t-15.5 67.5v16q0 69 50 114t151 45q52 0 90 -14.5t63 -38t37.5 -52.5t12.5 -59q0 -11 -6 -17.5t-17 -6.5h-47q-11 0 -18 6t-7 17q0 13 -5.5 28t-18.5 27.5t-33.5 20.5t-50.5 8q-54 0 -78 -24t-24 -61q0 -23 9 -38t25.5 -24.5t40.5 -15.5t53 -10q36 -5 70 -14t61 -25.5
t43.5 -43.5t16.5 -67v-20q0 -34 -13.5 -63.5t-40 -51.5t-65 -34.5t-89.5 -12.5t-92 13.5t-69.5 36t-43.5 52.5t-15 63q0 11 6.5 17.5t17.5 6.5h49q11 0 17.5 -6t6.5 -17z" />
    <glyph glyph-name="Scircumflex" unicode="&#x15c;" horiz-adv-x="600" 
d="M195 756q-8 0 -11.5 7t1.5 14l58 84q7 9 18 15t22 6h35q12 0 22.5 -6t18.5 -15l58 -84q5 -7 1 -14t-12 -7h-37q-25 0 -39 22l-30 50l-28 -50q-6 -11 -17 -16.5t-22 -5.5h-38zM307 -14q-62 0 -110 17t-81 46.5t-50.5 68.5t-17.5 83q0 11 6 18t17 7h59q23 0 23 -24
q0 -21 10 -43t29.5 -40t48.5 -30t66 -12q71 0 106 32.5t35 86.5q0 27 -10.5 46t-30 31.5t-46.5 19.5t-59 10q-46 4 -89.5 15.5t-77 33.5t-53.5 57.5t-20 87.5v20q0 42 14 78t43 62.5t73 41t105 14.5q62 0 107.5 -18t75 -48t44 -68.5t14.5 -79.5q0 -11 -6.5 -18t-17.5 -7h-57
q-23 0 -23 24q0 20 -7 42t-23.5 40.5t-42.5 30.5t-64 12q-68 0 -99.5 -31.5t-31.5 -79.5q0 -33 12 -54.5t32 -34t47.5 -18.5t59.5 -9q42 -4 84 -14.5t75.5 -31.5t54.5 -55t21 -84v-25q0 -90 -62 -145t-183 -55z" />
    <glyph glyph-name="scircumflex" unicode="&#x15d;" horiz-adv-x="520" 
d="M143 153q0 -14 8 -29t23.5 -27.5t38.5 -20.5t53 -8q57 0 83.5 25t26.5 63q0 22 -10 36.5t-27.5 24.5t-42.5 15.5t-55 10.5q-36 5 -69.5 14.5t-59 27.5t-41 45.5t-15.5 67.5v16q0 69 50 114t151 45q52 0 90 -14.5t63 -38t37.5 -52.5t12.5 -59q0 -11 -6 -17.5t-17 -6.5h-47
q-11 0 -18 6t-7 17q0 13 -5.5 28t-18.5 27.5t-33.5 20.5t-50.5 8q-54 0 -78 -24t-24 -61q0 -23 9 -38t25.5 -24.5t40.5 -15.5t53 -10q36 -5 70 -14t61 -25.5t43.5 -43.5t16.5 -67v-20q0 -34 -13.5 -63.5t-40 -51.5t-65 -34.5t-89.5 -12.5t-92 13.5t-69.5 36t-43.5 52.5
t-15 63q0 11 6.5 17.5t17.5 6.5h49q11 0 17.5 -6t6.5 -17zM154 616q-8 0 -11.5 7t1.5 14l58 84q7 9 18 15t22 6h35q12 0 22.5 -6t18.5 -15l58 -84q5 -7 1 -14t-12 -7h-37q-25 0 -39 22l-30 50l-28 -50q-6 -11 -17 -16.5t-22 -5.5h-38z" />
    <glyph glyph-name="Scedilla" unicode="&#x15e;" horiz-adv-x="600" 
d="M294 -164h-19q-11 0 -21 1q-21 3 -21 17v11q0 15 17 15h20q20 0 32.5 6.5t12.5 20.5t-11.5 20t-25.5 8q-11 2 -14.5 9t0.5 16l11 28q-54 4 -96.5 22.5t-71.5 47t-44 65.5t-15 78q0 11 6 18t17 7h59q23 0 23 -24q0 -21 10 -43t29.5 -40t48.5 -30t66 -12q71 0 106 32.5
t35 86.5q0 27 -10.5 46t-30 31.5t-46.5 19.5t-59 10q-46 4 -89.5 15.5t-77 33.5t-53.5 57.5t-20 87.5v20q0 42 14 78t43 62.5t73 41t105 14.5q62 0 107.5 -18t75 -48t44 -68.5t14.5 -79.5q0 -11 -6.5 -18t-17.5 -7h-57q-23 0 -23 24q0 20 -7 42t-23.5 40.5t-42.5 30.5
t-64 12q-68 0 -99.5 -31.5t-31.5 -79.5q0 -33 12 -54.5t32 -34t47.5 -18.5t59.5 -9q42 -4 84 -14.5t75.5 -31.5t54.5 -55t21 -84v-25q0 -82 -52 -135.5t-154 -61.5l-8 -24q26 -3 44.5 -17.5t18.5 -43.5q0 -20 -10 -33.5t-25.5 -21t-34.5 -10.5t-37 -3z" />
    <glyph glyph-name="scedilla" unicode="&#x15f;" horiz-adv-x="520" 
d="M143 153q0 -14 8 -29t23.5 -27.5t38.5 -20.5t53 -8q57 0 83.5 25t26.5 63q0 22 -10 36.5t-27.5 24.5t-42.5 15.5t-55 10.5q-36 5 -69.5 14.5t-59 27.5t-41 45.5t-15.5 67.5v16q0 69 50 114t151 45q52 0 90 -14.5t63 -38t37.5 -52.5t12.5 -59q0 -11 -6 -17.5t-17 -6.5h-47
q-11 0 -18 6t-7 17q0 13 -5.5 28t-18.5 27.5t-33.5 20.5t-50.5 8q-54 0 -78 -24t-24 -61q0 -23 9 -38t25.5 -24.5t40.5 -15.5t53 -10q36 -5 70 -14t61 -25.5t43.5 -43.5t16.5 -67v-20q0 -62 -43.5 -106.5t-127.5 -53.5l-8 -24q26 -3 44.5 -17.5t18.5 -43.5q0 -20 -10 -33.5
t-25 -21t-34 -10.5t-37 -3h-19q-11 0 -22 1q-21 3 -21 17v11q0 15 17 15h20q20 0 33 6.5t13 20.5t-12 20t-26 8q-10 1 -13.5 8.5t0.5 16.5l11 29q-44 4 -78.5 18.5t-58.5 36.5t-37 50t-13 58q0 11 6.5 17.5t17.5 6.5h49q11 0 17.5 -6t6.5 -17z" />
    <glyph glyph-name="Scaron" unicode="&#x160;" horiz-adv-x="600" 
d="M283 756q-25 0 -40 21l-58 84q-5 6 -1.5 13.5t11.5 7.5h38q11 0 22 -6t17 -17l28 -49l30 49q15 23 39 23h37q8 0 12 -7.5t-1 -13.5l-58 -84q-16 -21 -41 -21h-35zM307 -14q-62 0 -110 17t-81 46.5t-50.5 68.5t-17.5 83q0 11 6 18t17 7h59q23 0 23 -24q0 -21 10 -43
t29.5 -40t48.5 -30t66 -12q71 0 106 32.5t35 86.5q0 27 -10.5 46t-30 31.5t-46.5 19.5t-59 10q-46 4 -89.5 15.5t-77 33.5t-53.5 57.5t-20 87.5v20q0 42 14 78t43 62.5t73 41t105 14.5q62 0 107.5 -18t75 -48t44 -68.5t14.5 -79.5q0 -11 -6.5 -18t-17.5 -7h-57q-23 0 -23 24
q0 20 -7 42t-23.5 40.5t-42.5 30.5t-64 12q-68 0 -99.5 -31.5t-31.5 -79.5q0 -33 12 -54.5t32 -34t47.5 -18.5t59.5 -9q42 -4 84 -14.5t75.5 -31.5t54.5 -55t21 -84v-25q0 -90 -62 -145t-183 -55z" />
    <glyph glyph-name="scaron" unicode="&#x161;" horiz-adv-x="520" 
d="M240 616q-25 0 -40 21l-58 84q-5 6 -1 13.5t12 7.5h37q26 0 39 -23l29 -49l29 49q15 23 39 23h37q8 0 12 -7.5t-1 -13.5l-58 -84q-16 -21 -40 -21h-36zM143 153q0 -14 8 -29t23.5 -27.5t38.5 -20.5t53 -8q57 0 83.5 25t26.5 63q0 22 -10 36.5t-27.5 24.5t-42.5 15.5
t-55 10.5q-36 5 -69.5 14.5t-59 27.5t-41 45.5t-15.5 67.5v16q0 69 50 114t151 45q52 0 90 -14.5t63 -38t37.5 -52.5t12.5 -59q0 -11 -6 -17.5t-17 -6.5h-47q-11 0 -18 6t-7 17q0 13 -5.5 28t-18.5 27.5t-33.5 20.5t-50.5 8q-54 0 -78 -24t-24 -61q0 -23 9 -38t25.5 -24.5
t40.5 -15.5t53 -10q36 -5 70 -14t61 -25.5t43.5 -43.5t16.5 -67v-20q0 -34 -13.5 -63.5t-40 -51.5t-65 -34.5t-89.5 -12.5t-92 13.5t-69.5 36t-43.5 52.5t-15 63q0 11 6.5 17.5t17.5 6.5h49q11 0 17.5 -6t6.5 -17z" />
    <glyph glyph-name="Tcommaaccent" unicode="&#x162;" horiz-adv-x="508" 
d="M227 0q-11 0 -18 7t-7 18v586h-170q-11 0 -18.5 7t-7.5 18v39q0 11 7.5 18t18.5 7h444q11 0 18.5 -7t7.5 -18v-39q0 -11 -7.5 -18t-18.5 -7h-170v-586q0 -11 -7 -18t-18 -7h-54zM306 -98q0 -32 -12 -57t-29.5 -42t-37.5 -26t-36 -9q-18 0 -18 15v6q0 8 4.5 13.5
t14.5 13.5t16.5 17t6.5 23q-10 6 -16 17.5t-6 28.5q0 28 15.5 41.5t41.5 13.5t41 -13.5t15 -41.5z" />
    <glyph glyph-name="tcommaaccent" unicode="&#x163;" horiz-adv-x="359" 
d="M261 -13q-191 0 -191 192v301h-34q-11 0 -18.5 7t-7.5 18v30q0 11 7.5 18t18.5 7h36l9 115q1 11 8.5 18t18.5 7h36q11 0 18 -7t7 -18v-115h136q11 0 18.5 -7t7.5 -18v-30q0 -11 -7.5 -18t-18.5 -7h-136v-295q0 -60 24.5 -88t77.5 -28q12 0 25 1t27 3q10 2 17 -3.5
t7 -16.5v-30q0 -10 -7.5 -18.5t-18.5 -10.5q-15 -3 -30.5 -5t-29.5 -2zM247 -98q0 -32 -12 -57t-29.5 -42t-38 -26t-36.5 -9q-18 0 -18 15v6q0 8 4.5 13.5t14.5 13.5t16.5 17t7.5 23q-22 13 -22 46q0 28 15 41.5t41 13.5q27 0 42 -13.5t15 -41.5z" />
    <glyph glyph-name="Tcaron" unicode="&#x164;" horiz-adv-x="505" 
d="M226 0q-11 0 -18.5 7t-7.5 18v586h-170q-11 0 -18 7t-7 18v39q0 11 7 18t18 7h445q11 0 18 -7t7 -18v-39q0 -11 -7 -18t-18 -7h-170v-586q0 -11 -7 -18t-18 -7h-54zM235 756q-25 0 -40 21l-58 84q-5 6 -1.5 13.5t11.5 7.5h38q11 0 22 -6t17 -17l28 -49l30 49q13 23 39 23
h37q8 0 12 -7.5t-1 -13.5l-58 -84q-15 -21 -41 -21h-35z" />
    <glyph glyph-name="tcaron" unicode="&#x165;" horiz-adv-x="364" 
d="M261 -13q-191 0 -191 192v301h-34q-11 0 -18.5 7t-7.5 18v30q0 11 7.5 18t18.5 7h36l9 115q1 11 8.5 18t18.5 7h36q11 0 18 -7t7 -18v-115h136q11 0 18.5 -7t7.5 -18v-30q0 -11 -7.5 -18t-18.5 -7h-136v-295q0 -60 24.5 -88t77.5 -28q12 0 25 1t27 3q10 2 17 -3.5
t7 -16.5v-30q0 -10 -7.5 -18.5t-18.5 -10.5q-15 -3 -30.5 -5t-29.5 -2zM351 723q0 -25 -10 -47t-25 -39t-32.5 -27t-33.5 -10q-18 0 -18 14v7q0 8 4.5 13.5t12.5 12.5t10.5 14.5t4.5 18.5q-24 11 -24 43q0 25 15 37.5t40 12.5q26 0 41 -12.5t15 -37.5z" />
    <glyph glyph-name="Tbar" unicode="&#x166;" horiz-adv-x="505" 
d="M226 0q-11 0 -18.5 7t-7.5 18v393h-117q-11 0 -18.5 7.5t-7.5 17.5v34q0 11 7.5 18t18.5 7h117v109h-170q-11 0 -18 7t-7 18v39q0 11 7 18t18 7h445q11 0 18 -7t7 -18v-39q0 -11 -7 -18t-18 -7h-170v-109h117q11 0 18.5 -7t7.5 -18v-34q0 -10 -7.5 -17.5t-18.5 -7.5h-117
v-393q0 -11 -7 -18t-18 -7h-54z" />
    <glyph glyph-name="tbar" unicode="&#x167;" horiz-adv-x="360" 
d="M261 -13q-191 0 -191 192v133h-34q-11 0 -18.5 7.5t-7.5 18.5v29q0 11 7.5 18.5t18.5 7.5h34v87h-34q-11 0 -18.5 7t-7.5 18v30q0 11 7.5 18t18.5 7h36l9 115q1 11 8.5 18t18.5 7h36q11 0 18 -7t7 -18v-115h136q11 0 18.5 -7t7.5 -18v-30q0 -11 -7.5 -18t-18.5 -7h-136
v-87h136q11 0 18.5 -7.5t7.5 -18.5v-29q0 -11 -7.5 -18.5t-18.5 -7.5h-136v-127q0 -60 24.5 -88t77.5 -28q12 0 25 1t27 3q10 2 17 -3.5t7 -16.5v-30q0 -10 -7.5 -18.5t-18.5 -10.5q-15 -3 -30.5 -5t-29.5 -2z" />
    <glyph glyph-name="Utilde" unicode="&#x168;" horiz-adv-x="606" 
d="M303 -14q-55 0 -100 15.5t-77 44.5t-49.5 70t-17.5 92v467q0 11 7 18t18 7h54q11 0 18 -7t7 -18v-453q0 -72 37.5 -109t102.5 -37t102.5 37t37.5 109v453q0 11 7 18t18 7h54q11 0 18.5 -7t7.5 -18v-467q0 -51 -18 -92t-50 -70t-77 -44.5t-100 -15.5zM234 804
q-12 0 -19 -4t-12 -12q-8 -13 -15 -17t-22 -4h-18q-9 0 -16.5 8t-5.5 17q5 38 31 63.5t68 25.5q22 0 43.5 -6.5t40.5 -15.5l36 -15q16 -6 27 -6q22 0 32 16q8 13 15 17t22 4h18q9 0 16.5 -8t5.5 -17q-5 -38 -29.5 -63.5t-69.5 -25.5q-21 0 -41 6.5t-38.5 15t-36 15
t-32.5 6.5z" />
    <glyph glyph-name="utilde" unicode="&#x169;" horiz-adv-x="553" 
d="M240 -10q-49 0 -82 12t-53.5 36t-29.5 59t-9 82v356q0 11 7 18t18 7h49q11 0 18 -7t7 -18v-343q0 -61 18.5 -89t75.5 -28q38 0 71.5 21t55.5 47v392q0 11 7 18t18 7h49q11 0 18 -7t7 -18v-510q0 -11 -7 -18t-18 -7h-38q-11 0 -19 7t-9 18l-3 32q-29 -30 -68.5 -48.5
t-82.5 -18.5zM207 664q-21 0 -31 -16q-8 -13 -15 -17t-22 -4h-18q-9 0 -16 8t-6 17q5 38 31 63.5t68 25.5q22 0 43.5 -6.5t40.5 -14.5l36 -15q16 -7 28 -7t19 4t12 12q8 13 15 17t22 4h18q9 0 16.5 -8t6.5 -17q-6 -38 -30 -63.5t-70 -25.5q-21 0 -41 6.5t-38.5 15t-36 15
t-32.5 6.5z" />
    <glyph glyph-name="Umacron" unicode="&#x16a;" horiz-adv-x="606" 
d="M303 -14q-55 0 -100 15.5t-77 44.5t-49.5 70t-17.5 92v467q0 11 7 18t18 7h54q11 0 18 -7t7 -18v-453q0 -72 37.5 -109t102.5 -37t102.5 37t37.5 109v453q0 11 7 18t18 7h54q11 0 18.5 -7t7.5 -18v-467q0 -51 -18 -92t-50 -70t-77 -44.5t-100 -15.5zM180 763q-11 0 -18 7
t-7 18v37q0 11 7 18t18 7h245q11 0 18.5 -7t7.5 -18v-37q0 -11 -7.5 -18t-18.5 -7h-245z" />
    <glyph glyph-name="umacron" unicode="&#x16b;" horiz-adv-x="553" 
d="M240 -10q-49 0 -82 12t-53.5 36t-29.5 59t-9 82v356q0 11 7 18t18 7h49q11 0 18 -7t7 -18v-343q0 -61 18.5 -89t75.5 -28q38 0 71.5 21t55.5 47v392q0 11 7 18t18 7h49q11 0 18 -7t7 -18v-510q0 -11 -7 -18t-18 -7h-38q-11 0 -19 7t-9 18l-3 32q-29 -30 -68.5 -48.5
t-82.5 -18.5zM153 623q-11 0 -18 7t-7 18v37q0 11 7 18t18 7h246q11 0 18 -7t7 -18v-37q0 -11 -7 -18t-18 -7h-246z" />
    <glyph glyph-name="Ubreve" unicode="&#x16c;" horiz-adv-x="606" 
d="M303 -14q-55 0 -100 15.5t-77 44.5t-49.5 70t-17.5 92v467q0 11 7 18t18 7h54q11 0 18 -7t7 -18v-453q0 -72 37.5 -109t102.5 -37t102.5 37t37.5 109v453q0 11 7 18t18 7h54q11 0 18.5 -7t7.5 -18v-467q0 -51 -18 -92t-50 -70t-77 -44.5t-100 -15.5zM303 752
q-56 0 -93 28.5t-37 76.5q0 9 5 15.5t14 6.5h27q20 0 26 -21q5 -20 20 -31t38 -11q24 0 38 11t19 31q6 21 26 21h27q9 0 14 -6.5t5 -15.5q0 -48 -36 -76.5t-93 -28.5z" />
    <glyph glyph-name="ubreve" unicode="&#x16d;" horiz-adv-x="553" 
d="M240 -10q-49 0 -82 12t-53.5 36t-29.5 59t-9 82v356q0 11 7 18t18 7h49q11 0 18 -7t7 -18v-343q0 -61 18.5 -89t75.5 -28q38 0 71.5 21t55.5 47v392q0 11 7 18t18 7h49q11 0 18 -7t7 -18v-510q0 -11 -7 -18t-18 -7h-38q-11 0 -19 7t-9 18l-3 32q-29 -30 -68.5 -48.5
t-82.5 -18.5zM276 612q-56 0 -93 28.5t-37 76.5q0 9 5 15.5t14 6.5h27q11 0 16.5 -5t9.5 -16q5 -20 19.5 -31t38.5 -11t37.5 11t19.5 31q6 21 26 21h27q9 0 14 -6.5t5 -15.5q0 -48 -36.5 -76.5t-92.5 -28.5z" />
    <glyph glyph-name="Uring" unicode="&#x16e;" horiz-adv-x="606" 
d="M303 -14q-55 0 -100 15.5t-77 44.5t-49.5 70t-17.5 92v467q0 11 7 18t18 7h54q11 0 18 -7t7 -18v-453q0 -72 37.5 -109t102.5 -37t102.5 37t37.5 109v453q0 11 7 18t18 7h54q11 0 18.5 -7t7.5 -18v-467q0 -51 -18 -92t-50 -70t-77 -44.5t-100 -15.5zM301 746
q-35 0 -57 20t-22 56v10q0 35 22 55.5t57 20.5q38 0 60.5 -21.5t22.5 -59.5q0 -40 -22.5 -60.5t-60.5 -20.5zM268 826q0 -18 8 -28.5t25 -10.5q19 0 28 10.5t9 28.5q0 40 -37 40q-33 0 -33 -40z" />
    <glyph glyph-name="uring" unicode="&#x16f;" horiz-adv-x="553" 
d="M240 -10q-49 0 -82 12t-53.5 36t-29.5 59t-9 82v356q0 11 7 18t18 7h49q11 0 18 -7t7 -18v-343q0 -61 18.5 -89t75.5 -28q38 0 71.5 21t55.5 47v392q0 11 7 18t18 7h49q11 0 18 -7t7 -18v-510q0 -11 -7 -18t-18 -7h-38q-11 0 -19 7t-9 18l-3 32q-29 -30 -68.5 -48.5
t-82.5 -18.5zM275 606q-35 0 -57.5 20t-22.5 56v10q0 35 22.5 55.5t57.5 20.5q37 0 59.5 -21.5t22.5 -59.5q0 -40 -22.5 -60.5t-59.5 -20.5zM241 686q0 -18 8.5 -28.5t25.5 -10.5q19 0 27.5 10.5t8.5 28.5q0 40 -36 40q-34 0 -34 -40z" />
    <glyph glyph-name="Uhungarumlaut" unicode="&#x170;" horiz-adv-x="606" 
d="M303 -14q-55 0 -100 15.5t-77 44.5t-49.5 70t-17.5 92v467q0 11 7 18t18 7h54q11 0 18 -7t7 -18v-453q0 -72 37.5 -109t102.5 -37t102.5 37t37.5 109v453q0 11 7 18t18 7h54q11 0 18.5 -7t7.5 -18v-467q0 -51 -18 -92t-50 -70t-77 -44.5t-100 -15.5zM214 756q-8 0 -12 7
t1 14l53 83q7 10 17.5 16t22.5 6h40q8 0 11.5 -7t-1.5 -13l-68 -86q-8 -10 -19 -15t-23 -5h-22zM336 756q-8 0 -11.5 7t1.5 14l61 84q7 9 18.5 15t22.5 6h41q8 0 10.5 -7t-2.5 -13l-76 -87q-8 -9 -19.5 -14t-22.5 -5h-23z" />
    <glyph glyph-name="uhungarumlaut" unicode="&#x171;" horiz-adv-x="553" 
d="M240 -10q-49 0 -82 12t-53.5 36t-29.5 59t-9 82v356q0 11 7 18t18 7h49q11 0 18 -7t7 -18v-343q0 -61 18.5 -89t75.5 -28q38 0 71.5 21t55.5 47v392q0 11 7 18t18 7h49q11 0 18 -7t7 -18v-510q0 -11 -7 -18t-18 -7h-38q-11 0 -19 7t-9 18l-3 32q-29 -30 -68.5 -48.5
t-82.5 -18.5zM173 616q-8 0 -12 7t1 14l53 83q7 10 18 16t22 6h41q8 0 11 -7t-2 -13l-68 -86q-7 -10 -18.5 -15t-22.5 -5h-23zM296 616q-8 0 -11.5 7t1.5 14l61 84q7 9 18 15t22 6h41q8 0 11 -7t-2 -13l-76 -87q-8 -9 -19.5 -14t-22.5 -5h-23z" />
    <glyph glyph-name="Uogonek" unicode="&#x172;" horiz-adv-x="606" 
d="M326 -164q-20 0 -38.5 4t-32.5 12.5t-22.5 22t-8.5 33.5q0 22 11.5 43.5t33.5 36.5q-48 4 -86.5 21.5t-66 46t-42.5 67t-15 85.5v467q0 11 7 18t18 7h54q11 0 18 -7t7 -18v-453q0 -72 37.5 -109t102.5 -37t102.5 37t37.5 109v453q0 11 7 18t18 7h54q11 0 18.5 -7t7.5 -18
v-467q0 -91 -53 -148t-143 -70q-22 -15 -34 -32.5t-12 -36.5q0 -15 11.5 -24.5t32.5 -9.5h21q19 0 19 -15v-13q0 -8 -6.5 -12.5t-16.5 -6.5q-9 -2 -20.5 -3t-20.5 -1z" />
    <glyph glyph-name="uogonek" unicode="&#x173;" horiz-adv-x="553" 
d="M240 -10q-49 0 -82 12t-53.5 36t-29.5 59t-9 82v356q0 11 7 18t18 7h49q11 0 18 -7t7 -18v-343q0 -61 18.5 -89t75.5 -28q38 0 71.5 21t55.5 47v392q0 11 7 18t18 7h49q11 0 18 -7t7 -18v-513q0 -24 -20 -38q-21 -14 -30 -29t-9 -34q0 -15 11 -24.5t33 -9.5h21
q18 2 18 -15v-12q0 -17 -23 -20q-9 -2 -20 -2.5t-20 -0.5q-20 0 -39 4t-33 12t-22.5 21.5t-8.5 33.5q0 29 19.5 54t49.5 41q-4 0 -7.5 7.5t-6.5 16.5t-4.5 18t-2.5 12q-29 -30 -68.5 -48.5t-82.5 -18.5z" />
    <glyph glyph-name="Wcircumflex" unicode="&#x174;" horiz-adv-x="922" 
d="M235 0q-25 0 -33 25l-195 650q-3 10 2.5 17.5t15.5 7.5h61q11 0 20 -7t12 -18l145 -535l135 535q2 11 11 18t20 7h63q11 0 20 -7t11 -18l135 -535l145 535q7 25 32 25h58q9 0 15 -7.5t3 -17.5l-196 -650q-8 -25 -33 -25h-62q-11 0 -20 7t-11 18l-133 521l-131 -521
q-7 -25 -32 -25h-58zM353 756q-8 0 -11.5 7t1.5 14l57 84q8 9 18.5 15t22.5 6h35q12 0 22.5 -6t18.5 -15l58 -84q5 -7 1 -14t-12 -7h-37q-26 0 -39 22l-30 50l-28 -50q-14 -22 -39 -22h-38z" />
    <glyph glyph-name="wcircumflex" unicode="&#x175;" horiz-adv-x="783" 
d="M197 0q-11 0 -20 6.5t-13 17.5l-157 512q-3 9 2.5 16.5t15.5 7.5h55q11 0 20 -7t12 -18l113 -418l106 418q2 11 11 18t20 7h55q11 0 20 -7t11 -18l109 -418l113 418q3 11 11.5 18t19.5 7h54q9 0 14.5 -7.5t2.5 -16.5l-159 -512q-3 -11 -12.5 -17.5t-20.5 -6.5h-55
q-11 0 -20 7t-11 18l-107 403l-104 -403q-2 -11 -11 -18t-20 -7h-55zM284 616q-8 0 -12 7t1 14l58 84q7 9 18 15t22 6h36q11 0 22 -6t18 -15l58 -84q5 -7 1.5 -14t-11.5 -7h-38q-25 0 -38 22l-30 50l-29 -50q-13 -22 -38 -22h-38z" />
    <glyph glyph-name="Ycircumflex" unicode="&#x176;" horiz-adv-x="555" 
d="M250 0q-11 0 -18.5 7t-7.5 18v212l-213 440q-4 8 0.5 15.5t13.5 7.5h63q24 0 36 -23l153 -339l154 339q10 23 36 23h60q8 0 13 -7.5t1 -15.5l-212 -438v-214q0 -11 -7.5 -18t-18.5 -7h-53zM170 756q-8 0 -11.5 7t1.5 14l57 84q7 9 18 15t23 6h35q11 0 22 -6t18 -15
l58 -84q5 -7 1.5 -14t-11.5 -7h-37q-26 0 -39 22l-30 50l-29 -50q-13 -22 -38 -22h-38z" />
    <glyph glyph-name="ycircumflex" unicode="&#x177;" horiz-adv-x="493" 
d="M290 -10q-24 -69 -76 -108t-123 -41q-10 0 -18 7.5t-8 17.5v28q0 25 26 28q37 3 63.5 24t39.5 61l-186 529q-3 9 2 16.5t15 7.5h56q11 0 20 -6.5t12 -17.5l133 -421l132 421q3 11 12.5 17.5t20.5 6.5h53q10 0 15 -7.5t2 -16.5zM140 616q-8 0 -12 7t1 14l58 84q7 9 18 15
t22 6h36q11 0 22 -6t18 -15l58 -84q5 -7 1.5 -14t-11.5 -7h-38q-25 0 -39 22l-29 50l-29 -50q-13 -22 -39 -22h-37z" />
    <glyph glyph-name="Ydieresis" unicode="&#x178;" horiz-adv-x="555" 
d="M250 0q-11 0 -18.5 7t-7.5 18v212l-213 440q-4 8 0.5 15.5t13.5 7.5h63q24 0 36 -23l153 -339l154 339q10 23 36 23h60q8 0 13 -7.5t1 -15.5l-212 -438v-214q0 -11 -7.5 -18t-18.5 -7h-53zM217 811q0 -29 -14.5 -44.5t-42.5 -15.5q-27 0 -41 15.5t-14 44.5q0 30 14 46.5
t41 16.5q28 0 42.5 -16.5t14.5 -46.5zM447 811q0 -29 -14.5 -44.5t-42.5 -15.5q-26 0 -40.5 15.5t-14.5 44.5q0 30 14.5 46.5t40.5 16.5q28 0 42.5 -16.5t14.5 -46.5z" />
    <glyph glyph-name="Zacute" unicode="&#x179;" horiz-adv-x="550" 
d="M55 0q-11 0 -18.5 7t-7.5 18v30q0 11 3.5 24t10.5 23l335 509h-312q-11 0 -18 7t-7 18v39q0 11 7 18t18 7h414q11 0 18 -7t7 -18v-30q0 -11 -3.5 -24t-10.5 -23l-334 -509h338q11 0 18 -7t7 -18v-39q0 -11 -7 -18t-18 -7h-440zM216 756q-8 0 -12 7t1 14l54 83q7 10 18 16
t22 6h61q8 0 11 -7t-2 -13l-72 -87q-8 -9 -19.5 -14t-22.5 -5h-39z" />
    <glyph glyph-name="zacute" unicode="&#x17a;" horiz-adv-x="468" 
d="M58 0q-11 0 -18.5 7t-7.5 18v23q0 11 4 24t10 23l257 383h-240q-11 0 -18 7.5t-7 18.5v31q0 11 7 18t18 7h340q11 0 18 -7t7 -18v-23q0 -11 -3.5 -24t-10.5 -23l-257 -383h258q11 0 18 -7.5t7 -18.5v-31q0 -11 -7 -18t-18 -7h-357zM192 616q-8 0 -12 7t1 14l55 83
q6 10 17 16t22 6h61q8 0 11 -7t-2 -13l-72 -87q-8 -9 -19.5 -14t-22.5 -5h-39z" />
    <glyph glyph-name="Zdotaccent" unicode="&#x17b;" horiz-adv-x="550" 
d="M55 0q-11 0 -18.5 7t-7.5 18v30q0 11 3.5 24t10.5 23l335 509h-312q-11 0 -18 7t-7 18v39q0 11 7 18t18 7h414q11 0 18 -7t7 -18v-30q0 -11 -3.5 -24t-10.5 -23l-334 -509h338q11 0 18 -7t7 -18v-39q0 -11 -7 -18t-18 -7h-440zM335 813q0 -31 -17 -45.5t-45 -14.5
q-26 0 -42.5 14.5t-16.5 45.5q0 32 16.5 47.5t42.5 15.5q28 0 45 -15.5t17 -47.5z" />
    <glyph glyph-name="zdotaccent" unicode="&#x17c;" horiz-adv-x="468" 
d="M58 0q-11 0 -18.5 7t-7.5 18v23q0 11 4 24t10 23l257 383h-240q-11 0 -18 7.5t-7 18.5v31q0 11 7 18t18 7h340q11 0 18 -7t7 -18v-23q0 -11 -3.5 -24t-10.5 -23l-257 -383h258q11 0 18 -7.5t7 -18.5v-31q0 -11 -7 -18t-18 -7h-357zM291 673q0 -31 -16.5 -45.5
t-44.5 -14.5q-27 0 -43 14.5t-16 45.5q0 32 16 47.5t43 15.5q28 0 44.5 -15.5t16.5 -47.5z" />
    <glyph glyph-name="Zcaron" unicode="&#x17d;" horiz-adv-x="569" 
d="M64 0q-11 0 -18 7t-7 18v30q0 11 3.5 24t10.5 23l335 509h-312q-11 0 -18 7t-7 18v39q0 11 7 18t18 7h413q11 0 18.5 -7t7.5 -18v-30q0 -11 -3.5 -24t-10.5 -23l-334 -509h338q11 0 18 -7t7 -18v-39q0 -11 -7 -18t-18 -7h-441zM269 756q-25 0 -40 21l-58 84q-5 6 -1 13.5
t12 7.5h37q26 0 39 -23l29 -49l30 49q13 23 38 23h38q8 0 11.5 -7.5t-1.5 -13.5l-58 -84q-15 -21 -40 -21h-36z" />
    <glyph glyph-name="zcaron" unicode="&#x17e;" horiz-adv-x="471" 
d="M58 0q-11 0 -18.5 7t-7.5 18v23q0 11 4 24t10 23l257 383h-240q-11 0 -18 7.5t-7 18.5v31q0 11 7 18t18 7h340q11 0 18 -7t7 -18v-23q0 -11 -3.5 -24t-10.5 -23l-257 -383h258q11 0 18 -7.5t7 -18.5v-31q0 -11 -7 -18t-18 -7h-357zM219 616q-25 0 -41 21l-57 84
q-5 6 -1.5 13.5t11.5 7.5h38q25 0 38 -23l29 -49l30 49q13 23 39 23h37q8 0 11.5 -7.5t-1.5 -13.5l-58 -84q-15 -21 -40 -21h-35z" />
    <glyph glyph-name="longs" unicode="&#x17f;" horiz-adv-x="321" 
d="M94 0q-11 0 -18.5 7t-7.5 18v384h-38q-11 0 -18 7.5t-7 18.5v29q0 11 7 18t18 7h38v66q0 97 49 151t142 54q13 0 23.5 -1t20.5 -3t17.5 -10.5t7.5 -19.5v-35q0 -9 -6.5 -14.5t-15.5 -3.5q-19 4 -41 4q-51 0 -74 -33.5t-23 -100.5v-518q0 -11 -7.5 -18t-18.5 -7h-48z" />
    <glyph glyph-name="florin" unicode="&#x192;" horiz-adv-x="410" 
d="M-114 -160q-27 0 -27 20v45q0 19 19 19q64 0 99 32.5t48 101.5l58 317h-29q-11 0 -17 6.5t-6 17.5v34q0 11 6 17.5t17 6.5h44l18 97q18 97 84 151.5t165 54.5q30 0 30 -23v-41q0 -21 -21 -21q-5 0 -11 0.5t-12 0.5q-53 0 -89 -34.5t-49 -102.5l-16 -82h129q11 0 17 -6.5
t6 -17.5v-34q0 -11 -6 -17.5t-17 -6.5h-144l-62 -332q-18 -96 -78.5 -149.5t-155.5 -53.5z" />
    <glyph glyph-name="AEacute" unicode="&#x1fc;" horiz-adv-x="950" 
d="M22 0q-8 0 -12.5 7t-0.5 15l359 656q5 10 15.5 16t21.5 6h476q11 0 18 -7t7 -18v-40q0 -11 -7 -18t-18 -7h-288v-264h236q11 0 18 -7t7 -18v-37q0 -11 -7 -18t-18 -7h-236v-170h296q11 0 18 -7t7 -18v-39q0 -11 -7 -18t-18 -7h-376q-11 0 -18 7t-7 18v236h-236l-126 -238
q-13 -23 -38 -23h-66zM488 346v264h-53l-140 -264h193zM521 756q-8 0 -12 7t1 14l54 83q7 10 18 16t22 6h61q8 0 11 -7t-2 -13l-72 -87q-8 -9 -19.5 -14t-22.5 -5h-39z" />
    <glyph glyph-name="aeacute" unicode="&#x1fd;" horiz-adv-x="882" 
d="M421 616q-8 0 -12 7t1 14l54 83q7 10 17.5 16t22.5 6h61q8 0 11 -7t-2 -13l-73 -87q-16 -19 -42 -19h-38zM604 487q-57 0 -88 -34t-32 -99v-33l239 1v29q0 66 -30.5 101t-88.5 35zM245 71q45 0 82 20t58 46v105h-137q-51 0 -73 -23t-22 -61q0 -39 24 -63t68 -24zM275 570
q57 0 98 -18.5t66 -52.5q26 33 67 52t98 19q101 0 159.5 -55t58.5 -152v-88q0 -11 -7.5 -18t-18.5 -7h-312v-48q0 -66 31.5 -97.5t88.5 -31.5q29 0 50.5 7.5t36 20t22 28t7.5 31.5q0 22 24 22h51q11 0 17.5 -6.5t6.5 -17.5q0 -29 -14 -59t-41.5 -54t-67.5 -39.5t-92 -15.5
q-123 0 -181 82q-45 -47 -97.5 -64.5t-105.5 -17.5q-82 0 -125 45.5t-43 120.5q0 81 48.5 119.5t138.5 38.5h146v51q0 60 -26.5 91t-83.5 31q-29 0 -49.5 -8t-33.5 -21.5t-19.5 -31.5t-6.5 -37q0 -11 -7 -16t-18 -5h-49q-11 0 -18 6.5t-7 17.5q0 33 13 65t39 57t65 40.5
t91 15.5z" />
    <glyph glyph-name="Oslashacute" unicode="&#x1fe;" horiz-adv-x="623" 
d="M292 756q-8 0 -12 7t1 14l54 83q7 10 18 16t22 6h61q8 0 11 -7t-2 -13l-72 -87q-8 -9 -19.5 -14t-22.5 -5h-39zM24 59q-6 -5 -13 -2t-7 11v68q0 24 20 42l32 25v288q0 52 20 93t54.5 70t81 44.5t99.5 15.5q77 0 137.5 -31.5t89.5 -89.5l60 48q6 5 13 2t7 -11v-68
q0 -11 -5 -22.5t-15 -19.5l-31 -26v-287q0 -52 -20 -93t-54.5 -70t-81.5 -44.5t-100 -15.5q-77 0 -137.5 31.5t-90.5 89.5zM311 76q31 0 59 9.5t48 27.5t32 45.5t12 63.5v190l-295 -238q14 -49 53.5 -73.5t90.5 -24.5zM311 624q-31 0 -58.5 -9.5t-47.5 -27.5t-32 -45.5
t-12 -63.5v-190l294 237q-14 49 -53.5 74t-90.5 25z" />
    <glyph glyph-name="oslashacute" unicode="&#x1ff;" horiz-adv-x="560" 
d="M280 -10q-63 0 -109.5 21.5t-72.5 63.5l-77 -63q-7 -5 -13.5 -2t-6.5 11v66q0 12 5.5 23t14.5 19l43 34q-2 9 -2 17v17v166q0 97 58.5 152t159.5 55q63 0 109 -22t73 -63l77 63q7 5 14 2t7 -11v-67q0 -11 -5.5 -22.5t-15.5 -18.5l-43 -35q2 -8 2 -16v-17v-166
q0 -97 -58 -152t-160 -55zM280 73q58 0 89 34.5t31 101.5v108l-227 -181q27 -63 107 -63zM161 243l225 180q-26 64 -106 64q-57 0 -88 -34.5t-31 -101.5v-108zM251 616q-8 0 -12 7t1 14l54 83q7 10 17.5 16t22.5 6h61q8 0 11 -7t-2 -13l-73 -87q-16 -19 -41 -19h-39z" />
    <glyph glyph-name="Scommaaccent" unicode="&#x218;" horiz-adv-x="600" 
d="M48 201q0 11 6 18t17 7h59q23 0 23 -24q0 -21 10 -43t29.5 -40t48.5 -30t66 -12q71 0 106 32.5t35 86.5q0 27 -10.5 46t-30 31.5t-46.5 19.5t-59 10q-46 4 -89.5 15.5t-77 33.5t-53.5 57.5t-20 87.5v20q0 42 14 78t43 62.5t73 41t105 14.5q62 0 107.5 -18t75 -48
t44 -68.5t14.5 -79.5q0 -11 -6.5 -18t-17.5 -7h-57q-23 0 -23 24q0 20 -7 42t-23.5 40.5t-42.5 30.5t-64 12q-68 0 -99.5 -31.5t-31.5 -79.5q0 -33 12 -54.5t32 -34t47.5 -18.5t59.5 -9q42 -4 84 -14.5t75.5 -31.5t54.5 -55t21 -84v-25q0 -90 -62 -145t-183 -55
q-62 0 -110 17t-81 46.5t-50.5 68.5t-17.5 83zM358 -99q0 -32 -12 -57t-29.5 -42.5t-37.5 -26.5t-36 -9q-18 0 -18 16v6q0 8 4.5 13.5t14.5 12.5q10 8 16.5 17.5t6.5 22.5q-10 6 -16 18t-6 29q0 27 15.5 41t41.5 14t41 -14t15 -41z" />
    <glyph glyph-name="scommaaccent" unicode="&#x219;" horiz-adv-x="520" 
d="M319 -99q0 -19 -6 -40.5t-19.5 -41t-35 -34t-52.5 -20.5q-9 -2 -15 3t-6 13v3q0 11 4.5 17.5t14.5 12.5q11 8 17 16.5t7 23.5q-22 13 -22 47q0 29 15 42.5t41 13.5q27 0 42 -13.5t15 -42.5zM143 153q0 -14 8 -29t23.5 -27.5t38.5 -20.5t53 -8q57 0 83.5 25t26.5 63
q0 22 -10 36.5t-27.5 24.5t-42.5 15.5t-55 10.5q-36 5 -69.5 14.5t-59 27.5t-41 45.5t-15.5 67.5v16q0 69 50 114t151 45q52 0 90 -14.5t63 -38t37.5 -52.5t12.5 -59q0 -11 -6 -17.5t-17 -6.5h-47q-11 0 -18 6t-7 17q0 13 -5.5 28t-18.5 27.5t-33.5 20.5t-50.5 8
q-54 0 -78 -24t-24 -61q0 -23 9 -38t25.5 -24.5t40.5 -15.5t53 -10q36 -5 70 -14t61 -25.5t43.5 -43.5t16.5 -67v-20q0 -34 -13.5 -63.5t-40 -51.5t-65 -34.5t-89.5 -12.5t-92 13.5t-69.5 36t-43.5 52.5t-15 63q0 11 6.5 17.5t17.5 6.5h49q11 0 17.5 -6t6.5 -17z" />
    <glyph glyph-name="uni0237" unicode="&#x237;" horiz-adv-x="238" 
d="M145 560q11 0 18 -7t7 -18v-499q0 -91 -53 -141t-140 -54q-9 0 -17 6t-8 17v25q0 26 25 33q94 13 94 125v488q0 11 7 18t18 7h49z" />
    <glyph glyph-name="circumflex" unicode="&#x2c6;" horiz-adv-x="360" 
d="M72 616q-8 0 -11.5 7t1.5 14l58 84q7 9 18 15t22 6h35q12 0 23 -6t18 -15l58 -84q5 -7 1 -14t-12 -7h-37q-11 0 -22 5.5t-17 16.5l-30 50l-28 -50q-6 -11 -17 -16.5t-22 -5.5h-38z" />
    <glyph glyph-name="caron" unicode="&#x2c7;" horiz-adv-x="360" 
d="M160 616q-25 0 -40 21l-58 84q-5 6 -1.5 13.5t11.5 7.5h38q11 0 22 -6t17 -17l28 -49l30 49q15 23 39 23h37q8 0 12 -7.5t-1 -13.5l-58 -84q-16 -21 -41 -21h-35z" />
    <glyph glyph-name="breve" unicode="&#x2d8;" horiz-adv-x="356" 
d="M178 612q-57 0 -93.5 28.5t-36.5 76.5q0 9 4.5 15.5t13.5 6.5h28q18 0 26 -21q5 -20 19.5 -31t38.5 -11q23 0 37 11t19 31q7 21 26 21h28q9 0 13.5 -6.5t4.5 -15.5q0 -48 -36 -76.5t-92 -28.5z" />
    <glyph glyph-name="dotaccent" unicode="&#x2d9;" horiz-adv-x="205" 
d="M163 673q0 -31 -17 -45.5t-45 -14.5q-26 0 -42.5 14.5t-16.5 45.5q0 32 16.5 47.5t42.5 15.5q28 0 45 -15.5t17 -47.5z" />
    <glyph glyph-name="ring" unicode="&#x2da;" horiz-adv-x="257" 
d="M129 647q17 0 25 10.5t8 28.5q0 40 -33 40q-34 0 -34 -40q0 -18 8.5 -28.5t25.5 -10.5zM129 606q-35 0 -57.5 20t-22.5 56v10q0 35 22.5 55.5t57.5 20.5t57 -20.5t22 -55.5v-10q0 -36 -22 -56t-57 -20z" />
    <glyph glyph-name="ogonek" unicode="&#x2db;" horiz-adv-x="264" 
d="M49 -92q0 23 13 44t34 35q6 5 16.5 9t18.5 4h43q5 0 6.5 -4.5t-2.5 -6.5q-22 -14 -34.5 -31t-12.5 -37q0 -15 9.5 -24.5t31.5 -9.5q5 0 12 0.5t12 0.5q19 0 19 -16v-13q0 -8 -6.5 -12.5t-15.5 -6.5q-10 -2 -21.5 -3t-20.5 -1q-20 0 -38.5 4t-32.5 12.5t-22.5 22
t-8.5 33.5z" />
    <glyph glyph-name="tilde" unicode="&#x2dc;" horiz-adv-x="444" 
d="M151 664q-21 0 -31 -16q-8 -13 -15 -17t-22 -4h-18q-9 0 -16 8t-6 17q6 38 31.5 63.5t67.5 25.5q22 0 43.5 -6.5t41.5 -15.5l35 -15q16 -6 28 -6t19 4t12 12q8 13 15 17t22 4h18q9 0 16.5 -8t6.5 -17q-6 -38 -30 -63.5t-70 -25.5q-21 0 -41 6.5t-38.5 15t-36 15
t-32.5 6.5z" />
    <glyph glyph-name="hungarumlaut" unicode="&#x2dd;" horiz-adv-x="374" 
d="M72 616q-8 0 -12 7t1 14l54 83q6 10 17 16t22 6h41q8 0 11 -7t-2 -13l-68 -86q-7 -10 -18.5 -15t-22.5 -5h-23zM195 616q-8 0 -11.5 7t1.5 14l61 84q7 9 18 15t23 6h41q7 0 10 -7t-2 -13l-76 -87q-8 -9 -19.5 -14t-22.5 -5h-23z" />
    <glyph glyph-name="pi" unicode="&#x3c0;" horiz-adv-x="729" 
d="M84 -9q-6 0 -12 0.5t-11 1.5q-7 0 -12.5 6t-5.5 13v51q0 6 4 10t12 3h16q52 0 71 31t19 91v269q-31 0 -57 -8.5t-42 -16.5q-9 -4 -16 0.5t-7 13.5v43q0 9 7 19.5t15 15.5q23 10 55 18t72 8h375q29 0 52.5 3t38.5 7q10 2 17 -3.5t7 -15.5v-37q0 -9 -8 -19t-17 -12
q-14 -3 -35 -6.5t-47 -3.5v-341q0 -36 3.5 -63t7.5 -44q2 -11 -3.5 -18t-15.5 -7h-48q-10 0 -20 7.5t-12 17.5q-4 17 -8 45.5t-4 65.5v336h-211v-282q0 -92 -42 -145.5t-138 -53.5z" />
    <glyph glyph-name="Wgrave" unicode="&#x1e80;" horiz-adv-x="922" 
d="M235 0q-25 0 -33 25l-195 650q-3 10 2.5 17.5t15.5 7.5h61q11 0 20 -7t12 -18l145 -535l135 535q2 11 11 18t20 7h63q11 0 20 -7t11 -18l135 -535l145 535q7 25 32 25h58q9 0 15 -7.5t3 -17.5l-196 -650q-8 -25 -33 -25h-62q-11 0 -20 7t-11 18l-133 521l-131 -521
q-7 -25 -32 -25h-58zM440 756q-11 0 -22.5 5t-19.5 14l-72 87q-5 6 -2 13t11 7h61q11 0 22 -6t18 -16l54 -83q5 -7 1 -14t-12 -7h-39z" />
    <glyph glyph-name="wgrave" unicode="&#x1e81;" horiz-adv-x="783" 
d="M197 0q-11 0 -20 6.5t-13 17.5l-157 512q-3 9 2.5 16.5t15.5 7.5h55q11 0 20 -7t12 -18l113 -418l106 418q2 11 11 18t20 7h55q11 0 20 -7t11 -18l109 -418l113 418q3 11 11.5 18t19.5 7h54q9 0 14.5 -7.5t2.5 -16.5l-159 -512q-3 -11 -12.5 -17.5t-20.5 -6.5h-55
q-11 0 -20 7t-11 18l-107 403l-104 -403q-2 -11 -11 -18t-20 -7h-55zM369 616q-26 0 -42 19l-73 87q-5 6 -1.5 13t10.5 7h61q12 0 22.5 -6t17.5 -16l55 -83q5 -7 1 -14t-13 -7h-38z" />
    <glyph glyph-name="Wacute" unicode="&#x1e82;" horiz-adv-x="922" 
d="M235 0q-25 0 -33 25l-195 650q-3 10 2.5 17.5t15.5 7.5h61q11 0 20 -7t12 -18l145 -535l135 535q2 11 11 18t20 7h63q11 0 20 -7t11 -18l135 -535l145 535q7 25 32 25h58q9 0 15 -7.5t3 -17.5l-196 -650q-8 -25 -33 -25h-62q-11 0 -20 7t-11 18l-133 521l-131 -521
q-7 -25 -32 -25h-58zM440 756q-8 0 -12 7t1 14l55 83q7 10 17.5 16t21.5 6h62q7 0 10 -7t-2 -13l-72 -87q-16 -19 -42 -19h-39z" />
    <glyph glyph-name="wacute" unicode="&#x1e83;" horiz-adv-x="783" 
d="M197 0q-11 0 -20 6.5t-13 17.5l-157 512q-3 9 2.5 16.5t15.5 7.5h55q11 0 20 -7t12 -18l113 -418l106 418q2 11 11 18t20 7h55q11 0 20 -7t11 -18l109 -418l113 418q3 11 11.5 18t19.5 7h54q9 0 14.5 -7.5t2.5 -16.5l-159 -512q-3 -11 -12.5 -17.5t-20.5 -6.5h-55
q-11 0 -20 7t-11 18l-107 403l-104 -403q-2 -11 -11 -18t-20 -7h-55zM372 616q-8 0 -12 7t1 14l55 83q7 10 17.5 16t21.5 6h62q7 0 10 -7t-2 -13l-72 -87q-16 -19 -42 -19h-39z" />
    <glyph glyph-name="Wdieresis" unicode="&#x1e84;" horiz-adv-x="922" 
d="M235 0q-25 0 -33 25l-195 650q-3 10 2.5 17.5t15.5 7.5h61q11 0 20 -7t12 -18l145 -535l135 535q2 11 11 18t20 7h63q11 0 20 -7t11 -18l135 -535l145 535q7 25 32 25h58q9 0 15 -7.5t3 -17.5l-196 -650q-8 -25 -33 -25h-62q-11 0 -20 7t-11 18l-133 521l-131 -521
q-7 -25 -32 -25h-58zM400 811q0 -29 -15 -44.5t-43 -15.5q-26 0 -40.5 15.5t-14.5 44.5q0 30 14.5 46.5t40.5 16.5q28 0 43 -16.5t15 -46.5zM629 811q0 -29 -14.5 -44.5t-42.5 -15.5q-26 0 -40.5 15.5t-14.5 44.5q0 30 14.5 46.5t40.5 16.5q28 0 42.5 -16.5t14.5 -46.5z" />
    <glyph glyph-name="wdieresis" unicode="&#x1e85;" horiz-adv-x="783" 
d="M197 0q-11 0 -20 6.5t-13 17.5l-157 512q-3 9 2.5 16.5t15.5 7.5h55q11 0 20 -7t12 -18l113 -418l106 418q2 11 11 18t20 7h55q11 0 20 -7t11 -18l109 -418l113 418q3 11 11.5 18t19.5 7h54q9 0 14.5 -7.5t2.5 -16.5l-159 -512q-3 -11 -12.5 -17.5t-20.5 -6.5h-55
q-11 0 -20 7t-11 18l-107 403l-104 -403q-2 -11 -11 -18t-20 -7h-55zM331 671q0 -29 -15 -44.5t-43 -15.5q-26 0 -40 15.5t-14 44.5q0 30 14 46.5t40 16.5q28 0 43 -16.5t15 -46.5zM561 671q0 -29 -14.5 -44.5t-43.5 -15.5q-26 0 -40 15.5t-14 44.5q0 30 14 46.5t40 16.5
q29 0 43.5 -16.5t14.5 -46.5z" />
    <glyph glyph-name="Ygrave" unicode="&#x1ef2;" horiz-adv-x="555" 
d="M250 0q-11 0 -18.5 7t-7.5 18v212l-213 440q-4 8 0.5 15.5t13.5 7.5h63q24 0 36 -23l153 -339l154 339q10 23 36 23h60q8 0 13 -7.5t1 -15.5l-212 -438v-214q0 -11 -7.5 -18t-18.5 -7h-53zM284 756q-26 0 -42 19l-72 87q-5 6 -2 13t10 7h62q11 0 21.5 -6t17.5 -16l55 -83
q5 -7 1 -14t-12 -7h-39z" />
    <glyph glyph-name="ygrave" unicode="&#x1ef3;" horiz-adv-x="493" 
d="M290 -10q-24 -69 -76 -108t-123 -41q-10 0 -18 7.5t-8 17.5v28q0 25 26 28q37 3 63.5 24t39.5 61l-186 529q-3 9 2 16.5t15 7.5h56q11 0 20 -6.5t12 -17.5l133 -421l132 421q3 11 12.5 17.5t20.5 6.5h53q10 0 15 -7.5t2 -16.5zM247 616q-25 0 -41 19l-73 87q-5 6 -2 13
t11 7h61q12 0 22.5 -6t17.5 -16l54 -83q5 -7 1 -14t-12 -7h-39z" />
    <glyph glyph-name="endash" unicode="&#x2013;" horiz-adv-x="505" 
d="M30 259q-11 0 -18 7t-7 18v36q0 11 7 18.5t18 7.5h445q11 0 18 -7.5t7 -18.5v-36q0 -11 -7 -18t-18 -7h-445z" />
    <glyph glyph-name="emdash" unicode="&#x2014;" horiz-adv-x="833" 
d="M30 259q-11 0 -18 7t-7 18v36q0 11 7 18.5t18 7.5h772q11 0 18.5 -7.5t7.5 -18.5v-36q0 -11 -7.5 -18t-18.5 -7h-772z" />
    <glyph glyph-name="quoteleft" unicode="&#x2018;" horiz-adv-x="205" 
d="M40 688q0 31 17 46.5t45 15.5q26 0 42.5 -15.5t16.5 -46.5q0 -35 -23 -50q1 -17 8.5 -32t21.5 -25q9 -6 12 -12t3 -15v-9q0 -16 -19 -16t-41 12.5t-40.5 34.5t-30.5 51t-12 61z" />
    <glyph glyph-name="quoteright" unicode="&#x2019;" horiz-adv-x="210" 
d="M169 688q0 -32 -12 -61t-30.5 -51t-40.5 -34.5t-41 -12.5t-19 16v9q0 16 16 27q13 10 21 25t9 32q-23 14 -23 50q0 31 16 46.5t43 15.5q28 0 44.5 -15.5t16.5 -46.5z" />
    <glyph glyph-name="quotesinglbase" unicode="&#x201a;" horiz-adv-x="205" 
d="M169 50q0 -32 -12 -61t-30.5 -51t-40.5 -34.5t-41 -12.5t-19 16v8q0 16 16 28q13 9 21 24.5t9 32.5q-23 14 -23 50q0 31 16 46.5t43 15.5q28 0 44.5 -15.5t16.5 -46.5z" />
    <glyph glyph-name="quotedblleft" unicode="&#x201c;" horiz-adv-x="377" 
d="M40 688q0 31 17 46.5t45 15.5q26 0 42.5 -15.5t16.5 -46.5q0 -35 -23 -50q1 -17 8.5 -32t21.5 -25q9 -6 12 -12t3 -15v-9q0 -16 -19 -16t-41 12.5t-40.5 34.5t-30.5 51t-12 61zM208 688q0 31 16.5 46.5t44.5 15.5q27 0 43.5 -15.5t16.5 -46.5q0 -36 -24 -50q1 -17 9 -32
t21 -25q16 -11 16 -27v-9q0 -16 -19 -16t-41 12.5t-40.5 34.5t-30.5 51t-12 61z" />
    <glyph glyph-name="quotedblright" unicode="&#x201d;" horiz-adv-x="377" 
d="M337 688q0 -32 -12 -61t-30.5 -51t-40.5 -34.5t-41 -12.5t-19 16v9q0 16 15 27q14 10 22 25t8 32q-23 15 -23 50q0 31 16.5 46.5t42.5 15.5q28 0 45 -15.5t17 -46.5zM169 688q0 -32 -12 -61t-30.5 -51t-40.5 -34.5t-41 -12.5t-19 16v9q0 16 16 27q13 10 21 25t9 32
q-23 14 -23 50q0 31 16 46.5t43 15.5q28 0 44.5 -15.5t16.5 -46.5z" />
    <glyph glyph-name="quotedblbase" unicode="&#x201e;" horiz-adv-x="376" 
d="M336 50q0 -32 -12 -61t-30.5 -51t-40.5 -34.5t-41 -12.5t-19 16v8q0 16 16 28q13 9 21 24.5t9 32.5q-24 14 -24 50q0 31 16.5 46.5t42.5 15.5q29 0 45.5 -15.5t16.5 -46.5zM169 50q0 -32 -12 -61t-30.5 -51t-40.5 -34.5t-41 -12.5t-19 16v8q0 16 16 28q13 9 21 24.5
t9 32.5q-23 14 -23 50q0 31 16 46.5t43 15.5q28 0 44.5 -15.5t16.5 -46.5z" />
    <glyph glyph-name="dagger" unicode="&#x2020;" horiz-adv-x="496" 
d="M224 -110q-11 0 -18.5 7t-7.5 18v503h-122q-11 0 -18.5 7t-7.5 18v37q0 11 7.5 18t18.5 7h122v170q0 11 7.5 18t18.5 7h48q11 0 18.5 -7t7.5 -18v-170h122q11 0 18.5 -7t7.5 -18v-37q0 -11 -7.5 -18t-18.5 -7h-122v-503q0 -11 -7.5 -18t-18.5 -7h-48z" />
    <glyph glyph-name="daggerdbl" unicode="&#x2021;" horiz-adv-x="496" 
d="M224 -110q-11 0 -18.5 7t-7.5 18v205h-122q-11 0 -18.5 7.5t-7.5 18.5v36q0 11 7.5 18t18.5 7h122v211h-122q-11 0 -18.5 7t-7.5 18v37q0 11 7.5 18t18.5 7h122v170q0 11 7.5 18t18.5 7h48q11 0 18.5 -7t7.5 -18v-170h122q11 0 18.5 -7t7.5 -18v-37q0 -11 -7.5 -18
t-18.5 -7h-122v-211h122q11 0 18.5 -7t7.5 -18v-36q0 -11 -7.5 -18.5t-18.5 -7.5h-122v-205q0 -11 -7.5 -18t-18.5 -7h-48z" />
    <glyph glyph-name="bullet" unicode="&#x2022;" horiz-adv-x="433" 
d="M374 322q0 -82 -44 -121t-117 -39q-70 0 -112 39t-42 121q0 86 42 126.5t112 40.5q73 0 117 -40.5t44 -126.5z" />
    <glyph glyph-name="ellipsis" unicode="&#x2026;" horiz-adv-x="543" 
d="M156 49q0 -29 -16 -44.5t-43 -15.5q-26 0 -41.5 15.5t-15.5 44.5q0 31 15.5 47t41.5 16q27 0 43 -16t16 -47zM329 49q0 -29 -15.5 -44.5t-43.5 -15.5q-26 0 -41 15.5t-15 44.5q0 31 15 47t41 16q28 0 43.5 -16t15.5 -47zM502 49q0 -29 -15.5 -44.5t-42.5 -15.5
q-26 0 -41.5 15.5t-15.5 44.5q0 31 15.5 47t41.5 16q27 0 42.5 -16t15.5 -47z" />
    <glyph glyph-name="perthousand" unicode="&#x2030;" horiz-adv-x="1290" 
d="M220 285q-73 0 -117.5 40.5t-44.5 109.5v127q0 70 44.5 110t117.5 40t117.5 -40t44.5 -110v-127q0 -69 -44.5 -109.5t-117.5 -40.5zM220 639q-33 0 -53 -21.5t-20 -64.5v-110q0 -42 20 -63.5t53 -21.5t53 21.5t20 63.5v110q0 43 -20 64.5t-53 21.5zM702 -11
q-74 0 -118.5 40.5t-44.5 110.5v126q0 71 44.5 111t118.5 40q72 0 116.5 -40t44.5 -111v-126q0 -70 -44.5 -110.5t-116.5 -40.5zM702 344q-34 0 -54 -22t-20 -64v-111q0 -42 20 -63.5t54 -21.5q33 0 53 21.5t20 63.5v111q0 42 -20 64t-53 22zM179 0q-8 0 -11.5 7t1.5 14
l476 658q15 21 40 21h56q8 0 12 -7t-1 -14l-479 -658q-15 -21 -40 -21h-54zM1070 -11q-74 0 -118.5 40.5t-44.5 110.5v126q0 71 44.5 111t118.5 40q73 0 117.5 -40t44.5 -111v-126q0 -70 -44.5 -110.5t-117.5 -40.5zM1070 344q-33 0 -53.5 -22t-20.5 -64v-111
q0 -42 20.5 -63.5t53.5 -21.5t53.5 21.5t20.5 63.5v111q0 42 -20.5 64t-53.5 22z" />
    <glyph glyph-name="guilsinglleft" unicode="&#x2039;" horiz-adv-x="291" 
d="M68 229q-8 8 -13 20t-5 23v15q0 11 5 23t13 20l155 151q5 5 11.5 2t6.5 -10v-64q0 -11 -5 -23t-14 -20l-91 -87l91 -87q9 -8 14 -19.5t5 -22.5v-64q0 -8 -6.5 -10.5t-11.5 2.5z" />
    <glyph glyph-name="guilsinglright" unicode="&#x203a;" horiz-adv-x="291" 
d="M68 78q-5 -5 -11.5 -2.5t-6.5 10.5v64q0 11 5.5 22.5t13.5 19.5l91 87l-91 87q-8 8 -13.5 20t-5.5 23v64q0 7 6.5 10t11.5 -2l155 -151q18 -18 18 -43v-15q0 -11 -5 -23t-13 -20z" />
    <glyph glyph-name="fraction" unicode="&#x2044;" horiz-adv-x="417" 
d="M-55 0q-8 0 -12.5 7t0.5 14l442 658q15 21 40 21h53q8 0 12.5 -7t-0.5 -14l-444 -658q-15 -21 -40 -21h-51z" />
    <glyph glyph-name="uni2070" unicode="&#x2070;" horiz-adv-x="419" 
d="M210 231q-74 0 -116.5 40.5t-42.5 110.5v178q0 71 42.5 111.5t116.5 40.5t116 -40.5t42 -111.5v-178q0 -70 -42 -110.5t-116 -40.5zM210 300q80 0 80 93v156q0 94 -80 94q-79 0 -79 -94v-156q0 -93 79 -93z" />
    <glyph glyph-name="Euro" unicode="&#x20ac;" horiz-adv-x="491" 
d="M21 237q-8 0 -13.5 8t-1.5 16l13 27q10 21 32 21h25v85h-54q-9 0 -14 8t-1 16l12 26q9 22 31 22h26v29q0 49 19.5 89t53 69t79.5 45t100 16q18 0 40.5 -2t43.5 -6q11 -2 18 -10.5t7 -19.5v-34q0 -11 -7 -17.5t-18 -4.5q-18 2 -38 3.5t-40 1.5q-70 0 -112 -37t-42 -103
v-19h210q9 0 14 -7.5t2 -16.5l-12 -24q-10 -24 -35 -24h-180v-85h211q9 0 14 -7.5t2 -16.5l-12 -24q-10 -24 -35 -24h-179v-20q0 -33 11.5 -59.5t31.5 -44.5t48.5 -28t62.5 -10q20 0 40 1.5t38 3.5q11 2 18 -4.5t7 -17.5v-34q0 -11 -7 -19.5t-18 -10.5q-21 -4 -42.5 -6
t-41.5 -2q-54 0 -100 16t-79.5 45t-53 69.5t-19.5 89.5v31h-55z" />
    <glyph glyph-name="trademark" unicode="&#x2122;" horiz-adv-x="895" 
d="M418 239q-11 0 -18.5 7.5t-7.5 17.5v413q0 11 7.5 18t18.5 7h31q11 0 22 -6t16 -16l133 -233l130 233q6 10 16.5 16t21.5 6h33q11 0 18 -7t7 -18v-413q0 -10 -7 -17.5t-18 -7.5h-30q-11 0 -18 7.5t-7 17.5l2 295l-101 -177q-13 -23 -39 -23h-19q-25 0 -38 23l-100 176
l1 -294q0 -10 -7 -17.5t-18 -7.5h-29zM182 239q-11 0 -18 7.5t-7 17.5v370h-104q-11 0 -18 7.5t-7 18.5v17q0 11 7 18t18 7h286q11 0 18.5 -7t7.5 -18v-17q0 -11 -7.5 -18.5t-18.5 -7.5h-102v-370q0 -10 -7.5 -17.5t-18.5 -7.5h-29z" />
    <glyph glyph-name="uni2126" unicode="&#x2126;" horiz-adv-x="657" 
d="M59 0q-11 0 -18 7t-7 18v38q0 11 7 18t18 7h64q-22 23 -39.5 64.5t-17.5 107.5v232q0 52 19.5 93t55 69.5t83.5 44t105 15.5t105 -15.5t83 -44t54.5 -69.5t19.5 -93v-232q0 -67 -17 -106.5t-40 -65.5h64q11 0 18 -7t7 -18v-38q0 -11 -7 -18t-18 -7h-182q-11 0 -18.5 7
t-7.5 18v6q0 15 5 25.5t16 20.5q40 32 58 74.5t18 97.5v229q0 72 -44.5 109t-113.5 37q-70 0 -114 -37t-44 -109v-229q0 -55 18 -97.5t57 -74.5q21 -18 21 -46v-6q0 -11 -7 -18t-18 -7h-183z" />
    <glyph glyph-name="onethird" unicode="&#x2153;" horiz-adv-x="855" 
d="M149 239q-11 0 -18 7.5t-7 17.5v370h-54q-11 0 -18.5 7.5t-7.5 18.5v17q0 11 7.5 18t18.5 7h108q11 0 18.5 -7t7.5 -18v-413q0 -10 -7.5 -17.5t-18.5 -7.5h-29zM113 0q-8 0 -12 7t1 14l442 658q6 10 17 15.5t22 5.5h54q8 0 12.5 -7t-0.5 -14l-444 -658q-15 -21 -40 -21
h-52zM487 134q0 18 19 18h43q18 0 18 -17q0 -27 18.5 -51t56.5 -24q37 0 56.5 18.5t19.5 51.5v12q0 35 -12.5 54t-35.5 19h-52q-10 0 -16.5 6t-6.5 17v15q0 10 6.5 16t16.5 6h51q12 0 20.5 7t14 17t8 22t2.5 21q0 26 -17 44.5t-52 18.5t-53.5 -21.5t-18.5 -50.5
q0 -17 -19 -17h-41q-8 0 -13.5 5t-5.5 14q0 25 9 49.5t27.5 44t47 31.5t67.5 12q75 0 112.5 -37t37.5 -91q0 -26 -11 -52t-32 -44q23 -13 37 -42t14 -58v-20q0 -62 -41.5 -99.5t-119.5 -37.5q-40 0 -69 12t-48 32t-28.5 45.5t-9.5 53.5z" />
    <glyph glyph-name="partialdiff" unicode="&#x2202;" horiz-adv-x="597" 
d="M332 765q106 0 159.5 -54t39.5 -158l-51 -357q-14 -97 -78.5 -151.5t-165.5 -54.5q-103 0 -151 55.5t-37 147.5l17 131q13 97 69.5 149t146.5 52q40 0 77 -15t61 -41l12 81q10 66 -22 97.5t-92 31.5q-23 0 -48.5 -4t-51.5 -11q-9 -3 -16.5 2.5t-7.5 15.5l-1 30
q0 10 7.5 20t16.5 14q26 8 58 13.5t58 5.5zM245 74q58 0 93 34.5t44 101.5l23 168q-17 24 -49.5 44t-69.5 20q-57 0 -85.5 -34.5t-37.5 -98.5l-15 -105q-8 -62 15.5 -96t81.5 -34z" />
    <glyph glyph-name="uni2206" unicode="&#x2206;" horiz-adv-x="657" 
d="M64 0q-11 0 -18 7t-7 18v28q0 11 2.5 25t6.5 25l223 573q4 11 13 17.5t21 6.5h47q12 0 21 -6.5t13 -17.5l223 -573q4 -11 6.5 -25t2.5 -25v-28q0 -11 -7 -18t-18 -7h-529zM147 88h361l-181 490z" />
    <glyph glyph-name="product" unicode="&#x220f;" horiz-adv-x="744" 
d="M155 -110q-11 0 -18 7t-7 18v697h-50q-11 0 -18.5 7t-7.5 18v38q0 11 7.5 18t18.5 7h584q11 0 18.5 -7t7.5 -18v-38q0 -11 -7.5 -18t-18.5 -7h-50v-697q0 -11 -7 -18t-18 -7h-53q-11 0 -18 7t-7 18v697h-278v-697q0 -11 -7 -18t-18 -7h-53z" />
    <glyph glyph-name="summation" unicode="&#x2211;" horiz-adv-x="619" 
d="M83 -110q-11 0 -18 7t-7 18v35q0 26 17 45l268 302l-268 298q-8 8 -12.5 20.5t-4.5 23.5v36q0 11 7 18t18 7h452q11 0 18.5 -7t7.5 -18v-34q0 -11 -7.5 -18t-18.5 -7h-349l273 -299q8 -8 8 -19.5t-8 -19.5l-275 -304h351q11 0 18.5 -7t7.5 -18v-34q0 -11 -7.5 -18
t-18.5 -7h-452z" />
    <glyph glyph-name="minus" unicode="&#x2212;" horiz-adv-x="590" 
d="M76 259q-11 0 -18.5 7t-7.5 18v36q0 11 7.5 18.5t18.5 7.5h438q11 0 18 -7.5t7 -18.5v-36q0 -11 -7 -18t-18 -7h-438z" />
    <glyph glyph-name="radical" unicode="&#x221a;" horiz-adv-x="758" 
d="M318 -110q-11 0 -20.5 6.5t-14.5 17.5l-131 292l-48 -22q-10 -4 -20 0t-14 14l-13 30q-4 10 -0.5 20t14.5 14l114 51q10 4 20 0t14 -14l120 -287l272 714q4 11 13.5 17.5t20.5 6.5h52q10 0 15 -7.5t1 -16.5l-318 -812q-4 -11 -13.5 -17.5t-20.5 -6.5h-43z" />
    <glyph glyph-name="infinity" unicode="&#x221e;" horiz-adv-x="1109" 
d="M270 494q81 0 149.5 -35.5t135.5 -114.5q67 80 135 116t149 36q99 0 155.5 -57.5t56.5 -156.5q0 -100 -56.5 -157t-155.5 -57q-81 0 -150 35t-136 115q-67 -80 -134.5 -116t-148.5 -36q-100 0 -156 57t-56 157t56 157t156 57zM278 151q64 0 114 30t106 99
q-56 69 -106 100t-114 31t-95.5 -35.5t-31.5 -95.5t31.5 -94.5t95.5 -34.5zM830 411q-32 0 -60 -7t-54 -23t-52 -40.5t-54 -58.5q28 -35 54 -59.5t52 -40.5t54 -23.5t60 -7.5q65 0 96.5 35.5t31.5 95.5t-31.5 94.5t-96.5 34.5z" />
    <glyph glyph-name="integral" unicode="&#x222b;" horiz-adv-x="411" 
d="M82 -110q-11 0 -18.5 6.5t-7.5 17.5v36q0 23 23 23q49 0 68 31t19 98q0 52 -3 110t-7 116.5t-7 115.5t-3 109q0 97 44.5 152t138.5 55q11 0 18.5 -6.5t7.5 -17.5v-36q0 -23 -23 -23q-48 0 -67 -31t-19 -98q0 -53 3 -110.5t6.5 -116t6.5 -115.5t3 -109q0 -97 -44 -152
t-139 -55z" />
    <glyph glyph-name="approxequal" unicode="&#x2248;" horiz-adv-x="597" 
d="M191 384q-22 0 -35 -10t-20 -24q-10 -15 -17 -19.5t-24 -4.5h-23q-9 0 -15.5 8.5t-4.5 16.5q11 45 46.5 76.5t92.5 31.5q30 0 59 -10t55.5 -22.5t51 -22.5t46.5 -10q20 0 33.5 9.5t20.5 24.5q9 14 16.5 18.5t24.5 4.5h23q10 0 16 -8.5t4 -16.5q-10 -46 -43.5 -76.5
t-95.5 -30.5q-31 0 -58.5 10t-53 22.5t-50 22.5t-49.5 10zM191 171q-22 0 -35 -10t-20 -24q-10 -15 -17 -19t-24 -4h-23q-9 0 -15.5 8t-4.5 17q11 45 46.5 76t92.5 31q30 0 59 -10t55.5 -22.5t51 -22.5t46.5 -10q20 0 33.5 10t20.5 24q9 14 16.5 18.5t24.5 4.5h23
q10 0 16 -8t4 -17q-10 -46 -43.5 -76.5t-95.5 -30.5q-31 0 -58.5 10t-53 22.5t-50 22.5t-49.5 10z" />
    <glyph glyph-name="notequal" unicode="&#x2260;" horiz-adv-x="581" 
d="M129 15q-8 0 -13 7.5t-1 15.5l48 94h-87q-11 0 -18.5 7.5t-7.5 18.5v36q0 11 7.5 18.5t18.5 7.5h130l69 138h-199q-11 0 -18.5 7.5t-7.5 18.5v36q0 11 7.5 18t18.5 7h243l48 95q5 11 15.5 17t21.5 6h48q8 0 13 -7.5t1 -15.5l-49 -95h89q11 0 18 -7t7 -18v-36
q0 -11 -7 -18.5t-18 -7.5h-133l-69 -138h202q11 0 18 -7.5t7 -18.5v-36q0 -11 -7 -18.5t-18 -7.5h-246l-47 -94q-12 -23 -37 -23h-47z" />
    <glyph glyph-name="lessequal" unicode="&#x2264;" horiz-adv-x="346" 
d="M83 0q-11 0 -18.5 7t-7.5 18v31q0 11 7.5 18t18.5 7h180q11 0 18 -7t7 -18v-31q0 -11 -7 -18t-18 -7h-180zM76 294q-8 8 -13.5 19.5t-5.5 22.5v21q0 11 5.5 22.5t13.5 19.5l193 176q6 5 12.5 2t6.5 -11v-61q0 -26 -19 -42l-126 -117l126 -117q9 -7 14 -18.5t5 -22.5v-61
q0 -8 -6.5 -11t-12.5 2z" />
    <glyph glyph-name="greaterequal" unicode="&#x2265;" horiz-adv-x="346" 
d="M83 0q-11 0 -18.5 7t-7.5 18v31q0 11 7.5 18t18.5 7h180q11 0 18 -7t7 -18v-31q0 -11 -7 -18t-18 -7h-180zM76 118q-5 -5 -12 -2t-7 11v61q0 11 5.5 22.5t13.5 18.5l127 117l-127 117q-8 8 -13.5 19t-5.5 23v61q0 8 7 11t12 -2l193 -176q9 -8 14 -19.5t5 -22.5v-21
q0 -11 -5 -22.5t-14 -19.5z" />
    <glyph glyph-name="lozenge" unicode="&#x25ca;" horiz-adv-x="628" 
d="M329 -9q-5 -8 -14.5 -8t-15.5 8l-245 338q-7 9 -7 21t7 21l245 338q6 8 15.5 8t14.5 -8l245 -338q7 -9 7 -21t-7 -21zM314 108l167 242l-167 242l-168 -242z" />
    <glyph glyph-name="uniF6C3" unicode="&#xf6c3;" horiz-adv-x="277" 
d="M197 -98q0 -32 -12 -57t-29.5 -42t-38 -26t-36.5 -9q-18 0 -18 15v6q0 8 4.5 13.5t14.5 13.5t16.5 17t7.5 23q-22 13 -22 46q0 28 15 41.5t41 13.5q27 0 42 -13.5t15 -41.5z" />
    <glyph glyph-name="uniF8FF" unicode="&#xf8ff;" horiz-adv-x="1637" 
d="M926 327q0 65 1.5 109t3.5 72q3 33 6 52h76q1 -13 3 -25q1 -11 2 -24t1 -25q1 2 4 14.5t11.5 26.5t24 25.5t41.5 11.5q40 0 56.5 -23.5t17.5 -77.5l2 -136h-112q0 34 1 54t1 40q0 14 -3.5 19.5t-11.5 5.5t-12.5 -5.5t-4.5 -19.5q0 -20 2.5 -40t2.5 -54h-113zM207 327
q0 65 1.5 120.5t3.5 97.5q3 48 6 89h95q2 -42 5 -90q2 -42 3.5 -97.5t1.5 -119.5h-116zM1191 440q0 25 5.5 47.5t19.5 39.5t37 27t58 10q37 0 61 -10t37 -27t18 -39.5t5 -47.5q0 -53 -29 -86t-92 -33q-62 0 -91 33t-29 86zM1311 399q24 0 24 30q0 27 -24 27q-23 0 -23 -27
q0 -30 23 -30zM505 385q-6 -31 -22.5 -47.5t-51.5 -16.5q-42 0 -65.5 27.5t-23.5 84.5q0 63 30 97t102 34q60 0 88 -29t28 -83v-125h-76zM469 399q24 0 24 30q0 27 -24 27q-9 0 -15 -6.5t-6 -20.5t6 -22t15 -8zM653 6q0 64 1.5 116t3.5 89q3 43 6 77h78q1 -15 3 -29
q2 -12 3 -24.5t1 -21.5q2 11 6 25.5t13 27t23 21.5t36 9q35 0 56.5 -29t21.5 -83q0 -67 -33 -101.5t-94 -34.5q0 -5 1 -11q0 -5 0.5 -13t0.5 -18h-127zM763 129q10 1 19 5q7 4 13 11t6 20q0 21 -19 21q-23 0 -23 -30q0 -6 0.5 -10.5t1.5 -8.5zM1127 64q-6 -4 -17 -8
q-9 -3 -22.5 -5.5t-32.5 -2.5q-70 0 -101.5 33.5t-31.5 87.5q0 127 123 127q52 0 82 -30t30 -84q0 -8 -1 -14.5t-2 -11.5l-2 -10h-120q1 -7 6 -12t13.5 -8.5t24.5 -3.5q25 0 39 7q7 4 12 8v-73zM1065 171v2q0 1 0.5 2.5t0.5 3.5q0 19 -18 19q-22 0 -22 -27h39zM603 554
l116 36l4 -30h172q2 -20 4 -53q2 -28 3 -72t1 -108h-114v82q0 36 2 62h-57l2 -63q0 -1 2 -1q2 -1 9 -1t13 2q3 1 4 2v-72q-2 -5 -10 -9q-7 -3 -19.5 -5.5t-32.5 -2.5q-42 0 -60 16.5t-18 47.5q0 9 0.5 23t0.5 27t0.5 23.5t0.5 12.5h-23v83zM846 573q-26 0 -42.5 17.5
t-16.5 43.5q0 24 16.5 41.5t42.5 17.5t42.5 -17.5t16.5 -41.5q0 -26 -16.5 -43.5t-42.5 -17.5zM205 277l121 40l4 -29h165q-1 -29 -1 -52q-1 -20 -1 -36v-18q0 -26 16 -26q15 0 15 26q0 2 -0.5 18t-0.5 36q-1 23 -1 52h106q1 -18 3 -40q1 -19 2 -46t1 -59q0 -72 -36 -104.5
t-114 -32.5q-26 0 -44 3t-29 7q-13 4 -20 11v83q7 -6 18 -10q9 -4 22.5 -6.5t31.5 -2.5q25 0 39 5.5t22 12.5q9 8 11 18q-4 -4 -11 -8q-7 -3 -18 -5t-28 -2q-43 0 -68 16t-25 58v8h-45l2 -61q13 0 21 3q4 1 7 3v-74q-5 -5 -15 -9q-8 -3 -21 -5.5t-31 -2.5q-38 0 -55.5 17
t-17.5 47q0 9 0.5 22.5t0.5 26t0.5 22t0.5 11.5h-27v83zM1203 272h16q15 0 15 -12q0 -9 -8 -12l8 -13h-9l-7 11h-7v-11h-8v37zM1219 253q7 0 7 6t-7 6h-8v-12h8zM1180 253q0 15 11 26t26 11t26 -11t11 -26t-11 -26t-26 -11t-26 11t-11 26zM1217 223q12 0 21 9t9 21t-9 21
t-21 9t-21 -9t-9 -21t9 -21t21 -9z" />
    <glyph glyph-name="a.aalt" horiz-adv-x="562" 
d="M266 485q-57 0 -80.5 -32t-23.5 -95v-156q0 -63 23.5 -95t80.5 -32q19 0 37.5 5.5t35.5 15t31 22t25 25.5v274q-22 26 -57.5 47t-71.5 21zM249 -10q-97 0 -141.5 51.5t-44.5 148.5v180q0 97 44.5 148.5t141.5 51.5q42 0 82.5 -19t69.5 -48l3 32q2 11 10 18t19 7h36
q11 0 18 -7t7 -18v-510q0 -11 -7 -18t-18 -7h-37q-11 0 -19 7t-10 18l-2 32q-29 -29 -68.5 -48t-83.5 -19z" />
    <glyph glyph-name="aacute.aalt" horiz-adv-x="559" 
d="M236 616q-8 0 -12 7t1 14l55 83q7 10 17.5 16t21.5 6h62q7 0 10 -7t-2 -13l-72 -87q-16 -19 -42 -19h-39zM266 485q-57 0 -80.5 -32t-23.5 -95v-156q0 -63 23.5 -95t80.5 -32q19 0 37.5 5.5t35.5 15t31 22t25 25.5v274q-22 26 -57.5 47t-71.5 21zM249 -10
q-97 0 -141.5 51.5t-44.5 148.5v180q0 97 44.5 148.5t141.5 51.5q42 0 82.5 -19t69.5 -48l3 32q2 11 10 18t19 7h36q11 0 18 -7t7 -18v-510q0 -11 -7 -18t-18 -7h-37q-11 0 -19 7t-10 18l-2 32q-29 -29 -68.5 -48t-83.5 -19z" />
    <glyph glyph-name="abreve.aalt" horiz-adv-x="562" 
d="M266 485q-57 0 -80.5 -32t-23.5 -95v-156q0 -63 23.5 -95t80.5 -32q19 0 37.5 5.5t35.5 15t31 22t25 25.5v274q-22 26 -57.5 47t-71.5 21zM249 -10q-97 0 -141.5 51.5t-44.5 148.5v180q0 97 44.5 148.5t141.5 51.5q42 0 82.5 -19t69.5 -48l3 32q2 11 10 18t19 7h36
q11 0 18 -7t7 -18v-510q0 -11 -7 -18t-18 -7h-37q-11 0 -19 7t-10 18l-2 32q-29 -29 -68.5 -48t-83.5 -19zM275 612q-56 0 -93 28.5t-37 76.5q0 9 5 15.5t14 6.5h27q20 0 26 -21q5 -20 20 -31t38 -11q24 0 38 11t19 31q7 21 26 21h27q9 0 14 -6.5t5 -15.5q0 -48 -36 -76.5
t-93 -28.5z" />
    <glyph glyph-name="acircumflex.aalt" horiz-adv-x="559" 
d="M174 616q-8 0 -11.5 7t1.5 14l58 84q7 9 18 15t22 6h35q12 0 23 -6t18 -15l58 -84q5 -7 1 -14t-12 -7h-37q-26 0 -39 22l-30 50l-28 -50q-6 -11 -17 -16.5t-22 -5.5h-38zM266 485q-57 0 -80.5 -32t-23.5 -95v-156q0 -63 23.5 -95t80.5 -32q19 0 37.5 5.5t35.5 15t31 22
t25 25.5v274q-22 26 -57.5 47t-71.5 21zM249 -10q-97 0 -141.5 51.5t-44.5 148.5v180q0 97 44.5 148.5t141.5 51.5q42 0 82.5 -19t69.5 -48l3 32q2 11 10 18t19 7h36q11 0 18 -7t7 -18v-510q0 -11 -7 -18t-18 -7h-37q-11 0 -19 7t-10 18l-2 32q-29 -29 -68.5 -48t-83.5 -19z
" />
    <glyph glyph-name="adieresis.aalt" horiz-adv-x="559" 
d="M221 671q0 -29 -14.5 -44.5t-42.5 -15.5q-27 0 -41 15.5t-14 44.5q0 30 14 46.5t41 16.5q28 0 42.5 -16.5t14.5 -46.5zM451 671q0 -29 -14.5 -44.5t-42.5 -15.5q-26 0 -40.5 15.5t-14.5 44.5q0 30 14.5 46.5t40.5 16.5q28 0 42.5 -16.5t14.5 -46.5zM266 485
q-57 0 -80.5 -32t-23.5 -95v-156q0 -63 23.5 -95t80.5 -32q19 0 37.5 5.5t35.5 15t31 22t25 25.5v274q-22 26 -57.5 47t-71.5 21zM249 -10q-97 0 -141.5 51.5t-44.5 148.5v180q0 97 44.5 148.5t141.5 51.5q42 0 82.5 -19t69.5 -48l3 32q2 11 10 18t19 7h36q11 0 18 -7t7 -18
v-510q0 -11 -7 -18t-18 -7h-37q-11 0 -19 7t-10 18l-2 32q-29 -29 -68.5 -48t-83.5 -19z" />
    <glyph glyph-name="agrave.aalt" horiz-adv-x="559" 
d="M289 616q-26 0 -42 19l-72 87q-5 6 -2 13t10 7h62q11 0 21.5 -6t17.5 -16l55 -83q5 -7 1 -14t-12 -7h-39zM266 485q-57 0 -80.5 -32t-23.5 -95v-156q0 -63 23.5 -95t80.5 -32q19 0 37.5 5.5t35.5 15t31 22t25 25.5v274q-22 26 -57.5 47t-71.5 21zM249 -10
q-97 0 -141.5 51.5t-44.5 148.5v180q0 97 44.5 148.5t141.5 51.5q42 0 82.5 -19t69.5 -48l3 32q2 11 10 18t19 7h36q11 0 18 -7t7 -18v-510q0 -11 -7 -18t-18 -7h-37q-11 0 -19 7t-10 18l-2 32q-29 -29 -68.5 -48t-83.5 -19z" />
    <glyph glyph-name="amacron.aalt" horiz-adv-x="562" 
d="M266 485q-57 0 -80.5 -32t-23.5 -95v-156q0 -63 23.5 -95t80.5 -32q19 0 37.5 5.5t35.5 15t31 22t25 25.5v274q-22 26 -57.5 47t-71.5 21zM249 -10q-97 0 -141.5 51.5t-44.5 148.5v180q0 97 44.5 148.5t141.5 51.5q42 0 82.5 -19t69.5 -48l3 32q2 11 10 18t19 7h36
q11 0 18 -7t7 -18v-510q0 -11 -7 -18t-18 -7h-37q-11 0 -19 7t-10 18l-2 32q-29 -29 -68.5 -48t-83.5 -19zM156 623q-11 0 -18.5 7t-7.5 18v37q0 11 7.5 18t18.5 7h245q11 0 18.5 -7t7.5 -18v-37q0 -11 -7.5 -18t-18.5 -7h-245z" />
    <glyph glyph-name="aogonek.aalt" horiz-adv-x="562" 
d="M249 -10q-97 0 -141.5 51.5t-44.5 148.5v180q0 97 44.5 148.5t141.5 51.5q42 0 82.5 -19t69.5 -48l3 32q2 11 10 18t19 7h36q11 0 18 -7t7 -18v-512q0 -22 -19 -38q-42 -28 -42 -64q0 -15 11 -24.5t33 -9.5h21q19 0 19 -15v-13q0 -8 -7 -12.5t-17 -6.5q-9 -2 -20 -2.5
t-20 -0.5q-20 0 -39 4t-33 12t-22.5 21.5t-8.5 33.5q0 29 20 53.5t52 40.5q-11 6 -16 18t-5 37q-29 -29 -68.5 -48t-83.5 -19zM266 485q-57 0 -80.5 -32t-23.5 -95v-156q0 -63 23.5 -95t80.5 -32q19 0 37.5 5.5t35.5 15t31 22t25 25.5v274q-22 26 -57.5 47t-71.5 21z" />
    <glyph glyph-name="aring.aalt" horiz-adv-x="559" 
d="M266 485q-57 0 -80.5 -32t-23.5 -95v-156q0 -63 23.5 -95t80.5 -32q19 0 37.5 5.5t35.5 15t31 22t25 25.5v274q-22 26 -57.5 47t-71.5 21zM249 -10q-97 0 -141.5 51.5t-44.5 148.5v180q0 97 44.5 148.5t141.5 51.5q42 0 82.5 -19t69.5 -48l3 32q2 11 10 18t19 7h36
q11 0 18 -7t7 -18v-510q0 -11 -7 -18t-18 -7h-37q-11 0 -19 7t-10 18l-2 32q-29 -29 -68.5 -48t-83.5 -19zM275 647q17 0 25.5 10.5t8.5 28.5q0 40 -34 40q-33 0 -33 -40q0 -18 8 -28.5t25 -10.5zM275 606q-35 0 -57 20t-22 56v10q0 35 22 55.5t57 20.5t57.5 -20.5
t22.5 -55.5v-10q0 -36 -22.5 -56t-57.5 -20z" />
    <glyph glyph-name="atilde.aalt" horiz-adv-x="559" 
d="M211 664q-12 0 -19 -4t-12 -12q-8 -13 -15 -17t-22 -4h-18q-9 0 -16.5 8t-5.5 17q5 38 31 63.5t68 25.5q22 0 43.5 -6.5t40.5 -15.5l36 -15q16 -6 27 -6q22 0 32 16q8 13 15 17t22 4h18q9 0 16.5 -8t5.5 -17q-5 -38 -29.5 -63.5t-69.5 -25.5q-21 0 -41 6.5t-38.5 15
t-36 15t-32.5 6.5zM266 485q-57 0 -80.5 -32t-23.5 -95v-156q0 -63 23.5 -95t80.5 -32q19 0 37.5 5.5t35.5 15t31 22t25 25.5v274q-22 26 -57.5 47t-71.5 21zM249 -10q-97 0 -141.5 51.5t-44.5 148.5v180q0 97 44.5 148.5t141.5 51.5q42 0 82.5 -19t69.5 -48l3 32
q2 11 10 18t19 7h36q11 0 18 -7t7 -18v-510q0 -11 -7 -18t-18 -7h-37q-11 0 -19 7t-10 18l-2 32q-29 -29 -68.5 -48t-83.5 -19z" />
    <glyph glyph-name="glyph165" horiz-adv-x="277" 
d="M193 -99q0 -32 -12 -57t-29.5 -42.5t-37.5 -26.5t-36 -9q-18 0 -18 16v6q0 8 4.5 13.5t14.5 12.5q10 8 16.5 17.5t6.5 22.5q-10 6 -16 18t-6 29q0 27 15.5 41t41.5 14t41 -14t15 -41z" />
    <glyph glyph-name="dotlessi.aalt" 
d="M93 0q-11 0 -18 7t-7 18v455l-31 3q-11 1 -17.5 8t-6.5 18v27q0 11 7 17.5t18 6.5h104q11 0 18 -7t7 -18v-510q0 -11 -7 -18t-18 -7h-49z" />
    <glyph glyph-name="uni0237.aalt" horiz-adv-x="241" 
d="M147 560q11 0 18.5 -7t7.5 -18v-499q0 -45 -14.5 -81.5t-40.5 -61.5t-61.5 -38.5t-76.5 -13.5q-11 0 -18 5.5t-7 15.5v29q0 24 25 31q48 8 70.5 38t22.5 87v433l-31 3q-11 1 -17 8t-6 18v27q0 11 6.5 17.5t17.5 6.5h104z" />
    <glyph glyph-name="g.aalt" horiz-adv-x="562" 
d="M266 485q-57 0 -80.5 -32t-23.5 -95v-110q0 -64 23.5 -94t80.5 -30q38 0 73 19.5t56 45.5v228q-11 13 -25 25.5t-31 22t-35.5 15t-37.5 5.5zM281 -160q-54 0 -93.5 10.5t-66 29t-39 43.5t-12.5 53q0 11 7 17.5t18 6.5h47q11 0 17.5 -6.5t9.5 -15.5q2 -24 28.5 -40.5
t80.5 -16.5t86 26t32 89v64q-29 -29 -67 -45t-80 -16q-97 0 -141.5 50t-44.5 147v134q0 97 44.5 148.5t141.5 51.5q44 0 83.5 -19t68.5 -48l3 32q2 11 10 18t19 7h36q11 0 18 -7t7 -18v-508q0 -47 -15.5 -82t-43.5 -58.5t-67 -35t-87 -11.5z" />
    <glyph glyph-name="gbreve.aalt" horiz-adv-x="562" 
d="M279 612q-56 0 -93 28.5t-37 76.5q0 9 5 15.5t14 6.5h28q19 0 25 -21q6 -20 20.5 -31t37.5 -11q24 0 38 11t19 31q7 21 26 21h28q9 0 13.5 -6.5t4.5 -15.5q0 -48 -36 -76.5t-93 -28.5zM266 485q-57 0 -80.5 -32t-23.5 -95v-110q0 -64 23.5 -94t80.5 -30q38 0 73 19.5
t56 45.5v228q-11 13 -25 25.5t-31 22t-35.5 15t-37.5 5.5zM281 -160q-54 0 -93.5 10.5t-66 29t-39 43.5t-12.5 53q0 11 7 17.5t18 6.5h47q11 0 17.5 -6.5t9.5 -15.5q2 -24 28.5 -40.5t80.5 -16.5t86 26t32 89v64q-29 -29 -67 -45t-80 -16q-97 0 -141.5 50t-44.5 147v134
q0 97 44.5 148.5t141.5 51.5q44 0 83.5 -19t68.5 -48l3 32q2 11 10 18t19 7h36q11 0 18 -7t7 -18v-508q0 -47 -15.5 -82t-43.5 -58.5t-67 -35t-87 -11.5z" />
    <glyph glyph-name="gcircumflex.aalt" horiz-adv-x="562" 
d="M175 616q-8 0 -12 7t1 14l58 84q7 9 18 15t22 6h36q11 0 22 -6t18 -15l58 -84q5 -7 1.5 -14t-11.5 -7h-38q-25 0 -38 22l-30 50l-29 -50q-13 -22 -38 -22h-38zM266 485q-57 0 -80.5 -32t-23.5 -95v-110q0 -64 23.5 -94t80.5 -30q38 0 73 19.5t56 45.5v228
q-11 13 -25 25.5t-31 22t-35.5 15t-37.5 5.5zM281 -160q-54 0 -93.5 10.5t-66 29t-39 43.5t-12.5 53q0 11 7 17.5t18 6.5h47q11 0 17.5 -6.5t9.5 -15.5q2 -24 28.5 -40.5t80.5 -16.5t86 26t32 89v64q-29 -29 -67 -45t-80 -16q-97 0 -141.5 50t-44.5 147v134q0 97 44.5 148.5
t141.5 51.5q44 0 83.5 -19t68.5 -48l3 32q2 11 10 18t19 7h36q11 0 18 -7t7 -18v-508q0 -47 -15.5 -82t-43.5 -58.5t-67 -35t-87 -11.5z" />
    <glyph glyph-name="gcommaaccent.aalt" horiz-adv-x="562" 
d="M222 664q0 32 12 57t29.5 42t37 26t35.5 9q18 0 18 -16v-6q0 -8 -4.5 -13.5t-14.5 -12.5t-16.5 -16.5t-6.5 -23.5q10 -6 16 -17.5t6 -28.5q0 -27 -15 -40.5t-41 -13.5t-41 13.5t-15 40.5zM266 485q-57 0 -80.5 -32t-23.5 -95v-110q0 -64 23.5 -94t80.5 -30q38 0 73 19.5
t56 45.5v228q-11 13 -25 25.5t-31 22t-35.5 15t-37.5 5.5zM281 -160q-54 0 -93.5 10.5t-66 29t-39 43.5t-12.5 53q0 11 7 17.5t18 6.5h47q11 0 17.5 -6.5t9.5 -15.5q2 -24 28.5 -40.5t80.5 -16.5t86 26t32 89v64q-29 -29 -67 -45t-80 -16q-97 0 -141.5 50t-44.5 147v134
q0 97 44.5 148.5t141.5 51.5q44 0 83.5 -19t68.5 -48l3 32q2 11 10 18t19 7h36q11 0 18 -7t7 -18v-508q0 -47 -15.5 -82t-43.5 -58.5t-67 -35t-87 -11.5z" />
    <glyph glyph-name="gdotaccent.aalt" horiz-adv-x="562" 
d="M336 673q0 -31 -17 -45.5t-45 -14.5q-26 0 -42.5 14.5t-16.5 45.5q0 32 16.5 47.5t42.5 15.5q28 0 45 -15.5t17 -47.5zM266 485q-57 0 -80.5 -32t-23.5 -95v-110q0 -64 23.5 -94t80.5 -30q38 0 73 19.5t56 45.5v228q-11 13 -25 25.5t-31 22t-35.5 15t-37.5 5.5zM281 -160
q-54 0 -93.5 10.5t-66 29t-39 43.5t-12.5 53q0 11 7 17.5t18 6.5h47q11 0 17.5 -6.5t9.5 -15.5q2 -24 28.5 -40.5t80.5 -16.5t86 26t32 89v64q-29 -29 -67 -45t-80 -16q-97 0 -141.5 50t-44.5 147v134q0 97 44.5 148.5t141.5 51.5q44 0 83.5 -19t68.5 -48l3 32q2 11 10 18
t19 7h36q11 0 18 -7t7 -18v-508q0 -47 -15.5 -82t-43.5 -58.5t-67 -35t-87 -11.5z" />
    <glyph glyph-name="i.aalt" 
d="M93 0q-11 0 -18 7t-7 18v455l-31 3q-11 1 -17.5 8t-6.5 18v27q0 11 7 17.5t18 6.5h104q11 0 18 -7t7 -18v-510q0 -11 -7 -18t-18 -7h-49zM175 689q0 -31 -16.5 -44.5t-44.5 -13.5q-27 0 -43 13.5t-16 44.5q0 32 16 46.5t43 14.5q28 0 44.5 -14.5t16.5 -46.5z" />
    <glyph glyph-name="iacute.aalt" 
d="M76 616q-8 0 -12 7t1 14l54 83q7 10 18 16t22 6h61q8 0 11 -7t-2 -13l-72 -87q-8 -9 -19.5 -14t-22.5 -5h-39zM93 0q-11 0 -18 7t-7 18v455l-31 3q-11 1 -17.5 8t-6.5 18v27q0 11 7 17.5t18 6.5h104q11 0 18 -7t7 -18v-510q0 -11 -7 -18t-18 -7h-49z" />
    <glyph glyph-name="icircumflex.aalt" 
d="M91 0q-11 0 -18 7t-7 18v455l-31 3q-11 1 -17.5 8t-6.5 18v27q0 11 7 17.5t18 6.5h104q11 0 18 -7t7 -18v-510q0 -11 -7 -18t-18 -7h-49zM16 616q-9 0 -13 7t1 15l50 82q6 10 16.5 16t21.5 6h36q11 0 22 -6t17 -16l50 -82q5 -8 0.5 -15t-12.5 -7h-31q-11 0 -21.5 6
t-15.5 17l-27 49l-26 -49q-12 -23 -37 -23h-31z" />
    <glyph glyph-name="idieresis.aalt" 
d="M95 671q0 -27 -14 -42t-40 -15q-25 0 -38.5 15t-13.5 42q0 59 52 59q26 0 40 -15t14 -44zM247 671q0 -27 -14 -42t-40 -15q-25 0 -38.5 15t-13.5 42q0 59 52 59q26 0 40 -15t14 -44zM93 0q-11 0 -18 7t-7 18v455l-31 3q-11 1 -17.5 8t-6.5 18v27q0 11 7 17.5t18 6.5h104
q11 0 18 -7t7 -18v-510q0 -11 -7 -18t-18 -7h-49z" />
    <glyph glyph-name="igrave.aalt" 
d="M100 616q-26 0 -42 19l-73 87q-5 6 -1.5 13t10.5 7h61q12 0 22.5 -6t17.5 -16l55 -83q5 -7 1 -14t-13 -7h-38zM91 0q-11 0 -18 7t-7 18v455l-31 3q-11 1 -17.5 8t-6.5 18v27q0 11 7 17.5t18 6.5h104q11 0 18 -7t7 -18v-510q0 -11 -7 -18t-18 -7h-49z" />
    <glyph glyph-name="imacron.aalt" 
d="M31 623q-11 0 -18.5 7t-7.5 18v37q0 11 7.5 18t18.5 7h174q11 0 18 -7t7 -18v-37q0 -11 -7 -18t-18 -7h-174zM93 0q-11 0 -18 7t-7 18v455l-31 3q-11 1 -17.5 8t-6.5 18v27q0 11 7 17.5t18 6.5h104q11 0 18 -7t7 -18v-510q0 -11 -7 -18t-18 -7h-49z" />
    <glyph glyph-name="iogonek.aalt" 
d="M20 -92q0 29 19.5 53.5t53.5 38.5h-9q-7 0 -11.5 5.5t-4.5 12.5v462l-31 3q-11 1 -17.5 8t-6.5 18v27q0 11 7 17.5t18 6.5h104q11 0 18 -7t7 -18v-511q0 -14 -5.5 -23t-16.5 -17q-43 -29 -43 -63q0 -15 11.5 -24.5t32.5 -9.5h21q19 0 19 -15v-13q0 -8 -6.5 -12.5
t-16.5 -6.5q-9 -2 -20.5 -3t-20.5 -1q-20 0 -38.5 4t-32.5 12.5t-22.5 22t-8.5 33.5zM175 689q0 -31 -16.5 -44.5t-44.5 -13.5q-27 0 -43 13.5t-16 44.5q0 32 16 46.5t43 14.5q28 0 44.5 -14.5t16.5 -46.5z" />
    <glyph glyph-name="itilde.aalt" 
d="M92 0q-11 0 -18 7t-7 18v455l-31 3q-11 1 -17.5 8t-6.5 18v27q0 11 7 17.5t18 6.5h104q11 0 18 -7t7 -18v-510q0 -11 -7 -18t-18 -7h-49zM71 661q-9 0 -14 -4.5t-7 -10.5q-7 -19 -28 -19h-15q-9 0 -16.5 8t-6.5 16q3 35 21 58.5t56 23.5q19 0 33.5 -6.5t26.5 -13.5
l21 -14q10 -6 20 -6q18 0 23 15q7 19 27 19h15q10 0 17 -7.5t6 -17.5q-3 -34 -19.5 -57.5t-57.5 -23.5q-18 0 -31.5 6t-25.5 13l-22 14q-11 7 -23 7z" />
    <glyph glyph-name="j.aalt" horiz-adv-x="241" 
d="M181 692q0 -31 -17 -44.5t-45 -13.5q-26 0 -42.5 13.5t-16.5 44.5q0 32 16.5 46.5t42.5 14.5q28 0 45 -14.5t17 -46.5zM147 560q11 0 18.5 -7t7.5 -18v-499q0 -45 -14.5 -81.5t-40.5 -61.5t-61.5 -38.5t-76.5 -13.5q-11 0 -18 5.5t-7 15.5v29q0 24 25 31q48 8 70.5 38
t22.5 87v433l-31 3q-11 1 -17 8t-6 18v27q0 11 6.5 17.5t17.5 6.5h104z" />
    <glyph glyph-name="jcircumflex.aalt" horiz-adv-x="234" 
d="M23 616q-9 0 -13 7t1 15l50 82q6 10 16.5 16t22.5 6h35q11 0 22 -6t17 -16l50 -82q5 -8 1 -15t-13 -7h-31q-11 0 -21.5 6t-15.5 17l-27 49l-26 -49q-12 -23 -37 -23h-31zM147 560q11 0 18.5 -7t7.5 -18v-499q0 -45 -14.5 -81.5t-40.5 -61.5t-61.5 -38.5t-76.5 -13.5
q-11 0 -18 5.5t-7 15.5v29q0 24 25 31q48 8 70.5 38t22.5 87v433l-31 3q-11 1 -17 8t-6 18v27q0 11 6.5 17.5t17.5 6.5h104z" />
    <glyph glyph-name="l.aalt" horiz-adv-x="239" 
d="M229 27q0 -9 -6 -15t-15 -9.5t-20 -4.5t-22 -1q-57 0 -77.5 26.5t-20.5 80.5v621q0 11 7 18t18 7h49q11 0 18 -7t7 -18v-604q0 -26 7.5 -35t33.5 -9q21 0 21 -20v-30z" />
    <glyph glyph-name="lacute.aalt" horiz-adv-x="239" 
d="M100 780q-7 0 -9.5 6t2.5 11l58 54q18 18 44 18h63q6 0 7.5 -6t-3.5 -9l-85 -59q-10 -7 -22.5 -11t-24.5 -4h-30zM229 27q0 -9 -6 -15t-15 -9.5t-20 -4.5t-22 -1q-57 0 -77.5 26.5t-20.5 80.5v621q0 11 7 18t18 7h49q11 0 18 -7t7 -18v-604q0 -26 7.5 -35t33.5 -9
q21 0 21 -20v-30z" />
    <glyph glyph-name="lcaron.aalt" horiz-adv-x="259" 
d="M326 720q0 -24 -10 -46.5t-25 -39t-32.5 -26.5t-33.5 -10q-18 0 -18 14v6q0 8 4.5 13.5t12.5 13.5q8 7 10.5 14t4.5 18q-24 13 -24 43q0 26 15 38.5t40 12.5q26 0 41 -12.5t15 -38.5zM229 27q0 -9 -6 -15t-15 -9.5t-20 -4.5t-22 -1q-57 0 -77.5 26.5t-20.5 80.5v621
q0 11 7 18t18 7h49q11 0 18 -7t7 -18v-604q0 -26 7.5 -35t33.5 -9q21 0 21 -20v-30z" />
    <glyph glyph-name="lcommaaccent.aalt" horiz-adv-x="239" 
d="M229 27q0 -9 -6 -15t-15 -9.5t-20 -4.5t-22 -1q-57 0 -77.5 26.5t-20.5 80.5v621q0 11 7 18t18 7h49q11 0 18 -7t7 -18v-604q0 -26 7.5 -35t33.5 -9q21 0 21 -20v-30zM185 -98q0 -32 -12 -57t-29.5 -42t-37.5 -26t-36 -9q-18 0 -18 15v6q0 8 4.5 13.5t14.5 13.5t16.5 17
t7.5 23q-23 13 -23 46q0 28 15.5 41.5t41.5 13.5t41 -13.5t15 -41.5z" />
    <glyph glyph-name="ldot.aalt" horiz-adv-x="363" 
d="M332 314q0 -31 -15.5 -45t-41.5 -14q-24 0 -39 14t-15 45q0 32 15 47.5t39 15.5q26 0 41.5 -15.5t15.5 -47.5zM229 27q0 -9 -6 -15t-15 -9.5t-20 -4.5t-22 -1q-57 0 -77.5 26.5t-20.5 80.5v621q0 11 7 18t18 7h49q11 0 18 -7t7 -18v-604q0 -26 7.5 -35t33.5 -9
q21 0 21 -20v-30z" />
    <glyph glyph-name="lslash.aalt" horiz-adv-x="239" 
d="M167 121q0 -26 7.5 -35t33.5 -9q21 0 21 -20v-30q0 -9 -6 -15t-15 -9.5t-20 -4.5t-22 -1q-57 0 -77.5 26.5t-20.5 80.5v183l-41 -17q-8 -4 -15 1.5t-7 13.5v46q0 24 22 33l41 17v344q0 11 7 18t18 7h49q11 0 18 -7t7 -18v-303l41 18q8 3 15 -2t7 -13v-47q0 -23 -22 -32
l-41 -18v-207z" />
    <glyph glyph-name="y.aalt" horiz-adv-x="563" 
d="M172 -22q2 -23 28.5 -40t80.5 -17q56 0 85.5 27t29.5 90v64q-29 -30 -68 -45.5t-82 -15.5q-179 0 -179 184v310q0 11 7.5 18t18.5 7h48q11 0 18.5 -7t7.5 -18v-290q0 -61 22.5 -90t79.5 -29q37 0 71.5 19t55.5 45v345q0 11 7 18t18 7h49q11 0 18 -7t7 -18v-508
q0 -93 -57 -140t-153 -47q-107 0 -159 39.5t-52 96.5q0 11 6.5 17.5t17.5 6.5h47q12 0 18.5 -6.5t8.5 -15.5z" />
    <glyph glyph-name="yacute.aalt" horiz-adv-x="563" 
d="M244 616q-8 0 -12 7t1 14l55 83q6 10 17 16t22 6h61q8 0 11 -7t-2 -13l-72 -87q-8 -9 -19.5 -14t-22.5 -5h-39zM172 -22q2 -23 28.5 -40t80.5 -17q56 0 85.5 27t29.5 90v64q-29 -30 -68 -45.5t-82 -15.5q-179 0 -179 184v310q0 11 7.5 18t18.5 7h48q11 0 18.5 -7t7.5 -18
v-290q0 -61 22.5 -90t79.5 -29q37 0 71.5 19t55.5 45v345q0 11 7 18t18 7h49q11 0 18 -7t7 -18v-508q0 -93 -57 -140t-153 -47q-107 0 -159 39.5t-52 96.5q0 11 6.5 17.5t17.5 6.5h47q12 0 18.5 -6.5t8.5 -15.5z" />
    <glyph glyph-name="ycircumflex.aalt" horiz-adv-x="563" 
d="M177 616q-8 0 -12 7t1 14l58 84q8 9 18.5 15t21.5 6h36q11 0 22 -6t18 -15l58 -84q5 -7 1.5 -14t-11.5 -7h-38q-25 0 -38 22l-30 50l-29 -50q-13 -22 -38 -22h-38zM172 -22q2 -23 28.5 -40t80.5 -17q56 0 85.5 27t29.5 90v64q-29 -30 -68 -45.5t-82 -15.5
q-179 0 -179 184v310q0 11 7.5 18t18.5 7h48q11 0 18.5 -7t7.5 -18v-290q0 -61 22.5 -90t79.5 -29q37 0 71.5 19t55.5 45v345q0 11 7 18t18 7h49q11 0 18 -7t7 -18v-508q0 -93 -57 -140t-153 -47q-107 0 -159 39.5t-52 96.5q0 11 6.5 17.5t17.5 6.5h47q12 0 18.5 -6.5
t8.5 -15.5z" />
    <glyph glyph-name="ydieresis.aalt" horiz-adv-x="563" 
d="M224 671q0 -29 -15 -44.5t-43 -15.5q-26 0 -40.5 15.5t-14.5 44.5q0 30 14.5 46.5t40.5 16.5q28 0 43 -16.5t15 -46.5zM453 671q0 -29 -14.5 -44.5t-42.5 -15.5q-26 0 -40.5 15.5t-14.5 44.5q0 30 14.5 46.5t40.5 16.5q28 0 42.5 -16.5t14.5 -46.5zM172 -22
q2 -23 28.5 -40t80.5 -17q56 0 85.5 27t29.5 90v64q-29 -30 -68 -45.5t-82 -15.5q-179 0 -179 184v310q0 11 7.5 18t18.5 7h48q11 0 18.5 -7t7.5 -18v-290q0 -61 22.5 -90t79.5 -29q37 0 71.5 19t55.5 45v345q0 11 7 18t18 7h49q11 0 18 -7t7 -18v-508q0 -93 -57 -140
t-153 -47q-107 0 -159 39.5t-52 96.5q0 11 6.5 17.5t17.5 6.5h47q12 0 18.5 -6.5t8.5 -15.5z" />
    <glyph glyph-name="ygrave.aalt" horiz-adv-x="563" 
d="M289 616q-26 0 -42 19l-73 87q-5 6 -1.5 13t10.5 7h62q11 0 21.5 -6t17.5 -16l55 -83q5 -7 1 -14t-13 -7h-38zM172 -22q2 -23 28.5 -40t80.5 -17q56 0 85.5 27t29.5 90v64q-29 -30 -68 -45.5t-82 -15.5q-179 0 -179 184v310q0 11 7.5 18t18.5 7h48q11 0 18.5 -7t7.5 -18
v-290q0 -61 22.5 -90t79.5 -29q37 0 71.5 19t55.5 45v345q0 11 7 18t18 7h49q11 0 18 -7t7 -18v-508q0 -93 -57 -140t-153 -47q-107 0 -159 39.5t-52 96.5q0 11 6.5 17.5t17.5 6.5h47q12 0 18.5 -6.5t8.5 -15.5z" />
    </font>
</defs>
</svg>
