<?xml version="1.0" standalone="no"?>
<!DOCTYPE svg PUBLIC "-//W3C//DTD SVG 1.1//EN" "http://www.w3.org/Graphics/SVG/1.1/DTD/svg11.dtd" >
<svg xmlns="http://www.w3.org/2000/svg" xmlns:xlink="http://www.w3.org/1999/xlink" version="1.1">
<metadata>
Created by FontForge 20141024 at Fri Jul 24 10:52:38 2015
 By Jimmy Warting
Copyright (c) 2014 eStudio Ltd - Justin biddle.  All Rights Reserved.
</metadata>
<defs>
<font id="Bigdog" horiz-adv-x="333" >
  <font-face 
    font-family="Bigdog"
    font-weight="400"
    font-stretch="normal"
    units-per-em="1000"
    panose-1="2 0 5 6 0 0 0 2 0 4"
    ascent="800"
    descent="-200"
    x-height="568"
    cap-height="709"
    bbox="-167 -207 1000 925"
    underline-thickness="68"
    underline-position="4"
    unicode-range="U+0020-2212"
  />
<missing-glyph horiz-adv-x="166" 
 />
    <glyph glyph-name=".notdef" horiz-adv-x="166" 
 />
    <glyph glyph-name="A" unicode="A" 
d="M207 237l-87 -1l-27 -236h-84l82 713h143l85 -712h-84zM163 605l-35 -300h70z" />
    <glyph glyph-name="Aacute" unicode="&#xc1;" 
d="M207 237l-87 -1l-27 -236h-84l82 713h143l85 -712h-84zM163 605l-35 -300h70zM193 925h99l-138 -171h-54z" />
    <glyph glyph-name="Acircumflex" unicode="&#xc2;" 
d="M207 237l-87 -1l-27 -236h-84l82 713h143l85 -712h-84zM163 605l-35 -300h70zM40 754l88 171h80l86 -171h-53l-72 111l-76 -111h-53z" />
    <glyph glyph-name="Adieresis" unicode="&#xc4;" 
d="M207 237l-87 -1l-27 -236h-84l82 713h143l85 -712h-84zM163 605l-35 -300h70zM52 787v97h90v-97h-90zM192 787v97h90v-97h-90z" />
    <glyph glyph-name="Agrave" unicode="&#xc0;" 
d="M207 237l-87 -1l-27 -236h-84l82 713h143l85 -712h-84zM163 605l-35 -300h70zM234 754h-54l-138 171h99z" />
    <glyph glyph-name="Aring" unicode="&#xc5;" 
d="M207 237l-87 -1l-27 -236h-84l82 713h143l85 -712h-84zM163 605l-35 -300h70zM129 832q0 -15 12 -27t26 -12t26 12t12 27t-12 27t-26 12t-26 -12t-12 -27zM84 832q0 18 6.5 33.5t17.5 27t26.5 18t32.5 6.5t32 -6.5t26.5 -18t18 -27t6.5 -33.5t-6.5 -33.5t-18 -27
t-26.5 -18t-32 -6.5t-32.5 6.5t-26.5 18t-17.5 27t-6.5 33.5z" />
    <glyph glyph-name="Atilde" unicode="&#xc3;" 
d="M207 237l-87 -1l-27 -236h-84l82 713h143l85 -712h-84zM163 605l-35 -300h70zM38 777q3 21 9 39.5t16.5 32.5t26.5 22t39 8q8 0 20.5 -3t25.5 -8q14 -4 26.5 -7.5t21.5 -3.5q21 0 30 9t14 29h8h12.5h11.5t5 -1q-2 -19 -9.5 -36.5t-20 -30.5t-29 -21t-35.5 -8
q-12 0 -25.5 3t-26.5 7t-24 7t-20 3q-17 0 -27.5 -13t-13.5 -28h-35z" />
    <glyph glyph-name="B" unicode="B" horiz-adv-x="325" 
d="M290 110q0 -26 -10 -49.5t-27.5 -41t-40.5 -27.5t-49 -10q-36 0 -64 18l-2 1h-62v710h62l2 1q29 17 64 17q26 0 49 -10t40.5 -27.5t27.5 -40.5t10 -49v-154q0 -49 -34 -86l-5 -6l5 -7q34 -36 34 -86v-153zM192 320q0 13 -8.5 21.5t-20.5 8.5q-13 0 -21.5 -8.5t-8.5 -21.5
v-249q0 -12 8.5 -21t21.5 -9q12 0 20.5 9t8.5 21v249zM192 622q0 12 -8.5 21t-20.5 9q-13 0 -21.5 -9t-8.5 -21v-213q0 -13 8.5 -21.5t21.5 -8.5q12 0 20.5 8.5t8.5 21.5v213z" />
    <glyph glyph-name="C" unicode="C" 
d="M296 107q0 -26 -10 -49.5t-27.5 -40.5t-40.5 -27t-50 -10q-26 0 -49.5 10t-40.5 27t-27 40.5t-10 49.5v490q0 26 10 49t27 40.5t40.5 27.5t49.5 10q27 0 50 -10t40.5 -27.5t27.5 -40.5t10 -49v-244l-96 95l-2 2v182q0 13 -8.5 21.5t-21.5 8.5q-12 0 -20.5 -8.5
t-8.5 -21.5v-561q0 -12 8.5 -20.5t20.5 -8.5q13 0 21.5 8.5t8.5 20.5v295l98 -98v-161z" />
    <glyph glyph-name="Ccedilla" unicode="&#xc7;" 
d="M296 107q0 -26 -10 -49.5t-27.5 -40.5t-40.5 -27t-50 -10q-26 0 -49.5 10t-40.5 27t-27 40.5t-10 49.5v490q0 26 10 49t27 40.5t40.5 27.5t49.5 10q27 0 50 -10t40.5 -27.5t27.5 -40.5t10 -49v-244l-96 95l-2 2v182q0 13 -8.5 21.5t-21.5 8.5q-12 0 -20.5 -8.5
t-8.5 -21.5v-561q0 -12 8.5 -20.5t20.5 -8.5q13 0 21.5 8.5t8.5 20.5v295l98 -98v-161zM150 -6h30l-15 -47q5 1 11.5 1.5t12.5 0.5q32 0 56.5 -17t24.5 -54q0 -25 -12 -41.5t-30.5 -26t-40.5 -13.5t-42 -4q-18 0 -33 2t-33 7q-13 3 -16.5 5.5t-2 6t6 9.5t7.5 17
q31 -13 60 -13q20 0 40 9t23 32q3 27 -12.5 38t-37.5 11q-7 0 -14.5 -0.5t-11.5 -2.5z" />
    <glyph glyph-name="D" unicode="D" horiz-adv-x="321" 
d="M287 107q0 -26 -10 -49.5t-27.5 -40.5t-41 -27t-49.5 -10q-17 0 -34.5 4.5t-32.5 14.5l-2 1h-59v710h70l2 1q26 13 56 13q26 0 49.5 -10t41 -27.5t27.5 -40.5t10 -49v-490zM189 624q0 12 -8.5 21t-21.5 9q-12 0 -21 -9t-9 -21v-561q0 -13 9 -21.5t21 -8.5q13 0 21.5 8.5
t8.5 21.5v561z" />
    <glyph glyph-name="E" unicode="E" horiz-adv-x="278" 
d="M254 626h-120v-182h91v-69h-91v-291h120v-84h-219v710h219v-84v0z" />
    <glyph glyph-name="Eacute" unicode="&#xc9;" horiz-adv-x="278" 
d="M254 626h-120v-182h91v-69h-91v-291h120v-84h-219v710h219v-84v0zM165 925h99l-138 -171h-54z" />
    <glyph glyph-name="Ecircumflex" unicode="&#xca;" horiz-adv-x="278" 
d="M254 626h-120v-182h91v-69h-91v-291h120v-84h-219v710h219v-84v0zM12 754l88 171h80l86 -171h-53l-72 111l-76 -111h-53z" />
    <glyph glyph-name="Edieresis" unicode="&#xcb;" horiz-adv-x="278" 
d="M254 626h-120v-182h91v-69h-91v-291h120v-84h-219v710h219v-84v0zM24 787v97h90v-97h-90zM164 787v97h90v-97h-90z" />
    <glyph glyph-name="Egrave" unicode="&#xc8;" horiz-adv-x="278" 
d="M254 626h-120v-182h91v-69h-91v-291h120v-84h-219v710h219v-84v0zM206 754h-54l-138 171h99z" />
    <glyph glyph-name="F" unicode="F" horiz-adv-x="278" 
d="M234 444v-69h-91v-375h-99v710h219v-84h-120v-182h91v0z" />
    <glyph glyph-name="G" unicode="G" 
d="M293 1h-62l-3 -1q-14 -9 -30 -13t-33 -4q-27 0 -50 10t-40.5 27t-27.5 40.5t-10 49.5v490q0 26 10 49t27.5 40.5t40.5 27.5t50 10q26 0 49 -10t40.5 -27.5t27.5 -40.5t10 -49v-244l-96 95q0 1 -0.5 1t-0.5 1v182q0 13 -9 21.5t-21 8.5q-13 0 -21.5 -8.5t-8.5 -21.5v-561
q0 -12 8.5 -20.5t21.5 -8.5q12 0 21 8.5t9 20.5v170h-19v143l19 -19v1l97 -98v-10h1v-260z" />
    <glyph glyph-name="H" unicode="H" 
d="M197 322q0 13 -8.5 21.5t-20.5 8.5q-13 0 -21.5 -8.5t-8.5 -21.5v-322h-90v710h90v-286q0 -12 8.5 -21t21.5 -9q12 0 20.5 9t8.5 21v286h91v-710h-91v322v0z" />
    <glyph glyph-name="I" unicode="I" horiz-adv-x="161" 
d="M29 709h99v-710h-99v710v0z" />
    <glyph glyph-name="Iacute" unicode="&#xcd;" horiz-adv-x="167" 
d="M29 709h99v-710h-99v710v0zM110 925h99l-138 -171h-54z" />
    <glyph glyph-name="Icircumflex" unicode="&#xce;" horiz-adv-x="167" 
d="M29 709h99v-710h-99v710v0zM-43 754l88 171h80l86 -171h-53l-72 111l-76 -111h-53z" />
    <glyph glyph-name="Idieresis" unicode="&#xcf;" horiz-adv-x="167" 
d="M29 709h99v-710h-99v710v0zM-31 787v97h90v-97h-90zM109 787v97h90v-97h-90z" />
    <glyph glyph-name="Igrave" unicode="&#xcc;" horiz-adv-x="167" 
d="M29 709h99v-710h-99v710v0zM151 754h-54l-138 171h99z" />
    <glyph glyph-name="J" unicode="J" horiz-adv-x="324" 
d="M285 113q0 -26 -10 -49.5t-27.5 -40.5t-40.5 -27t-49 -10q-27 0 -50 10t-40.5 27t-27.5 40.5t-10 49.5v232l97 -104v-180q0 -13 8.5 -21.5t21.5 -8.5q12 0 20.5 8.5t8.5 21.5v310v2v337h99v-597z" />
    <glyph glyph-name="K" unicode="K" 
d="M327 711l-117 -356l117 -357h-83l-115 350v-348h-99v710h99v-348l115 349h83v0z" />
    <glyph glyph-name="L" unicode="L" horiz-adv-x="272" 
d="M34 710h99v-626h120v-84h-219v710v0z" />
    <glyph glyph-name="M" unicode="M" horiz-adv-x="481" 
d="M208 0l-61 438l-20 122l1 -123v-437h-84v712h84v0h49l67 -477l66 477h49v0h85v-711h-85v436v124l-19 -123l-61 -438h-71v0z" />
    <glyph glyph-name="N" unicode="N" horiz-adv-x="376" 
d="M220 4l-81 484l-19 108v-110v-485h-84v712h133l73 -434l19 -103v105v432h84v-709h-84v0h-41v0z" />
    <glyph glyph-name="Ntilde" unicode="&#xd1;" horiz-adv-x="389" 
d="M220 4l-81 484l-19 108v-110v-485h-84v712h133l73 -434l19 -103v105v432h84v-709h-84v0h-41v0zM66 777q3 21 9 39.5t16.5 32.5t26.5 22t39 8q8 0 20.5 -3t25.5 -8q14 -4 26.5 -7.5t21.5 -3.5q21 0 30 9t14 29h8h12.5h11.5t5 -1q-2 -19 -9.5 -36.5t-20 -30.5t-29 -21
t-35.5 -8q-12 0 -25.5 3t-26.5 7t-24 7t-20 3q-17 0 -27.5 -13t-13.5 -28h-35z" />
    <glyph glyph-name="O" unicode="O" horiz-adv-x="317" 
d="M285 107q0 -26 -10 -49.5t-27.5 -40.5t-40.5 -27t-49 -10q-27 0 -50 10t-40.5 27t-27.5 40.5t-10 49.5v490q0 26 10 49t27.5 40.5t40.5 27.5t50 10q26 0 49 -10t40.5 -27.5t27.5 -40.5t10 -49v-490zM187 627q0 13 -8.5 21.5t-20.5 8.5q-13 0 -21.5 -8.5t-8.5 -21.5v-561
q0 -12 8.5 -21t21.5 -9q12 0 20.5 9t8.5 21v561z" />
    <glyph glyph-name="Oacute" unicode="&#xd3;" 
d="M285 107q0 -26 -10 -49.5t-27.5 -40.5t-40.5 -27t-49 -10q-27 0 -50 10t-40.5 27t-27.5 40.5t-10 49.5v490q0 26 10 49t27.5 40.5t40.5 27.5t50 10q26 0 49 -10t40.5 -27.5t27.5 -40.5t10 -49v-490zM187 627q0 13 -8.5 21.5t-20.5 8.5q-13 0 -21.5 -8.5t-8.5 -21.5v-561
q0 -12 8.5 -21t21.5 -9q12 0 20.5 9t8.5 21v561zM193 925h99l-138 -171h-54z" />
    <glyph glyph-name="Ocircumflex" unicode="&#xd4;" 
d="M285 107q0 -26 -10 -49.5t-27.5 -40.5t-40.5 -27t-49 -10q-27 0 -50 10t-40.5 27t-27.5 40.5t-10 49.5v490q0 26 10 49t27.5 40.5t40.5 27.5t50 10q26 0 49 -10t40.5 -27.5t27.5 -40.5t10 -49v-490zM187 627q0 13 -8.5 21.5t-20.5 8.5q-13 0 -21.5 -8.5t-8.5 -21.5v-561
q0 -12 8.5 -21t21.5 -9q12 0 20.5 9t8.5 21v561zM40 754l88 171h80l86 -171h-53l-72 111l-76 -111h-53z" />
    <glyph glyph-name="Odieresis" unicode="&#xd6;" 
d="M285 107q0 -26 -10 -49.5t-27.5 -40.5t-40.5 -27t-49 -10q-27 0 -50 10t-40.5 27t-27.5 40.5t-10 49.5v490q0 26 10 49t27.5 40.5t40.5 27.5t50 10q26 0 49 -10t40.5 -27.5t27.5 -40.5t10 -49v-490zM187 627q0 13 -8.5 21.5t-20.5 8.5q-13 0 -21.5 -8.5t-8.5 -21.5v-561
q0 -12 8.5 -21t21.5 -9q12 0 20.5 9t8.5 21v561zM52 787v97h90v-97h-90zM192 787v97h90v-97h-90z" />
    <glyph glyph-name="Ograve" unicode="&#xd2;" 
d="M285 107q0 -26 -10 -49.5t-27.5 -40.5t-40.5 -27t-49 -10q-27 0 -50 10t-40.5 27t-27.5 40.5t-10 49.5v490q0 26 10 49t27.5 40.5t40.5 27.5t50 10q26 0 49 -10t40.5 -27.5t27.5 -40.5t10 -49v-490zM187 627q0 13 -8.5 21.5t-20.5 8.5q-13 0 -21.5 -8.5t-8.5 -21.5v-561
q0 -12 8.5 -21t21.5 -9q12 0 20.5 9t8.5 21v561zM234 754h-54l-138 171h99z" />
    <glyph glyph-name="Otilde" unicode="&#xd5;" 
d="M285 107q0 -26 -10 -49.5t-27.5 -40.5t-40.5 -27t-49 -10q-27 0 -50 10t-40.5 27t-27.5 40.5t-10 49.5v490q0 26 10 49t27.5 40.5t40.5 27.5t50 10q26 0 49 -10t40.5 -27.5t27.5 -40.5t10 -49v-490zM187 627q0 13 -8.5 21.5t-20.5 8.5q-13 0 -21.5 -8.5t-8.5 -21.5v-561
q0 -12 8.5 -21t21.5 -9q12 0 20.5 9t8.5 21v561zM38 777q3 21 9 39.5t16.5 32.5t26.5 22t39 8q8 0 20.5 -3t25.5 -8q14 -4 26.5 -7.5t21.5 -3.5q21 0 30 9t14 29h8h12.5h11.5t5 -1q-2 -19 -9.5 -36.5t-20 -30.5t-29 -21t-35.5 -8q-12 0 -25.5 3t-26.5 7t-24 7t-20 3
q-17 0 -27.5 -13t-13.5 -28h-35z" />
    <glyph glyph-name="P" unicode="P" horiz-adv-x="315" 
d="M285 380q0 -26 -10 -49.5t-27.5 -40.5t-40.5 -27t-49 -10h-9t-9 1l-11 1v-252h-99v710h65l2 1q28 15 61 15q26 0 49 -10t40.5 -27.5t27.5 -40.5t10 -49v-222zM187 632q0 12 -8.5 20.5t-20.5 8.5q-13 0 -21.5 -8.5t-8.5 -20.5v-282q0 -12 8.5 -21t21.5 -9q12 0 20.5 9
t8.5 21v282z" />
    <glyph glyph-name="Q" unicode="Q" horiz-adv-x="319" 
d="M309 23q6 -6 6 -14.5t-6 -14.5t-15 -6q-8 0 -14 6l-28 27l-6 -6q-18 -17 -41 -26t-47 -9q-27 0 -50 10t-40.5 27t-27.5 40.5t-10 49.5v490q0 26 10 49t27.5 40.5t40.5 27.5t50 10q26 0 49 -10t40.5 -27.5t27.5 -40.5t10 -49v-490q0 -22 -8 -44l-2 -5zM187 86l-59 60v-80
q0 -12 8.5 -21t21.5 -9q12 0 20.5 9t8.5 21v20zM187 627q0 13 -8.5 21.5t-20.5 8.5q-13 0 -21.5 -8.5t-8.5 -21.5v-422l59 -60v482z" />
    <glyph glyph-name="R" unicode="R" horiz-adv-x="324" 
d="M192 303q0 13 -8.5 21.5t-20.5 8.5q-13 0 -21.5 -8.5t-8.5 -21.5v-304h-98v711h63l3 1q29 16 62 16q26 0 49 -10t40.5 -27.5t27.5 -40.5t10 -50v-153q0 -27 -11 -52t-31 -43l-8 -7l8 -7q20 -18 31 -42.5t11 -51.5v-244h-98v304zM133 409q0 -13 8.5 -21.5t21.5 -8.5
q12 0 20.5 8.5t8.5 21.5v213q0 13 -8.5 21.5t-20.5 8.5q-13 0 -21.5 -8.5t-8.5 -21.5v-213z" />
    <glyph glyph-name="S" unicode="S" horiz-adv-x="324" 
d="M297 110q0 -27 -10.5 -51t-28.5 -42t-42 -28.5t-51 -10.5q-28 0 -52 10.5t-42 28.5t-28.5 42t-10.5 51v210l99 -99v-171q0 -12 8.5 -21t21.5 -9q12 0 20.5 9t8.5 21v196l-158 158v184q0 27 10.5 51t28.5 42t42 28.5t52 10.5q27 0 51 -10.5t42 -28.5t28.5 -42t10.5 -51
v-220l-104 104v162q0 12 -8.5 21t-20.5 9q-13 0 -21.5 -9t-8.5 -21v-187l163 -163v-174z" />
    <glyph glyph-name="Scaron" unicode="&#x160;" 
d="M297 110q0 -27 -10.5 -51t-28.5 -42t-42 -28.5t-51 -10.5q-28 0 -52 10.5t-42 28.5t-28.5 42t-10.5 51v210l99 -99v-171q0 -12 8.5 -21t21.5 -9q12 0 20.5 9t8.5 21v196l-158 158v184q0 27 10.5 51t28.5 42t42 28.5t52 10.5q27 0 51 -10.5t42 -28.5t28.5 -42t10.5 -51
v-220l-104 104v162q0 12 -8.5 21t-20.5 9q-13 0 -21.5 -9t-8.5 -21v-187l163 -163v-174zM128 754l-88 171h53l75 -111l73 111h53l-86 -171h-80z" />
    <glyph glyph-name="T" unicode="T" horiz-adv-x="315" 
d="M304 712v-85h-98v-627h-99v627h-98v85h295v0z" />
    <glyph glyph-name="U" unicode="U" horiz-adv-x="324" 
d="M287 119q0 -27 -10 -50t-27.5 -40.5t-40.5 -27.5t-49 -10q-27 0 -50 10t-40.5 27.5t-27.5 40.5t-10 50v592h98v-633q0 -12 8.5 -21t21.5 -9q12 0 20.5 9t8.5 21v633h98v-592z" />
    <glyph glyph-name="Uacute" unicode="&#xda;" 
d="M287 119q0 -27 -10 -50t-27.5 -40.5t-40.5 -27.5t-49 -10q-27 0 -50 10t-40.5 27.5t-27.5 40.5t-10 50v592h98v-633q0 -12 8.5 -21t21.5 -9q12 0 20.5 9t8.5 21v633h98v-592zM193 925h99l-138 -171h-54z" />
    <glyph glyph-name="Ucircumflex" unicode="&#xdb;" 
d="M287 119q0 -27 -10 -50t-27.5 -40.5t-40.5 -27.5t-49 -10q-27 0 -50 10t-40.5 27.5t-27.5 40.5t-10 50v592h98v-633q0 -12 8.5 -21t21.5 -9q12 0 20.5 9t8.5 21v633h98v-592zM40 754l88 171h80l86 -171h-53l-72 111l-76 -111h-53z" />
    <glyph glyph-name="Udieresis" unicode="&#xdc;" 
d="M287 119q0 -27 -10 -50t-27.5 -40.5t-40.5 -27.5t-49 -10q-27 0 -50 10t-40.5 27.5t-27.5 40.5t-10 50v592h98v-633q0 -12 8.5 -21t21.5 -9q12 0 20.5 9t8.5 21v633h98v-592zM52 787v97h90v-97h-90zM192 787v97h90v-97h-90z" />
    <glyph glyph-name="Ugrave" unicode="&#xd9;" 
d="M287 119q0 -27 -10 -50t-27.5 -40.5t-40.5 -27.5t-49 -10q-27 0 -50 10t-40.5 27.5t-27.5 40.5t-10 50v592h98v-633q0 -12 8.5 -21t21.5 -9q12 0 20.5 9t8.5 21v633h98v-592zM234 754h-54l-138 171h99z" />
    <glyph glyph-name="V" unicode="V" 
d="M233 713h84l-83 -712h-143l-83 712h84l71 -604l70 604v0z" />
    <glyph glyph-name="W" unicode="W" horiz-adv-x="481" 
d="M395 710h84l-83 -708h-84v0h-3l-68 555l-69 -555h-3v0h-84l-83 708h84l57 -483l59 483h77l60 -481l56 481v0z" />
    <glyph glyph-name="X" unicode="X" 
d="M326 710l-118 -355l118 -355h-84l-75 229l-76 -229h-84l118 355l-118 355h84l76 -229l75 229h84v0z" />
    <glyph glyph-name="Y" unicode="Y" 
d="M327 710l-112 -444v-266h-99v266l-111 444h83l78 -307l77 307h84v0z" />
    <glyph glyph-name="Yacute" unicode="&#xdd;" 
d="M327 710l-112 -444v-266h-99v266l-111 444h83l78 -307l77 307h84v0zM193 925h99l-138 -171h-54z" />
    <glyph glyph-name="Ydieresis" unicode="&#x178;" 
d="M327 710l-112 -444v-266h-99v266l-111 444h83l78 -307l77 307h84v0zM52 787v97h90v-97h-90zM192 787v97h90v-97h-90z" />
    <glyph glyph-name="Z" unicode="Z" horiz-adv-x="305" 
d="M129 262v-206q0 -12 8.5 -20.5t21.5 -8.5q12 0 20.5 8.5t8.5 20.5v181l99 99v-336h-265v290l163 163v187q0 12 -8.5 21t-20.5 9q-13 0 -21.5 -9t-8.5 -21v-162l-104 -104v338h265v-292z" />
    <glyph glyph-name="Zcaron" unicode="&#x17d;" horiz-adv-x="259" 
d="M129 262v-206q0 -12 8.5 -20.5t21.5 -8.5q12 0 20.5 8.5t8.5 20.5v181l99 99v-336h-265v290l163 163v187q0 12 -8.5 21t-20.5 9q-13 0 -21.5 -9t-8.5 -21v-162l-104 -104v338h265v-292zM91 754l-88 171h53l75 -111l73 111h53l-86 -171h-80z" />
    <glyph glyph-name="a" unicode="a" horiz-adv-x="259" 
d="M230 1h-49l-2 -1q-22 -13 -51 -13q-21 0 -39 8t-32 21.5t-22 32t-8 39.5v127l124 141v150q0 10 -6.5 16.5t-16.5 6.5q-9 0 -15.5 -6.5t-6.5 -16.5v-133l-79 -89v194q0 21 8 39.5t22 32t32 21.5t39 8t39.5 -8t32.5 -21.5t22 -32t8 -39.5v-477zM151 223q0 9 -6.5 16
t-16.5 7q-9 0 -15.5 -7t-6.5 -16v-163q0 -10 6.5 -16.5t15.5 -6.5q10 0 16.5 6.5t6.5 16.5v163z" />
    <glyph glyph-name="aacute" unicode="&#xe1;" horiz-adv-x="278" 
d="M230 1h-49l-2 -1q-22 -13 -51 -13q-21 0 -39 8t-32 21.5t-22 32t-8 39.5v127l124 141v150q0 10 -6.5 16.5t-16.5 6.5q-9 0 -15.5 -6.5t-6.5 -16.5v-133l-79 -89v194q0 21 8 39.5t22 32t32 21.5t39 8t39.5 -8t32.5 -21.5t22 -32t8 -39.5v-477zM151 223q0 9 -6.5 16
t-16.5 7q-9 0 -15.5 -7t-6.5 -16v-163q0 -10 6.5 -16.5t15.5 -6.5q10 0 16.5 6.5t6.5 16.5v163zM165 804h99l-138 -171h-54z" />
    <glyph glyph-name="acircumflex" unicode="&#xe2;" horiz-adv-x="278" 
d="M230 1h-49l-2 -1q-22 -13 -51 -13q-21 0 -39 8t-32 21.5t-22 32t-8 39.5v127l124 141v150q0 10 -6.5 16.5t-16.5 6.5q-9 0 -15.5 -6.5t-6.5 -16.5v-133l-79 -89v194q0 21 8 39.5t22 32t32 21.5t39 8t39.5 -8t32.5 -21.5t22 -32t8 -39.5v-477zM151 223q0 9 -6.5 16
t-16.5 7q-9 0 -15.5 -7t-6.5 -16v-163q0 -10 6.5 -16.5t15.5 -6.5q10 0 16.5 6.5t6.5 16.5v163zM12 633l88 171h80l86 -171h-53l-72 111l-76 -111h-53z" />
    <glyph glyph-name="acute" unicode="&#xb4;" horiz-adv-x="148" 
d="M100 804h99l-138 -171h-54z" />
    <glyph glyph-name="adieresis" unicode="&#xe4;" horiz-adv-x="278" 
d="M230 1h-49l-2 -1q-22 -13 -51 -13q-21 0 -39 8t-32 21.5t-22 32t-8 39.5v127l124 141v150q0 10 -6.5 16.5t-16.5 6.5q-9 0 -15.5 -6.5t-6.5 -16.5v-133l-79 -89v194q0 21 8 39.5t22 32t32 21.5t39 8t39.5 -8t32.5 -21.5t22 -32t8 -39.5v-477zM151 223q0 9 -6.5 16
t-16.5 7q-9 0 -15.5 -7t-6.5 -16v-163q0 -10 6.5 -16.5t15.5 -6.5q10 0 16.5 6.5t6.5 16.5v163zM24 666v97h90v-97h-90zM164 666v97h90v-97h-90z" />
    <glyph glyph-name="agrave" unicode="&#xe0;" horiz-adv-x="278" 
d="M230 1h-49l-2 -1q-22 -13 -51 -13q-21 0 -39 8t-32 21.5t-22 32t-8 39.5v127l124 141v150q0 10 -6.5 16.5t-16.5 6.5q-9 0 -15.5 -6.5t-6.5 -16.5v-133l-79 -89v194q0 21 8 39.5t22 32t32 21.5t39 8t39.5 -8t32.5 -21.5t22 -32t8 -39.5v-477zM151 223q0 9 -6.5 16
t-16.5 7q-9 0 -15.5 -7t-6.5 -16v-163q0 -10 6.5 -16.5t15.5 -6.5q10 0 16.5 6.5t6.5 16.5v163zM206 633h-54l-138 171h99z" />
    <glyph glyph-name="ampersand" unicode="&#x26;" horiz-adv-x="389" 
d="M182 -7q-26 0 -48.5 11.5t-39.5 31t-27 45.5t-10 56v173q0 30 10 57.5t30 47.5l5 5l-4 7q-18 27 -18 61v132q0 22 7.5 42t21 34.5t31.5 23t39 8.5t39 -8.5t31.5 -23t21 -34.5t7.5 -42v-132q0 -31 -15 -58l-4 -6l5 -5q21 -21 32 -49t11 -60v-173v-14t-2 -14l-1 -3l68 -107
h-98l-15 24l-8 -6q-32 -24 -69 -24zM212 325q0 13 -9 21.5t-21 8.5t-21 -9l-5 -5l56 -88v72zM153 463q0 -12 8.5 -20.5t20.5 -8.5t21 8.5t9 20.5v160q0 12 -9 20.5t-21 8.5t-20.5 -8.5t-8.5 -20.5v-160zM153 80q0 -12 8.5 -20.5t20.5 -8.5t21 8.5t9 20.5v18l-59 94v-112z
" />
    <glyph glyph-name="aring" unicode="&#xe5;" horiz-adv-x="278" 
d="M230 1h-49l-2 -1q-22 -13 -51 -13q-21 0 -39 8t-32 21.5t-22 32t-8 39.5v127l124 141v150q0 10 -6.5 16.5t-16.5 6.5q-9 0 -15.5 -6.5t-6.5 -16.5v-133l-79 -89v194q0 21 8 39.5t22 32t32 21.5t39 8t39.5 -8t32.5 -21.5t22 -32t8 -39.5v-477zM151 223q0 9 -6.5 16
t-16.5 7q-9 0 -15.5 -7t-6.5 -16v-163q0 -10 6.5 -16.5t15.5 -6.5q10 0 16.5 6.5t6.5 16.5v163zM101 711q0 -15 12 -27t26 -12t26 12t12 27t-12 27t-26 12t-26 -12t-12 -27zM56 711q0 18 6.5 33.5t17.5 27t26.5 18t32.5 6.5t32 -6.5t26.5 -18t18 -27t6.5 -33.5t-6.5 -33.5
t-18 -27t-26.5 -18t-32 -6.5t-32.5 6.5t-26.5 18t-17.5 27t-6.5 33.5z" />
    <glyph glyph-name="asciicircum" unicode="^" horiz-adv-x="500" 
d="M10 308l199 404h82l199 -404h-90l-150 312l-150 -312h-90z" />
    <glyph glyph-name="asciitilde" unicode="~" horiz-adv-x="500" 
d="M481 295q-11 -16 -23.5 -31.5t-27 -27.5t-33 -19.5t-41.5 -7.5q-30 0 -56.5 10.5t-52 23.5t-52 23.5t-56.5 10.5q-17 0 -29.5 -6.5t-23 -16.5t-18 -23t-13.5 -26l-36 70q8 16 19.5 31.5t26.5 27.5t34.5 19.5t44.5 7.5q28 0 57.5 -10.5t57.5 -23.5t53.5 -23.5t44.5 -10.5
q15 0 27.5 6.5t23 16.5t19.5 23l18 26z" />
    <glyph glyph-name="asterisk" unicode="*" horiz-adv-x="315" 
d="M156 537l-63 -83l-45 31l67 81l-100 48l22 43l94 -42v97h52v-96l95 41l22 -43l-103 -47l69 -82l-45 -31z" />
    <glyph glyph-name="at" unicode="@" horiz-adv-x="800" 
d="M501 543q0 19 -7.5 36.5t-20.5 30.5t-30.5 20.5t-36.5 7.5q-20 0 -37 -7.5t-30 -20.5t-20.5 -30.5t-7.5 -36.5v-182l73 83v125q0 9 6.5 15.5t15.5 6.5t15 -6.5t6 -15.5v-141l-116 -132v-119q0 -20 7.5 -37t20.5 -30t30 -20.5t37 -7.5q24 0 48 13l1 1h46v447zM427 151
q0 -9 -6 -15.5t-15 -6.5t-15.5 6.5t-6.5 15.5v153q0 9 6.5 15t15.5 6t15 -6t6 -15v-153zM414 14q-69 0 -132 26t-113 75q-49 50 -75 113t-26 132q0 70 26 133t75 112q50 50 113 76t132 26q62 0 119.5 -22.5t105.5 -64.5q45 -40 72 -90t32 -101q4 -42 -8.5 -80t-41.5 -69
q-62 -68 -189 -91q-10 -2 -18 3.5t-10 15.5t4 18t16 10q102 18 154 67.5t46 121.5q-4 42 -27 83.5t-61 75.5q-42 36 -91.5 55.5t-102.5 19.5q-62 0 -116.5 -23.5t-95 -64t-64 -95t-23.5 -116.5t23.5 -116.5t64 -95t95 -64t116.5 -23.5q57 0 108.5 20.5t93.5 58.5
q8 7 15 14.5t14 15.5q6 8 15.5 9t17.5 -6q8 -6 9 -15.5t-5 -17.5q-8 -9 -16.5 -18t-16.5 -17q-48 -45 -108.5 -68t-126.5 -23z" />
    <glyph glyph-name="atilde" unicode="&#xe3;" horiz-adv-x="278" 
d="M230 1h-49l-2 -1q-22 -13 -51 -13q-21 0 -39 8t-32 21.5t-22 32t-8 39.5v127l124 141v150q0 10 -6.5 16.5t-16.5 6.5q-9 0 -15.5 -6.5t-6.5 -16.5v-133l-79 -89v194q0 21 8 39.5t22 32t32 21.5t39 8t39.5 -8t32.5 -21.5t22 -32t8 -39.5v-477zM151 223q0 9 -6.5 16
t-16.5 7q-9 0 -15.5 -7t-6.5 -16v-163q0 -10 6.5 -16.5t15.5 -6.5q10 0 16.5 6.5t6.5 16.5v163zM10 656q3 21 9 39.5t16.5 32.5t26.5 22t39 8q8 0 20.5 -3t25.5 -8q14 -4 26.5 -7.5t21.5 -3.5q21 0 30 9t14 29h8h12.5h11.5t5 -1q-2 -19 -9.5 -36.5t-20 -30.5t-29 -21
t-35.5 -8q-12 0 -25.5 3t-26.5 7t-24 7t-20 3q-17 0 -27.5 -13t-13.5 -28h-35z" />
    <glyph glyph-name="b" unicode="b" horiz-adv-x="253" 
d="M226 85q0 -21 -8 -39.5t-22 -32t-32 -21.5t-39 -8q-29 0 -51 13l-2 1h-49v714h73v-140l9 2q5 1 10 1.5t10 0.5q21 0 39 -8t32 -21.5t22 -32t8 -39.5v-390zM147 503q0 10 -6.5 16.5t-15.5 6.5q-10 0 -16.5 -6.5t-6.5 -16.5v-446q0 -10 6.5 -16.5t16.5 -6.5q9 0 15.5 6.5
t6.5 16.5v446z" />
    <glyph glyph-name="backslash" unicode="\" horiz-adv-x="278" 
d="M-3 726l338 -740h-56l-336 740h54z" />
    <glyph glyph-name="bar" unicode="|" horiz-adv-x="222" 
d="M67 712h88v-712h-88v712z" />
    <glyph glyph-name="braceleft" unicode="{" 
d="M37 340q15 0 30.5 6t27.5 18t20 29t8 38v167q0 28 11 49.5t27.5 35.5t36.5 21.5t38 7.5h78v-70h-53q-15 0 -25 -6t-15.5 -15t-7.5 -19t-2 -19v-164q0 -30 -10.5 -50t-25.5 -33t-30.5 -19t-24.5 -7v-2q9 -2 24.5 -7t30.5 -18t25.5 -34t10.5 -54v-163q0 -25 9.5 -42
t40.5 -17h53v-70h-78q-18 0 -38 7.5t-36.5 21.5t-27.5 35.5t-11 49.5v166q0 23 -8 41t-20 30t-27.5 18t-30.5 6v62z" />
    <glyph glyph-name="braceright" unicode="}" 
d="M19 -27h53q15 0 25 6t15.5 15t7.5 19t2 19v164q0 30 10.5 50t25.5 33t30.5 18.5t24.5 7.5v2q-9 1 -24.5 6.5t-30.5 18.5t-25.5 34t-10.5 54v163q0 25 -9.5 42t-40.5 17h-53v70h78q18 0 38 -7.5t36.5 -21.5t27.5 -35.5t11 -49.5v-166q0 -23 8 -41t20 -30t27.5 -18t30.5 -6
v-62q-15 0 -30.5 -6t-27.5 -18t-20 -29t-8 -38v-167q0 -28 -11 -49.5t-27.5 -35.5t-36.5 -21.5t-38 -7.5h-78v70z" />
    <glyph glyph-name="bracketleft" unicode="[" horiz-adv-x="222" 
d="M30 -97v809h178v-70h-90v-669h90v-70h-178z" />
    <glyph glyph-name="bracketright" unicode="]" horiz-adv-x="222" 
d="M14 -27h90v669h-90v70h178v-809h-178v70z" />
    <glyph glyph-name="breve" unicode="&#x2d8;" horiz-adv-x="148" 
d="M-18 778q5 -38 26.5 -52t56.5 -14q20 0 38 1t32.5 7.5t23.5 20t11 37.5h29q1 -56 -33 -91t-91 -35q-58 0 -90 34.5t-35 91.5h32z" />
    <glyph glyph-name="brokenbar" unicode="&#xa6;" horiz-adv-x="222" 
d="M67 266h88v-266h-88v266zM67 712h88v-266h-88v266z" />
    <glyph glyph-name="bullet" unicode="&#x2022;" horiz-adv-x="500" 
d="M425 350q0 -36 -13.5 -68t-37.5 -56t-56 -37.5t-68 -13.5t-68 13.5t-56 37t-37.5 55.5t-13.5 69q0 36 13.5 68t37 56t55.5 37.5t69 13.5q36 0 68 -13.5t56 -37.5t37.5 -56t13.5 -68z" />
    <glyph glyph-name="c" unicode="c" horiz-adv-x="249" 
d="M226 91q0 -21 -8 -39.5t-21.5 -32t-32 -21.5t-39.5 -8t-39.5 8t-32 21.5t-21.5 32t-8 39.5v390q0 21 8 39.5t21.5 32t32 21.5t39.5 8t39.5 -8t32 -21.5t21.5 -32t8 -39.5v-196l-77 77q0 1 -1 1v146q0 10 -6.5 16.5t-16.5 6.5t-16.5 -6.5t-6.5 -16.5v-446q0 -10 6.5 -16.5
t16.5 -6.5t16.5 6.5t6.5 16.5v236l78 -78v-130z" />
    <glyph glyph-name="caron" unicode="&#x2c7;" horiz-adv-x="148" 
d="M35 633l-88 171h53l75 -111l73 111h53l-86 -171h-80z" />
    <glyph glyph-name="ccedilla" unicode="&#xe7;" horiz-adv-x="278" 
d="M226 91q0 -21 -8 -39.5t-21.5 -32t-32 -21.5t-39.5 -8t-39.5 8t-32 21.5t-21.5 32t-8 39.5v390q0 21 8 39.5t21.5 32t32 21.5t39.5 8t39.5 -8t32 -21.5t21.5 -32t8 -39.5v-196l-77 77q0 1 -1 1v146q0 10 -6.5 16.5t-16.5 6.5t-16.5 -6.5t-6.5 -16.5v-446q0 -10 6.5 -16.5
t16.5 -6.5t16.5 6.5t6.5 16.5v236l78 -78v-130zM122 -6h30l-15 -47q5 1 11.5 1.5t12.5 0.5q32 0 56.5 -17t24.5 -54q0 -25 -12 -41.5t-30.5 -26t-40.5 -13.5t-42 -4q-18 0 -33 2t-33 7q-13 3 -16.5 5.5t-2 6t6 9.5t7.5 17q31 -13 60 -13q20 0 40 9t23 32q3 27 -12.5 38
t-37.5 11q-7 0 -14.5 -0.5t-11.5 -2.5z" />
    <glyph glyph-name="cedilla" unicode="&#xb8;" horiz-adv-x="148" 
d="M57 -6h30l-15 -47q5 1 11.5 1.5t12.5 0.5q32 0 56.5 -17t24.5 -54q0 -25 -12 -41.5t-30.5 -26t-40.5 -13.5t-42 -4q-18 0 -33 2t-33 7q-13 3 -16.5 5.5t-2 6t6 9.5t7.5 17q31 -13 60 -13q20 0 40 9t23 32q3 27 -12.5 38t-37.5 11q-7 0 -14.5 -0.5t-11.5 -2.5z" />
    <glyph glyph-name="circumflex" unicode="&#x2c6;" horiz-adv-x="148" 
d="M-53 633l88 171h80l86 -171h-53l-72 111l-76 -111h-53z" />
    <glyph glyph-name="colon" unicode=":" horiz-adv-x="166" 
d="M33 0v111h100v-111h-100zM33 410v111h100v-111h-100z" />
    <glyph glyph-name="comma" unicode="," horiz-adv-x="166" 
d="M15 -125l32 236h100l-73 -236h-59z" />
    <glyph glyph-name="copyright" unicode="&#xa9;" horiz-adv-x="800" 
d="M400 -14q-75 0 -143.5 26.5t-120.5 75.5t-83 117t-31 151t31 151t83 117t120.5 75.5t143.5 26.5t143.5 -26.5t120.5 -75.5t83 -117t31 -151t-31 -151t-83 -117t-120.5 -75.5t-143.5 -26.5zM112 356q0 -65 22.5 -119.5t61.5 -94.5t91.5 -62t112.5 -22t112.5 22t91.5 62
t61.5 94.5t22.5 119.5t-22.5 119.5t-61.5 94.5t-91.5 62t-112.5 22t-112.5 -22t-91.5 -62t-61.5 -94.5t-22.5 -119.5zM502 213q0 -21 -8 -39.5t-21.5 -32t-32 -21.5t-39.5 -8t-39.5 8t-32 21.5t-21.5 32t-8 39.5v282q0 21 8 39.5t21.5 32t32 21.5t39.5 8t39.5 -8t32 -21.5
t21.5 -32t8 -39.5v-142l-77 77q0 1 -1 1v92q0 10 -6.5 16.5t-16.5 6.5t-16.5 -6.5t-6.5 -16.5v-338q0 -10 6.5 -16.5t16.5 -6.5t16.5 6.5t6.5 16.5v182l78 -78v-76z" />
    <glyph glyph-name="currency" unicode="&#xa4;" 
d="M57 313q-28 32 -28 81q0 23 6.5 44.5t21.5 36.5l-32 32l28 29l32 -31q15 13 37.5 20t45.5 7t43.5 -7t34.5 -20l34 31l29 -29l-31 -31q13 -15 19.5 -36.5t6.5 -44.5t-6.5 -44.5t-19.5 -37.5l31 -31l-29 -29l-31 32q-15 -14 -36.5 -21t-44.5 -7q-25 0 -46.5 7t-37.5 21
l-31 -32l-28 29zM168 303q38 0 62.5 27t24.5 65q0 18 -6.5 34.5t-18.5 29t-28 20t-34 7.5q-38 0 -64 -27t-26 -65q0 -19 7 -35.5t19 -29t28.5 -19.5t35.5 -7z" />
    <glyph glyph-name="d" unicode="d" horiz-adv-x="257" 
d="M228 0h-49l-2 -1q-22 -13 -50 -13q-21 0 -39.5 8t-32.5 21.5t-22 32t-8 39.5v390q0 21 8 39.5t22 32t32.5 21.5t39.5 8q5 0 9.5 -0.5t9.5 -1.5l9 -2v140h73v-714zM149 505q0 10 -6.5 16.5t-15.5 6.5q-10 0 -16.5 -6.5t-6.5 -16.5v-446q0 -10 6.5 -16.5t16.5 -6.5
q9 0 15.5 6.5t6.5 16.5v446z" />
    <glyph glyph-name="dagger" unicode="&#x2020;" 
d="M216 409v-525h-99v525h-107v85h107v218h99v-218h107v-85h-107z" />
    <glyph glyph-name="daggerdbl" unicode="&#x2021;" 
d="M117 501v211h99v-211h107v-85h-107v-239h107v-85h-107v-208h-99v208h-107v85h107v239h-107v85h107z" />
    <glyph glyph-name="degree" unicode="&#xb0;" horiz-adv-x="400" 
d="M200 469q41 0 67 28t26 69t-26 69t-67 28t-67 -28t-26 -69t26 -69t67 -28zM200 420q-30 0 -56.5 11.5t-46.5 31.5t-31.5 46.5t-11.5 56.5t11.5 56.5t31.5 46.5t46.5 31.5t56.5 11.5t56.5 -11.5t46.5 -31.5t31.5 -46.5t11.5 -56.5t-11.5 -56.5t-31.5 -46.5t-46.5 -31.5
t-56.5 -11.5z" />
    <glyph glyph-name="dieresis" unicode="&#xa8;" horiz-adv-x="148" 
d="M-41 666v97h90v-97h-90zM99 666v97h90v-97h-90z" />
    <glyph glyph-name="divide" unicode="&#xf7;" horiz-adv-x="500" 
d="M5 242v88h490v-88h-490zM176 495q0 32 22.5 54.5t54.5 22.5q15 0 28.5 -6.5t24 -17t17 -24.5t6.5 -29q0 -14 -6 -28t-16.5 -24.5t-24 -17t-28.5 -6.5q-16 0 -30.5 6t-25 16.5t-16.5 24.5t-6 29zM176 77q0 32 22.5 54t54.5 22q30 0 53 -22.5t23 -53.5q0 -14 -6 -28
t-16.5 -25t-24 -17.5t-28.5 -6.5q-16 0 -30.5 6.5t-25 17t-16.5 24.5t-6 29z" />
    <glyph glyph-name="dollar" unicode="$" 
d="M260 41q-17 -18 -39 -28.5t-46 -12.5l-9 -1v-42q0 -11 -11 -11q-10 0 -10 11v43l-8 2q-44 9 -74 45q-14 17 -21.5 38.5t-7.5 44.5v206l97 -97v-168q0 -12 8.5 -21t20.5 -9q13 0 21.5 9t8.5 21v192l-156 156v180q0 49 32 86q15 18 36 29t44 15l8 1v49q0 10 10 10
q11 0 11 -10v-49l8 -1q48 -8 80 -44q15 -18 23.5 -40t8.5 -46v-215l-102 102v159q0 12 -8.5 20.5t-21.5 8.5q-12 0 -20.5 -8.5t-8.5 -20.5v-184l161 -160v-171q0 -51 -35 -89z" />
    <glyph glyph-name="dotaccent" unicode="&#x2d9;" horiz-adv-x="148" 
d="M29 666v97h90v-97h-90z" />
    <glyph glyph-name="dotlessi" unicode="&#x131;" horiz-adv-x="148" 
d="M26 0v572h96v-572h-96z" />
    <glyph glyph-name="e" unicode="e" horiz-adv-x="252" 
d="M226 85q0 -21 -8 -39.5t-21.5 -32t-32 -21.5t-39.5 -8t-39.5 8t-32 21.5t-21.5 32t-8 39.5v390q0 21 8 39.5t21.5 32t32 21.5t39.5 8t39.5 -8t32 -21.5t21.5 -32t8 -39.5v-305l-124 124v-237q0 -10 6.5 -16.5t16.5 -6.5q9 0 16 6.5t7 16.5v127l78 -78v-21zM102 340
q0 -10 6.5 -16.5t16.5 -6.5q9 0 16 6.5t7 16.5v163q0 10 -7 16.5t-16 6.5q-10 0 -16.5 -6.5t-6.5 -16.5v-163z" />
    <glyph glyph-name="eacute" unicode="&#xe9;" horiz-adv-x="278" 
d="M226 85q0 -21 -8 -39.5t-21.5 -32t-32 -21.5t-39.5 -8t-39.5 8t-32 21.5t-21.5 32t-8 39.5v390q0 21 8 39.5t21.5 32t32 21.5t39.5 8t39.5 -8t32 -21.5t21.5 -32t8 -39.5v-305l-124 124v-237q0 -10 6.5 -16.5t16.5 -6.5q9 0 16 6.5t7 16.5v127l78 -78v-21zM102 340
q0 -10 6.5 -16.5t16.5 -6.5q9 0 16 6.5t7 16.5v163q0 10 -7 16.5t-16 6.5q-10 0 -16.5 -6.5t-6.5 -16.5v-163zM165 804h99l-138 -171h-54z" />
    <glyph glyph-name="ecircumflex" unicode="&#xea;" horiz-adv-x="278" 
d="M226 85q0 -21 -8 -39.5t-21.5 -32t-32 -21.5t-39.5 -8t-39.5 8t-32 21.5t-21.5 32t-8 39.5v390q0 21 8 39.5t21.5 32t32 21.5t39.5 8t39.5 -8t32 -21.5t21.5 -32t8 -39.5v-305l-124 124v-237q0 -10 6.5 -16.5t16.5 -6.5q9 0 16 6.5t7 16.5v127l78 -78v-21zM102 340
q0 -10 6.5 -16.5t16.5 -6.5q9 0 16 6.5t7 16.5v163q0 10 -7 16.5t-16 6.5q-10 0 -16.5 -6.5t-6.5 -16.5v-163zM12 633l88 171h80l86 -171h-53l-72 111l-76 -111h-53z" />
    <glyph glyph-name="edieresis" unicode="&#xeb;" horiz-adv-x="278" 
d="M226 85q0 -21 -8 -39.5t-21.5 -32t-32 -21.5t-39.5 -8t-39.5 8t-32 21.5t-21.5 32t-8 39.5v390q0 21 8 39.5t21.5 32t32 21.5t39.5 8t39.5 -8t32 -21.5t21.5 -32t8 -39.5v-305l-124 124v-237q0 -10 6.5 -16.5t16.5 -6.5q9 0 16 6.5t7 16.5v127l78 -78v-21zM102 340
q0 -10 6.5 -16.5t16.5 -6.5q9 0 16 6.5t7 16.5v163q0 10 -7 16.5t-16 6.5q-10 0 -16.5 -6.5t-6.5 -16.5v-163zM24 666v97h90v-97h-90zM164 666v97h90v-97h-90z" />
    <glyph glyph-name="egrave" unicode="&#xe8;" horiz-adv-x="278" 
d="M226 85q0 -21 -8 -39.5t-21.5 -32t-32 -21.5t-39.5 -8t-39.5 8t-32 21.5t-21.5 32t-8 39.5v390q0 21 8 39.5t21.5 32t32 21.5t39.5 8t39.5 -8t32 -21.5t21.5 -32t8 -39.5v-305l-124 124v-237q0 -10 6.5 -16.5t16.5 -6.5q9 0 16 6.5t7 16.5v127l78 -78v-21zM102 340
q0 -10 6.5 -16.5t16.5 -6.5q9 0 16 6.5t7 16.5v163q0 10 -7 16.5t-16 6.5q-10 0 -16.5 -6.5t-6.5 -16.5v-163zM206 633h-54l-138 171h99z" />
    <glyph glyph-name="eight" unicode="8" 
d="M294 118q0 -26 -10 -49.5t-27.5 -41t-40.5 -27.5t-49 -10q-27 0 -50 10t-40.5 27.5t-27.5 41t-10 49.5v153q0 50 34 86l6 7l-6 6q-34 37 -34 86v154q0 26 10 49t27.5 40.5t40.5 27.5t50 10q26 0 49 -10t40.5 -27.5t27.5 -40.5t10 -49v-154q0 -49 -34 -86l-5 -6l5 -7
q34 -36 34 -86v-153zM196 328q0 13 -8.5 21.5t-20.5 8.5q-13 0 -21.5 -8.5t-8.5 -21.5v-249q0 -12 8.5 -21t21.5 -9q12 0 20.5 9t8.5 21v249zM196 630q0 12 -8.5 21t-20.5 9q-13 0 -21.5 -9t-8.5 -21v-213q0 -13 8.5 -21.5t21.5 -8.5q12 0 20.5 8.5t8.5 21.5v213z" />
    <glyph glyph-name="emdash" unicode="&#x2014;" horiz-adv-x="1000" 
d="M0 333h1000v-67h-1000v67z" />
    <glyph glyph-name="endash" unicode="&#x2013;" horiz-adv-x="500" 
d="M0 266v67h500v-67h-500z" />
    <glyph glyph-name="equal" unicode="=" horiz-adv-x="500" 
d="M495 344h-490v88h490v-88zM495 140h-490v88h490v-88z" />
    <glyph glyph-name="exclam" unicode="!" horiz-adv-x="179" 
d="M42 707h97v-570l-97 97v473zM42 151l97 -97v-46h-97v143z" />
    <glyph glyph-name="f" unicode="f" horiz-adv-x="157" 
d="M147 510h-36v-509h-73v509h-33v50h33v47v3q0 40 27 69t67 32v-53q-9 -1 -15 -7.5t-6 -15.5v-18v-57h36v-50z" />
    <glyph glyph-name="five" unicode="5" 
d="M295 123q0 -26 -10 -49.5t-27.5 -40.5t-40.5 -27t-49 -10q-23 0 -44 8t-37.5 21.5t-28 32.5t-15.5 42v2l-1 1q-1 5 -1 10v10v222v10t1 10l96 -95v-1v-176q0 -12 9 -21t21 -9q13 0 21.5 9t8.5 21v282q0 12 -8.5 21t-21.5 9q-12 0 -21 -9t-9 -21v-21l-95 96v272h98h152v-68
h-152v-184l11 1q4 1 8 1h8q26 0 49 -10t40.5 -27.5t27.5 -40.5t10 -49v-222z" />
    <glyph glyph-name="four" unicode="4" 
d="M311 265v-68h-36v-191h-98v191h-166v78l134 441h130v-451h36zM177 265v335l-102 -335h102z" />
    <glyph glyph-name="fraction" unicode="&#x2044;" horiz-adv-x="167" 
d="M-114 -8h-53l448 728h53z" />
    <glyph glyph-name="g" unicode="g" horiz-adv-x="258" 
d="M229 -26q0 -21 -8 -39.5t-22 -32t-32.5 -21.5t-39.5 -8t-39 8t-32 21.5t-22 32t-8 39.5v45h79v-73q0 -10 6.5 -16.5t15.5 -6.5q10 0 16.5 6.5t6.5 16.5v101l-8 -1q-5 -1 -15 -1q-21 0 -39 8t-32 21.5t-22 32t-8 39.5v339q0 21 8 39.5t22 32.5t32 22t39 8q28 0 51 -14
l2 -1h49v-598zM150 514q0 9 -6.5 16t-16.5 7q-9 0 -15.5 -7t-6.5 -16v-396q0 -10 6.5 -16.5t15.5 -6.5q10 0 16.5 6.5t6.5 16.5v396z" />
    <glyph glyph-name="grave" unicode="`" horiz-adv-x="148" 
d="M141 633h-54l-138 171h99z" />
    <glyph glyph-name="greater" unicode="&#x3e;" horiz-adv-x="500" 
d="M31 470l437 -191v-66l-437 -192v76l338 149l-338 149v75z" />
    <glyph glyph-name="guilsinglleft" unicode="&#x2039;" horiz-adv-x="185" 
d="M161 379l-87 -93l87 -91v-127l-137 153v130l137 150v-122z" />
    <glyph glyph-name="guilsinglright" unicode="&#x203a;" horiz-adv-x="185" 
d="M24 501l137 -150v-130l-137 -153v127l87 91l-87 93v122z" />
    <glyph glyph-name="h" unicode="h" horiz-adv-x="254" 
d="M227 85q0 -36 -22 -63.5t-57 -35.5v517q0 9 -6.5 16t-15.5 7q-10 0 -16.5 -7t-6.5 -16v-505h-79v714h73v-140l9 2q5 1 10 1.5t10 0.5q21 0 39 -8t32 -22t22 -32t8 -39v-390v0z" />
    <glyph glyph-name="hungarumlaut" unicode="&#x2dd;" horiz-adv-x="148" 
d="M9 804h96l-108 -171h-54zM163 804h99l-138 -171h-54z" />
    <glyph glyph-name="hyphen" unicode="-" horiz-adv-x="166" 
d="M20 336h127v-72h-127v72z" />
    <glyph glyph-name="i" unicode="i" horiz-adv-x="128" 
d="M26 714h73v-130l-73 73v57zM26 592l73 -73v-519h-73v592z" />
    <glyph glyph-name="iacute" unicode="&#xed;" horiz-adv-x="148" 
d="M26 0v572h96v-572h-96zM100 804h99l-138 -171h-54z" />
    <glyph glyph-name="icircumflex" unicode="&#xee;" horiz-adv-x="148" 
d="M26 0v572h96v-572h-96zM-53 633l88 171h80l86 -171h-53l-72 111l-76 -111h-53z" />
    <glyph glyph-name="idieresis" unicode="&#xef;" horiz-adv-x="148" 
d="M26 0v572h96v-572h-96zM-41 666v97h90v-97h-90zM99 666v97h90v-97h-90z" />
    <glyph glyph-name="igrave" unicode="&#xec;" horiz-adv-x="148" 
d="M26 0v572h96v-572h-96zM141 633h-54l-138 171h99z" />
    <glyph glyph-name="j" unicode="j" horiz-adv-x="117" 
d="M95 711v-133l-78 79v54h78zM95 -30q0 -21 -8 -39.5t-21.5 -32t-32 -21.5t-39.5 -8q-32 0 -58 18t-37 47h73q2 -6 8 -10.5t14 -4.5q9 0 16 6.5t7 16.5v650l78 -78v-544z" />
    <glyph glyph-name="k" unicode="k" horiz-adv-x="278" 
d="M259 570l-94 -286l94 -285h-67l-94 285l94 286h67zM22 713h73v-714h-73v714z" />
    <glyph glyph-name="l" unicode="l" horiz-adv-x="128" 
d="M26 712h73v-714h-73v714v0z" />
    <glyph glyph-name="less" unicode="&#x3c;" horiz-adv-x="500" 
d="M469 62l-437 191v66l437 191v-75l-339 -149l339 -149v-75z" />
    <glyph glyph-name="m" unicode="m" horiz-adv-x="389" 
d="M357 83q0 -25 -12 -47t-32 -36h-35v502q0 9 -6.5 16t-15.5 7q-10 0 -16.5 -7t-6.5 -16v-502h-35l-4 3l-5 -3h-34v502q0 9 -7 16t-16 7q-10 0 -16.5 -7t-6.5 -16v-502h-79v568h65l2 1q16 6 35 6q31 0 57 -18l5 -3l4 3q25 18 58 18q21 0 39 -8t32 -22t22 -32.5t8 -39.5
v-390v0z" />
    <glyph glyph-name="macron" unicode="&#xaf;" horiz-adv-x="148" 
d="M189 741v-64h-229v64h229z" />
    <glyph glyph-name="minus" unicode="&#x2212;" horiz-adv-x="500" 
d="M5 242v88h490v-88h-490z" />
    <glyph glyph-name="multiply" unicode="&#xd7;" horiz-adv-x="500" 
d="M5 451l61 63l184 -184l184 184l61 -63l-183 -183l183 -184l-61 -63l-184 184l-184 -184l-61 63l183 184v-1z" />
    <glyph glyph-name="n" unicode="n" horiz-adv-x="245" 
d="M222 83q0 -35 -22 -62.5t-56 -35.5v517q0 9 -6.5 16t-16.5 7t-16.5 -7t-6.5 -16v-502h-78v568h65l1 1q16 6 35 6q21 0 39.5 -8t32 -22t21.5 -32.5t8 -39.5v-390v0z" />
    <glyph glyph-name="nine" unicode="9" 
d="M295 109q0 -26 -10 -49.5t-27.5 -40.5t-40.5 -27t-49 -10t-49.5 10t-41 27t-27.5 40.5t-10 49.5v193l98 -99v-99q0 -13 8.5 -21.5t21.5 -8.5q12 0 21 8.5t9 21.5v124l-158 158v213q0 26 10 49t27.5 40.5t41 27.5t49.5 10t49 -10t40.5 -27.5t27.5 -40.5t10 -49v-490z
M198 601q0 12 -9 21t-21 9q-13 0 -21.5 -9t-8.5 -21v-204q0 -13 8.5 -21.5t21.5 -8.5q12 0 21 8.5t9 21.5v204z" />
    <glyph glyph-name="ntilde" unicode="&#xf1;" horiz-adv-x="278" 
d="M222 83q0 -35 -22 -62.5t-56 -35.5v517q0 9 -6.5 16t-16.5 7t-16.5 -7t-6.5 -16v-502h-78v568h65l1 1q16 6 35 6q21 0 39.5 -8t32 -22t21.5 -32.5t8 -39.5v-390v0zM10 656q3 21 9 39.5t16.5 32.5t26.5 22t39 8q8 0 20.5 -3t25.5 -8q14 -4 26.5 -7.5t21.5 -3.5q21 0 30 9
t14 29h8h12.5h11.5t5 -1q-2 -19 -9.5 -36.5t-20 -30.5t-29 -21t-35.5 -8q-12 0 -25.5 3t-26.5 7t-24 7t-20 3q-17 0 -27.5 -13t-13.5 -28h-35z" />
    <glyph glyph-name="numbersign" unicode="#" 
d="M342 214h-74l-25 -214h-67l25 214h-97l-25 -214h-66l24 214h-71v74h81l15 136h-72v74h81l26 214h66l-25 -214h97l25 214h66l-24 -214h65v-74h-74l-15 -136h64v-74zM129 424l-15 -136h97l15 136h-97z" />
    <glyph glyph-name="o" unicode="o" horiz-adv-x="248" 
d="M227 94q0 -21 -8 -39.5t-22 -32t-32 -21.5t-39 -8t-39.5 8t-32.5 21.5t-22 32t-8 39.5v390q0 21 8 39.5t22 32t32.5 21.5t39.5 8t39 -8t32 -21.5t22 -32t8 -39.5v-390zM148 512q0 10 -6.5 16.5t-15.5 6.5q-10 0 -16.5 -6.5t-6.5 -16.5v-446q0 -10 6.5 -16.5t16.5 -6.5
q9 0 15.5 6.5t6.5 16.5v446z" />
    <glyph glyph-name="oacute" unicode="&#xf3;" horiz-adv-x="278" 
d="M227 94q0 -21 -8 -39.5t-22 -32t-32 -21.5t-39 -8t-39.5 8t-32.5 21.5t-22 32t-8 39.5v390q0 21 8 39.5t22 32t32.5 21.5t39.5 8t39 -8t32 -21.5t22 -32t8 -39.5v-390zM148 512q0 10 -6.5 16.5t-15.5 6.5q-10 0 -16.5 -6.5t-6.5 -16.5v-446q0 -10 6.5 -16.5t16.5 -6.5
q9 0 15.5 6.5t6.5 16.5v446zM165 804h99l-138 -171h-54z" />
    <glyph glyph-name="ocircumflex" unicode="&#xf4;" horiz-adv-x="278" 
d="M227 94q0 -21 -8 -39.5t-22 -32t-32 -21.5t-39 -8t-39.5 8t-32.5 21.5t-22 32t-8 39.5v390q0 21 8 39.5t22 32t32.5 21.5t39.5 8t39 -8t32 -21.5t22 -32t8 -39.5v-390zM148 512q0 10 -6.5 16.5t-15.5 6.5q-10 0 -16.5 -6.5t-6.5 -16.5v-446q0 -10 6.5 -16.5t16.5 -6.5
q9 0 15.5 6.5t6.5 16.5v446zM12 633l88 171h80l86 -171h-53l-72 111l-76 -111h-53z" />
    <glyph glyph-name="odieresis" unicode="&#xf6;" horiz-adv-x="278" 
d="M227 94q0 -21 -8 -39.5t-22 -32t-32 -21.5t-39 -8t-39.5 8t-32.5 21.5t-22 32t-8 39.5v390q0 21 8 39.5t22 32t32.5 21.5t39.5 8t39 -8t32 -21.5t22 -32t8 -39.5v-390zM148 512q0 10 -6.5 16.5t-15.5 6.5q-10 0 -16.5 -6.5t-6.5 -16.5v-446q0 -10 6.5 -16.5t16.5 -6.5
q9 0 15.5 6.5t6.5 16.5v446zM24 666v97h90v-97h-90zM164 666v97h90v-97h-90z" />
    <glyph glyph-name="ogonek" unicode="&#x2db;" horiz-adv-x="148" 
d="M164 0l-18 -8t-39 -22.5t-39 -35t-18 -45.5q0 -20 6 -32t15.5 -18.5t20.5 -9t22 -2.5q29 0 60 13l13 -26q-11 -5 -40 -13t-68 -8q-18 0 -36.5 4t-33.5 13.5t-24 26t-9 41.5t10.5 44.5t27 34.5t37.5 25t43 18h70z" />
    <glyph glyph-name="ograve" unicode="&#xf2;" horiz-adv-x="278" 
d="M227 94q0 -21 -8 -39.5t-22 -32t-32 -21.5t-39 -8t-39.5 8t-32.5 21.5t-22 32t-8 39.5v390q0 21 8 39.5t22 32t32.5 21.5t39.5 8t39 -8t32 -21.5t22 -32t8 -39.5v-390zM148 512q0 10 -6.5 16.5t-15.5 6.5q-10 0 -16.5 -6.5t-6.5 -16.5v-446q0 -10 6.5 -16.5t16.5 -6.5
q9 0 15.5 6.5t6.5 16.5v446zM206 633h-54l-138 171h99z" />
    <glyph glyph-name="one" unicode="1" horiz-adv-x="213" 
d="M52 589l99 106v-695h-99v589v0z" />
    <glyph glyph-name="onehalf" unicode="&#xbd;" horiz-adv-x="481" 
d="M343 720l-233 -728h-48l233 728h48zM284 358q0 32 23.5 55.5t56.5 23.5q32 0 55.5 -23.5t23.5 -55.5v-110l-95 -96v-117q0 -8 5 -13t13 -5t13 5t5 13v103l59 59v-107v-2v-6v-81h-159v81v6v2v85l98 98v112q0 8 -5 13t-13 5t-13 -5t-5 -13v-97l-62 -62v132zM103 718v-417
h-59v353z" />
    <glyph glyph-name="onequarter" unicode="&#xbc;" horiz-adv-x="474" 
d="M347 720l-233 -728h-48l233 728h48zM44 646l59 64v-417h-59v353zM434 164v-42h-22v-114h-58v114h-100v47l80 265h78v-270h22zM354 164v201l-61 -201h61z" />
    <glyph glyph-name="onesuperior" unicode="&#xb9;" horiz-adv-x="199" 
d="M19 659q29 5 46.5 16t16.5 40h57v-427h-69v327h-51v44z" />
    <glyph glyph-name="otilde" unicode="&#xf5;" horiz-adv-x="278" 
d="M227 94q0 -21 -8 -39.5t-22 -32t-32 -21.5t-39 -8t-39.5 8t-32.5 21.5t-22 32t-8 39.5v390q0 21 8 39.5t22 32t32.5 21.5t39.5 8t39 -8t32 -21.5t22 -32t8 -39.5v-390zM148 512q0 10 -6.5 16.5t-15.5 6.5q-10 0 -16.5 -6.5t-6.5 -16.5v-446q0 -10 6.5 -16.5t16.5 -6.5
q9 0 15.5 6.5t6.5 16.5v446zM10 656q3 21 9 39.5t16.5 32.5t26.5 22t39 8q8 0 20.5 -3t25.5 -8q14 -4 26.5 -7.5t21.5 -3.5q21 0 30 9t14 29h8h12.5h11.5t5 -1q-2 -19 -9.5 -36.5t-20 -30.5t-29 -21t-35.5 -8q-12 0 -25.5 3t-26.5 7t-24 7t-20 3q-17 0 -27.5 -13t-13.5 -28
h-35z" />
    <glyph glyph-name="p" unicode="p" horiz-adv-x="258" 
d="M232 95q0 -21 -8 -39.5t-22 -32t-32 -21.5t-39 -8h-10t-10 2l-9 1v-139h-73v714h49l2 1q22 13 51 13q21 0 39 -8t32 -21.5t22 -32t8 -39.5v-390zM153 513q0 10 -6.5 16.5t-15.5 6.5q-10 0 -16.5 -6.5t-6.5 -16.5v-446q0 -10 6.5 -16.5t16.5 -6.5q9 0 15.5 6.5t6.5 16.5
v446z" />
    <glyph glyph-name="paragraph" unicode="&#xb6;" horiz-adv-x="600" 
d="M243 347q-50 0 -90 13t-68 37t-43 57t-15 72q0 51 17 86.5t48.5 57.5t74.5 32t96 10h215h88v-70h-88v-821h-88v821h-59v-821h-88v526z" />
    <glyph glyph-name="parenleft" unicode="(" horiz-adv-x="167" 
d="M185 712q-42 -96 -63 -190.5t-21 -198.5q0 -109 19.5 -215.5t69.5 -204.5h-88q-52 97 -70.5 204t-18.5 216q0 104 21.5 198.5t63.5 190.5h87z" />
    <glyph glyph-name="parenright" unicode=")" horiz-adv-x="167" 
d="M69 712q42 -96 63.5 -190.5t21.5 -198.5q0 -109 -18.5 -216t-70.5 -204h-88q50 98 69.5 204.5t19.5 215.5q0 104 -21 198.5t-63 190.5h87z" />
    <glyph glyph-name="percent" unicode="%" horiz-adv-x="500" 
d="M98 -8l233 728h48l-233 -728h-48zM165 645v-294q0 -32 -22 -54t-54 -22t-54.5 22t-22.5 54v294q0 32 22.5 54t54.5 22t54 -22t22 -54zM106 663q0 8 -5 13t-12 5q-8 0 -13 -5t-5 -13v-336q0 -8 5 -13t13 -5q7 0 12 5t5 13v336zM467 70q0 -32 -22 -54t-54 -22t-54.5 22
t-22.5 54v294q0 32 22.5 54t54.5 22t54 -22t22 -54v-294zM408 382q0 8 -5 13t-12 5q-8 0 -13 -5t-5 -13v-336q0 -8 5 -13t13 -5q7 0 12 5t5 13v336z" />
    <glyph glyph-name="period" unicode="." horiz-adv-x="166" 
d="M33 0v111h100v-111h-100z" />
    <glyph glyph-name="periodcentered" unicode="&#xb7;" horiz-adv-x="166" 
d="M30 286q0 22 15 37.5t38 15.5q22 0 38 -15.5t16 -37.5q0 -23 -16 -38.5t-38 -15.5q-23 0 -38 15.5t-15 38.5z" />
    <glyph glyph-name="plus" unicode="+" horiz-adv-x="500" 
d="M207 531h88v-201h200v-88h-200v-201h-88v201h-202v88h202v201z" />
    <glyph glyph-name="plusminus" unicode="&#xb1;" horiz-adv-x="500" 
d="M206 531h88v-142h201v-88h-201v-143h-88v143h-201v88h201v142zM5 129h490v-88h-490v88z" />
    <glyph glyph-name="q" unicode="q" horiz-adv-x="246" 
d="M19 484q0 21 8 39.5t22 32t32.5 21.5t39.5 8q28 0 50 -13l2 -1h49v-714h-73v139l-9 -1q-5 -2 -9.5 -2h-9.5q-21 0 -39.5 8t-32.5 21.5t-22 32t-8 39.5v390zM98 66q0 -10 6.5 -16.5t16.5 -6.5q9 0 15.5 6.5t6.5 16.5v446q0 10 -6.5 16.5t-15.5 6.5q-10 0 -16.5 -6.5
t-6.5 -16.5v-446z" />
    <glyph glyph-name="question" unicode="?" 
d="M301 419l-86 -86v-199l-97 97v145l78 81v192q0 12 -8.5 20.5t-21.5 8.5q-12 0 -20.5 -8.5t-8.5 -20.5v-168l-97 -97v206q0 27 10 50.5t28 41.5t41.5 28t50.5 10t51 -10t41.5 -28t28 -41.5t10.5 -50.5v-171zM215 51v-45h-97v142z" />
    <glyph glyph-name="quotedbl" unicode="&#x22;" 
d="M197 712h88v-271h-88v271zM47 712h88v-271h-88v271z" />
    <glyph glyph-name="quotedblbase" unicode="&#x201e;" horiz-adv-x="315" 
d="M165 111l-63 -209h-63l34 209h92zM295 111l-63 -209h-63l34 209h92z" />
    <glyph glyph-name="quotedblleft" unicode="&#x201c;" horiz-adv-x="315" 
d="M146 503h-63l-63 209h92zM276 503h-63l-63 209h92z" />
    <glyph glyph-name="quotedblright" unicode="&#x201d;" horiz-adv-x="315" 
d="M165 712l-63 -209h-63l34 209h92zM295 712l-63 -209h-63l34 209h92z" />
    <glyph glyph-name="quoteleft" unicode="&#x2018;" horiz-adv-x="167" 
d="M139 503h-63l-63 209h92z" />
    <glyph glyph-name="quoteright" unicode="&#x2019;" horiz-adv-x="167" 
d="M154 712l-63 -209h-63l34 209h92z" />
    <glyph glyph-name="quotesinglbase" unicode="&#x201a;" horiz-adv-x="167" 
d="M154 111l-63 -209h-63l34 209h92z" />
    <glyph glyph-name="quotesingle" unicode="'" horiz-adv-x="222" 
d="M67 712h88v-271h-88v271z" />
    <glyph glyph-name="r" unicode="r" horiz-adv-x="248" 
d="M28 572h65h1q16 6 35 6q21 0 39.5 -8t32.5 -21.5t22 -32t8 -39.5v-93l-79 79v42q0 10 -6.5 16.5t-16.5 6.5q-9 0 -16 -6.5t-7 -16.5v-517q-7 2 -14 4.5t-14 6.5l-1 1h-49v572z" />
    <glyph glyph-name="registered" unicode="&#xae;" horiz-adv-x="800" 
d="M400 -14q-75 0 -143.5 26.5t-120.5 75.5t-83 117t-31 151t31 151t83 117t120.5 75.5t143.5 26.5t143.5 -26.5t120.5 -75.5t83 -117t31 -151t-31 -151t-83 -117t-120.5 -75.5t-143.5 -26.5zM112 356q0 -65 22.5 -119.5t61.5 -94.5t91.5 -62t112.5 -22t112.5 22t91.5 62
t61.5 94.5t22.5 119.5t-22.5 119.5t-61.5 94.5t-91.5 62t-112.5 22t-112.5 -22t-91.5 -62t-61.5 -94.5t-22.5 -119.5zM427 323q0 9 -6 15t-15 6q-8 0 -14.5 -6t-6.5 -15v-213h-68v498h44h2q19 12 43 12q37 0 63 -26t26 -64v-107q0 -40 -29 -66l-6 -5l6 -5q29 -26 29 -66
v-171h-68v213zM385 397q0 -8 6.5 -14.5t14.5 -6.5q9 0 15 6.5t6 14.5v149q0 9 -6 15t-15 6q-8 0 -14.5 -6t-6.5 -15v-149z" />
    <glyph glyph-name="ring" unicode="&#x2da;" horiz-adv-x="148" 
d="M36 711q0 -15 12 -27t26 -12t26 12t12 27t-12 27t-26 12t-26 -12t-12 -27zM-9 711q0 18 6.5 33.5t17.5 27t26.5 18t32.5 6.5t32 -6.5t26.5 -18t18 -27t6.5 -33.5t-6.5 -33.5t-18 -27t-26.5 -18t-32 -6.5t-32.5 6.5t-26.5 18t-17.5 27t-6.5 33.5z" />
    <glyph glyph-name="s" unicode="s" horiz-adv-x="264" 
d="M239 92q0 -22 -8.5 -41t-23 -33.5t-33.5 -23t-41 -8.5t-41.5 8.5t-33.5 23t-22.5 33.5t-8.5 41v167l80 -80v-135q0 -10 6.5 -16.5t16.5 -6.5q9 0 15.5 6.5t6.5 16.5v154l-125 126v150q0 22 8.5 41t22.5 33.5t33.5 23t41.5 8.5t41 -8.5t33.5 -23t23 -33.5t8.5 -41v-177
l-84 84v130q0 9 -6.5 16t-16.5 7t-16.5 -7t-6.5 -16v-149l130 -130v-140z" />
    <glyph glyph-name="scaron" unicode="&#x161;" horiz-adv-x="278" 
d="M239 92q0 -22 -8.5 -41t-23 -33.5t-33.5 -23t-41 -8.5t-41.5 8.5t-33.5 23t-22.5 33.5t-8.5 41v167l80 -80v-135q0 -10 6.5 -16.5t16.5 -6.5q9 0 15.5 6.5t6.5 16.5v154l-125 126v150q0 22 8.5 41t22.5 33.5t33.5 23t41.5 8.5t41 -8.5t33.5 -23t23 -33.5t8.5 -41v-177
l-84 84v130q0 9 -6.5 16t-16.5 7t-16.5 -7t-6.5 -16v-149l130 -130v-140zM100 633l-88 171h53l75 -111l73 111h53l-86 -171h-80z" />
    <glyph glyph-name="semicolon" unicode=";" horiz-adv-x="166" 
d="M8 -125l32 236h100l-73 -236h-59zM33 410v111h100v-111h-100z" />
    <glyph glyph-name="seven" unicode="7" 
d="M266 708h68l-166 -710h-104l150 641h-197v69h249v0v0z" />
    <glyph glyph-name="six" unicode="6" 
d="M295 108q0 -26 -10 -49.5t-27.5 -40.5t-40.5 -27t-50 -10q-26 0 -49.5 10t-40.5 27t-27 40.5t-10 49.5v490q0 26 10 49t27 40.5t40.5 27.5t49.5 10q27 0 50 -10t40.5 -27.5t27.5 -40.5t10 -49v-193l-98 98v100q0 13 -8.5 21.5t-21.5 8.5q-12 0 -20.5 -8.5t-8.5 -21.5
v-124l157 -159v-212zM197 310q0 13 -8.5 21.5t-21.5 8.5q-12 0 -20.5 -8.5t-8.5 -21.5v-204q0 -12 8.5 -21t20.5 -9q13 0 21.5 9t8.5 21v204z" />
    <glyph glyph-name="slash" unicode="/" horiz-adv-x="278" 
d="M287 726l-244 -740h-53l244 740h53z" />
    <glyph glyph-name="space" unicode=" " horiz-adv-x="166" 
 />
    <glyph glyph-name="t" unicode="t" horiz-adv-x="167" 
d="M46 712h73v-712h-73v712zM13 559h142v-50h-142v50z" />
    <glyph glyph-name="three" unicode="3" 
d="M290 105q0 -26 -10 -49.5t-27.5 -41t-40.5 -27.5t-49 -10t-49.5 10t-41 27.5t-27.5 41t-10 49.5v153q0 2 0.5 4.5t0.5 4.5v54l97 -93v-75v-87q0 -12 8.5 -21t21.5 -9q12 0 21 9t9 21v249q0 13 -9 21.5t-21 8.5q-6 0 -8 -1v31q2 -1 8 -1q12 0 21 8.5t9 21.5v213
q0 12 -9 21t-21 9q-13 0 -21.5 -9t-8.5 -21v-16v-146l-98 93v49q0 26 10 49t27.5 40.5t41 27.5t49.5 10t49 -10t40.5 -27.5t27.5 -40.5t10 -49v-154q0 -48 -33 -86l-6 -6l6 -7q33 -36 33 -86v-153z" />
    <glyph glyph-name="threequarters" unicode="&#xbe;" horiz-adv-x="499" 
d="M403 720l-233 -728h-48l233 728h48zM478 122h-22v-114h-58v114h-100v47l80 265h78v-270h22v-42zM398 365l-61 -201h61v201zM186 334q0 -32 -22 -54t-54 -22t-54.5 22t-22.5 54v92q0 4 1 6v32l58 -56v-45v-52q0 -8 5 -13t13 -5t13 5t5 13v149q0 8 -5 13t-13 5h-5v18h5
q8 0 13 5t5 13v128q0 7 -5 12t-13 5t-13 -5t-5 -12v-10v-87l-59 55v30q0 32 22.5 54t54.5 22t54 -22t22 -54v-93q0 -29 -20 -51l-3 -4l3 -4q20 -22 20 -52v-92z" />
    <glyph glyph-name="threesuperior" unicode="&#xb3;" horiz-adv-x="199" 
d="M172 350q0 -32 -22 -54t-54 -22t-54.5 22t-22.5 54v92q0 4 1 6v32l58 -56v-45v-52q0 -8 5 -13t13 -5t13 5t5 13v149q0 8 -5 13t-13 5h-5v18h5q8 0 13 5t5 13v128q0 7 -5 12t-13 5t-13 -5t-5 -12v-10v-87l-59 55v30q0 32 22.5 54t54.5 22t54 -22t22 -54v-93q0 -29 -20 -51
l-3 -4l3 -4q20 -22 20 -52v-92z" />
    <glyph glyph-name="tilde" unicode="&#x2dc;" horiz-adv-x="148" 
d="M-55 656q3 21 9 39.5t16.5 32.5t26.5 22t39 8q8 0 20.5 -3t25.5 -8q14 -4 26.5 -7.5t21.5 -3.5q21 0 30 9t14 29h8h12.5h11.5t5 -1q-2 -19 -9.5 -36.5t-20 -30.5t-29 -21t-35.5 -8q-12 0 -25.5 3t-26.5 7t-24 7t-20 3q-17 0 -27.5 -13t-13.5 -28h-35z" />
    <glyph glyph-name="trademark" unicode="&#x2122;" horiz-adv-x="536" 
d="M331 286l-37 263l-11 73v-74v-262h-50v428h50v0h29l40 -287l41 287h29v0h50v-427h-50v261v75l-11 -74l-37 -263h-43zM214 713v-50h-59v-376h-59v376h-59v50h177z" />
    <glyph glyph-name="two" unicode="2" 
d="M37 596q0 27 10.5 51.5t28.5 42.5t42 28.5t52 10.5q27 0 51 -10.5t42 -28.5t28.5 -42.5t10.5 -51.5v-183l-158 -159v-195q0 -13 8.5 -21.5t21.5 -8.5q12 0 20.5 8.5t8.5 21.5v170l99 99v-179v-3v-10v-135h-265v135v10v3v143l163 164v186q0 13 -8.5 21.5t-20.5 8.5
q-13 0 -21.5 -8.5t-8.5 -21.5v-161l-104 -104v219z" />
    <glyph glyph-name="twosuperior" unicode="&#xb2;" horiz-adv-x="199" 
d="M20 654q0 32 23.5 55.5t56.5 23.5q32 0 55.5 -23.5t23.5 -55.5v-110l-95 -96v-117q0 -8 5 -13t13 -5t13 5t5 13v103l59 59v-107v-2v-6v-81h-159v81v6v2v85l98 98v112q0 8 -5 13t-13 5t-13 -5t-5 -13v-97l-62 -62v132z" />
    <glyph glyph-name="u" unicode="u" horiz-adv-x="257" 
d="M231 94q0 -21 -8 -39.5t-22 -32.5t-32 -22t-39 -8t-39.5 8t-32.5 22t-22 32.5t-8 39.5v476h79v-505q0 -9 6.5 -15.5t16.5 -6.5q9 0 15.5 6.5t6.5 15.5v505h79v-476z" />
    <glyph glyph-name="uacute" unicode="&#xfa;" horiz-adv-x="278" 
d="M231 94q0 -21 -8 -39.5t-22 -32.5t-32 -22t-39 -8t-39.5 8t-32.5 22t-22 32.5t-8 39.5v476h79v-505q0 -9 6.5 -15.5t16.5 -6.5q9 0 15.5 6.5t6.5 15.5v505h79v-476zM165 804h99l-138 -171h-54z" />
    <glyph glyph-name="ucircumflex" unicode="&#xfb;" horiz-adv-x="278" 
d="M231 94q0 -21 -8 -39.5t-22 -32.5t-32 -22t-39 -8t-39.5 8t-32.5 22t-22 32.5t-8 39.5v476h79v-505q0 -9 6.5 -15.5t16.5 -6.5q9 0 15.5 6.5t6.5 15.5v505h79v-476zM12 633l88 171h80l86 -171h-53l-72 111l-76 -111h-53z" />
    <glyph glyph-name="udieresis" unicode="&#xfc;" horiz-adv-x="278" 
d="M231 94q0 -21 -8 -39.5t-22 -32.5t-32 -22t-39 -8t-39.5 8t-32.5 22t-22 32.5t-8 39.5v476h79v-505q0 -9 6.5 -15.5t16.5 -6.5q9 0 15.5 6.5t6.5 15.5v505h79v-476zM24 666v97h90v-97h-90zM164 666v97h90v-97h-90z" />
    <glyph glyph-name="ugrave" unicode="&#xf9;" horiz-adv-x="278" 
d="M231 94q0 -21 -8 -39.5t-22 -32.5t-32 -22t-39 -8t-39.5 8t-32.5 22t-22 32.5t-8 39.5v476h79v-505q0 -9 6.5 -15.5t16.5 -6.5q9 0 15.5 6.5t6.5 15.5v505h79v-476zM206 633h-54l-138 171h99z" />
    <glyph glyph-name="underscore" unicode="_" horiz-adv-x="500" 
d="M0 -98v68h500v-68h-500z" />
    <glyph glyph-name="v" unicode="v" horiz-adv-x="263" 
d="M141 0h-68l-66 570h67zM187 570h67l-66 -570h-67z" />
    <glyph glyph-name="w" unicode="w" horiz-adv-x="402" 
d="M168 567h46l-70 -567h-46zM299 0h-46l-69 567h46zM139 0h-67l-67 570h67zM325 570h67l-67 -570h-67z" />
    <glyph glyph-name="x" unicode="x" horiz-adv-x="259" 
d="M192 571h67l-188 -570h-67zM259 1h-67l-188 570h67z" />
    <glyph glyph-name="y" unicode="y" horiz-adv-x="261" 
d="M232 -26q0 -21 -8 -39t-22 -32t-32.5 -22t-39.5 -8t-39 8t-32 22t-22 32t-8 39v62l79 -79v-11q0 -9 6.5 -16t15.5 -7q10 0 16.5 7t6.5 16v68v4v1v28l-8 -1q-4 0 -7.5 -0.5t-7.5 -0.5q-21 0 -39 8t-32 22t-22 32t-8 39v430h79v-458q0 -9 6.5 -16t15.5 -7q10 0 16.5 7
t6.5 16v458h79v-602z" />
    <glyph glyph-name="yacute" unicode="&#xfd;" horiz-adv-x="278" 
d="M232 -26q0 -21 -8 -39t-22 -32t-32.5 -22t-39.5 -8t-39 8t-32 22t-22 32t-8 39v62l79 -79v-11q0 -9 6.5 -16t15.5 -7q10 0 16.5 7t6.5 16v68v4v1v28l-8 -1q-4 0 -7.5 -0.5t-7.5 -0.5q-21 0 -39 8t-32 22t-22 32t-8 39v430h79v-458q0 -9 6.5 -16t15.5 -7q10 0 16.5 7
t6.5 16v458h79v-602zM165 804h99l-138 -171h-54z" />
    <glyph glyph-name="ydieresis" unicode="&#xff;" horiz-adv-x="278" 
d="M232 -26q0 -21 -8 -39t-22 -32t-32.5 -22t-39.5 -8t-39 8t-32 22t-22 32t-8 39v62l79 -79v-11q0 -9 6.5 -16t15.5 -7q10 0 16.5 7t6.5 16v68v4v1v28l-8 -1q-4 0 -7.5 -0.5t-7.5 -0.5q-21 0 -39 8t-32 22t-22 32t-8 39v430h79v-458q0 -9 6.5 -16t15.5 -7q10 0 16.5 7
t6.5 16v458h79v-602zM24 666v97h90v-97h-90zM164 666v97h90v-97h-90z" />
    <glyph glyph-name="yen" unicode="&#xa5;" 
d="M241 343l-12 -50h57v-57h-68v-236h-106v236h-68v57h57l-12 50h-72v57h60l-73 312h110l34 -155q4 -20 7 -36t5 -33t3.5 -37t3.5 -48h8q1 42 5 80.5t11 68.5l38 160h99l-75 -311h60v-58h-72z" />
    <glyph glyph-name="z" unicode="z" horiz-adv-x="259" 
d="M104 211v-166q0 -11 8 -19.5t20 -8.5q11 0 19.5 8.5t8.5 19.5v143l74 74v-262h-211v226l2 2l132 132v150q0 12 -8 20t-20 8q-11 0 -19.5 -8t-8.5 -20v-127l-78 -78v263h211v-227z" />
    <glyph glyph-name="zcaron" unicode="&#x17e;" horiz-adv-x="222" 
d="M104 211v-166q0 -11 8 -19.5t20 -8.5q11 0 19.5 8.5t8.5 19.5v143l74 74v-262h-211v226l2 2l132 132v150q0 12 -8 20t-20 8q-11 0 -19.5 -8t-8.5 -20v-127l-78 -78v263h211v-227zM72 633l-88 171h53l75 -111l73 111h53l-86 -171h-80z" />
    <glyph glyph-name="zero" unicode="0" 
d="M289 116q0 -26 -10 -49.5t-27.5 -40.5t-40.5 -27t-49 -10q-27 0 -50 10t-40.5 27t-27.5 40.5t-10 49.5v490q0 26 10 49t27.5 40.5t40.5 27.5t50 10q26 0 49 -10t40.5 -27.5t27.5 -40.5t10 -49v-490zM191 636q0 13 -8.5 21.5t-20.5 8.5q-13 0 -21.5 -8.5t-8.5 -21.5v-561
q0 -12 8.5 -21t21.5 -9q12 0 20.5 9t8.5 21v561z" />
    </font>
</defs>
</svg>
