<?xml version="1.0" standalone="no"?>
<!DOCTYPE svg PUBLIC "-//W3C//DTD SVG 1.1//EN" "http://www.w3.org/Graphics/SVG/1.1/DTD/svg11.dtd" >
<svg xmlns="http://www.w3.org/2000/svg" xmlns:xlink="http://www.w3.org/1999/xlink" version="1.1">
<metadata>
Created by FontForge 20141024 at Thu Jul  9 04:30:20 2015
 By System Administrator
(c) Lauren Thompson, 2009, 2010. All rights reserved.
</metadata>
<defs>
<font id="Champagne&Limousines" horiz-adv-x="1070" >
  <font-face 
    font-family="Champagne & Limousines"
    font-weight="200"
    font-stretch="normal"
    units-per-em="2048"
    panose-1="2 11 2 2 2 2 2 2 2 4"
    ascent="1638"
    descent="-410"
    x-height="855"
    cap-height="1414"
    bbox="-600 -462 2545 1851"
    underline-thickness="150"
    underline-position="-142"
    unicode-range="U+0020-F002"
  />
<missing-glyph horiz-adv-x="2620" 
d="M1041 1359h546l308 -392l-64 -302q126 42 126 134q-20 24 -20 48q0 78 140 78q104 0 210 -140q68 -56 258 -112q0 -28 -20 -28q0 -14 6 -22q-6 -34 -56 -43q-18 -3 -42 -3q-44 0 -108 10q24 -20 136 -20q21 4 37 4t27 -4q0 -54 -204 -84l-126 8q114 -56 190 -56h42v-8
q-52 -70 -190 -70q-70 0 -160 36q0 -44 160 -98q0 -28 -76 -36q-44 0 -190 64q0 -34 70 -92q-5 -3 -17 -3q-36 0 -137 31l22 -62l-28 -8q-38 0 -134 106l-62 -294h-742l-84 294q-74 -94 -120 -106l-28 8l14 62q-86 -42 -132 -42l-14 22q63 38 63 76q0 4 -1 8
q-128 -64 -188 -64q-70 8 -70 36q154 52 154 95v3q-72 -36 -154 -36h-28q-110 0 -162 70v8h42q76 0 133 17t57 39l-140 -8q-190 34 -190 84l14 8l50 -8q47 -2 81 -2q67 0 81 8q-86 6 -156 11t-76 33l6 20l-20 8v28q224 62 294 146q74 106 174 106q140 0 140 -78
q0 -24 -20 -48q22 -134 112 -134l-70 302zM1288 778q0 39 50 76q17 -37 43 -178q5 -30 5 -62q0 -116 -73 -250q115 101 178 199q51 80 51 155q0 17 -2 34q-14 91 -28 138q-14 48 -25 107l-163 -59q-16 -9 -36 -17v3q-6 70 -31 73q-53 -37 -176 -96q47 -14 47 -44v-252
q0 -6 -11 -13t-39 -21q48 -72 99 -72q23 0 47 15q75 46 120 60q-45 11 -50.5 23.5t-5.5 18.5v162z" />
    <glyph glyph-name=".notdef" horiz-adv-x="2620" 
d="M1041 1359h546l308 -392l-64 -302q126 42 126 134q-20 24 -20 48q0 78 140 78q104 0 210 -140q68 -56 258 -112q0 -28 -20 -28q0 -14 6 -22q-6 -34 -56 -43q-18 -3 -42 -3q-44 0 -108 10q24 -20 136 -20q21 4 37 4t27 -4q0 -54 -204 -84l-126 8q114 -56 190 -56h42v-8
q-52 -70 -190 -70q-70 0 -160 36q0 -44 160 -98q0 -28 -76 -36q-44 0 -190 64q0 -34 70 -92q-5 -3 -17 -3q-36 0 -137 31l22 -62l-28 -8q-38 0 -134 106l-62 -294h-742l-84 294q-74 -94 -120 -106l-28 8l14 62q-86 -42 -132 -42l-14 22q63 38 63 76q0 4 -1 8
q-128 -64 -188 -64q-70 8 -70 36q154 52 154 95v3q-72 -36 -154 -36h-28q-110 0 -162 70v8h42q76 0 133 17t57 39l-140 -8q-190 34 -190 84l14 8l50 -8q47 -2 81 -2q67 0 81 8q-86 6 -156 11t-76 33l6 20l-20 8v28q224 62 294 146q74 106 174 106q140 0 140 -78
q0 -24 -20 -48q22 -134 112 -134l-70 302zM1288 778q0 39 50 76q17 -37 43 -178q5 -30 5 -62q0 -116 -73 -250q115 101 178 199q51 80 51 155q0 17 -2 34q-14 91 -28 138q-14 48 -25 107l-163 -59q-16 -9 -36 -17v3q-6 70 -31 73q-53 -37 -176 -96q47 -14 47 -44v-252
q0 -6 -11 -13t-39 -21q48 -72 99 -72q23 0 47 15q75 46 120 60q-45 11 -50.5 23.5t-5.5 18.5v162z" />
    <glyph glyph-name=".null" horiz-adv-x="0" 
 />
    <glyph glyph-name="nonmarkingreturn" horiz-adv-x="508" 
 />
    <glyph glyph-name="space" unicode=" " horiz-adv-x="508" 
 />
    <glyph glyph-name="space" unicode="&#xa0;" horiz-adv-x="508" 
 />
    <glyph glyph-name="exclam" unicode="!" horiz-adv-x="269" 
d="M190.5 123q23.5 -23 23.5 -56t-23.5 -56t-55.5 -23q-33 0 -56.5 23t-23.5 56t23.5 56t56.5 23q32 0 55.5 -23zM173 1414v-1170h-80v1170h80z" />
    <glyph glyph-name="quotedbl" unicode="&#x22;" horiz-adv-x="397" 
d="M55 881v530h80v-530h-80zM263 881v530h79v-530h-79z" />
    <glyph glyph-name="numbersign" unicode="#" 
d="M302 542l34 270h-285l10 80h285l57 461h80l-57 -461h270l57 461h80l-57 -461h285l-10 -80h-285l-34 -270h286l-10 -80h-286l-57 -462h-80l57 462h-270l-57 -462h-80l57 462h-284l10 80h284zM416 812l-34 -270h270l34 270h-270z" />
    <glyph glyph-name="dollar" unicode="$" 
d="M579 756v-589q88 13 155 80q83 83 83 202q0 117 -83 200q-65 66 -155 107zM499 1249q-54 -9 -95 -51q-54 -53 -54 -129t53 -129q37 -37 96 -70v379zM499 787q-91 40 -150 99q-76 75 -76 183q0 105 76 181q64 65 150 75v144h80v-146q78 -14 137 -72q41 -40 59 -95l-69 -28
q-15 41 -45 71q-36 35 -82 47v-410q121 -47 208 -134q106 -105 106 -253q0 -150 -106 -255q-89 -90 -208 -104v-124h-80v123q-127 10 -221 105q-84 84 -102 199l72 27q11 -102 84 -173q71 -72 167 -82v622z" />
    <glyph glyph-name="percent" unicode="%" 
d="M973 1161l-811 -1158l-65 45l811 1158zM414.5 1014q59.5 -60 59.5 -145q0 -84 -59.5 -144t-144.5 -60t-144.5 60t-59.5 144q0 85 59.5 145t144.5 60t144.5 -60zM270 997q-53 0 -90 -37.5t-37 -90.5t37 -90t90 -37q52 0 89.5 37t37.5 90t-37.5 90.5t-89.5 37.5z
M944.5 483.5q59.5 -59.5 59.5 -144.5t-59.5 -144.5t-144.5 -59.5t-144.5 59.5t-59.5 144.5t59.5 144.5t144.5 59.5t144.5 -59.5zM800 467q-53 0 -90 -37.5t-37 -90.5t37 -90t90 -37q52 0 90 37t38 90t-38 90.5t-90 37.5z" />
    <glyph glyph-name="ampersand" unicode="&#x26;" horiz-adv-x="1167" 
d="M815 292q-11 5 -22 11q-42 24 -106 90q-42 39 -60 49q-19 10 -39 10q-11 0 -22 -2q-32 -9 -48 -37q-11 -20 -11 -39q0 -11 3 -22q9 -32 35 -46q17 -9 46 -9q16 0 36 3l-8 -73q-22 -6 -44 -6q-35 0 -69 18q-53 30 -70 92q-6 22 -6 43q0 39 21 76q33 56 95 73q22 6 43 6
q39 0 75 -21q35 -19 92 -79q51 -46 75 -60q27 -15 55 -15q16 0 32 5q46 12 70 54q15 27 15 55q0 15 -5 31q-12 45 -53 69q-25 14 -56 14q-22 0 -47 -7l-1 79q25 7 49 7q47 0 92 -26q69 -39 90 -115q7 -27 7 -52q0 -48 -25 -92q-39 -69 -117 -91q-23 -6 -44 -7
q-29 -95 -105 -171q-123 -124 -296 -124t-296 123t-123 297q0 173 121 302q83 89 216 134q-64 27 -130.5 98t-66.5 196q0 122 87.5 210t211.5 88t212 -88q49 -47 67 -105l-71 -28q-16 43 -52 79q-65 64 -156 64t-155.5 -64t-64.5 -156q0 -91 62.5 -157.5t115.5 -86.5
t132 -21v-75l-63 -1q-194 -37 -291 -143t-97 -246q0 -141 99.5 -241t241.5 -100q140 0 240 100q58 58 83 130z" />
    <glyph glyph-name="quotesingle" unicode="'" horiz-adv-x="190" 
d="M55 881v530h80v-530h-80z" />
    <glyph glyph-name="parenleft" unicode="(" horiz-adv-x="552" 
d="M497 1483q-83 -50 -186 -188q-150 -204 -150 -561q0 -22 1 -45q-1 -23 -1 -45q0 -358 150 -562q103 -138 186 -188h-89q-76 53 -142 130q-211 243 -211 665q0 421 211 664q66 77 142 130h89z" />
    <glyph glyph-name="parenright" unicode=")" horiz-adv-x="552" 
d="M144 1483q76 -53 142 -130q211 -243 211 -664q0 -422 -211 -665q-66 -77 -142 -130h-89q83 50 186 188q150 204 150 562q0 22 -1 45q1 23 1 45q0 357 -150 561q-103 138 -186 188h89z" />
    <glyph glyph-name="asterisk" unicode="*" horiz-adv-x="630" 
d="M355 1223l154 108l46 -66l-171 -119l171 -119l-46 -66l-154 108v-188h-79v189l-155 -109l-46 66l171 119l-171 119l46 66l155 -109v189h79v-188z" />
    <glyph glyph-name="plus" unicode="+" 
d="M495 483h-410v80h410v410h80v-410h410v-80h-410v-410h-80v410z" />
    <glyph glyph-name="comma" unicode="," horiz-adv-x="336" 
d="M238 147l-164 -341h-74l91 341h147z" />
    <glyph glyph-name="hyphen" unicode="-" horiz-adv-x="596" 
d="M48 563h500v-80h-500v80z" />
    <glyph glyph-name="hyphen" unicode="&#xad;" horiz-adv-x="596" 
d="M48 563h500v-80h-500v80z" />
    <glyph glyph-name="period" unicode="." horiz-adv-x="269" 
d="M190.5 123q23.5 -23 23.5 -56t-23.5 -56t-55.5 -23q-33 0 -56.5 23t-23.5 56t23.5 56t56.5 23q32 0 55.5 -23z" />
    <glyph glyph-name="slash" unicode="/" horiz-adv-x="627" 
d="M588 1414h91l-641 -1414h-90z" />
    <glyph glyph-name="zero" unicode="0" 
d="M936 695q0 300 -117.5 467t-283.5 167t-283.5 -167t-117.5 -467q0 -301 117.5 -468t283.5 -167t283.5 167t117.5 468zM1020 695q0 -335 -141.5 -527.5t-342.5 -192.5t-343.5 192.5t-142.5 527.5q0 334 142.5 526.5t343.5 192.5t342.5 -192.5t141.5 -526.5z" />
    <glyph glyph-name="one" unicode="1" 
d="M499 80v1176l-147 -96l-62 45l288 209v-1334h307v-80h-700v80h314z" />
    <glyph glyph-name="two" unicode="2" 
d="M170 0q555 847 598 922.5t43 144.5q0 34 -8 69q-25 110 -119 169q-67 40 -139 40q-32 0 -64 -7q-108 -25 -167 -119q-33 -52 -40 -103l-82 12q6 67 49 134q80 125 221 157q43 10 84 10q98 0 185 -55q124 -78 156 -219q12 -52 12 -99q0 -83 -47.5 -168.5t-523.5 -807.5
h571v-80h-729z" />
    <glyph glyph-name="three" unicode="3" 
d="M485 789l-66 2v79q82 1 134.5 21.5t114 86t61.5 155.5q0 91 -63.5 154t-153.5 63q-89 0 -154 -63q-35 -36 -52 -81l-76 30q19 62 68 109q89 88 214 88q126 0 214 -88.5t88 -211.5q0 -126 -67 -198t-126 -96q128 -42 212 -132q121 -130 121 -304q0 -175 -123.5 -298.5
t-298.5 -123.5q-174 0 -298 124q-98 99 -118 232l80 29q13 -118 98 -203q99 -98 238 -98q141 0 240 98.5t99 239.5q0 140 -96.5 245t-289.5 141z" />
    <glyph glyph-name="four" unicode="4" 
d="M799 1474v-1031h135v-79h-135v-364h-80v364h-583zM719 1192l-446 -749h446v749z" />
    <glyph glyph-name="five" unicode="5" 
d="M231 975q44 14 99 26q56 10 109 10q98 0 187 -31q199 -68 297 -251q61 -114 61 -233q0 -75 -23 -150q-61 -198 -244 -297q-112 -59 -230 -59q-75 0 -153 24q-159 49 -249 172l57 62q75 -111 217 -154q64 -20 125 -20q99 0 193 50q153 81 204 247q20 64 20 126
q0 99 -51 193q-81 152 -247 210q-72 25 -157 25q-113 0 -250 -43l-63 55l162 448v29h442v-80h-375z" />
    <glyph glyph-name="six" unicode="6" 
d="M226 373q0 -128 90.5 -217.5t218.5 -89.5q127 0 217.5 89.5t90.5 217.5t-90.5 218.5t-217.5 90.5q-128 0 -218.5 -90.5t-90.5 -218.5zM297 687q103 80 238 80q163 0 277.5 -115t114.5 -279q0 -162 -114.5 -277.5t-277.5 -115.5q-162 0 -277.5 115.5t-115.5 277.5v16
q9 212 130.5 460t280.5 481q29 43 54 84h106q-29 -50 -65 -101q-182 -260 -298 -503q-30 -64 -53 -123z" />
    <glyph glyph-name="seven" unicode="7" 
d="M764 924q-182 -260 -298 -503.5t-125 -420.5h-83q9 212 130.5 460t280 481t192.5 393h-743v80h833q-5 -230 -187 -490z" />
    <glyph glyph-name="eight" unicode="8" 
d="M534 66h2q17 -1 35 -1q140 0 239 98.5t99 239.5q0 140 -96 245q-94 102 -278 139q-185 -37 -279 -139q-96 -105 -96 -245q0 -141 99 -239.5t239 -98.5q18 0 36 1zM535 -18q-18 -1 -37 -1q-174 0 -297.5 123.5t-123.5 298.5q0 174 121 304q84 90 211 132q-58 24 -125 96
t-67 198q0 123 87.5 211.5t214.5 88.5h32q126 0 214 -88.5t88 -211.5q0 -126 -67.5 -198t-125.5 -96q127 -42 211 -132q121 -130 121 -304q0 -175 -123 -298.5t-298 -123.5q-18 0 -36 1zM534 1349q-7 1 -15 1q-90 0 -154 -63t-64 -154q0 -90 61.5 -155.5t113.5 -85.5
q27 -10 59 -15q32 5 58 15q52 20 113.5 85.5t61.5 155.5q0 91 -63.5 154t-153.5 63q-8 0 -15 -1h-2z" />
    <glyph glyph-name="nine" unicode="9" 
d="M843 1041q0 128 -90.5 217.5t-218.5 89.5q-127 0 -217.5 -89.5t-90.5 -217.5t90.5 -218.5t217.5 -90.5q128 0 218.5 90.5t90.5 218.5zM772 727q-103 -80 -238 -80q-163 0 -277.5 115t-114.5 279q0 162 114.5 277.5t277.5 115.5q162 0 277.5 -115.5t115.5 -277.5v-16
q-9 -212 -130.5 -460t-280.5 -481q-29 -43 -54 -84h-106q29 50 65 101q182 260 298 504q30 63 53 122z" />
    <glyph glyph-name="colon" unicode=":" horiz-adv-x="269" 
d="M190.5 123q23.5 -23 23.5 -56t-23.5 -56t-55.5 -23q-33 0 -56.5 23t-23.5 56t23.5 56t56.5 23q32 0 55.5 -23zM190.5 740q23.5 -23 23.5 -56t-23.5 -56t-55.5 -23q-33 0 -56.5 23t-23.5 56t23.5 56t56.5 23q32 0 55.5 -23z" />
    <glyph glyph-name="semicolon" unicode=";" horiz-adv-x="293" 
d="M238 147l-164 -341h-74l91 341h147zM167.5 740q23.5 -23 23.5 -56t-23.5 -56t-55.5 -23q-33 0 -56.5 23t-23.5 56t23.5 56t56.5 23q32 0 55.5 -23z" />
    <glyph glyph-name="semicolon" unicode="&#x37e;" horiz-adv-x="293" 
d="M238 147l-164 -341h-74l91 341h147zM167.5 740q23.5 -23 23.5 -56t-23.5 -56t-55.5 -23q-33 0 -56.5 23t-23.5 56t23.5 56t56.5 23q32 0 55.5 -23z" />
    <glyph glyph-name="less" unicode="&#x3c;" 
d="M258 622l723 -334v-92l-892 426l892 426v-92z" />
    <glyph glyph-name="equal" unicode="=" 
d="M85 705h900v-80h-900v80zM89 422h892v-80h-892v80z" />
    <glyph glyph-name="greater" unicode="&#x3e;" 
d="M89 956v92l892 -426l-892 -426v92l723 334z" />
    <glyph glyph-name="question" unicode="?" horiz-adv-x="795" 
d="M322 246q-40 44 -54 126q-5 27 -5 54q0 85 52 159q44 63 172 166q111 101 145 150q51 71 51 154q0 24 -4 49q-20 113 -114 179q-74 50 -156 50q-24 0 -49 -4q-110 -20 -175 -113q-53 -75 -53 -151q0 -19 4 -39l-85 6q-4 20 -4 41q0 90 69 189q83 121 230 147q34 6 67 6
q106 0 199 -64q120 -85 146 -233q6 -33 6 -65q0 -105 -64 -200q-56 -78 -199 -192q-92 -83 -119 -123q-37 -53 -37 -115q0 -18 3 -37q9 -48 30 -75zM421.5 123q23.5 -23 23.5 -56t-23.5 -56t-55.5 -23q-33 0 -56.5 23t-23.5 56t23.5 56t56.5 23q32 0 55.5 -23z" />
    <glyph glyph-name="at" unicode="@" horiz-adv-x="1326" 
d="M906 467v116q-15 67 -65 117q-73 73 -175 73q-103 0 -175 -72.5t-72 -176.5q0 -101 72 -173.5t175 -72.5q102 0 175 72q50 51 65 117zM904 317q-107 -113 -240 -113t-227.5 94.5t-94.5 225.5q0 134 94.5 228.5t227.5 94.5t240 -112v100h72v-572q16 -38 48 -38
q39 0 108 97.5t69 200.5q0 222 -157.5 380t-379.5 158t-379 -158t-157 -380q0 -221 157 -378t379 -157q152 0 222 43l50 -53q-106 -62 -272 -62q-251 0 -430 178.5t-179 428.5q0 251 179 430t430 179q252 0 429.5 -179t177.5 -430q0 -112 -82 -240t-181 -128q-11 0 -22 2
q-76 16 -82 88v72z" />
    <glyph glyph-name="A" unicode="A" horiz-adv-x="1116" 
d="M774 701l-215 593l-216 -593h431zM600 1414l513 -1414h-84l-226 622h-489l-230 -622h-85l519 1414h82z" />
    <glyph glyph-name="B" unicode="B" horiz-adv-x="1033" 
d="M519 80q157 0 268 111.5t111 269.5t-111 270t-268 112h-327v-763h327zM192 1335v-412h360q87 9 130 52q61 61 61 149q0 87 -61.5 149t-148.5 62h-341zM703 887q78 -33 143 -99q135 -135 135 -327q0 -191 -135 -326q-113 -113 -275 -135h-459v1414h422q121 0 205.5 -85
t84.5 -205t-85 -205q-18 -19 -36 -32z" />
    <glyph glyph-name="C" unicode="C" horiz-adv-x="1347" 
d="M1224 225l61 -54q-207 -188 -487 -188q-301 0 -512.5 211.5t-211.5 512.5q0 299 211.5 511.5t512.5 212.5q280 0 487 -189l-61 -54q-182 161 -426 161q-266 0 -454.5 -188t-188.5 -454q0 -267 188.5 -455t454.5 -188q244 0 426 161z" />
    <glyph glyph-name="D" unicode="D" horiz-adv-x="1189" 
d="M374 1414q349 -2 541 -195q212 -213 212 -512q0 -301 -212 -513q-192 -192 -541 -194h-262v1414h262zM192 1331v-1249h181q305 0 481 170q188 188 188 455q0 266 -188 455q-176 169 -481 169h-181z" />
    <glyph glyph-name="E" unicode="E" horiz-adv-x="931" 
d="M819 1414v-80h-627v-587h627v-80h-627v-587h627v-80h-707v1414h707z" />
    <glyph glyph-name="F" unicode="F" horiz-adv-x="783" 
d="M731 1414v-80h-539v-587h539v-80h-539v-667h-80v1414h619z" />
    <glyph glyph-name="G" unicode="G" horiz-adv-x="1359" 
d="M1279 176q-201 -193 -481 -193q-301 0 -512.5 211.5t-211.5 512.5q0 299 211.5 511.5t512.5 212.5q280 0 487 -189l-61 -54q-182 161 -426 161q-266 0 -454.5 -188t-188.5 -454q0 -267 188.5 -455t454.5 -188q228 0 402 140v431h79v-459z" />
    <glyph glyph-name="H" unicode="H" horiz-adv-x="1072" 
d="M174 667v-667h-80v1414h80v-667h724v667h80v-1414h-80v667h-724z" />
    <glyph glyph-name="I" unicode="I" horiz-adv-x="324" 
d="M202 1414v-1414h-80v1414h80z" />
    <glyph glyph-name="J" unicode="J" horiz-adv-x="306" 
d="M192 -27q0 -108 -73 -181.5t-180 -73.5v80q73 0 124 50q49 49 49 135v1431h80v-1441z" />
    <glyph glyph-name="K" unicode="K" horiz-adv-x="999" 
d="M762 1414l-367 -531l618 -883h-97l-572 817l-152 -218v-599h-80v1414h80v-677l473 677h97z" />
    <glyph glyph-name="L" unicode="L" horiz-adv-x="783" 
d="M112 0v1414h80v-1334h539v-80h-619z" />
    <glyph glyph-name="M" unicode="M" horiz-adv-x="1442" 
d="M1349 1414v-1414h-80v1328l-497 -651l-50 -66l-51 66l-497 651v-1328h-80v1414h116l512 -670l511 670h116z" />
    <glyph glyph-name="N" unicode="N" horiz-adv-x="1339" 
d="M210 1414l940 -1317v1317h80v-1414h-123l-918 1286v-1286h-80v1414h101z" />
    <glyph glyph-name="O" unicode="O" horiz-adv-x="1575" 
d="M1300.5 1221.5q212.5 -212.5 212.5 -512.5q0 -301 -212.5 -513.5t-513.5 -212.5q-300 0 -512.5 212.5t-212.5 513.5q0 300 212.5 512.5t512.5 212.5q301 0 513.5 -212.5zM787 1353q-266 0 -455 -189t-189 -455q0 -267 189 -456t455 -189q267 0 456 189t189 456
q0 266 -189 455t-456 189z" />
    <glyph glyph-name="P" unicode="P" horiz-adv-x="959" 
d="M192 490v-490h-80v1414h371q162 -22 275 -135q135 -136 135 -326q0 -192 -135 -327.5t-326 -135.5h-240zM192 1333v-762h240q157 0 269 111.5t112 270.5q0 158 -112 269t-269 111h-240z" />
    <glyph glyph-name="Q" unicode="Q" horiz-adv-x="1575" 
d="M787 1353q-266 0 -455 -189t-189 -455q0 -267 189 -456t455 -189q267 0 456 189t189 456q0 266 -189 455t-456 189zM779 -17q-295 3 -504 213q-213 212 -213 513q0 300 212.5 512.5t512.5 212.5q301 0 513.5 -212.5t212.5 -512.5q0 -301 -212 -513q-154 -154 -353 -196
q5 -2 9 -3q65 -17 174 -86q74 -40 104 -49q19 -5 37 -5q31 0 62 17q46 26 60 77q5 15 6 29h80q-2 -24 -9 -49q-24 -83 -99 -125q-47 -28 -99 -28q-29 0 -59 9q-53 14 -150 76q-90 48 -128 58q-26 7 -50 7q-45 0 -85 -23q-66 -37 -85 -108q-4 -11 -5 -21h-80q2 21 8 43
q29 102 123 155q9 5 17 9z" />
    <glyph glyph-name="R" unicode="R" horiz-adv-x="959" 
d="M192 1333v-762h240q157 0 269 111.5t112 270.5q0 158 -112 269t-269 111h-240zM456 491q-12 -1 -24 -1h-240v-490h-80v1414h371q162 -22 275 -135q135 -136 135 -326q0 -192 -135 -327q-94 -94 -215 -123l326 -503h-98z" />
    <glyph glyph-name="S" unicode="S" horiz-adv-x="942" 
d="M495 783q-151 50 -238.5 137.5t-87.5 212.5q0 122 87.5 210t212.5 88q123 0 212 -88q48 -47 67 -105l-72 -28q-16 43 -52 79q-64 64 -155 64t-155.5 -64t-64.5 -156q0 -91 64 -156q60 -59 166 -108q170 -55 286 -171q122 -122 122 -295q0 -174 -122.5 -297t-295.5 -123
q-174 0 -296 124q-99 98 -118 228l75 27q12 -115 98 -200q100 -100 241 -100t241 100t100 241q0 140 -100 240q-88 88 -215 140z" />
    <glyph glyph-name="T" unicode="T" horiz-adv-x="859" 
d="M469 1334v-1334h-79v1334h-358v80h795v-80h-358z" />
    <glyph glyph-name="U" unicode="U" horiz-adv-x="1147" 
d="M955 1414h80v-1016q-22 -162 -135 -275q-135 -135 -326 -135q-192 0 -327 135t-135 326v965h80v-965q0 -157 112 -269t270 -112t269.5 112t111.5 269v965z" />
    <glyph glyph-name="V" unicode="V" horiz-adv-x="1133" 
d="M515 0l-515 1413h84l479 -1313l486 1314h84l-521 -1414h-97z" />
    <glyph glyph-name="W" unicode="W" horiz-adv-x="1642" 
d="M864 999l351 -870l344 1285h83l-379 -1414h-81l-361 894l-361 -894h-82l-378 1414h82l343 -1285h1l350 870h88z" />
    <glyph glyph-name="X" unicode="X" horiz-adv-x="1018" 
d="M15 0l448 777l-368 637h91l322 -559l323 559h91l-369 -637l450 -777h-91l-404 698l-403 -698h-90z" />
    <glyph glyph-name="Y" unicode="Y" horiz-adv-x="1116" 
d="M518 572l-486 842h91l435 -754l435 754h91l-486 -842v-572h-80v572z" />
    <glyph glyph-name="Z" unicode="Z" horiz-adv-x="1075" 
d="M854 1334h-670v80h807l-771 -1334h841v-80h-977z" />
    <glyph glyph-name="bracketleft" unicode="[" horiz-adv-x="384" 
d="M135 -40h194v-79h-274v1665h274v-79h-194v-1507z" />
    <glyph glyph-name="backslash" unicode="\" horiz-adv-x="627" 
d="M679 0h-90l-641 1414h91z" />
    <glyph glyph-name="bracketright" unicode="]" horiz-adv-x="384" 
d="M249 1467h-194v79h274v-1665h-274v79h194v1507z" />
    <glyph glyph-name="asciicircum" unicode="^" horiz-adv-x="833" 
d="M463 1414l272 -472h-92l-226 391l-226 -391h-93l273 472h92z" />
    <glyph glyph-name="underscore" unicode="_" horiz-adv-x="794" 
d="M-45 -27h884v-79h-884v79z" />
    <glyph glyph-name="grave" unicode="`" horiz-adv-x="441" 
d="M222 1237l144 -165h-75l-216 165h147z" />
    <glyph glyph-name="a" unicode="a" horiz-adv-x="1122" 
d="M1033 0h-80v177q-23 -31 -50 -59q-142 -143 -344 -143q-200 0 -342.5 142.5t-142.5 342.5q0 202 142.5 344t342.5 142q202 0 344 -142q27 -28 50 -59v123h80v-868zM953 382v157q-22 117 -110 205q-118 118 -284 118t-283.5 -118t-117.5 -284t117.5 -283t283.5 -117
t284 118q88 88 110 204z" />
    <glyph glyph-name="b" unicode="b" horiz-adv-x="1131" 
d="M99 1414h80v-668q22 30 50 58q142 142 343 142t343 -142t142 -344q0 -200 -142 -342.5t-343 -142.5t-343 143q-28 28 -50 58v-176h-80v1414zM179 543v-166q22 -113 109 -199q118 -118 284 -118t283.5 117t117.5 283t-117.5 284t-283.5 118t-284 -118q-87 -87 -109 -201z
" />
    <glyph glyph-name="c" unicode="c" horiz-adv-x="985" 
d="M849 209l84 -31q-23 -31 -52 -60q-142 -143 -344 -143q-200 0 -342.5 142.5t-142.5 343.5t142.5 343t342.5 142q202 0 344 -142q29 -29 52 -60l-84 -31q-13 16 -28 32q-118 117 -284 117q-165 0 -282.5 -117.5t-117.5 -283.5t117.5 -283.5t282.5 -117.5q166 0 284 118
q15 15 28 31z" />
    <glyph glyph-name="d" unicode="d" horiz-adv-x="1122" 
d="M1033 0h-80v177q-23 -31 -50 -59q-142 -143 -344 -143q-200 0 -342.5 142.5t-142.5 342.5q0 202 142.5 344t342.5 142q202 0 344 -142q27 -28 50 -59v669h80v-1414zM953 382v157q-22 117 -110 205q-118 118 -284 118t-283.5 -118t-117.5 -284t117.5 -283t283.5 -117
t284 118q88 88 110 204z" />
    <glyph glyph-name="e" unicode="e" horiz-adv-x="1042" 
d="M154 586h762q-28 91 -95 158q-118 118 -284 118t-284 -118q-70 -71 -99 -158zM139 505q-3 -21 -3 -45q0 -166 117.5 -283t283.5 -117t284 118q20 20 38 42l85 -30q-15 -25 -63 -72q-142 -143 -344 -143q-200 0 -342.5 142.5t-142.5 342.5q0 202 142.5 344t342.5 142
q202 0 344 -142q125 -126 125 -299h-867z" />
    <glyph glyph-name="f" unicode="f" horiz-adv-x="383" 
d="M190 788v-788h-80v788h-88v80h88v235q6 98 75 169q73 67 167 67q50 0 105 -19l-25 -71q-37 16 -72 16q-62 0 -118 -50q-49 -49 -52 -118v-229h177v-80h-177z" />
    <glyph glyph-name="g" unicode="g" horiz-adv-x="1083" 
d="M930 543q-23 114 -109 201q-118 118 -284 118t-283.5 -118t-117.5 -284t117.5 -283.5t283.5 -117.5t284 118q85 85 109 199v167zM929 172q-23 -28 -48 -54q-142 -143 -344 -143q-200 0 -342.5 142.5t-142.5 342.5q0 202 142.5 343.5t342.5 141.5q202 0 344 -141
q27 -28 50 -59v123h80v-674q0 -196 -139 -334q-142 -143 -343 -143t-344 143q-29 29 -52 60l84 31q13 -16 29 -31q117 -118 283 -118q165 0 283 118q107 107 117 252z" />
    <glyph glyph-name="h" unicode="h" horiz-adv-x="859" 
d="M94 1414h80v-591q100 97 242 97q153 0 249.5 -96.5t99.5 -242.5v-581h-80v573q0 111 -80 189t-189 78q-110 0 -189 -77q-36 -35 -53 -73v-690h-80v1414z" />
    <glyph glyph-name="i" unicode="i" horiz-adv-x="317" 
d="M198 868v-868h-79v868h79zM214.5 1152q23.5 -23 23.5 -55q0 -34 -23.5 -57t-55.5 -23q-33 0 -56.5 23t-23.5 57q0 32 23.5 55t56.5 23q32 0 55.5 -23z" />
    <glyph glyph-name="j" unicode="j" horiz-adv-x="284" 
d="M-11 -122q107 12 107 120v870h79v-868q0 -186 -186 -201v79zM191.5 1152q23.5 -23 23.5 -55q0 -34 -23.5 -57t-55.5 -23q-33 0 -56.5 23t-23.5 57q0 32 23.5 55t56.5 23q32 0 55.5 -23z" />
    <glyph glyph-name="k" unicode="k" horiz-adv-x="635" 
d="M522 868l-214 -265l341 -603h-98l-295 539l-77 -96v-443h-80v1237h80v-667l241 298h102z" />
    <glyph glyph-name="l" unicode="l" horiz-adv-x="300" 
d="M190 1414v-1414h-80v1414h80z" />
    <glyph glyph-name="m" unicode="m" horiz-adv-x="1148" 
d="M99 868h80v-21q74 72 177 72q107 0 182 -75q20 -20 35 -44q16 23 37 44q75 75 182 75t182 -75q71 -73 75 -174v-670h-80v670h1q-3 69 -52 117q-53 52 -126 52q-74 0 -126.5 -52t-52.5 -130v-657h-79v670h1q-4 69 -53 117q-53 52 -126 52t-125 -52q-46 -45 -52 -110v-677
h-80v868z" />
    <glyph glyph-name="n" unicode="n" horiz-adv-x="879" 
d="M179 674v-674h-80v868h80v-56q108 108 252 108q154 0 250.5 -96.5t98.5 -242.5v-581h-79v573q0 111 -80 189t-190 78q-109 0 -189 -77q-43 -43 -63 -89z" />
    <glyph glyph-name="o" unicode="o" horiz-adv-x="1114" 
d="M557 946q202 0 343.5 -142t141.5 -344q0 -200 -141.5 -342.5t-343.5 -142.5q-200 0 -342.5 142.5t-142.5 342.5q0 202 142.5 344t342.5 142zM273.5 744q-117.5 -118 -117.5 -284t117.5 -283t283.5 -117t283.5 117t117.5 283t-117.5 284t-283.5 118t-283.5 -118z" />
    <glyph glyph-name="p" unicode="p" horiz-adv-x="1110" 
d="M92 868h80v-122q22 30 50 58q142 141 343 141t343 -141.5t142 -343.5q0 -200 -142 -342.5t-343 -142.5t-343 143q-28 28 -50 58v-507h-80v1199zM172 543v-166q22 -114 109 -200q118 -118 284 -118t283.5 117.5t117.5 283.5t-117.5 284t-283.5 118t-284 -118
q-87 -87 -109 -201z" />
    <glyph glyph-name="q" unicode="q" horiz-adv-x="1107" 
d="M1019 -331h-80v508q-23 -31 -50 -59q-142 -143 -344 -143q-200 0 -342.5 142.5t-142.5 342.5q0 202 142.5 343.5t342.5 141.5q202 0 344 -141q27 -28 50 -59v123h80v-1199zM939 382v157q-22 117 -110 205q-118 118 -284 118t-283.5 -118t-117.5 -284t117.5 -283.5
t283.5 -117.5t284 118q88 88 110 205z" />
    <glyph glyph-name="r" unicode="r" horiz-adv-x="406" 
d="M406 798q-65 -13 -132 -81q-113 -112 -117 -269v-448h-80v868h80v-158q24 35 57 68q73 73 148 97z" />
    <glyph glyph-name="s" unicode="s" horiz-adv-x="644" 
d="M324 466q-101 55 -140 94q-61 61 -61 147t61 147.5t147 61.5t143 -57q55 -55 55 -126v-4l-69 -28q-9 67 -42 101t-87 34q-53 0 -91 -38t-38 -91t38 -91q22 -23 93 -68q113 -61 161 -109q75 -76 75 -181q0 -108 -75 -183.5t-182 -75.5t-182 75.5t-75 165.5l79 20
q0 -77 52.5 -129.5t125.5 -52.5t126 52.5t53 127.5q0 73 -53 125q-28 28 -114 83z" />
    <glyph glyph-name="t" unicode="t" horiz-adv-x="497" 
d="M209 868v369h79v-369h177v-80h-177v-788h-79v788h-177v80h177z" />
    <glyph glyph-name="u" unicode="u" horiz-adv-x="880" 
d="M445 -12q-163 0 -259 96t-99 243v542h80v-535q0 -110 80 -188q79 -79 197 -79q110 0 189.5 78.5t79.5 188.5v535h80v-542q-3 -147 -99 -243t-249 -96z" />
    <glyph glyph-name="v" unicode="v" horiz-adv-x="814" 
d="M814 868l-358 -868h-102l-354 868h93l312 -743l316 743h93z" />
    <glyph glyph-name="w" unicode="w" horiz-adv-x="1094" 
d="M92 868l221 -743l181 595h105l177 -595l227 743h91l-267 -868h-102l-179 592l-182 -592h-102l-262 868h92z" />
    <glyph glyph-name="x" unicode="x" horiz-adv-x="637" 
d="M98 868l221 -307l220 307h94l-268 -387l-3 -5l3 -4l272 -472h-92l-226 391l-226 -391h-93l273 472l3 4l-3 5l-268 387h93z" />
    <glyph glyph-name="y" unicode="y" horiz-adv-x="779" 
d="M434 163l-229 -493h-89l229 491l-330 707h89l285 -606l286 606h89l-329 -705h-1z" />
    <glyph glyph-name="z" unicode="z" horiz-adv-x="743" 
d="M510 776h-448v79h585l-449 -775h483v-80h-619z" />
    <glyph glyph-name="braceleft" unicode="{" horiz-adv-x="649" 
d="M55 657q10 -1 19 -1q53 0 106 30q95 54 124 158q16 59 16 124q0 36 -5 174q-12 60 -12 113q0 57 14 108q26 96 116 146q58 33 120 33q17 0 41 -4v-80q-25 3 -39 3q-42 0 -81 -21q-60 -33 -78 -99q-12 -45 -12 -101q0 -25 1 -52q15 -64 15 -226q0 -71 -19 -140
q-38 -135 -173 -211q135 -76 173 -211q19 -68 19 -139q0 -162 -15 -226q-1 -27 -1 -52q0 -57 12 -102q17 -65 78 -98q40 -22 83 -22q13 0 37 3v-80q-24 -3 -41 -3q-62 0 -120 32q-90 51 -116 148q-14 50 -14 107q0 54 12 113q5 38 5 173q0 66 -16 125q-29 103 -124 157
q-53 30 -106 30q-9 0 -19 -1v92z" />
    <glyph glyph-name="bar" unicode="|" horiz-adv-x="190" 
d="M135 1546v-1670h-80v1670h80z" />
    <glyph glyph-name="braceright" unicode="}" horiz-adv-x="649" 
d="M594 565q-10 1 -19 1q-53 0 -106 -30q-95 -54 -124 -157q-16 -59 -16 -125q0 -135 5 -173q12 -59 12 -113q0 -57 -14 -107q-26 -97 -116 -148q-58 -32 -120 -32q-17 0 -41 3v80q24 -3 37 -3q43 0 83 22q61 33 78 98q12 45 12 102q0 25 -1 52q-15 64 -15 226q0 71 19 139
q38 135 173 211q-135 76 -173 211q-19 69 -19 140q0 162 15 226q1 27 1 52q0 56 -12 101q-18 66 -78 99q-39 21 -81 21q-14 0 -39 -3v80q24 4 41 4q62 0 120 -33q90 -50 116 -146q14 -51 14 -108q0 -53 -12 -113q-5 -138 -5 -174q0 -65 16 -124q29 -104 124 -158
q53 -30 106 -30q9 0 19 1v-92z" />
    <glyph glyph-name="asciitilde" unicode="~" horiz-adv-x="1057" 
d="M528 761q166 -97 242 -97q13 0 23 3q68 20 96 88q13 34 13 69l80 -13q-3 -42 -20 -86q-41 -98 -138 -130q-22 -7 -49 -7q-93 0 -246 87q-168 96 -242 96q-12 0 -23 -2q-68 -21 -95 -89q-14 -34 -14 -68l-80 13q2 42 19 85q41 98 139 131q22 7 49 7q93 0 246 -87z" />
    <glyph glyph-name="exclamdown" unicode="&#xa1;" horiz-adv-x="269" 
d="M72.5 1291q-23.5 23 -23.5 56t23.5 56t55.5 23q33 0 56.5 -23t23.5 -56t-23.5 -56t-56.5 -23q-32 0 -55.5 23zM90 0v1170h80v-1170h-80z" />
    <glyph glyph-name="cent" unicode="&#xa2;" 
d="M575 623q127 2 218 93q11 11 24 27l77 -28q-23 -31 -46 -55q-114 -114 -273 -116v-136h-79v142q-116 21 -204 110q-116 115 -116 278t116 279q88 88 204 109v143h79v-137q159 -1 273 -115q23 -24 46 -54l-77 -29q-13 16 -24 28q-91 90 -218 92v-631zM496 1246
q-84 -20 -149 -84q-92 -93 -92 -224q0 -130 92 -222q65 -66 149 -85v615z" />
    <glyph glyph-name="sterling" unicode="&#xa3;" 
d="M431 490q3 -18 5 -38q2 -19 2 -38q0 -181 -151 -358q111 39 218 39q63 0 126 -14q88 -20 166 -20q71 0 134 16l15 -79q-72 -17 -149 -17q-78 0 -161 19q-87 19 -153 19q-60 0 -104 -15q-92 -34 -178 -77l-77 91q110 97 138 131q95 113 95 258q0 20 -1 39q-2 22 -6 44
h-201v80h184q-23 84 -66 167q-98 159 -110 303q-2 17 -2 34q0 122 81 220q91 108 235 122h34q123 0 221 -81q109 -93 123 -236q2 -20 2 -39q0 -55 -19 -100l-76 25q13 38 13 84q0 13 -1 25q-10 109 -94 179q-75 62 -168 62q-13 0 -25 -1q-110 -9 -180 -93q-62 -75 -62 -167
q0 -14 1 -27q9 -100 69 -226q76 -122 107 -251h175v-80h-160z" />
    <glyph glyph-name="currency" unicode="&#xa4;" 
d="M311 1292q96 78 224 78t223 -78l123 123l57 -57l-123 -123q79 -95 79 -223t-79 -224l123 -123l-57 -56l-123 123q-95 -79 -223 -79t-224 79l-122 -123l-57 56l123 123q-79 96 -79 224t79 223l-123 123l57 57zM702 1235q-72 56 -167 56q-96 0 -167 -56q-16 -11 -30 -25
q-15 -15 -27 -31q-55 -72 -55 -167q0 -96 55 -167q12 -16 27 -30q14 -15 30 -27q71 -55 167 -55q95 0 167 55q16 12 31 27q14 14 25 30q56 71 56 167q0 95 -56 167q-11 16 -25 31q-15 14 -31 25z" />
    <glyph glyph-name="yen" unicode="&#xa5;" 
d="M539 667l431 747h91l-432 -747h260v-79h-306l-8 -16v-90h314v-80h-314v-402h-80v402h-313v80h313v90l-9 16h-304v79h258l-431 747h91l430 -747h9z" />
    <glyph glyph-name="brokenbar" unicode="&#xa6;" horiz-adv-x="190" 
d="M135 1414v-718h-80v718h80zM135 387v-718h-80v718h80z" />
    <glyph glyph-name="section" unicode="&#xa7;" 
d="M802 305q10 12 23 25q56 56 56 198q0 140 -100 240q-88 87 -215 139q-151 51 -238 138q-38 38 -60 83q-9 -12 -23 -25q-55 -56 -55 -197t100 -241q87 -87 214 -139q151 -51 239 -138q38 -38 59 -83zM245 1203q-5 26 -5 54q0 122 87.5 210t212.5 88q123 0 212 -87
q48 -47 67 -105l-72 -29q-16 44 -52 80q-64 63 -155 63t-155.5 -64t-64.5 -156q0 -91 64 -155q60 -59 166 -109q170 -55 286 -170q122 -122 122 -295q0 -175 -78 -253q-32 -32 -54 -45q4 -26 4 -54q0 -122 -87.5 -210t-211.5 -88t-212 88q-49 46 -67 105l71 28
q16 -43 52 -80q65 -63 156 -63t155.5 64t64.5 156q0 91 -65 155q-60 60 -166 109q-169 55 -285 171q-123 122 -123 295q0 174 79 252q31 32 54 45z" />
    <glyph glyph-name="dieresis" unicode="&#xa8;" horiz-adv-x="574" 
d="M210.5 1282q23.5 -23 23.5 -55q0 -34 -23.5 -57t-55.5 -23q-33 0 -56.5 23t-23.5 57q0 32 23.5 55t56.5 23q32 0 55.5 -23zM475.5 1282q23.5 -23 23.5 -55q0 -34 -23.5 -57t-55.5 -23q-33 0 -56.5 23t-23.5 57q0 32 23.5 55t56.5 23q32 0 55.5 -23z" />
    <glyph glyph-name="copyright" unicode="&#xa9;" horiz-adv-x="1075" 
d="M728 399l73 -28q-24 -32 -41 -50q-88 -88 -212 -88t-212 88t-88 212t88 211.5t212 87.5t212 -87q17 -19 41 -51l-73 -27q-13 15 -22 25q-66 65 -158 65q-93 0 -159 -65.5t-66 -158.5t66 -159t159 -66q92 0 158 66q9 9 22 25zM917.5 913.5q157.5 -157.5 157.5 -380.5
t-157.5 -380.5t-379.5 -157.5q-223 0 -380.5 157.5t-157.5 380.5t157.5 380.5t380.5 157.5q222 0 379.5 -157.5zM538 994q-191 0 -326 -135t-135 -326t135 -326t326 -135t325.5 135t134.5 326t-134.5 326t-325.5 135z" />
    <glyph glyph-name="ordfeminine" unicode="&#xaa;" horiz-adv-x="554" 
d="M499 937h-62v52q-64 -63 -157 -63q-94 0 -159.5 73t-65.5 175t65.5 175.5t159.5 73.5q93 0 157 -83v45h62v-448zM437 1137v73q-8 52 -45 92q-46 52 -112 52q-67 0 -114 -52.5t-47 -127.5t47 -127t114 -52q66 0 112 52q37 39 45 90z" />
    <glyph glyph-name="guillemotleft" unicode="&#xab;" horiz-adv-x="816" 
d="M359 425l402 425v-113l-290 -312l290 -311v-114zM55 425l396 425v-113l-291 -312l291 -311v-114z" />
    <glyph glyph-name="logicalnot" unicode="&#xac;" 
d="M935 246h-80v339h-720v80h800v-419z" />
    <glyph glyph-name="registered" unicode="&#xae;" horiz-adv-x="973" 
d="M393 1204v-320h96q66 0 113 47t47 113t-47 113t-113 47h-96zM608 641l-115 179h-100v-137h-62v583h182q79 -10 134 -65q64 -65 64 -157q0 -94 -64 -159q-47 -45 -86 -55l106 -163q40 24 79 62q108 108 108 260t-107.5 259.5t-259.5 107.5q-153 0 -260.5 -107.5
t-107.5 -259.5t108 -260q51 -51 112 -78q24 -10 50 -18q46 -12 98 -12q68 0 121 20zM487 557q-180 0 -306 126.5t-126 305.5t126 305.5t306 126.5q178 0 304.5 -126.5t126.5 -305.5t-126 -306q-45 -44 -124 -85t-181 -41z" />
    <glyph glyph-name="macron" unicode="&#xaf;" horiz-adv-x="671" 
d="M75 1203h521v-80h-521v80z" />
    <glyph glyph-name="degree" unicode="&#xb0;" horiz-adv-x="382" 
d="M295 1313.5q43 -43.5 43 -103.5q0 -61 -43 -104t-104 -43t-104 43t-43 104q0 60 43 103.5t104 43.5t104 -43.5zM191 1292q-34 0 -58 -24t-24 -58t24 -58.5t58 -24.5t58 24.5t24 58.5t-24 58t-58 24z" />
    <glyph glyph-name="plusminus" unicode="&#xb1;" 
d="M495 80v403h-410v80h410v410h80v-410h410v-80h-410v-403h410v-80h-900v80h410z" />
    <glyph glyph-name="uni00B2" unicode="&#xb2;" horiz-adv-x="426" 
d="M5 697q295 450 315.5 485.5t20.5 65.5q0 15 -4 31q-11 47 -51 73q-29 17 -60 17q-14 0 -28 -3q-47 -11 -72 -52q-15 -22 -20 -62l-76 11q5 55 29 92q44 69 121 87q24 5 46 5q55 0 102 -30q69 -43 86 -121q7 -28 7 -53q0 -47 -25 -92t-245 -378h270v-76h-416z" />
    <glyph glyph-name="uni00B3" unicode="&#xb3;" horiz-adv-x="467" 
d="M208 1093l-50 2v74q56 1 79 10t49.5 37.5t26.5 66.5t-26 64.5t-64 26.5q-37 0 -64 -27q-15 -15 -29 -51l-70 28q16 51 43 78q50 49 120 49t119.5 -49.5t49.5 -118.5q0 -70 -62 -145q21 -7 67 -56q65 -70 65 -164q0 -95 -67 -162t-162 -67q-94 0 -162 67q-53 54 -66 141
l75 27q9 -75 47 -113q44 -44 106 -44q63 0 107 44t44 107t-43.5 110.5t-132.5 64.5z" />
    <glyph glyph-name="acute" unicode="&#xb4;" horiz-adv-x="441" 
d="M366 1237l-217 -165h-74l144 165h147z" />
    <glyph glyph-name="mu" unicode="&#xb5;" horiz-adv-x="815" 
d="M659 98q-4 -4 -9 -10q-97 -96 -250 -96q-142 0 -242 97v-420h-80v1199h80v-646q17 -38 53 -74q79 -76 189 -76q109 0 190 78q51 51 69 115v603h78v-868h-78v98z" />
    <glyph glyph-name="paragraph" unicode="&#xb6;" 
d="M752 1416v-1747h-79v902h-135q-191 0 -326 135t-135 327q0 191 135 326q113 113 275 135h71v1h434v-79h-78v-1747h-80v1747h-82z" />
    <glyph glyph-name="periodcentered" unicode="&#xb7;" horiz-adv-x="245" 
d="M170 754.5q20 -19.5 20 -47.5t-20 -47.5t-47 -19.5q-28 0 -48 19.5t-20 47.5t20 47.5t48 19.5q27 0 47 -19.5z" />
    <glyph glyph-name="periodcentered" unicode="&#x2219;" horiz-adv-x="245" 
d="M170 754.5q20 -19.5 20 -47.5t-20 -47.5t-47 -19.5q-28 0 -48 19.5t-20 47.5t20 47.5t48 19.5q27 0 47 -19.5z" />
    <glyph glyph-name="cedilla" unicode="&#xb8;" horiz-adv-x="434" 
d="M256 8l-56 -64q32 6 58 6q51 0 80 -23q40 -31 40 -74v-9q-5 -49 -61 -90q-49 -28 -104 -28q-31 0 -65 9l17 51q28 -11 55 -11q31 0 60 15q25 18 30 43q1 5 1 11q0 18 -14 32q-18 17 -49 18h-4q-29 0 -47 -6q-19 -7 -57 -33l-35 34l70 119h81z" />
    <glyph glyph-name="uni00B9" unicode="&#xb9;" horiz-adv-x="396" 
d="M162 765v537l-56 -37l-61 45l193 139v-684h153v-76h-386v76h157z" />
    <glyph glyph-name="ordmasculine" unicode="&#xba;" horiz-adv-x="532" 
d="M266 995q72 5 111 52q42 52 42 127t-42 128q-39 47 -111 52q-72 -5 -110 -52q-42 -53 -42 -128t42 -127q38 -47 110 -52zM256 926q-84 0 -142.5 73t-58.5 175t58.5 175.5t142.5 73.5h20q84 0 142.5 -73.5t58.5 -175.5t-58.5 -175t-142.5 -73h-20z" />
    <glyph glyph-name="guillemotright" unicode="&#xbb;" horiz-adv-x="816" 
d="M55 0v114l289 311l-289 312v113l402 -425zM365 0v114l290 311l-290 312v113l396 -425z" />
    <glyph glyph-name="onequarter" unicode="&#xbc;" horiz-adv-x="1537" 
d="M1199 820v-562h67v-76h-67v-182h-76v182h-306zM1123 549l-174 -291h174v291zM318 765v537l-56 -37l-61 45l193 139v-684h153v-76h-386v76h157zM1532 1414l-1415 -1414h-112l1413 1414h114z" />
    <glyph glyph-name="onehalf" unicode="&#xbd;" horiz-adv-x="1537" 
d="M318 765v537l-56 -37l-61 45l193 139v-684h153v-76h-386v76h157zM1532 1414l-1415 -1414h-112l1413 1414h114zM933 0q296 451 316 486.5t20 65.5q0 14 -4 30q-10 48 -51 73q-29 18 -60 18q-14 0 -28 -4q-47 -10 -72 -51q-15 -23 -20 -62l-76 11q5 55 29 92q44 68 121 86
q24 6 46 6q55 0 103 -31q68 -43 85 -120q7 -28 7 -54q0 -46 -25 -91t-245 -379h270v-76h-416z" />
    <glyph glyph-name="threequarters" unicode="&#xbe;" horiz-adv-x="1537" 
d="M1532 1414l-1415 -1414h-112l1413 1414h114zM1199 820v-562h67v-76h-67v-182h-76v182h-306zM1123 549l-174 -291h174v291zM338 1063l-50 2v74q56 1 79 10t49.5 37.5t26.5 66.5t-26 64.5t-64 26.5q-37 0 -64 -27q-15 -15 -29 -51l-70 28q16 51 43 78q50 49 120 49
t119.5 -49.5t49.5 -118.5q0 -70 -62 -145q21 -7 67 -56q65 -70 65 -164q0 -95 -67 -162t-162 -67q-94 0 -162 67q-53 54 -66 141l75 27q9 -75 47 -113q44 -44 106 -44q63 0 107 44t44 107t-43.5 110.5t-132.5 64.5z" />
    <glyph glyph-name="questiondown" unicode="&#xbf;" horiz-adv-x="795" 
d="M476 1169q40 -44 54 -126q5 -27 5 -54q0 -85 -52 -159q-44 -63 -172 -166q-111 -101 -145 -150q-51 -71 -51 -154q0 -24 4 -49q20 -113 114 -179q74 -50 156 -50q24 0 49 4q110 20 175 113q53 75 53 151q0 19 -4 39l85 -6q4 -20 4 -41q0 -90 -69 -189q-83 -121 -230 -147
q-34 -6 -67 -6q-106 0 -199 64q-120 85 -146 233q-6 33 -6 65q0 105 64 200q56 78 199 192q92 83 119 123q37 53 37 115q0 18 -3 37q-9 48 -30 75zM376.5 1292q-23.5 23 -23.5 56t23.5 56t55.5 23q33 0 56.5 -23t23.5 -56t-23.5 -56t-56.5 -23q-32 0 -55.5 23z" />
    <glyph glyph-name="Agrave" unicode="&#xc0;" horiz-adv-x="1116" 
d="M774 701l-215 593l-216 -593h431zM600 1414l513 -1414h-84l-226 622h-489l-230 -622h-85l519 1414h82zM509 1703l144 -165h-75l-216 165h147z" />
    <glyph glyph-name="Aacute" unicode="&#xc1;" horiz-adv-x="1116" 
d="M774 701l-215 593l-216 -593h431zM600 1414l513 -1414h-84l-226 622h-489l-230 -622h-85l519 1414h82zM750 1703l-217 -165h-74l144 165h147z" />
    <glyph glyph-name="Acircumflex" unicode="&#xc2;" horiz-adv-x="1116" 
d="M774 701l-215 593l-216 -593h431zM600 1414l513 -1414h-84l-226 622h-489l-230 -622h-85l519 1414h82zM598 1736l211 -207h-92l-165 126l-155 -126h-93l202 207h92z" />
    <glyph glyph-name="Atilde" unicode="&#xc3;" horiz-adv-x="1116" 
d="M774 701l-215 593l-216 -593h431zM600 1414l513 -1414h-84l-226 622h-489l-230 -622h-85l519 1414h82zM566 1673q59 -43 82 -43h4q18 7 26 32q4 14 4 49l66 -13q-2 -37 -10 -61q-18 -55 -62 -74q-12 -4 -25 -4q-41 0 -105 45q-59 44 -82 44q-3 0 -4 -1q-17 -6 -25 -32
q-5 -14 -5 -49l-65 14q1 37 9 60q18 55 63 74q11 5 25 5q41 0 104 -46z" />
    <glyph glyph-name="Adieresis" unicode="&#xc4;" horiz-adv-x="1116" 
d="M774 701l-215 593l-216 -593h431zM600 1414l513 -1414h-84l-226 622h-489l-230 -622h-85l519 1414h82zM479.5 1748q23.5 -23 23.5 -55q0 -34 -23.5 -57t-55.5 -23q-33 0 -56.5 23t-23.5 57q0 32 23.5 55t56.5 23q32 0 55.5 -23zM744.5 1748q23.5 -23 23.5 -55
q0 -34 -23.5 -57t-55.5 -23q-33 0 -56.5 23t-23.5 57q0 32 23.5 55t56.5 23q32 0 55.5 -23z" />
    <glyph glyph-name="Aring" unicode="&#xc5;" horiz-adv-x="1116" 
d="M774 701l-215 593l-216 -593h431zM600 1414l513 -1414h-84l-226 622h-489l-230 -622h-85l519 1414h82zM633.5 1699q31.5 -32 31.5 -77q0 -44 -31.5 -75.5t-76.5 -31.5t-77 31.5t-32 75.5q0 45 32 77t77 32t76.5 -32zM557 1674q-22 0 -37 -15t-15 -37q0 -20 15 -35t37 -15
q20 0 35 15t15 35q0 22 -15 37t-35 15z" />
    <glyph glyph-name="AE" unicode="&#xc6;" horiz-adv-x="1442" 
d="M1387 747v-80h-627v-587h627v-80h-706v542h-300l-241 -542h-85l615 1414h717v-80h-627v-587h627zM681 621v629l-271 -629h271z" />
    <glyph glyph-name="Ccedilla" unicode="&#xc7;" horiz-adv-x="1347" 
d="M611 5q-183 47 -325 190q-212 211 -212 512q0 299 211.5 511.5t512.5 212.5q280 0 487 -189l-61 -54q-182 161 -426 161q-266 0 -454.5 -188t-188.5 -454q0 -267 188.5 -455t454.5 -188q244 0 426 161l61 -54q-207 -188 -487 -188q-61 0 -118 9l-42 -48q32 6 58 6
q51 0 80 -23q40 -31 40 -74v-9q-5 -49 -61 -90q-49 -28 -104 -28q-31 0 -65 9l17 51q28 -11 55 -11q31 0 60 15q25 18 30 43q1 5 1 11q0 18 -14 32q-18 17 -49 18h-4q-29 0 -47 -6q-19 -7 -57 -33l-35 34z" />
    <glyph glyph-name="Egrave" unicode="&#xc8;" horiz-adv-x="931" 
d="M819 1414v-80h-627v-587h627v-80h-627v-587h627v-80h-707v1414h707zM419 1783l144 -165h-75l-216 165h147z" />
    <glyph glyph-name="Eacute" unicode="&#xc9;" horiz-adv-x="931" 
d="M819 1414v-80h-627v-587h627v-80h-627v-587h627v-80h-707v1414h707zM660 1783l-217 -165h-74l144 165h147z" />
    <glyph glyph-name="Ecircumflex" unicode="&#xca;" horiz-adv-x="931" 
d="M819 1414v-80h-627v-587h627v-80h-627v-587h627v-80h-707v1414h707zM507 1816l211 -207h-92l-165 126l-155 -126h-93l202 207h92z" />
    <glyph glyph-name="Edieresis" unicode="&#xcb;" horiz-adv-x="931" 
d="M819 1414v-80h-627v-587h627v-80h-627v-587h627v-80h-707v1414h707zM389.5 1828q23.5 -23 23.5 -55q0 -34 -23.5 -57t-55.5 -23q-33 0 -56.5 23t-23.5 57q0 32 23.5 55t56.5 23q32 0 55.5 -23zM654.5 1828q23.5 -23 23.5 -55q0 -34 -23.5 -57t-55.5 -23q-33 0 -56.5 23
t-23.5 57q0 32 23.5 55t56.5 23q32 0 55.5 -23z" />
    <glyph glyph-name="Igrave" unicode="&#xcc;" horiz-adv-x="324" 
d="M202 1414v-1414h-80v1414h80zM115 1783l144 -165h-75l-216 165h147z" />
    <glyph glyph-name="Iacute" unicode="&#xcd;" horiz-adv-x="324" 
d="M202 1414v-1414h-80v1414h80zM356 1783l-217 -165h-74l144 165h147z" />
    <glyph glyph-name="Icircumflex" unicode="&#xce;" horiz-adv-x="324" 
d="M203 1414v-1414h-80v1414h80zM204 1816l211 -207h-92l-165 126l-155 -126h-93l202 207h92z" />
    <glyph glyph-name="Idieresis" unicode="&#xcf;" horiz-adv-x="324" 
d="M202 1414v-1414h-80v1414h80zM85.5 1828q23.5 -23 23.5 -55q0 -34 -23.5 -57t-55.5 -23q-33 0 -56.5 23t-23.5 57q0 32 23.5 55t56.5 23q32 0 55.5 -23zM350.5 1828q23.5 -23 23.5 -55q0 -34 -23.5 -57t-55.5 -23q-33 0 -56.5 23t-23.5 57q0 32 23.5 55t56.5 23
q32 0 55.5 -23z" />
    <glyph glyph-name="Eth" unicode="&#xd0;" horiz-adv-x="1240" 
d="M228 667v-585h181q305 0 481 170q188 188 188 455q0 266 -188 455q-176 169 -481 169h-181v-584h492v-80h-492zM148 747v667h262q349 -2 541 -195q212 -213 212 -512q0 -301 -212 -513q-192 -192 -541 -194h-262v667h-128v80h128z" />
    <glyph glyph-name="Ntilde" unicode="&#xd1;" horiz-adv-x="1339" 
d="M210 1414l940 -1317v1317h80v-1414h-123l-918 1286v-1286h-80v1414h101zM679 1673q59 -43 82 -43h4q18 7 26 32q4 14 4 49l66 -13q-2 -37 -10 -61q-18 -55 -62 -74q-12 -4 -25 -4q-41 0 -105 45q-59 44 -82 44q-3 0 -4 -1q-17 -6 -25 -32q-5 -14 -5 -49l-65 14q1 37 9 60
q18 55 63 74q11 5 25 5q41 0 104 -46z" />
    <glyph glyph-name="Ograve" unicode="&#xd2;" horiz-adv-x="1575" 
d="M1300.5 1221.5q212.5 -212.5 212.5 -512.5q0 -301 -212.5 -513.5t-513.5 -212.5q-300 0 -512.5 212.5t-212.5 513.5q0 300 212.5 512.5t512.5 212.5q301 0 513.5 -212.5zM787 1353q-266 0 -455 -189t-189 -455q0 -267 189 -456t455 -189q267 0 456 189t189 456
q0 266 -189 455t-456 189zM741 1783l144 -165h-75l-216 165h147z" />
    <glyph glyph-name="Oacute" unicode="&#xd3;" horiz-adv-x="1575" 
d="M1300.5 1221.5q212.5 -212.5 212.5 -512.5q0 -301 -212.5 -513.5t-513.5 -212.5q-300 0 -512.5 212.5t-212.5 513.5q0 300 212.5 512.5t512.5 212.5q301 0 513.5 -212.5zM787 1353q-266 0 -455 -189t-189 -455q0 -267 189 -456t455 -189q267 0 456 189t189 456
q0 266 -189 455t-456 189zM982 1783l-217 -165h-74l144 165h147z" />
    <glyph glyph-name="Ocircumflex" unicode="&#xd4;" horiz-adv-x="1575" 
d="M1300.5 1221.5q212.5 -212.5 212.5 -512.5q0 -301 -212.5 -513.5t-513.5 -212.5q-300 0 -512.5 212.5t-212.5 513.5q0 300 212.5 512.5t512.5 212.5q301 0 513.5 -212.5zM787 1353q-266 0 -455 -189t-189 -455q0 -267 189 -456t455 -189q267 0 456 189t189 456
q0 266 -189 455t-456 189zM829 1816l211 -207h-92l-165 126l-155 -126h-93l202 207h92z" />
    <glyph glyph-name="Otilde" unicode="&#xd5;" horiz-adv-x="1575" 
d="M1300.5 1221.5q212.5 -212.5 212.5 -512.5q0 -301 -212.5 -513.5t-513.5 -212.5q-300 0 -512.5 212.5t-212.5 513.5q0 300 212.5 512.5t512.5 212.5q301 0 513.5 -212.5zM787 1353q-266 0 -455 -189t-189 -455q0 -267 189 -456t455 -189q267 0 456 189t189 456
q0 266 -189 455t-456 189zM797 1753q59 -43 82 -43h4q18 7 26 32q4 14 4 49l66 -13q-2 -37 -10 -61q-18 -55 -62 -74q-12 -4 -25 -4q-41 0 -105 45q-59 44 -82 44q-3 0 -4 -1q-17 -6 -25 -32q-5 -14 -5 -49l-65 14q1 37 9 60q18 55 63 74q11 5 25 5q41 0 104 -46z" />
    <glyph glyph-name="Odieresis" unicode="&#xd6;" horiz-adv-x="1575" 
d="M1300.5 1221.5q212.5 -212.5 212.5 -512.5q0 -301 -212.5 -513.5t-513.5 -212.5q-300 0 -512.5 212.5t-212.5 513.5q0 300 212.5 512.5t512.5 212.5q301 0 513.5 -212.5zM787 1353q-266 0 -455 -189t-189 -455q0 -267 189 -456t455 -189q267 0 456 189t189 456
q0 266 -189 455t-456 189zM711.5 1828q23.5 -23 23.5 -55q0 -34 -23.5 -57t-55.5 -23q-33 0 -56.5 23t-23.5 57q0 32 23.5 55t56.5 23q32 0 55.5 -23zM976.5 1828q23.5 -23 23.5 -55q0 -34 -23.5 -57t-55.5 -23q-33 0 -56.5 23t-23.5 57q0 32 23.5 55t56.5 23q32 0 55.5 -23
z" />
    <glyph glyph-name="multiply" unicode="&#xd7;" 
d="M534 466l-289 -289l-57 56l290 290l-290 290l57 56l289 -289l290 289l57 -56l-290 -290l290 -290l-57 -56z" />
    <glyph glyph-name="Oslash" unicode="&#xd8;" horiz-adv-x="1647" 
d="M1059 1310q-108 43 -236 43q-266 0 -455 -189t-189 -455q0 -267 189 -456q68 -68 147 -113zM587 107q109 -43 236 -43q267 0 456 189t189 456q0 266 -189 456q-69 68 -147 111zM1166 1350q91 -49 171 -128q212 -213 212 -513q0 -301 -212.5 -513.5t-513.5 -212.5
q-145 0 -270 51l-76 -163l-72 34l76 162q-91 50 -170 129q-213 212 -213 513q0 300 212.5 512.5t512.5 212.5q146 0 271 -50l76 162l72 -33z" />
    <glyph glyph-name="Ugrave" unicode="&#xd9;" horiz-adv-x="1147" 
d="M955 1414h80v-1016q-22 -162 -135 -275q-135 -135 -326 -135q-192 0 -327 135t-135 326v965h80v-965q0 -157 112 -269t270 -112t269.5 112t111.5 269v965zM527 1783l144 -165h-75l-216 165h147z" />
    <glyph glyph-name="Uacute" unicode="&#xda;" horiz-adv-x="1147" 
d="M955 1414h80v-1016q-22 -162 -135 -275q-135 -135 -326 -135q-192 0 -327 135t-135 326v965h80v-965q0 -157 112 -269t270 -112t269.5 112t111.5 269v965zM768 1783l-217 -165h-74l144 165h147z" />
    <glyph glyph-name="Ucircumflex" unicode="&#xdb;" horiz-adv-x="1147" 
d="M955 1414h80v-1016q-22 -162 -135 -275q-135 -135 -326 -135q-192 0 -327 135t-135 326v965h80v-965q0 -157 112 -269t270 -112t269.5 112t111.5 269v965zM615 1816l211 -207h-92l-165 126l-155 -126h-93l202 207h92z" />
    <glyph glyph-name="Udieresis" unicode="&#xdc;" horiz-adv-x="1147" 
d="M955 1414h80v-1016q-22 -162 -135 -275q-135 -135 -326 -135q-192 0 -327 135t-135 326v965h80v-965q0 -157 112 -269t270 -112t269.5 112t111.5 269v965zM497.5 1828q23.5 -23 23.5 -55q0 -34 -23.5 -57t-55.5 -23q-33 0 -56.5 23t-23.5 57q0 32 23.5 55t56.5 23
q32 0 55.5 -23zM762.5 1828q23.5 -23 23.5 -55q0 -34 -23.5 -57t-55.5 -23q-33 0 -56.5 23t-23.5 57q0 32 23.5 55t56.5 23q32 0 55.5 -23z" />
    <glyph glyph-name="Yacute" unicode="&#xdd;" horiz-adv-x="1116" 
d="M518 572l-486 842h91l435 -754l435 754h91l-486 -842v-572h-80v572zM752 1783l-217 -165h-74l144 165h147z" />
    <glyph glyph-name="Thorn" unicode="&#xde;" horiz-adv-x="946" 
d="M178 1169h291q162 -22 275 -135q135 -135 135 -326q0 -192 -135 -327t-326 -135h-240v-246h-80v1414h80v-245zM178 326h240q157 0 269 112t112 270t-112 269.5t-269 111.5h-240v-763z" />
    <glyph glyph-name="germandbls" unicode="&#xdf;" horiz-adv-x="978" 
d="M112 1193q13 64 56 116q79 97 203 111q19 2 37 2q104 0 186 -66q97 -79 110 -201q3 -24 3 -46q0 -95 -48 -158q-59 -79 -115 -110q132 -27 226 -108q134 -116 153 -289q3 -26 3 -51q0 -143 -93 -259q-110 -136 -284 -155q-25 -3 -50 -3q-142 0 -259 94l53 64
q93 -74 207 -74q20 0 40 2q140 16 228 125q74 91 74 206q0 20 -2 42q-15 139 -122.5 233t-195 102.5t-93.5 49.5q-1 4 -1 9q0 34 44 57q50 26 104 98q46 61 46 134q0 13 -2 27q-10 91 -80 147q-59 47 -133 47q-13 0 -27 -2q-88 -9 -146 -79q-30 -38 -42 -82v-1176h-80v1193z
" />
    <glyph glyph-name="agrave" unicode="&#xe0;" horiz-adv-x="1122" 
d="M1033 0h-80v177q-23 -31 -50 -59q-142 -143 -344 -143q-200 0 -342.5 142.5t-142.5 342.5q0 202 142.5 344t342.5 142q202 0 344 -142q27 -28 50 -59v123h80v-868zM953 382v157q-22 117 -110 205q-118 118 -284 118t-283.5 -118t-117.5 -284t117.5 -283t283.5 -117
t284 118q88 88 110 204zM507 1237l144 -165h-75l-216 165h147z" />
    <glyph glyph-name="aacute" unicode="&#xe1;" horiz-adv-x="1122" 
d="M1033 0h-80v177q-23 -31 -50 -59q-142 -143 -344 -143q-200 0 -342.5 142.5t-142.5 342.5q0 202 142.5 344t342.5 142q202 0 344 -142q27 -28 50 -59v123h80v-868zM953 382v157q-22 117 -110 205q-118 118 -284 118t-283.5 -118t-117.5 -284t117.5 -283t283.5 -117
t284 118q88 88 110 204zM748 1237l-217 -165h-74l144 165h147z" />
    <glyph glyph-name="acircumflex" unicode="&#xe2;" horiz-adv-x="1122" 
d="M1033 0h-80v177q-23 -31 -50 -59q-142 -143 -344 -143q-200 0 -342.5 142.5t-142.5 342.5q0 202 142.5 344t342.5 142q202 0 344 -142q27 -28 50 -59v123h80v-868zM953 382v157q-22 117 -110 205q-118 118 -284 118t-283.5 -118t-117.5 -284t117.5 -283t283.5 -117
t284 118q88 88 110 204zM595 1270l211 -207h-92l-165 126l-155 -126h-93l202 207h92z" />
    <glyph glyph-name="atilde" unicode="&#xe3;" horiz-adv-x="1122" 
d="M1033 0h-80v177q-23 -31 -50 -59q-142 -143 -344 -143q-200 0 -342.5 142.5t-142.5 342.5q0 202 142.5 344t342.5 142q202 0 344 -142q27 -28 50 -59v123h80v-868zM953 382v157q-22 117 -110 205q-118 118 -284 118t-283.5 -118t-117.5 -284t117.5 -283t283.5 -117
t284 118q88 88 110 204zM563 1207q59 -43 82 -43h4q18 7 26 32q4 14 4 49l66 -13q-2 -37 -10 -61q-18 -55 -62 -74q-12 -4 -25 -4q-41 0 -105 45q-59 44 -82 44q-3 0 -4 -1q-17 -6 -25 -32q-5 -14 -5 -49l-65 14q1 37 9 60q18 55 63 74q11 5 25 5q41 0 104 -46z" />
    <glyph glyph-name="adieresis" unicode="&#xe4;" horiz-adv-x="1122" 
d="M1033 0h-80v177q-23 -31 -50 -59q-142 -143 -344 -143q-200 0 -342.5 142.5t-142.5 342.5q0 202 142.5 344t342.5 142q202 0 344 -142q27 -28 50 -59v123h80v-868zM953 382v157q-22 117 -110 205q-118 118 -284 118t-283.5 -118t-117.5 -284t117.5 -283t283.5 -117
t284 118q88 88 110 204zM477.5 1282q23.5 -23 23.5 -55q0 -34 -23.5 -57t-55.5 -23q-33 0 -56.5 23t-23.5 57q0 32 23.5 55t56.5 23q32 0 55.5 -23zM742.5 1282q23.5 -23 23.5 -55q0 -34 -23.5 -57t-55.5 -23q-33 0 -56.5 23t-23.5 57q0 32 23.5 55t56.5 23q32 0 55.5 -23z
" />
    <glyph glyph-name="aring" unicode="&#xe5;" horiz-adv-x="1122" 
d="M953 382v157q-22 117 -110 205q-118 118 -284 118t-283.5 -118t-117.5 -284t117.5 -283t283.5 -117t284 118q88 88 110 204zM554 1098q-22 0 -37 -15t-15 -37q0 -20 15 -35t37 -15q20 0 35 15t15 35q0 22 -15 37t-35 15zM591 945q181 -10 312 -141q27 -28 50 -59v123h80
v-868h-80v177q-23 -31 -50 -59q-142 -143 -344 -143q-200 0 -342.5 142.5t-142.5 342.5q0 202 143 344q127 127 302 141q-23 7 -42 26q-32 31 -32 75q0 45 32 77t77 32t76.5 -32t31.5 -77q0 -44 -31 -75q-18 -18 -40 -26z" />
    <glyph glyph-name="ae" unicode="&#xe6;" horiz-adv-x="1873" 
d="M912 653q-27 49 -69 91q-118 118 -284 118t-283.5 -118t-117.5 -284t117.5 -283t283.5 -117t284 118q42 42 69 90q30 53 41 114v157q-11 61 -41 114zM1738 586q-28 91 -96 158q-117 118 -283 118t-284 -118q-24 -24 -42 -49v-109h705zM1033 226q18 -25 42 -48
q118 -118 284 -118t283 118q21 20 38 42l85 -30q-15 -25 -63 -72q-142 -143 -343 -143q-189 0 -326 127v-102h-80v177q-23 -31 -50 -59q-142 -143 -344 -143q-200 0 -342.5 142.5t-142.5 342.5q0 202 142.5 344t342.5 142q202 0 344 -142q27 -28 50 -59v123h80v-48
q137 126 326 126q201 0 343 -142q126 -126 131 -299l-800 1v-280z" />
    <glyph glyph-name="ccedilla" unicode="&#xe7;" horiz-adv-x="985" 
d="M415 -10q-124 31 -220 128q-143 142 -143 343t142.5 343t342.5 142q202 0 344 -142q29 -29 52 -60l-84 -31q-13 16 -28 32q-118 117 -284 117q-165 0 -282.5 -117.5t-117.5 -283.5t117.5 -283.5t282.5 -117.5q166 0 284 118q15 15 28 31l84 -31q-23 -31 -52 -60
q-142 -143 -344 -143q-29 0 -56 3l-30 -34q32 6 58 6q51 0 80 -23q40 -31 40 -74v-9q-5 -49 -61 -90q-49 -28 -104 -28q-31 0 -65 9l17 51q28 -11 55 -11q31 0 60 15q25 18 30 43q1 5 1 11q0 18 -14 32q-18 17 -49 18h-4q-29 0 -47 -6q-19 -7 -57 -33l-35 34z" />
    <glyph glyph-name="egrave" unicode="&#xe8;" horiz-adv-x="1042" 
d="M154 586h762q-28 91 -95 158q-118 118 -284 118t-284 -118q-70 -71 -99 -158zM139 505q-3 -21 -3 -45q0 -166 117.5 -283t283.5 -117t284 118q20 20 38 42l85 -30q-15 -25 -63 -72q-142 -143 -344 -143q-200 0 -342.5 142.5t-142.5 342.5q0 202 142.5 344t342.5 142
q202 0 344 -142q125 -126 125 -299h-867zM482 1237l144 -165h-75l-216 165h147z" />
    <glyph glyph-name="eacute" unicode="&#xe9;" horiz-adv-x="1042" 
d="M154 586h762q-28 91 -95 158q-118 118 -284 118t-284 -118q-70 -71 -99 -158zM139 505q-3 -21 -3 -45q0 -166 117.5 -283t283.5 -117t284 118q20 20 38 42l85 -30q-15 -25 -63 -72q-142 -143 -344 -143q-200 0 -342.5 142.5t-142.5 342.5q0 202 142.5 344t342.5 142
q202 0 344 -142q125 -126 125 -299h-867zM723 1237l-217 -165h-74l144 165h147z" />
    <glyph glyph-name="ecircumflex" unicode="&#xea;" horiz-adv-x="1042" 
d="M154 586h762q-28 91 -95 158q-118 118 -284 118t-284 -118q-70 -71 -99 -158zM139 505q-3 -21 -3 -45q0 -166 117.5 -283t283.5 -117t284 118q20 20 38 42l85 -30q-15 -25 -63 -72q-142 -143 -344 -143q-200 0 -342.5 142.5t-142.5 342.5q0 202 142.5 344t342.5 142
q202 0 344 -142q125 -126 125 -299h-867zM571 1270l211 -207h-92l-165 126l-155 -126h-93l202 207h92z" />
    <glyph glyph-name="edieresis" unicode="&#xeb;" horiz-adv-x="1042" 
d="M154 586h762q-28 91 -95 158q-118 118 -284 118t-284 -118q-70 -71 -99 -158zM139 505q-3 -21 -3 -45q0 -166 117.5 -283t283.5 -117t284 118q20 20 38 42l85 -30q-15 -25 -63 -72q-142 -143 -344 -143q-200 0 -342.5 142.5t-142.5 342.5q0 202 142.5 344t342.5 142
q202 0 344 -142q125 -126 125 -299h-867zM452.5 1282q23.5 -23 23.5 -55q0 -34 -23.5 -57t-55.5 -23q-33 0 -56.5 23t-23.5 57q0 32 23.5 55t56.5 23q32 0 55.5 -23zM717.5 1282q23.5 -23 23.5 -55q0 -34 -23.5 -57t-55.5 -23q-33 0 -56.5 23t-23.5 57q0 32 23.5 55t56.5 23
q32 0 55.5 -23z" />
    <glyph glyph-name="igrave" unicode="&#xec;" horiz-adv-x="369" 
d="M224 868v-868h-79v868h79zM138 1237l144 -165h-75l-216 165h147z" />
    <glyph glyph-name="iacute" unicode="&#xed;" horiz-adv-x="369" 
d="M224 868v-868h-79v868h79zM379 1237l-217 -165h-74l144 165h147z" />
    <glyph glyph-name="icircumflex" unicode="&#xee;" horiz-adv-x="369" 
d="M224 868v-868h-79v868h79zM226 1270l211 -207h-92l-165 126l-155 -126h-93l202 207h92z" />
    <glyph glyph-name="idieresis" unicode="&#xef;" horiz-adv-x="369" 
d="M225 868v-868h-79v868h79zM108.5 1282q23.5 -23 23.5 -55q0 -34 -23.5 -57t-55.5 -23q-33 0 -56.5 23t-23.5 57q0 32 23.5 55t56.5 23q32 0 55.5 -23zM373.5 1282q23.5 -23 23.5 -55q0 -34 -23.5 -57t-55.5 -23q-33 0 -56.5 23t-23.5 57q0 32 23.5 55t56.5 23
q32 0 55.5 -23z" />
    <glyph glyph-name="eth" unicode="&#xf0;" horiz-adv-x="1114" 
d="M156 460q0 -166 117.5 -283t283.5 -117t283.5 117t117.5 283t-117.5 284t-283.5 118t-283.5 -118t-117.5 -284zM901 804q141 -142 141 -344q0 -200 -141.5 -342.5t-343.5 -142.5q-200 0 -342.5 142.5t-142.5 342.5q0 202 142.5 344t342.5 142q39 0 75 -5l-175 176
l-143 -143h-114l200 200l-197 196h112l141 -140l137 137h114l-194 -194q343 -325 388 -369z" />
    <glyph glyph-name="ntilde" unicode="&#xf1;" horiz-adv-x="879" 
d="M179 674v-674h-80v868h80v-56q108 108 252 108q154 0 250.5 -96.5t98.5 -242.5v-581h-79v573q0 111 -80 189t-190 78q-109 0 -189 -77q-43 -43 -63 -89zM449 1207q59 -43 82 -43h4q18 7 26 32q4 14 4 49l66 -13q-2 -37 -10 -61q-18 -55 -62 -74q-12 -4 -25 -4
q-41 0 -105 45q-59 44 -82 44q-3 0 -4 -1q-17 -6 -25 -32q-5 -14 -5 -49l-65 14q1 37 9 60q18 55 63 74q11 5 25 5q41 0 104 -46z" />
    <glyph glyph-name="ograve" unicode="&#xf2;" horiz-adv-x="1114" 
d="M557 946q202 0 343.5 -142t141.5 -344q0 -200 -141.5 -342.5t-343.5 -142.5q-200 0 -342.5 142.5t-142.5 342.5q0 202 142.5 344t342.5 142zM273.5 744q-117.5 -118 -117.5 -284t117.5 -283t283.5 -117t283.5 117t117.5 283t-117.5 284t-283.5 118t-283.5 -118zM510 1237
l144 -165h-75l-216 165h147z" />
    <glyph glyph-name="oacute" unicode="&#xf3;" horiz-adv-x="1114" 
d="M557 946q202 0 343.5 -142t141.5 -344q0 -200 -141.5 -342.5t-343.5 -142.5q-200 0 -342.5 142.5t-142.5 342.5q0 202 142.5 344t342.5 142zM273.5 744q-117.5 -118 -117.5 -284t117.5 -283t283.5 -117t283.5 117t117.5 283t-117.5 284t-283.5 118t-283.5 -118zM751 1237
l-217 -165h-74l144 165h147z" />
    <glyph glyph-name="ocircumflex" unicode="&#xf4;" horiz-adv-x="1114" 
d="M557 946q202 0 343.5 -142t141.5 -344q0 -200 -141.5 -342.5t-343.5 -142.5q-200 0 -342.5 142.5t-142.5 342.5q0 202 142.5 344t342.5 142zM273.5 744q-117.5 -118 -117.5 -284t117.5 -283t283.5 -117t283.5 117t117.5 283t-117.5 284t-283.5 118t-283.5 -118zM599 1270
l211 -207h-92l-165 126l-155 -126h-93l202 207h92z" />
    <glyph glyph-name="otilde" unicode="&#xf5;" horiz-adv-x="1114" 
d="M557 946q202 0 343.5 -142t141.5 -344q0 -200 -141.5 -342.5t-343.5 -142.5q-200 0 -342.5 142.5t-142.5 342.5q0 202 142.5 344t342.5 142zM273.5 744q-117.5 -118 -117.5 -284t117.5 -283t283.5 -117t283.5 117t117.5 283t-117.5 284t-283.5 118t-283.5 -118zM567 1207
q59 -43 82 -43h4q18 7 26 32q4 14 4 49l66 -13q-2 -37 -10 -61q-18 -55 -62 -74q-12 -4 -25 -4q-41 0 -105 45q-59 44 -82 44q-3 0 -4 -1q-17 -6 -25 -32q-5 -14 -5 -49l-65 14q1 37 9 60q18 55 63 74q11 5 25 5q41 0 104 -46z" />
    <glyph glyph-name="odieresis" unicode="&#xf6;" horiz-adv-x="1114" 
d="M557 946q202 0 343.5 -142t141.5 -344q0 -200 -141.5 -342.5t-343.5 -142.5q-200 0 -342.5 142.5t-142.5 342.5q0 202 142.5 344t342.5 142zM273.5 744q-117.5 -118 -117.5 -284t117.5 -283t283.5 -117t283.5 117t117.5 283t-117.5 284t-283.5 118t-283.5 -118z
M480.5 1282q23.5 -23 23.5 -55q0 -34 -23.5 -57t-55.5 -23q-33 0 -56.5 23t-23.5 57q0 32 23.5 55t56.5 23q32 0 55.5 -23zM745.5 1282q23.5 -23 23.5 -55q0 -34 -23.5 -57t-55.5 -23q-33 0 -56.5 23t-23.5 57q0 32 23.5 55t56.5 23q32 0 55.5 -23z" />
    <glyph glyph-name="divide" unicode="&#xf7;" 
d="M85 483v80h900v-80h-900zM591.5 271q23.5 -23 23.5 -56t-23.5 -56t-55.5 -23q-33 0 -56.5 23t-23.5 56t23.5 56t56.5 23q32 0 55.5 -23zM591.5 888q23.5 -23 23.5 -56t-23.5 -56t-55.5 -23q-33 0 -56.5 23t-23.5 56t23.5 56t56.5 23q32 0 55.5 -23z" />
    <glyph glyph-name="oslash" unicode="&#xf8;" horiz-adv-x="1080" 
d="M706 828q-76 34 -166 34q-166 0 -283.5 -117.5t-117.5 -283.5t117 -283q24 -24 51 -43zM774 787l-400 -692q76 -34 166 -34q166 0 283.5 117t117.5 283t-117 284q-24 24 -50 42zM264 62q-35 25 -67 56q-142 143 -142 343q0 202 142.5 344t342.5 142q114 0 210 -46
l107 188l70 -37l-110 -190q35 -25 67 -57q141 -142 141 -344q0 -200 -141.5 -342.5t-343.5 -142.5q-114 0 -208 46l-109 -188l-70 33z" />
    <glyph glyph-name="ugrave" unicode="&#xf9;" horiz-adv-x="880" 
d="M445 -12q-163 0 -259 96t-99 243v542h80v-535q0 -110 80 -188q79 -79 197 -79q110 0 189.5 78.5t79.5 188.5v535h80v-542q-3 -147 -99 -243t-249 -96zM393 1237l144 -165h-75l-216 165h147z" />
    <glyph glyph-name="uacute" unicode="&#xfa;" horiz-adv-x="880" 
d="M445 -12q-163 0 -259 96t-99 243v542h80v-535q0 -110 80 -188q79 -79 197 -79q110 0 189.5 78.5t79.5 188.5v535h80v-542q-3 -147 -99 -243t-249 -96zM634 1237l-217 -165h-74l144 165h147z" />
    <glyph glyph-name="ucircumflex" unicode="&#xfb;" horiz-adv-x="880" 
d="M445 -12q-163 0 -259 96t-99 243v542h80v-535q0 -110 80 -188q79 -79 197 -79q110 0 189.5 78.5t79.5 188.5v535h80v-542q-3 -147 -99 -243t-249 -96zM482 1270l211 -207h-92l-165 126l-155 -126h-93l202 207h92z" />
    <glyph glyph-name="udieresis" unicode="&#xfc;" horiz-adv-x="880" 
d="M445 -12q-163 0 -259 96t-99 243v542h80v-535q0 -110 80 -188q79 -79 197 -79q110 0 189.5 78.5t79.5 188.5v535h80v-542q-3 -147 -99 -243t-249 -96zM363.5 1282q23.5 -23 23.5 -55q0 -34 -23.5 -57t-55.5 -23q-33 0 -56.5 23t-23.5 57q0 32 23.5 55t56.5 23
q32 0 55.5 -23zM628.5 1282q23.5 -23 23.5 -55q0 -34 -23.5 -57t-55.5 -23q-33 0 -56.5 23t-23.5 57q0 32 23.5 55t56.5 23q32 0 55.5 -23z" />
    <glyph glyph-name="yacute" unicode="&#xfd;" horiz-adv-x="779" 
d="M434 163l-229 -493h-89l229 491l-330 707h89l285 -606l286 606h89l-329 -705h-1zM584 1237l-217 -165h-74l144 165h147z" />
    <glyph glyph-name="thorn" unicode="&#xfe;" horiz-adv-x="1204" 
d="M207 559v-198q25 -104 106 -184q117 -118 283 -118t283.5 117.5t117.5 283.5t-117.5 284t-283.5 118t-283 -118q-81 -80 -106 -185zM207 750q21 28 46 54q143 141 343 141q202 0 343.5 -141.5t141.5 -343.5q0 -200 -141.5 -342.5t-343.5 -142.5q-200 0 -343 143
q-25 25 -46 53v-487h-80v1553h80v-487z" />
    <glyph glyph-name="ydieresis" unicode="&#xff;" horiz-adv-x="779" 
d="M434 163l-229 -493h-89l229 491l-330 707h89l285 -606l286 606h89l-329 -705h-1zM313.5 1282q23.5 -23 23.5 -55q0 -34 -23.5 -57t-55.5 -23q-33 0 -56.5 23t-23.5 57q0 32 23.5 55t56.5 23q32 0 55.5 -23zM578.5 1282q23.5 -23 23.5 -55q0 -34 -23.5 -57t-55.5 -23
q-33 0 -56.5 23t-23.5 57q0 32 23.5 55t56.5 23q32 0 55.5 -23z" />
    <glyph glyph-name="Amacron" unicode="&#x100;" horiz-adv-x="1116" 
d="M774 701l-215 593l-216 -593h431zM600 1414l513 -1414h-84l-226 622h-489l-230 -622h-85l519 1414h82zM296 1650h521v-62h-521v62z" />
    <glyph glyph-name="amacron" unicode="&#x101;" horiz-adv-x="1122" 
d="M1033 0h-80v177q-23 -31 -50 -59q-142 -143 -344 -143q-200 0 -342.5 142.5t-142.5 342.5q0 202 142.5 344t342.5 142q202 0 344 -142q27 -28 50 -59v123h80v-868zM953 382v157q-22 117 -110 205q-118 118 -284 118t-283.5 -118t-117.5 -284t117.5 -283t283.5 -117
t284 118q88 88 110 204zM293 1184h521v-62h-521v62z" />
    <glyph glyph-name="Abreve" unicode="&#x102;" horiz-adv-x="1116" 
d="M774 701l-215 593l-216 -593h431zM600 1414l513 -1414h-84l-226 622h-489l-230 -622h-85l519 1414h82zM414 1748q7 -47 41 -80q42 -43 103 -43q59 0 101 43q35 33 41 80h64q-7 -73 -60 -126q-60 -61 -146 -61q-88 0 -148 61q-57 58 -61 126h65z" />
    <glyph glyph-name="abreve" unicode="&#x103;" horiz-adv-x="1122" 
d="M1033 0h-80v177q-23 -31 -50 -59q-142 -143 -344 -143q-200 0 -342.5 142.5t-142.5 342.5q0 202 142.5 344t342.5 142q202 0 344 -142q27 -28 50 -59v123h80v-868zM953 382v157q-22 117 -110 205q-118 118 -284 118t-283.5 -118t-117.5 -284t117.5 -283t283.5 -117
t284 118q88 88 110 204zM411 1282q7 -47 41 -80q42 -43 103 -43q59 0 101 43q35 33 41 80h64q-7 -73 -60 -126q-60 -61 -146 -61q-88 0 -148 61q-57 58 -61 126h65z" />
    <glyph glyph-name="Aogonek" unicode="&#x104;" horiz-adv-x="1116" 
d="M774 701l-215 593l-216 -593h431zM1017 34l-214 588h-489l-230 -622h-85l519 1414h82l513 -1414h-59q-54 -18 -79 -40q-29 -25 -31 -62v-6q0 -33 22 -59q24 -28 58 -30q3 -1 6 -1q31 0 66 23l17 -48l-4 -3q-32 -28 -78 -28h-12q-57 4 -96 49q-35 41 -35 93q0 7 1 14
q5 61 50 100q36 30 78 32z" />
    <glyph glyph-name="aogonek" unicode="&#x105;" horiz-adv-x="1122" 
d="M953 382v157q-22 117 -110 205q-118 118 -284 118t-283.5 -118t-117.5 -284t117.5 -283t283.5 -117t284 118q88 88 110 204zM953 34v143q-23 -31 -50 -59q-142 -143 -344 -143q-200 0 -342.5 142.5t-142.5 342.5q0 202 142.5 344t342.5 142q202 0 344 -142q27 -28 50 -59
v123h80v-868h-59q-54 -18 -79 -40q-29 -25 -31 -62v-6q0 -33 22 -59q24 -28 58 -30q3 -1 6 -1q31 0 66 23l17 -48l-4 -3q-32 -28 -78 -28h-12q-57 4 -96 49q-35 41 -35 93q0 7 1 14q5 61 50 100q38 32 83 32h11z" />
    <glyph glyph-name="Cacute" unicode="&#x106;" horiz-adv-x="1347" 
d="M1224 225l61 -54q-207 -188 -487 -188q-301 0 -512.5 211.5t-211.5 512.5q0 299 211.5 511.5t512.5 212.5q280 0 487 -189l-61 -54q-182 161 -426 161q-266 0 -454.5 -188t-188.5 -454q0 -267 188.5 -455t454.5 -188q244 0 426 161zM974 1783l-217 -165h-74l144 165h147z
" />
    <glyph glyph-name="cacute" unicode="&#x107;" horiz-adv-x="985" 
d="M849 209l84 -31q-23 -31 -52 -60q-142 -143 -344 -143q-200 0 -342.5 142.5t-142.5 343.5t142.5 343t342.5 142q202 0 344 -142q29 -29 52 -60l-84 -31q-13 16 -28 32q-118 117 -284 117q-165 0 -282.5 -117.5t-117.5 -283.5t117.5 -283.5t282.5 -117.5q166 0 284 118
q15 15 28 31zM737 1237l-217 -165h-74l144 165h147z" />
    <glyph glyph-name="Ccircumflex" unicode="&#x108;" horiz-adv-x="1347" 
d="M1224 225l61 -54q-207 -188 -487 -188q-301 0 -512.5 211.5t-211.5 512.5q0 299 211.5 511.5t512.5 212.5q280 0 487 -189l-61 -54q-182 161 -426 161q-266 0 -454.5 -188t-188.5 -454q0 -267 188.5 -455t454.5 -188q244 0 426 161zM821 1816l211 -207h-92l-165 126
l-155 -126h-93l202 207h92z" />
    <glyph glyph-name="ccircumflex" unicode="&#x109;" horiz-adv-x="985" 
d="M849 209l84 -31q-23 -31 -52 -60q-142 -143 -344 -143q-200 0 -342.5 142.5t-142.5 343.5t142.5 343t342.5 142q202 0 344 -142q29 -29 52 -60l-84 -31q-13 16 -28 32q-118 117 -284 117q-165 0 -282.5 -117.5t-117.5 -283.5t117.5 -283.5t282.5 -117.5q166 0 284 118
q15 15 28 31zM584 1270l211 -207h-92l-165 126l-155 -126h-93l202 207h92z" />
    <glyph glyph-name="Cdotaccent" unicode="&#x10a;" horiz-adv-x="1347" 
d="M1224 225l61 -54q-207 -188 -487 -188q-301 0 -512.5 211.5t-211.5 512.5q0 299 211.5 511.5t512.5 212.5q280 0 487 -189l-61 -54q-182 161 -426 161q-266 0 -454.5 -188t-188.5 -454q0 -267 188.5 -455t454.5 -188q244 0 426 161zM827 1807.5q20 -19.5 20 -47.5
t-20 -47.5t-47 -19.5q-28 0 -48 19.5t-20 47.5t20 47.5t48 19.5q27 0 47 -19.5z" />
    <glyph glyph-name="cdotaccent" unicode="&#x10b;" horiz-adv-x="985" 
d="M849 209l84 -31q-23 -31 -52 -60q-142 -143 -344 -143q-200 0 -342.5 142.5t-142.5 343.5t142.5 343t342.5 142q202 0 344 -142q29 -29 52 -60l-84 -31q-13 16 -28 32q-118 117 -284 117q-165 0 -282.5 -117.5t-117.5 -283.5t117.5 -283.5t282.5 -117.5q166 0 284 118
q15 15 28 31zM590 1261.5q20 -19.5 20 -47.5t-20 -47.5t-47 -19.5q-28 0 -48 19.5t-20 47.5t20 47.5t48 19.5q27 0 47 -19.5z" />
    <glyph glyph-name="Ccaron" unicode="&#x10c;" horiz-adv-x="1347" 
d="M1224 225l61 -54q-207 -188 -487 -188q-301 0 -512.5 211.5t-211.5 512.5q0 299 211.5 511.5t512.5 212.5q280 0 487 -189l-61 -54q-182 161 -426 161q-266 0 -454.5 -188t-188.5 -454q0 -267 188.5 -455t454.5 -188q244 0 426 161zM729 1609l-202 207h93l155 -126
l165 126h92l-211 -207h-92z" />
    <glyph glyph-name="ccaron" unicode="&#x10d;" horiz-adv-x="985" 
d="M849 209l84 -31q-23 -31 -52 -60q-142 -143 -344 -143q-200 0 -342.5 142.5t-142.5 343.5t142.5 343t342.5 142q202 0 344 -142q29 -29 52 -60l-84 -31q-13 16 -28 32q-118 117 -284 117q-165 0 -282.5 -117.5t-117.5 -283.5t117.5 -283.5t282.5 -117.5q166 0 284 118
q15 15 28 31zM492 1063l-202 207h93l155 -126l165 126h92l-211 -207h-92z" />
    <glyph glyph-name="Dcaron" unicode="&#x10e;" horiz-adv-x="1189" 
d="M374 1414q349 -2 541 -195q212 -213 212 -512q0 -301 -212 -513q-192 -192 -541 -194h-262v1414h262zM192 1331v-1249h181q305 0 481 170q188 188 188 455q0 266 -188 455q-176 169 -481 169h-181zM569 1609l-202 207h93l155 -126l165 126h92l-211 -207h-92z" />
    <glyph glyph-name="dcaron" unicode="&#x10f;" horiz-adv-x="1269" 
d="M1033 0h-80v177q-23 -31 -50 -59q-142 -143 -344 -143q-200 0 -342.5 142.5t-142.5 342.5q0 202 142.5 344t342.5 142q202 0 344 -142q27 -28 50 -59v669h80v-1414zM953 382v157q-22 117 -110 205q-118 118 -284 118t-283.5 -118t-117.5 -284t117.5 -283t283.5 -117
t284 118q88 88 110 204zM1169 1268q-20 4 -35 20q-24 23 -24 57q0 33 23.5 55.5t56.5 22.5q32 0 55.5 -22.5t23.5 -55.5q0 -19 -6 -35l-87 -175h-57z" />
    <glyph glyph-name="Dcroat" unicode="&#x110;" horiz-adv-x="1261" 
d="M228 667v-585h181q305 0 481 170q188 188 188 455q0 266 -188 455q-176 169 -481 169h-181v-584h492v-80h-492zM148 747v667h262q349 -2 541 -195q212 -213 212 -512q0 -301 -212 -513q-192 -192 -541 -194h-262v667h-128v80h128z" />
    <glyph glyph-name="dcroat" unicode="&#x111;" horiz-adv-x="1145" 
d="M953 382v157q-22 117 -110 205q-118 118 -284 118t-283.5 -118t-117.5 -284t117.5 -283t283.5 -117t284 118q88 88 110 204zM1033 1134v-1134h-80v177q-23 -31 -50 -59q-142 -143 -344 -143q-200 0 -342.5 142.5t-142.5 342.5q0 202 142.5 344t342.5 142q202 0 344 -142
q27 -28 50 -59v389h-306v79h306v201h80v-201h114v-79h-114z" />
    <glyph glyph-name="Emacron" unicode="&#x112;" horiz-adv-x="931" 
d="M819 1414v-80h-627v-587h627v-80h-627v-587h627v-80h-707v1414h707zM205 1730h521v-62h-521v62z" />
    <glyph glyph-name="emacron" unicode="&#x113;" horiz-adv-x="1042" 
d="M154 586h762q-28 91 -95 158q-118 118 -284 118t-284 -118q-70 -71 -99 -158zM139 505q-3 -21 -3 -45q0 -166 117.5 -283t283.5 -117t284 118q20 20 38 42l85 -30q-15 -25 -63 -72q-142 -143 -344 -143q-200 0 -342.5 142.5t-142.5 342.5q0 202 142.5 344t342.5 142
q202 0 344 -142q125 -126 125 -299h-867zM269 1184h521v-62h-521v62z" />
    <glyph glyph-name="Ebreve" unicode="&#x114;" horiz-adv-x="931" 
d="M819 1414v-80h-627v-587h627v-80h-627v-587h627v-80h-707v1414h707zM323 1828q7 -47 41 -80q42 -43 103 -43q59 0 101 43q35 33 41 80h64q-7 -73 -60 -126q-60 -61 -146 -61q-88 0 -148 61q-57 58 -61 126h65z" />
    <glyph glyph-name="ebreve" unicode="&#x115;" horiz-adv-x="1042" 
d="M154 586h762q-28 91 -95 158q-118 118 -284 118t-284 -118q-70 -71 -99 -158zM139 505q-3 -21 -3 -45q0 -166 117.5 -283t283.5 -117t284 118q20 20 38 42l85 -30q-15 -25 -63 -72q-142 -143 -344 -143q-200 0 -342.5 142.5t-142.5 342.5q0 202 142.5 344t342.5 142
q202 0 344 -142q125 -126 125 -299h-867zM387 1282q7 -47 41 -80q42 -43 103 -43q59 0 101 43q35 33 41 80h64q-7 -73 -60 -126q-60 -61 -146 -61q-88 0 -148 61q-57 58 -61 126h65z" />
    <glyph glyph-name="Edotaccent" unicode="&#x116;" horiz-adv-x="931" 
d="M819 1414v-80h-627v-587h627v-80h-627v-587h627v-80h-707v1414h707zM513 1807.5q20 -19.5 20 -47.5t-20 -47.5t-47 -19.5q-28 0 -48 19.5t-20 47.5t20 47.5t48 19.5q27 0 47 -19.5z" />
    <glyph glyph-name="edotaccent" unicode="&#x117;" horiz-adv-x="1042" 
d="M154 586h762q-28 91 -95 158q-118 118 -284 118t-284 -118q-70 -71 -99 -158zM139 505q-3 -21 -3 -45q0 -166 117.5 -283t283.5 -117t284 118q20 20 38 42l85 -30q-15 -25 -63 -72q-142 -143 -344 -143q-200 0 -342.5 142.5t-142.5 342.5q0 202 142.5 344t342.5 142
q202 0 344 -142q125 -126 125 -299h-867zM577 1261.5q20 -19.5 20 -47.5t-20 -47.5t-47 -19.5q-28 0 -48 19.5t-20 47.5t20 47.5t48 19.5q27 0 47 -19.5z" />
    <glyph glyph-name="Eogonek" unicode="&#x118;" horiz-adv-x="931" 
d="M643 0h-531v1414h707v-80h-627v-587h627v-80h-627v-587h627v-80h-59q-54 -18 -79 -40q-29 -25 -31 -62v-6q0 -33 22 -59q24 -28 58 -30q3 -1 6 -1q31 0 66 23l17 -48l-4 -3q-32 -28 -78 -28h-12q-57 4 -96 49q-35 41 -35 93q0 7 1 14q5 59 48 98z" />
    <glyph glyph-name="eogonek" unicode="&#x119;" horiz-adv-x="1038" 
d="M154 586h762q-28 91 -95 158q-118 118 -284 118t-284 -118q-70 -71 -99 -158zM691 -2q-72 -23 -154 -23q-200 0 -342.5 142.5t-142.5 342.5q0 202 142.5 344t342.5 142q202 0 344 -142q125 -126 125 -299h-867q-3 -21 -3 -45q0 -166 117.5 -283t283.5 -117t284 118
q20 20 38 42l85 -30q-15 -25 -63 -72q-20 -20 -41 -37q-101 -90 -103 -127v-6q0 -33 22 -59q24 -28 58 -30q3 -1 6 -1q31 0 66 23l17 -48l-4 -3q-32 -28 -78 -28h-12q-57 4 -96 49q-35 41 -35 93q0 7 1 14q2 22 9 40z" />
    <glyph glyph-name="Ecaron" unicode="&#x11a;" horiz-adv-x="931" 
d="M819 1414v-80h-627v-587h627v-80h-627v-587h627v-80h-707v1414h707zM415 1609l-202 207h93l155 -126l165 126h92l-211 -207h-92z" />
    <glyph glyph-name="ecaron" unicode="&#x11b;" horiz-adv-x="1042" 
d="M154 586h762q-28 91 -95 158q-118 118 -284 118t-284 -118q-70 -71 -99 -158zM139 505q-3 -21 -3 -45q0 -166 117.5 -283t283.5 -117t284 118q20 20 38 42l85 -30q-15 -25 -63 -72q-142 -143 -344 -143q-200 0 -342.5 142.5t-142.5 342.5q0 202 142.5 344t342.5 142
q202 0 344 -142q125 -126 125 -299h-867zM479 1063l-202 207h93l155 -126l165 126h92l-211 -207h-92z" />
    <glyph glyph-name="Gcircumflex" unicode="&#x11c;" horiz-adv-x="1359" 
d="M1279 176q-201 -193 -481 -193q-301 0 -512.5 211.5t-211.5 512.5q0 299 211.5 511.5t512.5 212.5q280 0 487 -189l-61 -54q-182 161 -426 161q-266 0 -454.5 -188t-188.5 -454q0 -267 188.5 -455t454.5 -188q228 0 402 140v431h79v-459zM821 1816l211 -207h-92l-165 126
l-155 -126h-93l202 207h92z" />
    <glyph glyph-name="gcircumflex" unicode="&#x11d;" horiz-adv-x="1083" 
d="M930 543q-23 114 -109 201q-118 118 -284 118t-283.5 -118t-117.5 -284t117.5 -283.5t283.5 -117.5t284 118q85 85 109 199v167zM929 172q-23 -28 -48 -54q-142 -143 -344 -143q-200 0 -342.5 142.5t-142.5 342.5q0 202 142.5 343.5t342.5 141.5q202 0 344 -141
q27 -28 50 -59v123h80v-674q0 -196 -139 -334q-142 -143 -343 -143t-344 143q-29 29 -52 60l84 31q13 -16 29 -31q117 -118 283 -118q165 0 283 118q107 107 117 252zM573 1270l211 -207h-92l-165 126l-155 -126h-93l202 207h92z" />
    <glyph glyph-name="Gbreve" unicode="&#x11e;" horiz-adv-x="1359" 
d="M1279 176q-201 -193 -481 -193q-301 0 -512.5 211.5t-211.5 512.5q0 299 211.5 511.5t512.5 212.5q280 0 487 -189l-61 -54q-182 161 -426 161q-266 0 -454.5 -188t-188.5 -454q0 -267 188.5 -455t454.5 -188q228 0 402 140v431h79v-459zM637 1828q7 -47 41 -80
q42 -43 103 -43q59 0 101 43q35 33 41 80h64q-7 -73 -60 -126q-60 -61 -146 -61q-88 0 -148 61q-57 58 -61 126h65z" />
    <glyph glyph-name="gbreve" unicode="&#x11f;" horiz-adv-x="1083" 
d="M930 543q-23 114 -109 201q-118 118 -284 118t-283.5 -118t-117.5 -284t117.5 -283.5t283.5 -117.5t284 118q85 85 109 199v167zM929 172q-23 -28 -48 -54q-142 -143 -344 -143q-200 0 -342.5 142.5t-142.5 342.5q0 202 142.5 343.5t342.5 141.5q202 0 344 -141
q27 -28 50 -59v123h80v-674q0 -196 -139 -334q-142 -143 -343 -143t-344 143q-29 29 -52 60l84 31q13 -16 29 -31q117 -118 283 -118q165 0 283 118q107 107 117 252zM389 1282q7 -47 41 -80q42 -43 103 -43q59 0 101 43q35 33 41 80h64q-7 -73 -60 -126q-60 -61 -146 -61
q-88 0 -148 61q-57 58 -61 126h65z" />
    <glyph glyph-name="Gdotaccent" unicode="&#x120;" horiz-adv-x="1359" 
d="M1279 176q-201 -193 -481 -193q-301 0 -512.5 211.5t-211.5 512.5q0 299 211.5 511.5t512.5 212.5q280 0 487 -189l-61 -54q-182 161 -426 161q-266 0 -454.5 -188t-188.5 -454q0 -267 188.5 -455t454.5 -188q228 0 402 140v431h79v-459zM827 1807.5q20 -19.5 20 -47.5
t-20 -47.5t-47 -19.5q-28 0 -48 19.5t-20 47.5t20 47.5t48 19.5q27 0 47 -19.5z" />
    <glyph glyph-name="gdotaccent" unicode="&#x121;" horiz-adv-x="1083" 
d="M930 543q-23 114 -109 201q-118 118 -284 118t-283.5 -118t-117.5 -284t117.5 -283.5t283.5 -117.5t284 118q85 85 109 199v167zM929 172q-23 -28 -48 -54q-142 -143 -344 -143q-200 0 -342.5 142.5t-142.5 342.5q0 202 142.5 343.5t342.5 141.5q202 0 344 -141
q27 -28 50 -59v123h80v-674q0 -196 -139 -334q-142 -143 -343 -143t-344 143q-29 29 -52 60l84 31q13 -16 29 -31q117 -118 283 -118q165 0 283 118q107 107 117 252zM579 1261.5q20 -19.5 20 -47.5t-20 -47.5t-47 -19.5q-28 0 -48 19.5t-20 47.5t20 47.5t48 19.5
q27 0 47 -19.5z" />
    <glyph glyph-name="Gcommaaccent" unicode="&#x122;" horiz-adv-x="1359" 
d="M699 -11q-238 30 -413 206q-212 211 -212 512q0 299 211.5 511.5t512.5 212.5q280 0 487 -189l-61 -54q-182 161 -426 161q-266 0 -454.5 -188t-188.5 -454q0 -267 188.5 -455t454.5 -188q228 0 402 140v431h79v-459q-201 -193 -481 -193q-17 0 -33 1l-17 -20q32 6 58 6
q51 0 80 -23q40 -31 40 -74v-9q-5 -49 -61 -90q-49 -28 -104 -28q-31 0 -65 9l17 51q28 -11 55 -11q31 0 60 15q25 18 30 43q1 5 1 11q0 18 -14 32q-18 17 -49 18h-4q-29 0 -47 -6q-19 -7 -57 -33l-35 34z" />
    <glyph glyph-name="gcommaaccent" unicode="&#x123;" horiz-adv-x="1083" 
d="M930 543q-23 114 -109 201q-118 118 -284 118t-283.5 -118t-117.5 -284t117.5 -283.5t283.5 -117.5t284 118q85 85 109 199v167zM929 172q-23 -28 -48 -54q-142 -143 -344 -143q-200 0 -342.5 142.5t-142.5 342.5q0 202 142.5 343.5t342.5 141.5q202 0 344 -141
q27 -28 50 -59v123h80v-674q0 -196 -139 -334q-142 -143 -343 -143t-344 143q-29 29 -52 60l84 31q13 -16 29 -31q117 -118 283 -118q165 0 283 118q107 107 117 252zM545 1196q20 -4 35 -20q24 -23 24 -57q0 -33 -23.5 -55.5t-56.5 -22.5q-32 0 -55.5 22.5t-23.5 55.5
q0 19 6 35l87 175h57z" />
    <glyph glyph-name="Hcircumflex" unicode="&#x124;" horiz-adv-x="1072" 
d="M174 667v-667h-80v1414h80v-667h724v667h80v-1414h-80v667h-724zM578 1816l211 -207h-92l-165 126l-155 -126h-93l202 207h92z" />
    <glyph glyph-name="hcircumflex" unicode="&#x125;" horiz-adv-x="859" 
d="M94 1414h80v-591q100 97 242 97q153 0 249.5 -96.5t99.5 -242.5v-581h-80v573q0 111 -80 189t-189 78q-110 0 -189 -77q-36 -35 -53 -73v-690h-80v1414zM471 1766l211 -207h-92l-165 126l-155 -126h-93l202 207h92z" />
    <glyph glyph-name="Hbar" unicode="&#x126;" horiz-adv-x="1072" 
d="M978 1135v-1135h-80v667h-724v-667h-80v1135h-83v79h83v200h80v-200h724v200h80v-200h83v-79h-83zM174 1135v-388h724v388h-724z" />
    <glyph glyph-name="hbar" unicode="&#x127;" horiz-adv-x="839" 
d="M84 1213v201h80v-201h194v-79h-194v-311q100 97 242 97q153 0 249.5 -96.5t99.5 -242.5v-581h-80v573q0 111 -80 189t-189 78q-110 0 -189 -77q-36 -35 -53 -73v-690h-80v1134h-100v79h100z" />
    <glyph glyph-name="Itilde" unicode="&#x128;" horiz-adv-x="324" 
d="M203 1414v-1414h-80v1414h80zM172 1753q59 -43 82 -43h4q18 7 26 32q4 14 4 49l66 -13q-2 -37 -10 -61q-18 -55 -62 -74q-12 -4 -25 -4q-41 0 -105 45q-59 44 -82 44q-3 0 -4 -1q-17 -6 -25 -32q-5 -14 -5 -49l-65 14q1 37 9 60q18 55 63 74q11 5 25 5q41 0 104 -46z" />
    <glyph glyph-name="itilde" unicode="&#x129;" horiz-adv-x="369" 
d="M224 868v-868h-79v868h79zM194 1207q59 -43 82 -43h4q18 7 26 32q4 14 4 49l66 -13q-2 -37 -10 -61q-18 -55 -62 -74q-12 -4 -25 -4q-41 0 -105 45q-59 44 -82 44q-3 0 -4 -1q-17 -6 -25 -32q-5 -14 -5 -49l-65 14q1 37 9 60q18 55 63 74q11 5 25 5q41 0 104 -46z" />
    <glyph glyph-name="Imacron" unicode="&#x12a;" horiz-adv-x="324" 
d="M203 1414v-1414h-80v1414h80zM-98 1730h521v-62h-521v62z" />
    <glyph glyph-name="imacron" unicode="&#x12b;" horiz-adv-x="369" 
d="M224 868v-868h-79v868h79zM-76 1184h521v-62h-521v62z" />
    <glyph glyph-name="Ibreve" unicode="&#x12c;" horiz-adv-x="324" 
d="M203 1414v-1414h-80v1414h80zM20 1828q7 -47 41 -80q42 -43 103 -43q59 0 101 43q35 33 41 80h64q-7 -73 -60 -126q-60 -61 -146 -61q-88 0 -148 61q-57 58 -61 126h65z" />
    <glyph glyph-name="ibreve" unicode="&#x12d;" horiz-adv-x="369" 
d="M224 868v-868h-79v868h79zM42 1282q7 -47 41 -80q42 -43 103 -43q59 0 101 43q35 33 41 80h64q-7 -73 -60 -126q-60 -61 -146 -61q-88 0 -148 61q-57 58 -61 126h65z" />
    <glyph glyph-name="Iogonek" unicode="&#x12e;" horiz-adv-x="324" 
d="M118 34v1380h80v-1414h-59q-54 -18 -79 -40q-29 -25 -31 -62v-6q0 -33 22 -59q24 -28 58 -30q3 -1 6 -1q31 0 66 23l17 -48l-4 -3q-32 -28 -78 -28h-12q-57 4 -96 49q-35 41 -35 93q0 7 1 14q5 61 50 100q38 32 83 32h11z" />
    <glyph glyph-name="iogonek" unicode="&#x12f;" horiz-adv-x="297" 
d="M200.5 1152q23.5 -23 23.5 -55q0 -34 -23.5 -57t-55.5 -23q-33 0 -56.5 23t-23.5 57q0 32 23.5 55t56.5 23q32 0 55.5 -23zM105 31v837h79v-868h-19q-54 -18 -79 -40q-29 -25 -31 -62v-6q0 -33 22 -59q24 -28 58 -30q3 -1 6 -1q31 0 66 23l17 -48l-4 -3q-32 -28 -78 -28
h-12q-57 4 -96 49q-35 41 -35 93q0 7 1 14q5 61 50 100q26 22 55 29z" />
    <glyph glyph-name="Idotaccent" unicode="&#x130;" horiz-adv-x="324" 
d="M203 1414v-1414h-80v1414h80zM210 1807.5q20 -19.5 20 -47.5t-20 -47.5t-47 -19.5q-28 0 -48 19.5t-20 47.5t20 47.5t48 19.5q27 0 47 -19.5z" />
    <glyph glyph-name="dotlessi" unicode="&#x131;" horiz-adv-x="369" 
d="M224 868v-868h-79v868h79z" />
    <glyph glyph-name="IJ" unicode="&#x132;" horiz-adv-x="630" 
d="M202 1414v-1414h-80v1414h80zM516 -27q0 -108 -73 -181.5t-180 -73.5v80q73 0 124 50q49 49 49 135v1431h80v-1441z" />
    <glyph glyph-name="ij" unicode="&#x133;" horiz-adv-x="601" 
d="M198 868v-868h-79v868h79zM214.5 1152q23.5 -23 23.5 -55q0 -34 -23.5 -57t-55.5 -23q-33 0 -56.5 23t-23.5 57q0 32 23.5 55t56.5 23q32 0 55.5 -23zM306 -122q107 12 107 120v870h79v-868q0 -186 -186 -201v79zM508.5 1152q23.5 -23 23.5 -55q0 -34 -23.5 -57
t-55.5 -23q-33 0 -56.5 23t-23.5 57q0 32 23.5 55t56.5 23q32 0 55.5 -23z" />
    <glyph glyph-name="Jcircumflex" unicode="&#x134;" horiz-adv-x="306" 
d="M192 -27q0 -108 -73 -181.5t-180 -73.5v80q73 0 124 50q49 49 49 135v1431h80v-1441zM208 1816l211 -207h-92l-165 126l-155 -126h-93l202 207h92z" />
    <glyph glyph-name="jcircumflex" unicode="&#x135;" horiz-adv-x="265" 
d="M-11 -122q107 12 107 120v870h79v-868q0 -186 -186 -201v79zM82 1063l-202 207h93l155 -126l165 126h92l-211 -207h-92z" />
    <glyph glyph-name="kgreenlandic" unicode="&#x138;" horiz-adv-x="717" 
d="M578 868l-214 -265l341 -603h-98l-295 539l-177 -196v-343h-80v868h80v-398l341 398h102z" />
    <glyph glyph-name="Lacute" unicode="&#x139;" horiz-adv-x="783" 
d="M112 0v1414h80v-1334h539v-80h-619zM616 1783l-217 -165h-74l144 165h147z" />
    <glyph glyph-name="lacute" unicode="&#x13a;" horiz-adv-x="300" 
d="M191 1414v-1414h-80v1414h80zM296 1766l-217 -165h-74l144 165h147z" />
    <glyph glyph-name="Lcaron" unicode="&#x13d;" horiz-adv-x="783" 
d="M112 0v1414h80v-1334h539v-80h-619zM589 1268q-20 4 -35 20q-24 23 -24 57q0 33 23.5 55.5t56.5 22.5q32 0 55.5 -22.5t23.5 -55.5q0 -19 -6 -35l-87 -175h-57z" />
    <glyph glyph-name="lcaron" unicode="&#x13e;" horiz-adv-x="439" 
d="M192 1414v-1414h-80v1414h80zM339 1268q-20 4 -35 20q-24 23 -24 57q0 33 23.5 55.5t56.5 22.5q32 0 55.5 -22.5t23.5 -55.5q0 -19 -6 -35l-87 -175h-57z" />
    <glyph glyph-name="Ldot" unicode="&#x13f;" horiz-adv-x="783" 
d="M112 0v1414h80v-1334h539v-80h-619zM671 754.5q20 -19.5 20 -47.5t-20 -47.5t-47 -19.5q-28 0 -48 19.5t-20 47.5t20 47.5t48 19.5q27 0 47 -19.5z" />
    <glyph glyph-name="ldot" unicode="&#x140;" horiz-adv-x="440" 
d="M179 1414v-1414h-80v1414h80zM394 754.5q20 -19.5 20 -47.5t-20 -47.5t-47 -19.5q-28 0 -48 19.5t-20 47.5t20 47.5t48 19.5q27 0 47 -19.5z" />
    <glyph glyph-name="Lslash" unicode="&#x141;" horiz-adv-x="871" 
d="M282 696l402 327v-94l-402 -327v-522h539v-80h-619v536l-202 -164v94l202 164v784h80v-718z" />
    <glyph glyph-name="lslash" unicode="&#x142;" horiz-adv-x="376" 
d="M148 712v702h80v-637l148 121v-94l-148 -121v-683h-80v618l-148 -121v94z" />
    <glyph glyph-name="Nacute" unicode="&#x143;" horiz-adv-x="1339" 
d="M210 1414l940 -1317v1317h80v-1414h-123l-918 1286v-1286h-80v1414h101zM864 1703l-217 -165h-74l144 165h147z" />
    <glyph glyph-name="nacute" unicode="&#x144;" horiz-adv-x="879" 
d="M179 674v-674h-80v868h80v-56q108 108 252 108q154 0 250.5 -96.5t98.5 -242.5v-581h-79v573q0 111 -80 189t-190 78q-109 0 -189 -77q-43 -43 -63 -89zM634 1237l-217 -165h-74l144 165h147z" />
    <glyph glyph-name="Ncaron" unicode="&#x147;" horiz-adv-x="1339" 
d="M210 1414l940 -1317v1317h80v-1414h-123l-918 1286v-1286h-80v1414h101zM619 1529l-202 207h93l155 -126l165 126h92l-211 -207h-92z" />
    <glyph glyph-name="ncaron" unicode="&#x148;" horiz-adv-x="879" 
d="M179 674v-674h-80v868h80v-56q108 108 252 108q154 0 250.5 -96.5t98.5 -242.5v-581h-79v573q0 111 -80 189t-190 78q-109 0 -189 -77q-43 -43 -63 -89zM389 1063l-202 207h93l155 -126l165 126h92l-211 -207h-92z" />
    <glyph glyph-name="Eng" unicode="&#x14a;" horiz-adv-x="1163" 
d="M974 84l-785 1102v-1186h-80v1436l865 -1213v1191h80v-1464q0 -108 -73 -181.5t-180 -73.5v80q73 0 124 50q49 49 49 135v124z" />
    <glyph glyph-name="eng" unicode="&#x14b;" horiz-adv-x="885" 
d="M704 573q0 111 -80 189t-190 78q-109 0 -189 -77q-43 -43 -63 -89v-674h-80v868h80v-56q108 108 252 108q154 0 250.5 -96.5t98.5 -242.5v-460h1v-171q0 -108 -73 -181.5t-180 -73.5v80q73 0 124 50q49 49 49 135v613z" />
    <glyph glyph-name="Omacron" unicode="&#x14c;" horiz-adv-x="1575" 
d="M1300.5 1221.5q212.5 -212.5 212.5 -512.5q0 -301 -212.5 -513.5t-513.5 -212.5q-300 0 -512.5 212.5t-212.5 513.5q0 300 212.5 512.5t512.5 212.5q301 0 513.5 -212.5zM787 1353q-266 0 -455 -189t-189 -455q0 -267 189 -456t455 -189q267 0 456 189t189 456
q0 266 -189 455t-456 189zM527 1730h521v-62h-521v62z" />
    <glyph glyph-name="omacron" unicode="&#x14d;" horiz-adv-x="1114" 
d="M557 946q202 0 343.5 -142t141.5 -344q0 -200 -141.5 -342.5t-343.5 -142.5q-200 0 -342.5 142.5t-142.5 342.5q0 202 142.5 344t342.5 142zM273.5 744q-117.5 -118 -117.5 -284t117.5 -283t283.5 -117t283.5 117t117.5 283t-117.5 284t-283.5 118t-283.5 -118zM297 1184
h521v-62h-521v62z" />
    <glyph glyph-name="Obreve" unicode="&#x14e;" horiz-adv-x="1575" 
d="M1300.5 1221.5q212.5 -212.5 212.5 -512.5q0 -301 -212.5 -513.5t-513.5 -212.5q-300 0 -512.5 212.5t-212.5 513.5q0 300 212.5 512.5t512.5 212.5q301 0 513.5 -212.5zM787 1353q-266 0 -455 -189t-189 -455q0 -267 189 -456t455 -189q267 0 456 189t189 456
q0 266 -189 455t-456 189zM645 1828q7 -47 41 -80q42 -43 103 -43q59 0 101 43q35 33 41 80h64q-7 -73 -60 -126q-60 -61 -146 -61q-88 0 -148 61q-57 58 -61 126h65z" />
    <glyph glyph-name="obreve" unicode="&#x14f;" horiz-adv-x="1114" 
d="M557 946q202 0 343.5 -142t141.5 -344q0 -200 -141.5 -342.5t-343.5 -142.5q-200 0 -342.5 142.5t-142.5 342.5q0 202 142.5 344t342.5 142zM273.5 744q-117.5 -118 -117.5 -284t117.5 -283t283.5 -117t283.5 117t117.5 283t-117.5 284t-283.5 118t-283.5 -118zM415 1282
q7 -47 41 -80q42 -43 103 -43q59 0 101 43q35 33 41 80h64q-7 -73 -60 -126q-60 -61 -146 -61q-88 0 -148 61q-57 58 -61 126h65z" />
    <glyph glyph-name="Ohungarumlaut" unicode="&#x150;" horiz-adv-x="1575" 
d="M1300.5 1221.5q212.5 -212.5 212.5 -512.5q0 -301 -212.5 -513.5t-513.5 -212.5q-300 0 -512.5 212.5t-212.5 513.5q0 300 212.5 512.5t512.5 212.5q301 0 513.5 -212.5zM787 1353q-266 0 -455 -189t-189 -455q0 -267 189 -456t455 -189q267 0 456 189t189 456
q0 266 -189 455t-456 189zM932 1766l-217 -165h-74l144 165h147zM1134 1766l-216 -165h-75l144 165h147z" />
    <glyph glyph-name="ohungarumlaut" unicode="&#x151;" horiz-adv-x="1114" 
d="M557 946q202 0 343.5 -142t141.5 -344q0 -200 -141.5 -342.5t-343.5 -142.5q-200 0 -342.5 142.5t-142.5 342.5q0 202 142.5 344t342.5 142zM273.5 744q-117.5 -118 -117.5 -284t117.5 -283t283.5 -117t283.5 117t117.5 283t-117.5 284t-283.5 118t-283.5 -118zM702 1220
l-217 -165h-74l144 165h147zM904 1220l-216 -165h-75l144 165h147z" />
    <glyph glyph-name="OE" unicode="&#x152;" horiz-adv-x="2014" 
d="M1184 1334q76 -46 143 -112q199 -200 211 -475h388v-80h-388q-14 -274 -211 -471q-70 -70 -149 -116h748v-80h-884q-107 -17 -229 -17q-300 0 -512.5 212.5t-212.5 513.5q0 300 212.5 512.5t512.5 212.5q122 0 229 -20h884v-80h-742zM1457 747q-13 242 -188 418
q-69 68 -147 111q-39 21 -80 37q-106 40 -229 40q-266 0 -455 -189t-189 -455q0 -267 189 -456t455 -189q123 0 229 39q41 16 80 37q78 44 147 113q174 174 188 414q1 20 1 42q0 19 -1 38z" />
    <glyph glyph-name="oe" unicode="&#x153;" horiz-adv-x="1826" 
d="M150 460q0 -166 117.5 -283t283.5 -117t283.5 117t117.5 283t-117.5 284t-283.5 118t-283.5 -118t-117.5 -284zM981 688q26 -48 40 -102h670q-28 91 -95 158q-118 118 -284 118t-284 -118q-26 -27 -47 -56zM981 232q21 -28 47 -54q118 -118 284 -118t284 118q20 20 38 42
l84 -30q-15 -25 -62 -72q-143 -143 -344 -143t-343 143q-20 20 -37 41q-18 -21 -37 -41q-142 -143 -344 -143q-200 0 -342.5 142.5t-142.5 342.5q0 202 142.5 344t342.5 142q202 0 344 -142q19 -20 37 -41q17 21 37 41q142 142 343 142t344 -142q125 -126 130 -299l-752 1
q2 -23 2 -46q0 -125 -55 -228z" />
    <glyph glyph-name="Racute" unicode="&#x154;" horiz-adv-x="959" 
d="M192 1333v-762h240q157 0 269 111.5t112 270.5q0 158 -112 269t-269 111h-240zM456 491q-12 -1 -24 -1h-240v-490h-80v1414h371q162 -22 275 -135q135 -136 135 -326q0 -192 -135 -327q-94 -94 -215 -123l326 -503h-98zM697 1783l-217 -165h-74l144 165h147z" />
    <glyph glyph-name="racute" unicode="&#x155;" horiz-adv-x="406" 
d="M406 798q-65 -13 -132 -81q-113 -112 -117 -269v-448h-80v868h80v-158q24 35 57 68q73 73 148 97zM436 1237l-217 -165h-74l144 165h147z" />
    <glyph glyph-name="Rcaron" unicode="&#x158;" horiz-adv-x="959" 
d="M192 1333v-762h240q157 0 269 111.5t112 270.5q0 158 -112 269t-269 111h-240zM456 491q-12 -1 -24 -1h-240v-490h-80v1414h371q162 -22 275 -135q135 -136 135 -326q0 -192 -135 -327q-94 -94 -215 -123l326 -503h-98zM452 1609l-202 207h93l155 -126l165 126h92
l-211 -207h-92z" />
    <glyph glyph-name="rcaron" unicode="&#x159;" horiz-adv-x="406" 
d="M406 798q-65 -13 -132 -81q-113 -112 -117 -269v-448h-80v868h80v-158q24 35 57 68q73 73 148 97zM191 1063l-202 207h93l155 -126l165 126h92l-211 -207h-92z" />
    <glyph glyph-name="Sacute" unicode="&#x15a;" horiz-adv-x="942" 
d="M495 783q-151 50 -238.5 137.5t-87.5 212.5q0 122 87.5 210t212.5 88q123 0 212 -88q48 -47 67 -105l-72 -28q-16 43 -52 79q-64 64 -155 64t-155.5 -64t-64.5 -156q0 -91 64 -156q60 -59 166 -108q170 -55 286 -171q122 -122 122 -295q0 -174 -122.5 -297t-295.5 -123
q-174 0 -296 124q-99 98 -118 228l75 27q12 -115 98 -200q100 -100 241 -100t241 100t100 241q0 140 -100 240q-88 88 -215 140zM665 1783l-217 -165h-74l144 165h147z" />
    <glyph glyph-name="sacute" unicode="&#x15b;" horiz-adv-x="644" 
d="M324 466q-101 55 -140 94q-61 61 -61 147t61 147.5t147 61.5t143 -57q55 -55 55 -126v-4l-69 -28q-9 67 -42 101t-87 34q-53 0 -91 -38t-38 -91t38 -91q22 -23 93 -68q113 -61 161 -109q75 -76 75 -181q0 -108 -75 -183.5t-182 -75.5t-182 75.5t-75 165.5l79 20
q0 -77 52.5 -129.5t125.5 -52.5t126 52.5t53 127.5q0 73 -53 125q-28 28 -114 83zM506 1237l-217 -165h-74l144 165h147z" />
    <glyph glyph-name="Scircumflex" unicode="&#x15c;" horiz-adv-x="942" 
d="M495 783q-151 50 -238.5 137.5t-87.5 212.5q0 122 87.5 210t212.5 88q123 0 212 -88q48 -47 67 -105l-72 -28q-16 43 -52 79q-64 64 -155 64t-155.5 -64t-64.5 -156q0 -91 64 -156q60 -59 166 -108q170 -55 286 -171q122 -122 122 -295q0 -174 -122.5 -297t-295.5 -123
q-174 0 -296 124q-99 98 -118 228l75 27q12 -115 98 -200q100 -100 241 -100t241 100t100 241q0 140 -100 240q-88 88 -215 140zM513 1816l211 -207h-92l-165 126l-155 -126h-93l202 207h92z" />
    <glyph glyph-name="scircumflex" unicode="&#x15d;" horiz-adv-x="644" 
d="M324 466q-101 55 -140 94q-61 61 -61 147t61 147.5t147 61.5t143 -57q55 -55 55 -126v-4l-69 -28q-9 67 -42 101t-87 34q-53 0 -91 -38t-38 -91t38 -91q22 -23 93 -68q113 -61 161 -109q75 -76 75 -181q0 -108 -75 -183.5t-182 -75.5t-182 75.5t-75 165.5l79 20
q0 -77 52.5 -129.5t125.5 -52.5t126 52.5t53 127.5q0 73 -53 125q-28 28 -114 83zM354 1270l211 -207h-92l-165 126l-155 -126h-93l202 207h92z" />
    <glyph glyph-name="Scedilla" unicode="&#x15e;" horiz-adv-x="942" 
d="M394 -11q-126 22 -221 118q-99 98 -118 228l75 27q12 -115 98 -200q100 -100 241 -100t241 100t100 241q0 140 -100 240q-88 88 -215 140q-151 50 -238.5 137.5t-87.5 212.5q0 122 87.5 210t212.5 88q123 0 212 -88q48 -47 67 -105l-72 -28q-16 43 -52 79q-64 64 -155 64
t-155.5 -64t-64.5 -156q0 -91 64 -156q60 -59 166 -108q170 -55 286 -171q122 -122 122 -295q0 -174 -122.5 -297t-295.5 -123h-5l-34 -39q32 6 58 6q51 0 80 -23q40 -31 40 -74v-9q-5 -49 -61 -90q-49 -28 -104 -28q-31 0 -65 9l17 51q28 -11 55 -11q31 0 60 15
q25 18 30 43q1 5 1 11q0 18 -14 32q-18 17 -49 18h-4q-29 0 -47 -6q-19 -7 -57 -33l-35 34z" />
    <glyph glyph-name="scedilla" unicode="&#x15f;" horiz-adv-x="644" 
d="M245 7q-65 17 -115 68q-75 75 -75 165l79 20q0 -77 52.5 -129.5t125.5 -52.5t126 52.5t53 127.5q0 73 -53 125q-28 28 -114 83q-101 55 -140 94q-61 61 -61 147t61 147.5t147 61.5t143 -57q55 -55 55 -126v-4l-69 -28q-9 67 -42 101t-87 34q-53 0 -91 -38t-38 -91t38 -91
q22 -23 93 -68q113 -61 161 -109q75 -76 75 -181q0 -108 -75 -183q-72 -73 -175 -76l-48 -55q32 6 58 6q51 0 80 -23q40 -31 40 -74v-9q-5 -49 -61 -90q-49 -28 -104 -28q-31 0 -65 9l17 51q28 -11 55 -11q31 0 60 15q25 18 30 43q1 5 1 11q0 18 -14 32q-18 17 -49 18h-4
q-29 0 -47 -6q-19 -7 -57 -33l-35 34z" />
    <glyph glyph-name="Scaron" unicode="&#x160;" horiz-adv-x="942" 
d="M495 783q-151 50 -238.5 137.5t-87.5 212.5q0 122 87.5 210t212.5 88q123 0 212 -88q48 -47 67 -105l-72 -28q-16 43 -52 79q-64 64 -155 64t-155.5 -64t-64.5 -156q0 -91 64 -156q60 -59 166 -108q170 -55 286 -171q122 -122 122 -295q0 -174 -122.5 -297t-295.5 -123
q-174 0 -296 124q-99 98 -118 228l75 27q12 -115 98 -200q100 -100 241 -100t241 100t100 241q0 140 -100 240q-88 88 -215 140zM421 1609l-202 207h93l155 -126l165 126h92l-211 -207h-92z" />
    <glyph glyph-name="scaron" unicode="&#x161;" horiz-adv-x="644" 
d="M324 466q-101 55 -140 94q-61 61 -61 147t61 147.5t147 61.5t143 -57q55 -55 55 -126v-4l-69 -28q-9 67 -42 101t-87 34q-53 0 -91 -38t-38 -91t38 -91q22 -23 93 -68q113 -61 161 -109q75 -76 75 -181q0 -108 -75 -183.5t-182 -75.5t-182 75.5t-75 165.5l79 20
q0 -77 52.5 -129.5t125.5 -52.5t126 52.5t53 127.5q0 73 -53 125q-28 28 -114 83zM262 1063l-202 207h93l155 -126l165 126h92l-211 -207h-92z" />
    <glyph glyph-name="Tcaron" unicode="&#x164;" horiz-adv-x="859" 
d="M469 1334v-1334h-79v1334h-358v80h795v-80h-358zM379 1609l-202 207h93l155 -126l165 126h92l-211 -207h-92z" />
    <glyph glyph-name="tcaron" unicode="&#x165;" horiz-adv-x="564" 
d="M209 868v369h79v-369h177v-80h-177v-788h-79v788h-177v80h177zM464 1239q-20 4 -35 20q-24 23 -24 57q0 33 23.5 55.5t56.5 22.5q32 0 55.5 -22.5t23.5 -55.5q0 -19 -6 -35l-87 -175h-57z" />
    <glyph glyph-name="Tbar" unicode="&#x166;" horiz-adv-x="859" 
d="M391 747v587h-358v80h795v-80h-358v-587h260v-79h-260v-668h-79v668h-261v79h261z" />
    <glyph glyph-name="tbar" unicode="&#x167;" horiz-adv-x="497" 
d="M210 788h-177v80h177v369h79v-369h177v-80h-177v-239h177v-80h-177v-469h-79v469h-177v80h177v239z" />
    <glyph glyph-name="Utilde" unicode="&#x168;" horiz-adv-x="1147" 
d="M955 1414h80v-1016q-22 -162 -135 -275q-135 -135 -326 -135q-192 0 -327 135t-135 326v965h80v-965q0 -157 112 -269t270 -112t269.5 112t111.5 269v965zM583 1753q59 -43 82 -43h4q18 7 26 32q4 14 4 49l66 -13q-2 -37 -10 -61q-18 -55 -62 -74q-12 -4 -25 -4
q-41 0 -105 45q-59 44 -82 44q-3 0 -4 -1q-17 -6 -25 -32q-5 -14 -5 -49l-65 14q1 37 9 60q18 55 63 74q11 5 25 5q41 0 104 -46z" />
    <glyph glyph-name="utilde" unicode="&#x169;" horiz-adv-x="880" 
d="M445 -12q-163 0 -259 96t-99 243v542h80v-535q0 -110 80 -188q79 -79 197 -79q110 0 189.5 78.5t79.5 188.5v535h80v-542q-3 -147 -99 -243t-249 -96zM450 1207q59 -43 82 -43h4q18 7 26 32q4 14 4 49l66 -13q-2 -37 -10 -61q-18 -55 -62 -74q-12 -4 -25 -4
q-41 0 -105 45q-59 44 -82 44q-3 0 -4 -1q-17 -6 -25 -32q-5 -14 -5 -49l-65 14q1 37 9 60q18 55 63 74q11 5 25 5q41 0 104 -46z" />
    <glyph glyph-name="Umacron" unicode="&#x16a;" horiz-adv-x="1147" 
d="M955 1414h80v-1016q-22 -162 -135 -275q-135 -135 -326 -135q-192 0 -327 135t-135 326v965h80v-965q0 -157 112 -269t270 -112t269.5 112t111.5 269v965zM313 1730h521v-62h-521v62z" />
    <glyph glyph-name="umacron" unicode="&#x16b;" horiz-adv-x="880" 
d="M445 -12q-163 0 -259 96t-99 243v542h80v-535q0 -110 80 -188q79 -79 197 -79q110 0 189.5 78.5t79.5 188.5v535h80v-542q-3 -147 -99 -243t-249 -96zM180 1184h521v-62h-521v62z" />
    <glyph glyph-name="Ubreve" unicode="&#x16c;" horiz-adv-x="1147" 
d="M955 1414h80v-1016q-22 -162 -135 -275q-135 -135 -326 -135q-192 0 -327 135t-135 326v965h80v-965q0 -157 112 -269t270 -112t269.5 112t111.5 269v965zM431 1828q7 -47 41 -80q42 -43 103 -43q59 0 101 43q35 33 41 80h64q-7 -73 -60 -126q-60 -61 -146 -61
q-88 0 -148 61q-57 58 -61 126h65z" />
    <glyph glyph-name="ubreve" unicode="&#x16d;" horiz-adv-x="880" 
d="M445 -12q-163 0 -259 96t-99 243v542h80v-535q0 -110 80 -188q79 -79 197 -79q110 0 189.5 78.5t79.5 188.5v535h80v-542q-3 -147 -99 -243t-249 -96zM298 1282q7 -47 41 -80q42 -43 103 -43q59 0 101 43q35 33 41 80h64q-7 -73 -60 -126q-60 -61 -146 -61q-88 0 -148 61
q-57 58 -61 126h65z" />
    <glyph glyph-name="Uring" unicode="&#x16e;" horiz-adv-x="1147" 
d="M955 1414h80v-1016q-22 -162 -135 -275q-135 -135 -326 -135q-192 0 -327 135t-135 326v965h80v-965q0 -157 112 -269t270 -112t269.5 112t111.5 269v965zM650.5 1779q31.5 -32 31.5 -77q0 -44 -31.5 -75.5t-76.5 -31.5t-77 31.5t-32 75.5q0 45 32 77t77 32t76.5 -32z
M574 1754q-22 0 -37 -15t-15 -37q0 -20 15 -35t37 -15q20 0 35 15t15 35q0 22 -15 37t-35 15z" />
    <glyph glyph-name="uring" unicode="&#x16f;" horiz-adv-x="880" 
d="M445 -12q-163 0 -259 96t-99 243v542h80v-535q0 -110 80 -188q79 -79 197 -79q110 0 189.5 78.5t79.5 188.5v535h80v-542q-3 -147 -99 -243t-249 -96zM517.5 1233q31.5 -32 31.5 -77q0 -44 -31.5 -75.5t-76.5 -31.5t-77 31.5t-32 75.5q0 45 32 77t77 32t76.5 -32z
M441 1208q-22 0 -37 -15t-15 -37q0 -20 15 -35t37 -15q20 0 35 15t15 35q0 22 -15 37t-35 15z" />
    <glyph glyph-name="Uhungarumlaut" unicode="&#x170;" horiz-adv-x="1147" 
d="M955 1414h80v-1016q-22 -162 -135 -275q-135 -135 -326 -135q-192 0 -327 135t-135 326v965h80v-965q0 -157 112 -269t270 -112t269.5 112t111.5 269v965zM628 1766l-217 -165h-74l144 165h147zM830 1766l-216 -165h-75l144 165h147z" />
    <glyph glyph-name="uhungarumlaut" unicode="&#x171;" horiz-adv-x="880" 
d="M445 -12q-163 0 -259 96t-99 243v542h80v-535q0 -110 80 -188q79 -79 197 -79q110 0 189.5 78.5t79.5 188.5v535h80v-542q-3 -147 -99 -243t-249 -96zM495 1220l-217 -165h-74l144 165h147zM697 1220l-216 -165h-75l144 165h147z" />
    <glyph glyph-name="Uogonek" unicode="&#x172;" horiz-adv-x="1147" 
d="M678 -1q-50 -11 -104 -11q-192 0 -327 135t-135 326v965h80v-965q0 -157 112 -269t270 -112t269.5 112t111.5 269v965h80v-1016q-22 -162 -135 -275q-69 -69 -153 -103q-17 -23 -17 -49q0 -8 1 -15l1 -6q6 -32 33 -54q24 -19 52 -19q5 0 10 1h6q31 6 61 35l26 -43l-4 -4
q-26 -34 -71 -42l-12 -3q-9 -1 -17 -1q-46 0 -86 31q-43 33 -53 84q-1 7 -1 14q-1 10 -1 19q0 16 3 31z" />
    <glyph glyph-name="uogonek" unicode="&#x173;" horiz-adv-x="880" 
d="M478 -11q-16 -1 -33 -1q-163 0 -259 96t-99 243v542h80v-535q0 -110 80 -188q79 -79 197 -79q110 0 189.5 78.5t79.5 188.5v535h80v-542q-3 -147 -99 -243q-64 -64 -155 -86q-9 -17 -9 -37q0 -7 1 -15l1 -6q6 -32 33 -54q24 -19 52 -19q5 0 10 1h6q31 6 61 35l26 -43
l-4 -4q-26 -34 -71 -42l-12 -3q-9 -1 -17 -1q-46 0 -86 31q-43 33 -53 84q-1 7 -1 14q-1 10 -1 19q0 16 3 31z" />
    <glyph glyph-name="Wcircumflex" unicode="&#x174;" horiz-adv-x="1642" 
d="M864 999l351 -870l344 1285h83l-379 -1414h-81l-361 894l-361 -894h-82l-378 1414h82l343 -1285h1l350 870h88zM863 1736l211 -207h-92l-165 126l-155 -126h-93l202 207h92z" />
    <glyph glyph-name="wcircumflex" unicode="&#x175;" horiz-adv-x="1094" 
d="M92 868l221 -743l181 595h105l177 -595l227 743h91l-267 -868h-102l-179 592l-182 -592h-102l-262 868h92zM589 1270l211 -207h-92l-165 126l-155 -126h-93l202 207h92z" />
    <glyph glyph-name="Ycircumflex" unicode="&#x176;" horiz-adv-x="1116" 
d="M518 572l-486 842h91l435 -754l435 754h91l-486 -842v-572h-80v572zM600 1816l211 -207h-92l-165 126l-155 -126h-93l202 207h92z" />
    <glyph glyph-name="ycircumflex" unicode="&#x177;" horiz-adv-x="779" 
d="M434 163l-229 -493h-89l229 491l-330 707h89l285 -606l286 606h89l-329 -705h-1zM431 1270l211 -207h-92l-165 126l-155 -126h-93l202 207h92z" />
    <glyph glyph-name="Ydieresis" unicode="&#x178;" horiz-adv-x="1116" 
d="M518 572l-486 842h91l435 -754l435 754h91l-486 -842v-572h-80v572zM481.5 1828q23.5 -23 23.5 -55q0 -34 -23.5 -57t-55.5 -23q-33 0 -56.5 23t-23.5 57q0 32 23.5 55t56.5 23q32 0 55.5 -23zM746.5 1828q23.5 -23 23.5 -55q0 -34 -23.5 -57t-55.5 -23q-33 0 -56.5 23
t-23.5 57q0 32 23.5 55t56.5 23q32 0 55.5 -23z" />
    <glyph glyph-name="Zacute" unicode="&#x179;" horiz-adv-x="1075" 
d="M854 1334h-770v80h907l-771 -1334h771v-80h-907zM732 1783l-217 -165h-74l144 165h147z" />
    <glyph glyph-name="zacute" unicode="&#x17a;" horiz-adv-x="743" 
d="M510 776h-448v79h585l-46 -79l-403 -696h483v-80h-619l46 80zM566 1237l-217 -165h-74l144 165h147z" />
    <glyph glyph-name="Zdotaccent" unicode="&#x17b;" horiz-adv-x="1075" 
d="M854 1334h-770v80h907l-771 -1334h771v-80h-907zM585 1807.5q20 -19.5 20 -47.5t-20 -47.5t-47 -19.5q-28 0 -48 19.5t-20 47.5t20 47.5t48 19.5q27 0 47 -19.5z" />
    <glyph glyph-name="zdotaccent" unicode="&#x17c;" horiz-adv-x="743" 
d="M510 776h-448v79h585l-46 -79l-403 -696h483v-80h-619l46 80zM419 1261.5q20 -19.5 20 -47.5t-20 -47.5t-47 -19.5q-28 0 -48 19.5t-20 47.5t20 47.5t48 19.5q27 0 47 -19.5z" />
    <glyph glyph-name="Zcaron" unicode="&#x17d;" horiz-adv-x="1075" 
d="M854 1334h-770v80h907l-771 -1334h771v-80h-907zM487 1609l-202 207h93l155 -126l165 126h92l-211 -207h-92z" />
    <glyph glyph-name="zcaron" unicode="&#x17e;" horiz-adv-x="743" 
d="M510 776h-448v79h585l-46 -79l-403 -696h483v-80h-619l46 80zM321 1063l-202 207h93l155 -126l165 126h92l-211 -207h-92z" />
    <glyph glyph-name="AEacute" unicode="&#x1fc;" horiz-adv-x="1442" 
d="M1387 747v-80h-627v-587h627v-80h-706v542h-300l-241 -542h-85l615 1414h717v-80h-627v-587h627zM681 621v629l-271 -629h271zM915 1783l-217 -165h-74l144 165h147z" />
    <glyph glyph-name="aeacute" unicode="&#x1fd;" horiz-adv-x="1873" 
d="M912 653q-27 49 -69 91q-118 118 -284 118t-283.5 -118t-117.5 -284t117.5 -283t283.5 -117t284 118q42 42 69 90q30 53 41 114v157q-11 61 -41 114zM1738 586q-28 91 -96 158q-117 118 -283 118t-284 -118q-24 -24 -42 -49v-109h705zM1033 226q18 -25 42 -48
q118 -118 284 -118t283 118q21 20 38 42l85 -30q-15 -25 -63 -72q-142 -143 -343 -143q-189 0 -326 127v-102h-80v177q-23 -31 -50 -59q-142 -143 -344 -143q-200 0 -342.5 142.5t-142.5 342.5q0 202 142.5 344t342.5 142q202 0 344 -142q27 -28 50 -59v123h80v-48
q137 126 326 126q201 0 343 -142q126 -126 131 -299l-800 1v-280zM1148 1237l-217 -165h-74l144 165h147z" />
    <glyph glyph-name="Oslashacute" unicode="&#x1fe;" horiz-adv-x="1647" 
d="M1059 1310q-108 43 -236 43q-266 0 -455 -189t-189 -455q0 -267 189 -456q68 -68 147 -113zM587 107q109 -43 236 -43q267 0 456 189t189 456q0 266 -189 456q-69 68 -147 111zM1166 1350q91 -49 171 -128q212 -213 212 -513q0 -301 -212.5 -513.5t-513.5 -212.5
q-145 0 -270 51l-76 -163l-72 34l76 162q-91 50 -170 129q-213 212 -213 513q0 300 212.5 512.5t512.5 212.5q146 0 271 -50l76 162l72 -33zM1018 1783l-217 -165h-74l144 165h147z" />
    <glyph glyph-name="oslashacute" unicode="&#x1ff;" horiz-adv-x="1080" 
d="M706 828q-76 34 -166 34q-166 0 -283.5 -117.5t-117.5 -283.5t117 -283q24 -24 51 -43zM774 787l-400 -692q76 -34 166 -34q166 0 283.5 117t117.5 283t-117 284q-24 24 -50 42zM264 62q-35 25 -67 56q-142 143 -142 343q0 202 142.5 344t342.5 142q114 0 210 -46
l107 188l70 -37l-110 -190q35 -25 67 -57q141 -142 141 -344q0 -200 -141.5 -342.5t-343.5 -142.5q-114 0 -208 46l-109 -188l-70 33zM734 1237l-217 -165h-74l144 165h147z" />
    <glyph glyph-name="circumflex" unicode="&#x2c6;" horiz-adv-x="655" 
d="M369 1270l211 -207h-92l-165 126l-155 -126h-93l202 207h92z" />
    <glyph glyph-name="caron" unicode="&#x2c7;" horiz-adv-x="655" 
d="M277 1063l-202 207h93l155 -126l165 126h92l-211 -207h-92z" />
    <glyph glyph-name="uni02C9" unicode="&#x2c9;" horiz-adv-x="671" 
d="M75 1184h521v-62h-521v62z" />
    <glyph glyph-name="breve" unicode="&#x2d8;" horiz-adv-x="565" 
d="M140 1282q7 -47 41 -80q42 -43 103 -43q59 0 101 43q35 33 41 80h64q-7 -73 -60 -126q-60 -61 -146 -61q-88 0 -148 61q-57 58 -61 126h65z" />
    <glyph glyph-name="dotaccent" unicode="&#x2d9;" horiz-adv-x="285" 
d="M190 1261.5q20 -19.5 20 -47.5t-20 -47.5t-47 -19.5q-28 0 -48 19.5t-20 47.5t20 47.5t48 19.5q27 0 47 -19.5z" />
    <glyph glyph-name="ring" unicode="&#x2da;" horiz-adv-x="367" 
d="M260.5 1233q31.5 -32 31.5 -77q0 -44 -31.5 -75.5t-76.5 -31.5t-77 31.5t-32 75.5q0 45 32 77t77 32t76.5 -32zM184 1208q-22 0 -37 -15t-15 -37q0 -20 15 -35t37 -15q20 0 35 15t15 35q0 22 -15 37t-35 15z" />
    <glyph glyph-name="ogonek" unicode="&#x2db;" horiz-adv-x="434" 
d="M270 4q-63 -20 -91 -44q-29 -25 -31 -62v-6q0 -33 22 -59q24 -28 58 -30q3 -1 6 -1q31 0 66 23l17 -48l-4 -3q-32 -28 -78 -28h-12q-57 4 -96 49q-35 41 -35 93q0 7 1 14q5 61 50 100q38 32 83 32q9 0 18 -1z" />
    <glyph glyph-name="tilde" unicode="&#x2dc;" horiz-adv-x="533" 
d="M276 1207q59 -43 82 -43h4q18 7 26 32q4 14 4 49l66 -13q-2 -37 -10 -61q-18 -55 -62 -74q-12 -4 -25 -4q-41 0 -105 45q-59 44 -82 44q-3 0 -4 -1q-17 -6 -25 -32q-5 -14 -5 -49l-65 14q1 37 9 60q18 55 63 74q11 5 25 5q41 0 104 -46z" />
    <glyph glyph-name="hungarumlaut" unicode="&#x2dd;" horiz-adv-x="643" 
d="M366 1220l-217 -165h-74l144 165h147zM568 1220l-216 -165h-75l144 165h147z" />
    <glyph glyph-name="Wgrave" unicode="&#x1e80;" horiz-adv-x="1642" 
d="M864 999l351 -870l344 1285h83l-379 -1414h-81l-361 894l-361 -894h-82l-378 1414h82l343 -1285h1l350 870h88zM774 1703l144 -165h-75l-216 165h147z" />
    <glyph glyph-name="wgrave" unicode="&#x1e81;" horiz-adv-x="1094" 
d="M92 868l221 -743l181 595h105l177 -595l227 743h91l-267 -868h-102l-179 592l-182 -592h-102l-262 868h92zM500 1237l144 -165h-75l-216 165h147z" />
    <glyph glyph-name="Wacute" unicode="&#x1e82;" horiz-adv-x="1642" 
d="M864 999l351 -870l344 1285h83l-379 -1414h-81l-361 894l-361 -894h-82l-378 1414h82l343 -1285h1l350 870h88zM1015 1703l-217 -165h-74l144 165h147z" />
    <glyph glyph-name="wacute" unicode="&#x1e83;" horiz-adv-x="1094" 
d="M92 868l221 -743l181 595h105l177 -595l227 743h91l-267 -868h-102l-179 592l-182 -592h-102l-262 868h92zM741 1237l-217 -165h-74l144 165h147z" />
    <glyph glyph-name="Wdieresis" unicode="&#x1e84;" horiz-adv-x="1642" 
d="M864 999l351 -870l344 1285h83l-379 -1414h-81l-361 894l-361 -894h-82l-378 1414h82l343 -1285h1l350 870h88zM744.5 1748q23.5 -23 23.5 -55q0 -34 -23.5 -57t-55.5 -23q-33 0 -56.5 23t-23.5 57q0 32 23.5 55t56.5 23q32 0 55.5 -23zM1009.5 1748q23.5 -23 23.5 -55
q0 -34 -23.5 -57t-55.5 -23q-33 0 -56.5 23t-23.5 57q0 32 23.5 55t56.5 23q32 0 55.5 -23z" />
    <glyph glyph-name="wdieresis" unicode="&#x1e85;" horiz-adv-x="1094" 
d="M92 868l221 -743l181 595h105l177 -595l227 743h91l-267 -868h-102l-179 592l-182 -592h-102l-262 868h92zM470.5 1282q23.5 -23 23.5 -55q0 -34 -23.5 -57t-55.5 -23q-33 0 -56.5 23t-23.5 57q0 32 23.5 55t56.5 23q32 0 55.5 -23zM735.5 1282q23.5 -23 23.5 -55
q0 -34 -23.5 -57t-55.5 -23q-33 0 -56.5 23t-23.5 57q0 32 23.5 55t56.5 23q32 0 55.5 -23z" />
    <glyph glyph-name="Ygrave" unicode="&#x1ef2;" horiz-adv-x="1116" 
d="M518 572l-486 842h91l435 -754l435 754h91l-486 -842v-572h-80v572zM511 1783l144 -165h-75l-216 165h147z" />
    <glyph glyph-name="ygrave" unicode="&#x1ef3;" horiz-adv-x="779" 
d="M434 163l-229 -493h-89l229 491l-330 707h89l285 -606l286 606h89l-329 -705h-1zM343 1237l144 -165h-75l-216 165h147z" />
    <glyph glyph-name="endash" unicode="&#x2013;" horiz-adv-x="681" 
d="M0 563h681v-80h-681v80z" />
    <glyph glyph-name="emdash" unicode="&#x2014;" horiz-adv-x="1254" 
d="M0 563h1254v-80h-1254v80z" />
    <glyph glyph-name="afii00208" unicode="&#x2015;" horiz-adv-x="3072" 
d="M0 563h1881v-80h-1881v80z" />
    <glyph glyph-name="underscoredbl" unicode="&#x2017;" horiz-adv-x="794" 
d="M-45 -224h884v-79h-884v79zM-45 -27h884v-79h-884v79z" />
    <glyph glyph-name="quoteleft" unicode="&#x2018;" horiz-adv-x="255" 
d="M148 1291q20 -4 36 -20q23 -23 23 -57q0 -33 -23.5 -56t-55.5 -23q-33 0 -56.5 23t-23.5 56q0 19 6 35l87 174h57z" />
    <glyph glyph-name="quoteright" unicode="&#x2019;" horiz-adv-x="255" 
d="M107 1268q-20 4 -35 20q-24 23 -24 57q0 33 23.5 55.5t56.5 22.5q32 0 55.5 -22.5t23.5 -55.5q0 -19 -6 -35l-87 -175h-57z" />
    <glyph glyph-name="quotesinglbase" unicode="&#x201a;" horiz-adv-x="255" 
d="M107 -11q-20 4 -35 20q-24 23 -24 56t23.5 56t56.5 23q32 0 55.5 -23t23.5 -56q0 -18 -6 -34l-87 -175h-57z" />
    <glyph glyph-name="quotereversed" unicode="&#x201b;" horiz-adv-x="255" 
d="M198 1135h-57l-87 175q-6 16 -6 35q0 33 23.5 55.5t55.5 22.5q33 0 56.5 -22.5t23.5 -55.5q0 -34 -24 -57q-15 -16 -35 -20z" />
    <glyph glyph-name="quotedblleft" unicode="&#x201c;" horiz-adv-x="478" 
d="M148 1291q20 -4 36 -20q23 -23 23 -57q0 -33 -23.5 -56t-55.5 -23q-33 0 -56.5 23t-23.5 56q0 19 6 35l87 174h57zM371 1291q20 -4 36 -20q23 -23 23 -57q0 -33 -23.5 -56t-56.5 -23t-56 23t-23 56q0 19 6 35l86 174h58z" />
    <glyph glyph-name="quotedblright" unicode="&#x201d;" horiz-adv-x="478" 
d="M107 1268q-20 4 -35 20q-24 23 -24 57q0 33 23.5 55.5t56.5 22.5q32 0 55.5 -22.5t23.5 -55.5q0 -19 -6 -35l-87 -175h-57zM330 1268q-20 4 -35 20q-24 23 -24 57q0 33 23 55.5t56 22.5t56.5 -22.5t23.5 -55.5q0 -19 -6 -35l-87 -175h-57z" />
    <glyph glyph-name="quotedblbase" unicode="&#x201e;" horiz-adv-x="478" 
d="M107 -11q-20 4 -35 20q-24 23 -24 57q0 33 23.5 55.5t56.5 22.5q32 0 55.5 -22.5t23.5 -55.5q0 -19 -6 -35l-87 -175h-57zM330 -11q-20 4 -35 20q-24 23 -24 57q0 33 23 55.5t56 22.5t56.5 -22.5t23.5 -55.5q0 -19 -6 -35l-87 -175h-57z" />
    <glyph glyph-name="dagger" unicode="&#x2020;" horiz-adv-x="689" 
d="M319 1410v193h51v-193h221v-51h-221v-1206h-51v1206h-221v51h221z" />
    <glyph glyph-name="daggerdbl" unicode="&#x2021;" horiz-adv-x="689" 
d="M319 1359h-221v51h221v193h51v-193h221v-51h-221v-429h221v-51h-221v-726h-51v726h-221v51h221v429z" />
    <glyph glyph-name="bullet" unicode="&#x2022;" horiz-adv-x="2623" 
d="M1290 1308h3q157 0 157 -161q0 -30 -44 -124v-7l62 -166h-359v5q57 135 57 181q-37 79 -37 111q30 161 161 161zM1350 30q-4 28 -18 51q-12 21 -23 44q-30 -23 -30 -65q0 -19 12 -41q13 -21 32 -21q25 4 27 32zM1382 507v-7l136 -62l17 7v6q-32 60 -74 81
q-79 -12 -79 -25zM1060 451v-6l25 -7l129 62v7q0 13 -75 25q-30 0 -79 -81zM1127 581l12 -12h273l61 5v7h-346zM874 730l-31 -32v-25l7 -5v-7q24 9 37 32v24zM1696 717q0 -28 50 -56l7 7v30l-45 37q-12 0 -12 -18zM1783 760v-67l56 -20h6v7q0 50 -55 80h-7zM751 673h5l56 20
v67h-7q-54 -28 -54 -87zM1733 804l-5 -7v-5l12 -13l13 13zM855 804l-12 -19l7 -6h5l12 13zM1852 809v-5q0 -76 99 -111l5 5v12q-43 62 -99 99h-5zM639 710v-5l6 -7v-5q99 35 99 111v5h-6q-56 -37 -99 -99zM1790 829v-7l12 -13h5l20 20v5l-13 12h-7zM768 834v-5l20 -20h5
l12 13v7l-17 17h-7zM1926 871v-17q0 -80 104 -94h87v12q-23 27 -87 50q0 17 -74 32l-25 17h-5zM478 772v-12h80q80 0 111 69v42h-5l-99 -42q0 -13 -69 -37zM706 896l-5 -5v-37h18l12 12v12q0 9 -25 18zM1864 891v-25l12 -12h18v30l-18 19zM1913 933l18 -18h20l12 13l-12 42
h-20q-18 -5 -18 -37zM645 970l-13 -49l7 -6h25l12 13l-19 42h-12zM2092 990v-13l19 -19h80l12 12v7l-92 18zM392 977v-7l12 -12h80l19 19v13h-12v5zM904 1057v-18q60 -401 174 -433l-167 451h-7zM1535 643h7q87 0 149 396q-6 43 -20 43q-37 -50 -136 -409v-30zM1889 1168
v-18l62 -24l17 37v5h-79zM627 1168v-5l18 -37l61 24v18h-79zM917 1193v-5l198 -569h358q82 224 168 537l-62 99q-143 221 -143 242h-297zM1097 1514l-57 -74q-153 -191 -173 -247h7l6 -5h7q0 30 79 116l143 198zM1456 1509l161 -254q49 -75 79 -75l25 20l-228 339z
M1523 1559v-20q171 -226 205 -252v5q-154 231 -205 267zM855 1279h19q170 202 211 267q-20 0 -20 18h-5q-99 -99 -99 -136q-106 -117 -106 -149zM1894 30q-4 28 -18 51q-12 21 -23 44q-30 -23 -30 -65q0 -19 13 -41q12 -21 33 -21q25 4 25 32zM281 78v-103q0 -3 3.5 -11
t31.5 -15q-28 -9 -76 -38q-15 -9 -29 -9q-32 0 -63 45q18 9 25 13.5t7 7.5v159q0 20 -30 29q78 37 111 60q16 -2 20 -46v-2q12 5 23 10l102 38q7 -38 16 -68t18 -87q1 -11 1 -21q0 -48 -32 -98q-40 -62 -113 -126q46 85 46 158q0 20 -3 39q-16 89 -27 112q-31 -23 -31 -47z
M1175 -50v177q0 20 -30 29q77 37 111 60q12 -27 25 -46q10 3 21 8l101 38q7 -38 26 -101q9 -29 9 -54q0 -27 -11 -49q-24 -53 -84 -84q-39 -20 -68 -27v-51q0 -6 4 -13.5t32 -13.5q-28 -10 -75 -39q-14 -9 -29 -9q-32 0 -64 47q18 7 25 12t7 7v107q-28 -10 -73 -38
q-10 -6 -21 -6q-22 0 -39 32v128q-3 26 -30 61q-9 -12 -12 -33v-117q0 -3 3.5 -11t31.5 -15q-28 -9 -76 -39q-11 -6 -21 -6q-23 0 -39 32v128q-3 26 -30 61q-16 -12 -16 -33v-117q0 -3 3.5 -11t16.5 -15q-13 -9 -61 -38q-15 -9 -29 -9q-32 0 -62 45q15 9 23 13.5t8 7.5v159
q0 20 -30 29q76 37 112 60q16 -2 19 -46v-2q11 5 23 10l76 38q2 -7 25 -38q7 -7 10 -14q16 7 34 14l76 38q0 -7 23 -36.5t23 -45.5v-159q0 -3 3 -11q4 -7 29 -14zM1060 1596h482q25 -20 223 -292q49 -53 49 -79v-13l-44 -161l13 -37l-25 -37h7q104 43 104 117v7
q-17 21 -17 42q0 69 116 69h7q92 0 186 -123q60 -50 228 -99v-25q-18 0 -18 -12l5 -8v-5q-5 -25 -37 -25h-12l-191 -12q-28 25 -94 25l-54 25l-7 -20q23 -74 106 -74l17 -5q69 5 69 17v7l-12 18v7l25 -12l30 5h99l37 7l19 -7v-12q0 -36 -180 -62l-111 7v-20q100 -30 167 -30
h38v-7q-46 -62 -144 -62h-24q-62 0 -142 32v-7q0 -32 142 -79q0 -25 -67 -32q-39 0 -168 56q0 -30 61 -81l-17 -12l-119 37v-5l20 -50l-25 -7q-33 0 -118 111l-55 -272v-5h-656q-33 0 -74 260q-65 -83 -106 -94l-25 7l20 55h-7q-76 -37 -117 -37l-12 19q62 37 62 74h-8
q-113 -56 -166 -56q-62 7 -62 32q142 47 142 79v7h-5q-64 -32 -137 -32h-24q-97 0 -143 62v7h37q67 0 168 30v20l-124 -7q-168 30 -168 62v12h12v7l45 -7h99l24 -5l30 12v-7l-12 -18v-7q0 -12 62 -17q131 10 131 91l-8 8q-45 -25 -123 -32q0 -9 -25 -18l-191 12h-12
q-32 0 -37 25l5 18l-18 7v25q198 54 260 129q65 93 154 93h7q117 0 117 -69q0 -21 -18 -42v-7q19 -111 99 -111l-62 266q21 0 74 80zM2320 99q-16 -7 -34 -18q-8 18 -8 36q0 16 8 33q7 14 25 23q5 2 9 4v58q0 57 33 99q34 42 114 48q-46 -50 -46 -140v-76q21 9 38 20
q8 -18 8 -35q0 -18 -8 -34q-7 -15 -24 -23q-7 -4 -14 -4v-78q2 -27 23 -27q12 0 31 10q-23 -48 -67 -81q-15 -10 -32 -10q-38 0 -88 43q18 9 25 13.5t7 7.5v131zM2111 78v-103q0 -3 3.5 -11t32.5 -15q-27 -9 -75 -38q-15 -9 -29 -9q-32 0 -64 45q17 9 24.5 13.5t7.5 7.5v159
q0 20 -30 29q77 37 111 60q16 -2 19 -46v-2q13 5 25 10l101 38q7 -38 16 -68q10 -30 18 -87q2 -10 2 -19q0 -49 -33 -100q-39 -62 -113 -126q46 85 46 158q0 20 -3 39q-16 89 -27 112q-30 -23 -30 -47h-2zM1949 216q5 -38 25 -101q9 -29 9 -54q0 -27 -11 -49
q-25 -53 -85 -84q-56 -29 -91 -29h-7q-36 4 -59 64q-12 33 -12 63q0 32 13 61q25 54 115 91zM1555 173q7 4 16 7l100 37q7 -37 16 -67q11 -30 19 -70q2 -8 2 -17q0 -36 -24 -88q-30 -65 -108 -123q37 71 37 131q0 23 -5 44q-20 77 -30 100q-16 -10 -23 -23v-129
q0 -3 3.5 -11t31.5 -15q-28 -9 -76 -38q-15 -9 -29 -9q-32 0 -63 45q18 9 25 13.5t7 7.5v339q0 20 -30 31q78 37 110 46q17 -25 38 -50q-17 -4 -17 -19v-142zM606 -175q-2 3 -5 3t-9 -6q-47 -47 -91 -47q-15 0 -29 5q-56 20 -56 78v2q1 59 61 85q-7 20 -7 23v159
q0 20 -30 29q77 37 111 60q16 -2 19 -46v-195q2 -15 12 -15t29 17v150q0 20 -30 29q78 37 111 60q16 -2 20 -46v-159q0 -45 -70 -77t-111 -32h-4q-38 0 -47 -29q-2 -7 -2 -13q0 -20 23 -29q8 -3 18 -3q25 0 60 20q30 18 56 18q16 0 29 -7q16 -7 27 -29q4 -8 4 -17
q0 -12 -8 -23q-14 -14 -29 -14q-7 0 -15 3q-23 14 -37 46z" />
    <glyph glyph-name="ellipsis" unicode="&#x2026;" horiz-adv-x="2048" 
d="M233.5 123q23.5 -23 23.5 -56t-23.5 -56t-55.5 -23q-33 0 -56.5 23t-23.5 56t23.5 56t56.5 23q32 0 55.5 -23zM916.5 123q23.5 -23 23.5 -56t-23.5 -56t-55.5 -23q-33 0 -56.5 23t-23.5 56t23.5 56t56.5 23q32 0 55.5 -23zM1599.5 123q23.5 -23 23.5 -56t-23.5 -56
t-55.5 -23q-33 0 -56.5 23t-23.5 56t23.5 56t56.5 23q32 0 55.5 -23z" />
    <glyph glyph-name="perthousand" unicode="&#x2030;" horiz-adv-x="1580" 
d="M985 1161l-811 -1158l-65 45l811 1158zM426.5 1014q59.5 -60 59.5 -145q0 -84 -59.5 -144t-144.5 -60t-144.5 60t-59.5 144q0 85 59.5 145t144.5 60t144.5 -60zM282 997q-53 0 -90 -37.5t-37 -90.5t37 -90t90 -37q52 0 89.5 37t37.5 90t-37.5 90.5t-89.5 37.5z
M956.5 483.5q59.5 -59.5 59.5 -144.5t-59.5 -144.5t-144.5 -59.5t-144.5 59.5t-59.5 144.5t59.5 144.5t144.5 59.5t144.5 -59.5zM812 467q-53 0 -90 -37.5t-37 -90.5t37 -90t90 -37q52 0 90 37t38 90t-38 90.5t-90 37.5zM1442.5 483.5q59.5 -59.5 59.5 -144.5t-59.5 -144.5
t-144.5 -59.5t-144.5 59.5t-59.5 144.5t59.5 144.5t144.5 59.5t144.5 -59.5zM1298 467q-53 0 -90 -37.5t-37 -90.5t37 -90t90 -37q52 0 89.5 37t37.5 90t-37.5 90.5t-89.5 37.5z" />
    <glyph glyph-name="minute" unicode="&#x2032;" horiz-adv-x="326" 
d="M123 881v530h80v-530h-80z" />
    <glyph glyph-name="second" unicode="&#x2033;" horiz-adv-x="486" 
d="M123 881v530h80v-530h-80zM283 881v530h80v-530h-80z" />
    <glyph glyph-name="guilsinglleft" unicode="&#x2039;" horiz-adv-x="506" 
d="M55 425l396 425v-113l-291 -312l291 -311v-114z" />
    <glyph glyph-name="guilsinglright" unicode="&#x203a;" horiz-adv-x="506" 
d="M55 0v114l290 311l-290 312v113l396 -425z" />
    <glyph glyph-name="exclamdbl" unicode="&#x203c;" horiz-adv-x="538" 
d="M190.5 123q23.5 -23 23.5 -56t-23.5 -56t-55.5 -23q-33 0 -56.5 23t-23.5 56t23.5 56t56.5 23q32 0 55.5 -23zM173 1414v-1170h-80v1170h80zM459.5 123q23.5 -23 23.5 -56t-23.5 -56t-55.5 -23q-33 0 -56.5 23t-23.5 56t23.5 56t56.5 23q32 0 55.5 -23zM442 1414v-1170
h-80v1170h80z" />
    <glyph glyph-name="uni203E" unicode="&#x203e;" horiz-adv-x="794" 
d="M-45 1613h884v-79h-884v79z" />
    <glyph glyph-name="fraction" unicode="&#x2044;" horiz-adv-x="327" 
d="M927 1414l-1415 -1414h-112l1413 1414h114z" />
    <glyph glyph-name="fraction" unicode="&#x2215;" horiz-adv-x="327" 
d="M927 1414l-1415 -1414h-112l1413 1414h114z" />
    <glyph glyph-name="uni207F" unicode="&#x207f;" horiz-adv-x="55" 
d="M135 1168v-674h-80v868h80v-56q108 108 252 108q154 0 250.5 -96.5t98.5 -242.5v-581h-79v573q0 111 -80 189t-190 78q-109 0 -189 -77q-43 -43 -63 -89z" />
    <glyph glyph-name="franc" unicode="&#x20a3;" 
d="M297 414v1000h619v-80h-539v-587h539v-80h-539v-253h254v-80h-254v-334h-80v334h-143v80h143z" />
    <glyph glyph-name="lira" unicode="&#x20a4;" 
d="M300 667q-15 35 -33 70q-98 159 -110 303q-2 17 -2 34q0 122 81 220q91 108 235 122h34q123 0 221 -81q109 -93 123 -236q2 -20 2 -39q0 -55 -19 -100l-76 25q13 38 13 84q0 13 -1 25q-10 109 -94 179q-75 62 -168 62q-13 0 -25 -1q-110 -9 -180 -93q-62 -75 -62 -167
q0 -14 1 -27q9 -100 69 -226q47 -75 77 -154h205v-79h-179q14 -53 20 -106h159v-80h-153q-6 -175 -151 -346q111 39 218 39q63 0 126 -14q88 -20 166 -20q71 0 134 16l15 -79q-72 -17 -149 -17q-78 0 -161 19q-87 19 -153 19q-60 0 -104 -15q-92 -34 -178 -77l-77 91
q110 97 138 131q94 112 95 253h-208v80h202q-7 53 -23 106h-179v79h151z" />
    <glyph glyph-name="peseta" unicode="&#x20a7;" horiz-adv-x="1665" 
d="M220 1333v-762h216q141 0 242 111.5t101 270.5q0 158 -101 269t-242 111h-216zM826 788q-30 -89 -97 -162q-122 -136 -293 -136h-216v-490h-72v1414h334q145 -22 247 -135q122 -136 122 -326q0 -45 -6 -85h74v369h80v-369h219q47 28 105 28q87 0 143 -57q55 -55 55 -126
v-4l-69 -28q-9 67 -42 101t-87 34q-53 0 -91 -38t-38 -91t38 -91q22 -23 94 -68q113 -61 161 -109q75 -76 75 -181q0 -108 -75 -183.5t-182 -75.5t-182 75.5t-75 165.5l78 20q0 -77 52.5 -129.5t126.5 -52.5q73 0 125.5 52.5t52.5 127.5q0 73 -52 125q-28 28 -114 83
q-102 55 -140 94q-61 61 -61 147q0 55 25 101h-142v-788h-80v788h-93z" />
    <glyph glyph-name="Euro" unicode="&#x20ac;" 
d="M143 782v147q0 200 138 342.5t332 142.5q195 0 331 -142l-57 -60q-113 117 -274 117t-275 -117t-114 -283v-147h563l-16 -80h-547v-106h527l-16 -79h-511v-57q0 -166 114 -283t275 -117t274 118q71 72 98 163h84q-30 -125 -125 -223q-136 -143 -331 -143
q-194 0 -332 142.5t-138 342.5v57h-143l15 79h128v106h-107l15 80h92z" />
    <glyph glyph-name="afii61248" unicode="&#x2105;" horiz-adv-x="1932" 
d="M650 862l63 -23q-17 -24 -39 -45q-107 -108 -258 -108q-150 0 -257 107t-107 258t107 257.5t257 106.5q151 0 258 -107q22 -22 39 -45l-63 -23q-10 12 -21 24q-89 88 -213 88t-212 -88.5t-88 -212.5q0 -125 88 -213t212 -88t213 89q11 11 21 23zM1679 1414l-1415 -1414
h-112l1413 1414h114zM1497 710q151 0 257.5 -106.5t106.5 -258.5q0 -150 -106.5 -257t-257.5 -107q-150 0 -257 107t-107 257q0 152 107 258.5t257 106.5zM1284 558.5q-88 -88.5 -88 -213.5q0 -124 88 -212t213 -88q124 0 212.5 88t88.5 212q0 125 -88.5 213.5t-212.5 88.5
q-125 0 -213 -88.5z" />
    <glyph glyph-name="afii61352" unicode="&#x2116;" horiz-adv-x="1588" 
d="M776 283v1131h80v-1422l-676 1134v-1126h-80v1416zM1240 1413q103 0 175.5 -72.5t72.5 -176.5q0 -102 -72.5 -175t-175.5 -73q-102 0 -175 73t-73 175q0 104 73 176.5t175 72.5zM1109 1295.5q-54 -54.5 -54 -131.5q0 -76 54 -130.5t131 -54.5t131 54.5t54 130.5
q0 77 -54 131.5t-131 54.5t-131 -54.5zM1468 812v-80h-456v80h456z" />
    <glyph glyph-name="trademark" unicode="&#x2122;" horiz-adv-x="1125" 
d="M449 1375h-140v-534h-50v534h-161v46h400l236 -362l235 362h58l-8 -12v-568h-50v491l-235 -362l-236 362v-491h-49v534z" />
    <glyph glyph-name="Omega" unicode="&#x2126;" horiz-adv-x="1293" 
d="M547 80v-80h-492v80h314q-70 47 -131 120q-172 205 -172 495q0 289 171.5 494t414.5 205t414.5 -205t171.5 -494q0 -290 -171 -495q-62 -73 -132 -120h292v-80h-480v80h16v8q138 37 245 168q149 182 149 439q0 256 -149.5 438.5t-360.5 182.5t-360.5 -182.5
t-149.5 -438.5q0 -257 150 -439q106 -131 244 -168v-8h16z" />
    <glyph glyph-name="arrowleft" unicode="&#x2190;" horiz-adv-x="1975" 
d="M164 563h1789v-80h-1789l254 -271v-114l-396 425l396 425v-113z" />
    <glyph glyph-name="arrowup" unicode="&#x2191;" horiz-adv-x="894" 
d="M487 1459v-1788h-80v1788l-271 -253h-114l425 396l425 -396h-113z" />
    <glyph glyph-name="arrowright" unicode="&#x2192;" horiz-adv-x="1975" 
d="M1557 835v113l396 -425l-396 -425v114l254 271h-1789v80h1789z" />
    <glyph glyph-name="arrowdown" unicode="&#x2193;" horiz-adv-x="894" 
d="M759 67h113l-425 -396l-425 396h114l271 -254v1789h80v-1789z" />
    <glyph glyph-name="arrowboth" unicode="&#x2194;" horiz-adv-x="1975" 
d="M164 483l254 -271v-114l-396 425l396 425v-113l-254 -272h1647l-254 272v113l396 -425l-396 -425v114l254 271h-1647z" />
    <glyph glyph-name="arrowupdn" unicode="&#x2195;" horiz-adv-x="894" 
d="M407 1460l-271 -254h-114l425 396l425 -396h-113l-272 254v-1647l272 254h113l-425 -396l-425 396h114l271 -254v1647z" />
    <glyph glyph-name="arrowupdnbse" unicode="&#x21a8;" horiz-adv-x="894" 
d="M407 1460l-271 -254h-114l425 396l425 -396h-113l-272 254v-1647l272 254h113l-425 -396l-425 396h114l271 -254v1647zM872 -382v-80h-850v80h850z" />
    <glyph glyph-name="minus" unicode="&#x2212;" 
d="M85 483v80h900v-80h-900z" />
    <glyph glyph-name="infinity" unicode="&#x221e;" 
d="M933 707v1q1 11 1 22q0 86 -60.5 147t-147.5 61q-86 0 -151 -59q-63 -58 -86 -172q23 -114 86 -172q65 -59 151 -59q87 0 147.5 61t60.5 147q0 11 -1 23zM996 707q1 -11 1 -23q0 -112 -79.5 -191t-191.5 -79t-195 77q-58 54 -80 123q-11 -26 -57.5 -69t-127.5 -43
q-80 0 -137 56.5t-57 138.5v20q0 82 57 139t137 57q81 0 127.5 -43.5t57.5 -69.5q22 69 80 123q83 77 195 77t191.5 -79t79.5 -191q0 -11 -1 -23zM135 706q-1 -4 -1 -9q0 -54 38.5 -93t93.5 -39t95 37.5t52 69.5q6 16 9 35q-3 19 -9 35q-12 32 -52 69.5t-95 37.5
t-93.5 -38.5t-38.5 -93.5q0 -4 1 -9v-2z" />
    <glyph glyph-name="integral" unicode="&#x222b;" horiz-adv-x="497" 
d="M288 100q-10 -251 -256 -251h-10v79h15q162 0 172 170v1168q20 251 257 251h9v-79h-14q-154 0 -173 -170v-1168z" />
    <glyph glyph-name="approxequal" unicode="&#x2248;" 
d="M534 896q166 -97 242 -97q13 0 23 3q68 20 96 88q13 34 13 69l80 -13q-3 -42 -20 -86q-41 -98 -138 -130q-22 -7 -49 -7q-93 0 -246 87q-168 96 -242 96q-12 0 -23 -2q-68 -21 -95 -89q-14 -34 -14 -68l-80 13q2 42 19 85q41 98 139 131q22 7 49 7q93 0 246 -87zM534 601
q166 -97 242 -97q13 0 23 3q68 20 96 88q13 34 13 69l80 -13q-3 -42 -20 -86q-41 -98 -138 -130q-22 -7 -49 -7q-93 0 -246 87q-168 96 -242 96q-12 0 -23 -2q-68 -21 -95 -89q-14 -34 -14 -68l-80 13q2 42 19 85q41 98 139 131q22 7 49 7q93 0 246 -87z" />
    <glyph glyph-name="notequal" unicode="&#x2260;" 
d="M582 625h-497v80h569l156 172h91l-156 -172h240v-80h-312l-185 -203h493v-80h-565l-156 -172h-90l156 172h-237v80h309z" />
    <glyph glyph-name="equivalence" unicode="&#x2261;" 
d="M85 483v80h900v-80h-900zM85 783v80h900v-80h-900zM85 183v80h900v-80h-900z" />
    <glyph glyph-name="lessequal" unicode="&#x2264;" 
d="M258 622l723 -334v-92l-892 426l892 426v-92zM85 0v80h900v-80h-900z" />
    <glyph glyph-name="greaterequal" unicode="&#x2265;" 
d="M89 956v92l892 -426l-892 -426v92l723 334zM85 0v80h900v-80h-900z" />
    <glyph glyph-name="revlogicalnot" unicode="&#x2310;" 
d="M135 665h800v-80h-720v-339h-80v419z" />
    <glyph glyph-name="uniF001" unicode="&#xf001;" horiz-adv-x="680" 
d="M190 788v-788h-80v788h-88v80h88v235q6 98 75 169q73 67 167 67q50 0 105 -19l-25 -71q-37 16 -72 16q-62 0 -118 -50q-49 -49 -52 -118v-229h177v-80h-177zM571 868v-868h-79v868h79zM587.5 1152q23.5 -23 23.5 -55q0 -34 -23.5 -57t-55.5 -23q-33 0 -56.5 23t-23.5 57
q0 32 23.5 55t56.5 23q32 0 55.5 -23z" />
    <glyph glyph-name="uniF001" unicode="&#xfb01;" horiz-adv-x="680" 
d="M190 788v-788h-80v788h-88v80h88v235q6 98 75 169q73 67 167 67q50 0 105 -19l-25 -71q-37 16 -72 16q-62 0 -118 -50q-49 -49 -52 -118v-229h177v-80h-177zM571 868v-868h-79v868h79zM587.5 1152q23.5 -23 23.5 -55q0 -34 -23.5 -57t-55.5 -23q-33 0 -56.5 23t-23.5 57
q0 32 23.5 55t56.5 23q32 0 55.5 -23z" />
    <glyph glyph-name="uniF002" unicode="&#xf002;" horiz-adv-x="687" 
d="M190 788v-788h-80v788h-88v80h88v235q6 98 75 169q73 67 167 67q50 0 105 -19l-25 -71q-37 16 -72 16q-62 0 -118 -50q-49 -49 -52 -118v-229h177v-80h-177zM575 1414v-1414h-80v1414h80z" />
    <glyph glyph-name="uniF002" unicode="&#xfb02;" horiz-adv-x="687" 
d="M190 788v-788h-80v788h-88v80h88v235q6 98 75 169q73 67 167 67q50 0 105 -19l-25 -71q-37 16 -72 16q-62 0 -118 -50q-49 -49 -52 -118v-229h177v-80h-177zM575 1414v-1414h-80v1414h80z" />
    </font>
</defs>
</svg>
