<?xml version="1.0" standalone="no"?>
<!DOCTYPE svg PUBLIC "-//W3C//DTD SVG 1.1//EN" "http://www.w3.org/Graphics/SVG/1.1/DTD/svg11.dtd" >
<svg xmlns="http://www.w3.org/2000/svg" xmlns:xlink="http://www.w3.org/1999/xlink" version="1.1">
<metadata>
Created by FontForge 20141024 at Thu Jul  2 03:11:33 2015
 By Jimmy Warting
Copyright 1997, 2000 Adobe Systems Incorporated. All rights reserved. Chaparral is either a registered trademark or a trademark of Adobe Systems Incorporated in the United States and/or other countries.
</metadata>
<defs>
<font id="ChaparralPro-Regular" horiz-adv-x="337" >
  <font-face 
    font-family="Chaparral Pro"
    font-weight="400"
    font-stretch="normal"
    units-per-em="1000"
    panose-1="2 6 5 3 4 5 5 2 2 3"
    ascent="740"
    descent="-260"
    x-height="419"
    cap-height="650"
    bbox="-163 -316.657 1073 870"
    underline-thickness="54"
    underline-position="-46"
    stemh="45"
    stemv="78"
    unicode-range="U+0020-FB04"
  />
<missing-glyph horiz-adv-x="500" 
d="M0 0v700h500v-700h-500zM250 395l170 255h-340zM280 350l170 -255v510zM80 50h340l-170 255zM50 605v-510l170 255z" />
    <glyph glyph-name="uni021A_h" unicode="&#x21a;h" horiz-adv-x="1015" 
d="M292 -47c31 0 60 -34 60 -73c0 -65 -42 -114 -92 -143c-8 9 -17 20 -23 29c39 27 55 55 55 82c0 26 -23 36 -41 41c-5 36 17 64 41 64zM327 600l-3 -551l92 -3c0 -14 -1 -32 -1 -47c-36 0 -85 1 -126 1c-42 0 -88 -1 -130 -1c0 16 0 32 1 47l81 3c3 0 4 2 4 4v548
c-86 0 -107 -2 -130 -4c-19 -2 -23 -8 -25 -19l-16 -97c-18 2 -38 3 -56 5c4 55 6 111 10 165c19 0 52 -1 92 -1h170h202c42 1 123 1 144 2c0 -85 -1 -182 -2 -281l4 -1c106 57 126 60 163 60c50 0 90 -35 112 -72c11 -20 14 -46 14 -74c0 -76 -2 -160 -2 -238l66 -2
c0 -14 -1 -30 -1 -44h-103c-33 0 -70 -1 -101 -1c0 14 0 29 1 44l59 3c2 0 3 2 3 4c1 55 1 128 1 183c0 49 -1 81 -15 105c-17 27 -45 32 -63 32c-41 0 -96 -26 -137 -56c-1 -78 -2 -193 -2 -268l77 -2c0 -14 -1 -30 -1 -44h-116c-23 0 -71 -1 -97 -1c0 15 0 30 1 44l57 3
c2 0 3 2 3 4c1 165 1 406 1 529c0 11 -7 18 -27 19c-26 2 -119 2 -204 2z" />
    <glyph glyph-name="Tcaron_h" unicode="&#x164;h" horiz-adv-x="1015" 
d="M326 771c36 24 78 52 110 73c10 -9 19 -20 27 -31c-37 -30 -82 -69 -120 -100c-11 0 -24 0 -35 1c-38 31 -79 66 -118 97c8 12 17 23 25 32c33 -21 74 -48 111 -72zM327 600l-3 -551l92 -3c0 -14 -1 -32 -1 -47c-36 0 -85 1 -126 1c-42 0 -88 -1 -130 -1c0 16 0 32 1 47
l81 3c3 0 4 2 4 4v548c-86 0 -107 -2 -130 -4c-19 -2 -23 -8 -25 -19l-16 -97c-18 2 -38 3 -56 5c4 55 6 111 10 165c19 0 52 -1 92 -1h170h202c42 1 123 1 144 2c0 -85 -1 -182 -2 -281l4 -1c106 57 126 60 163 60c50 0 90 -35 112 -72c11 -20 14 -46 14 -74
c0 -76 -2 -160 -2 -238l66 -2c0 -14 -1 -30 -1 -44h-103c-33 0 -70 -1 -101 -1c0 14 0 29 1 44l59 3c2 0 3 2 3 4c1 55 1 128 1 183c0 49 -1 81 -15 105c-17 27 -45 32 -63 32c-41 0 -96 -26 -137 -56c-1 -78 -2 -193 -2 -268l77 -2c0 -14 -1 -30 -1 -44h-116
c-23 0 -71 -1 -97 -1c0 15 0 30 1 44l57 3c2 0 3 2 3 4c1 165 1 406 1 529c0 11 -7 18 -27 19c-26 2 -119 2 -204 2z" />
    <glyph glyph-name="f_f" unicode="ff" horiz-adv-x="631" 
d="M319 679c39 0 68 -8 84 -15c0 -18 -20 -53 -33 -61c-17 7 -46 18 -81 18c-33 0 -58 -13 -72 -32c-23 -29 -39 -69 -38 -170h214c2 0 5 3 5 8c0 108 15 144 53 186c53 58 107 72 152 72c26 0 49 -6 64 -12c0 -17 -17 -54 -31 -65c-8 3 -44 15 -68 15
c-20 0 -47 -10 -62 -30c-24 -32 -31 -58 -30 -174c48 0 98 1 146 1c1 -15 -1 -37 -2 -52c-41 0 -102 0 -145 -1c0 -90 0 -218 -1 -321l98 -2c0 -15 0 -30 -1 -44h-135c-30 0 -68 -1 -99 -1c-1 15 0 29 1 44l57 3c2 0 4 2 4 4c0 106 0 215 -1 317c-66 1 -158 1 -220 0
c0 -90 0 -218 -1 -321l90 -2v-44h-128c-30 0 -68 -1 -99 -1c-1 15 0 29 1 44l57 3c2 0 4 2 4 4c0 106 0 215 -1 317h-75c0 17 1 35 2 50c22 1 46 2 68 2c2 0 5 1 5 6c1 82 14 134 57 181c55 58 114 73 161 73z" />
    <glyph glyph-name="f_i" unicode="fi" horiz-adv-x="561" 
d="M321 685c45 0 94 -11 126 -26c0 -18 -23 -55 -38 -64c-17 7 -66 32 -121 32c-29 0 -57 -12 -72 -30c-23 -29 -39 -54 -38 -178c41 0 86 0 134 1c55 1 150 10 160 10c2 0 2 -1 2 -3c-1 -111 -2 -274 -2 -381l70 -2c0 -15 0 -30 -1 -44h-111c-34 0 -69 -1 -102 -1v44l65 3
c2 0 3 2 3 4v316c-26 1 -65 2 -88 2c-38 0 -91 0 -130 -1c0 -90 -1 -218 -1 -321l89 -2c0 -15 0 -30 -1 -44h-126c-30 0 -68 -1 -99 -1c-1 15 0 29 1 44l57 3c2 0 4 2 4 4c0 106 0 215 -1 317h-75c0 17 1 35 2 50c22 1 46 2 68 2c2 0 5 3 5 7c0 111 20 147 58 187
c55 58 111 72 162 72z" />
    <glyph glyph-name="f_l" unicode="fl" horiz-adv-x="564" 
d="M177 46l90 -2c0 -15 -1 -29 -1 -44h-126c-31 0 -69 -1 -100 -1c0 15 0 29 1 44l58 3c2 0 3 2 3 4c0 105 0 215 -1 317h-75c0 17 1 35 2 50c22 1 46 2 68 2c3 0 5 3 5 8c0 110 13 145 54 188c54 57 107 70 161 70c52 0 119 -10 157 -23c2 -1 3 -3 3 -6
c-1 -171 -3 -420 -4 -610l78 -2v-44h-117c-35 0 -75 -1 -106 -1c0 14 1 30 2 44l65 3c2 0 3 3 3 5c1 96 1 208 1 316h-220c0 -90 -1 -218 -1 -321zM297 631c-44 0 -68 -11 -90 -35c-24 -30 -30 -61 -29 -177h220c0 70 1 139 1 198c-23 8 -61 14 -102 14z" />
    <glyph glyph-name="f_f_i" unicode="ffi" horiz-adv-x="856" 
d="M41 43l57 3c2 0 4 2 4 4c0 106 0 215 -1 317h-75c0 17 1 35 2 50c22 1 46 2 68 2c2 0 5 1 5 6c1 82 14 134 57 181c55 58 114 73 161 73c37 0 67 -8 84 -15c0 -18 -21 -53 -34 -62c-14 8 -45 19 -79 19c-32 0 -59 -13 -74 -32c-23 -28 -39 -69 -38 -170h214c3 0 5 3 5 8
c0 111 20 146 59 186c55 58 110 72 161 72c46 0 97 -12 126 -26c0 -18 -23 -55 -38 -64c-16 7 -65 32 -121 32c-29 0 -56 -13 -71 -31c-24 -29 -40 -53 -39 -177c41 0 87 0 134 1c55 1 150 10 159 10c2 0 2 -1 2 -3c0 -111 -2 -274 -2 -381l70 -2c0 -15 0 -30 -1 -44h-111
c-33 0 -68 -1 -101 -1v44l65 3c2 0 3 2 3 4v316c-29 1 -68 2 -90 2c-38 0 -89 0 -128 -1c0 -90 -1 -218 -1 -321l89 -2v-44h-126c-30 0 -69 -1 -100 -1c0 15 1 29 1 44l58 3c2 0 3 2 3 4v317c-68 1 -159 1 -220 0c0 -90 -1 -218 -1 -321l90 -2v-44h-128c-30 0 -68 -1 -99 -1
c-1 15 0 29 1 44z" />
    <glyph glyph-name="f_f_l" unicode="ffl" horiz-adv-x="859" 
d="M615 685c52 0 116 -10 153 -22c2 -1 3 -3 3 -6c-1 -172 -3 -421 -4 -611l79 -2c0 -14 -1 -30 -1 -44h-116c-35 0 -76 -1 -106 -1c0 14 1 30 1 44l66 3c2 0 3 3 3 5c1 96 1 208 1 316c-63 1 -160 1 -220 0c0 -90 -1 -218 -2 -321l91 -2c0 -15 0 -29 -1 -44h-126
c-31 0 -69 -1 -100 -1c0 15 1 29 1 44l58 3c2 0 3 2 3 4v317c-67 1 -158 1 -220 0c0 -90 -1 -218 -1 -321l91 -2c0 -15 -1 -30 -1 -44h-128c-30 0 -68 -1 -99 -1c-1 15 0 29 1 44l57 3c2 0 4 2 4 4c0 106 0 215 -1 317h-75c0 17 1 35 2 50c22 1 46 2 68 2c2 0 5 1 5 6
c1 81 14 134 57 181c55 58 114 73 161 73c38 0 67 -7 84 -15c0 -17 -22 -53 -34 -61c-16 7 -45 18 -80 18c-32 0 -58 -13 -73 -32c-23 -28 -39 -69 -38 -170h214c3 0 5 3 5 8c0 110 13 145 54 188c54 57 108 70 164 70zM594 632c-38 0 -71 -12 -90 -38
c-25 -30 -31 -59 -30 -175c67 0 152 0 220 1c0 70 1 138 0 197c-20 9 -65 15 -100 15z" />
    <glyph glyph-name="f_j" unicode="fj" horiz-adv-x="542" 
d="M321 685c45 0 94 -11 126 -26c0 -18 -23 -55 -38 -64c-17 7 -66 32 -121 32c-29 0 -57 -12 -72 -30c-23 -29 -39 -54 -38 -178c41 0 87 0 134 1c55 1 150 10 160 10c2 0 2 -1 2 -3c-1 -100 -1 -241 -2 -343c0 -87 -8 -136 -40 -196c-23 -46 -56 -91 -106 -120
c-15 1 -52 27 -56 45c37 17 75 41 94 76c20 34 33 83 33 175l-2 302c-27 1 -66 2 -87 2c-39 0 -92 0 -130 -1c0 -90 -1 -218 -1 -321l89 -2c0 -15 0 -30 -1 -44h-126c-30 0 -68 -1 -99 -1c-1 15 0 29 1 44l57 3c2 0 4 2 4 4c0 106 0 215 -1 317h-75c0 17 1 35 2 50
c22 1 46 2 68 2c2 0 5 3 5 7c0 111 20 147 58 187c55 58 111 72 162 72z" />
    <glyph glyph-name="f_f_j" unicode="ffj" horiz-adv-x="837" 
d="M41 43l57 3c2 0 4 2 4 4c0 106 0 215 -1 317h-75c0 17 1 35 2 50c22 1 46 2 68 2c2 0 5 1 5 6c1 82 14 134 57 181c55 58 114 73 161 73c37 0 67 -8 84 -15c0 -18 -21 -53 -34 -62c-14 8 -45 19 -79 19c-32 0 -59 -13 -74 -32c-23 -28 -39 -69 -38 -170h214c3 0 5 3 5 8
c0 111 20 146 59 186c55 58 110 72 161 72c46 0 97 -12 126 -26c0 -18 -23 -55 -38 -64c-16 7 -65 32 -121 32c-29 0 -56 -13 -71 -31c-24 -29 -40 -53 -39 -177c41 0 86 0 134 1c55 1 150 10 159 10c2 0 2 -1 2 -3c0 -100 -1 -241 -1 -343c0 -87 -8 -136 -40 -196
c-23 -46 -56 -91 -106 -120c-16 1 -52 27 -56 45c37 17 75 41 94 76c20 34 33 83 33 175l-1 302c-30 1 -68 2 -90 2c-38 0 -89 0 -128 -1c0 -90 -1 -218 -1 -321l89 -2v-44h-126c-30 0 -69 -1 -100 -1c0 15 1 29 1 44l58 3c2 0 3 2 3 4v317c-68 1 -159 1 -220 0
c0 -90 -1 -218 -1 -321l90 -2v-44h-128c-30 0 -68 -1 -99 -1c-1 15 0 29 1 44z" />
    <glyph glyph-name="T_h" unicode="Th" horiz-adv-x="1015" 
d="M327 600l-3 -551l92 -3c0 -14 -1 -32 -1 -47c-36 0 -85 1 -126 1c-42 0 -88 -1 -130 -1c0 16 0 32 1 47l81 3c3 0 4 2 4 4v548c-86 0 -107 -2 -130 -4c-19 -2 -23 -8 -25 -19l-16 -97c-18 2 -38 3 -56 5c4 55 6 111 10 165c19 0 52 -1 92 -1h170h202c42 1 123 1 144 2
c0 -85 -1 -182 -2 -281l4 -1c106 57 126 60 163 60c50 0 90 -35 112 -72c11 -20 14 -46 14 -74c0 -76 -2 -160 -2 -238l66 -2c0 -14 -1 -30 -1 -44h-103c-33 0 -70 -1 -101 -1c0 14 0 29 1 44l59 3c2 0 3 2 3 4c1 55 1 128 1 183c0 49 -1 81 -15 105c-17 27 -45 32 -63 32
c-41 0 -96 -26 -137 -56c-1 -78 -2 -193 -2 -268l77 -2c0 -14 -1 -30 -1 -44h-116c-23 0 -71 -1 -97 -1c0 15 0 30 1 44l57 3c2 0 3 2 3 4c1 165 1 406 1 529c0 11 -7 18 -27 19c-26 2 -119 2 -204 2z" />
    <glyph glyph-name="uni0162_h" unicode="&#x162;h" horiz-adv-x="1015" 
d="M925 46l66 -2c0 -14 -1 -30 -1 -44h-103c-33 0 -70 -1 -101 -1c0 14 0 29 1 44l59 3c2 0 3 2 3 4c1 55 1 128 1 183c0 49 -1 81 -15 105c-17 27 -45 32 -63 32c-41 0 -96 -26 -137 -56c-1 -78 -2 -193 -2 -268l77 -2c0 -14 -1 -30 -1 -44h-116c-23 0 -71 -1 -97 -1
c0 15 0 30 1 44l57 3c2 0 3 2 3 4c1 165 1 406 1 529c0 11 -7 18 -27 19c-26 2 -119 2 -204 2l-3 -551l92 -3c0 -14 -1 -32 -1 -47c-22 0 -48 0 -74 1l-65 -66c48 -8 68 -36 68 -68c0 -50 -52 -90 -141 -90c-2 11 -4 25 -5 36c48 2 83 16 83 48c0 12 -7 23 -14 28
c-11 9 -24 11 -51 11c-3 9 -6 17 -8 24l78 77c-41 0 -86 -1 -127 -1c0 16 0 32 1 47l81 3c3 0 4 2 4 4v548c-86 0 -107 -2 -130 -4c-19 -2 -23 -8 -25 -19l-16 -97c-18 2 -38 3 -56 5c4 55 6 111 10 165c19 0 52 -1 92 -1h170h202c42 1 123 1 144 2c0 -85 -1 -182 -2 -281
l4 -1c106 57 126 60 163 60c50 0 90 -35 112 -72c11 -20 14 -46 14 -74c0 -76 -2 -160 -2 -238z" />
    <glyph glyph-name=".notdef" horiz-adv-x="500" 
d="M0 0v700h500v-700h-500zM250 395l170 255h-340zM280 350l170 -255v510zM80 50h340l-170 255zM50 605v-510l170 255z" />
    <glyph glyph-name="space" unicode=" " horiz-adv-x="220" 
 />
    <glyph glyph-name="exclam" unicode="!" horiz-adv-x="273" 
d="M183 659c1 0 1 -1 1 -3c-5 -135 -16 -347 -21 -486c-15 -4 -40 -6 -52 -7c-2 60 -9 166 -11 226c-2 70 -8 183 -13 251c20 8 84 19 96 19zM137 94c36 0 53 -29 53 -54s-23 -49 -53 -49c-31 0 -53 21 -53 50c0 25 20 53 53 53z" />
    <glyph glyph-name="quotedbl" unicode="&#x22;" horiz-adv-x="321" 
d="M131 697c-3 -49 -9 -168 -11 -224c-12 -4 -37 -7 -47 -7c-6 83 -13 171 -18 218c21 7 62 13 76 13zM270 697c-3 -49 -9 -168 -10 -224c-13 -4 -38 -7 -48 -7c-6 83 -13 171 -18 218c21 7 62 13 76 13z" />
    <glyph glyph-name="numbersign" unicode="#" horiz-adv-x="524" 
d="M229 466h110c10 62 21 126 30 179c17 1 37 2 54 1c-9 -51 -20 -117 -31 -179c35 0 70 0 100 1c0 -17 -1 -35 -3 -50h-107c-8 -45 -15 -91 -23 -137h108c0 -16 0 -31 -2 -47h-115c-12 -69 -24 -143 -34 -198c-16 -1 -33 -2 -50 -1c12 67 23 134 33 198h-110
c-12 -70 -25 -143 -34 -198c-16 0 -32 -1 -50 0c12 68 23 134 33 198c-32 0 -71 -1 -101 -1c-1 16 0 35 2 50c37 0 73 -1 108 -1c7 46 15 92 22 137h-109c0 15 1 33 2 47c39 0 78 1 115 1c11 62 22 126 30 180c19 1 38 2 55 2c-9 -52 -22 -120 -33 -182zM330 418l-110 1
c-7 -45 -15 -92 -22 -138h110c8 46 15 93 22 137z" />
    <glyph glyph-name="dollar" unicode="$" horiz-adv-x="524" 
d="M74 449c0 47 29 91 67 117c27 18 68 34 111 37c0 35 1 70 1 101c16 5 33 7 51 7c0 -32 -1 -68 -2 -106c68 1 113 -15 139 -29c0 -14 -17 -49 -32 -58c-30 17 -72 36 -108 39c-2 -64 -3 -135 -5 -203c95 -30 161 -67 161 -152c0 -50 -20 -93 -55 -122
c-28 -24 -67 -43 -125 -48c0 -34 -1 -67 -1 -101c-16 -2 -33 -3 -48 -4c1 34 1 67 1 103c-55 -2 -134 12 -180 39c6 18 21 45 37 55c37 -21 89 -46 144 -48c2 70 3 148 4 222c-88 31 -160 63 -160 151zM143 460c0 -53 35 -71 105 -94c1 65 2 131 3 191
c-26 -2 -54 -9 -74 -26c-20 -15 -34 -39 -34 -71zM390 183c0 61 -39 81 -108 104c-1 -70 -2 -143 -4 -209c34 4 61 15 78 29c23 19 34 45 34 76z" />
    <glyph glyph-name="percent" unicode="%" horiz-adv-x="760" 
d="M511 616l-3 3c-68 -2 -147 -3 -219 -4c26 -19 50 -64 50 -120c0 -61 -19 -105 -51 -136c-24 -25 -61 -40 -101 -40c-32 0 -63 9 -88 29c-31 25 -58 70 -58 137c0 54 20 99 53 129c28 26 70 38 107 38c80 0 306 7 358 12c9 -10 16 -20 22 -30c-56 -98 -123 -221 -176 -318
c-55 -102 -124 -226 -188 -342c-14 6 -29 12 -43 20c67 120 129 234 190 347c47 86 99 185 147 275zM193 612c-22 0 -41 -5 -56 -22c-21 -23 -32 -57 -32 -103c0 -52 11 -85 32 -106c15 -15 32 -22 54 -22c20 0 37 6 49 17c19 18 35 53 35 112c0 46 -12 82 -30 103
c-11 15 -30 21 -52 21zM576 323c43 0 73 -13 94 -33c29 -27 49 -72 49 -129c0 -51 -18 -101 -49 -132c-28 -27 -64 -39 -101 -39c-33 0 -65 8 -89 27c-34 26 -58 75 -58 134c0 53 20 103 56 135c26 23 58 37 98 37zM573 283c-23 0 -40 -6 -55 -23c-21 -23 -32 -63 -32 -107
c0 -49 11 -83 31 -102c15 -15 33 -22 54 -22c19 0 38 6 53 20c18 18 31 51 31 109c0 47 -12 81 -29 102c-12 15 -30 23 -53 23z" />
    <glyph glyph-name="ampersand" unicode="&#x26;" horiz-adv-x="712" 
d="M301 360l-1 -5c72 -49 148 -129 194 -184c30 37 59 112 63 163c1 7 1 8 -4 8l-58 3c0 15 0 31 1 44h104c29 0 59 1 88 1c1 -14 1 -31 0 -46l-59 -2c-23 -89 -58 -159 -100 -209c19 -21 45 -53 63 -75c9 -10 18 -12 25 -12l76 -2c0 -14 0 -29 -1 -43
c-47 -3 -101 -5 -141 -6c-22 25 -46 59 -72 88c-36 -35 -109 -93 -229 -93c-59 0 -108 15 -141 37c-48 33 -76 79 -76 137c0 79 52 148 143 196v4c-41 29 -84 75 -84 138c0 48 26 89 55 112c30 25 73 41 123 41c46 0 82 -11 111 -34c28 -22 49 -58 49 -98
c0 -69 -43 -123 -129 -163zM165 510c0 -57 36 -89 91 -124c63 30 104 67 104 127c0 27 -9 52 -27 70c-19 19 -44 26 -69 26c-29 0 -52 -9 -70 -26c-21 -20 -29 -45 -29 -73zM271 41c75 0 137 38 177 79c-69 82 -153 162 -227 211c-48 -23 -108 -75 -108 -154
c0 -41 17 -77 47 -102c28 -22 65 -34 111 -34z" />
    <glyph glyph-name="quoteright" unicode="&#x2019;" horiz-adv-x="202" 
d="M90 699c32 0 66 -34 66 -80c0 -69 -48 -131 -108 -161c-10 11 -19 23 -27 34c47 30 63 61 63 91c0 27 -23 38 -45 43c-7 43 17 73 51 73z" />
    <glyph glyph-name="parenleft" unicode="(" horiz-adv-x="328" 
d="M70 280c0 203 115 365 226 432c8 -10 17 -23 23 -35c-81 -61 -177 -202 -177 -394c0 -213 102 -330 176 -397c-9 -11 -20 -23 -30 -33c-95 76 -218 195 -218 427z" />
    <glyph glyph-name="parenright" unicode=")" horiz-adv-x="328" 
d="M258 287c0 -228 -121 -356 -221 -433c-11 10 -20 22 -29 33c78 66 177 184 177 396c0 195 -92 330 -174 395c8 11 16 23 25 33c110 -67 222 -224 222 -424z" />
    <glyph glyph-name="asterisk" unicode="*" horiz-adv-x="357" 
d="M196 510c2 -42 4 -85 5 -128c-14 -1 -32 -1 -47 0c2 43 4 85 6 128c-34 -25 -69 -49 -104 -74c-8 12 -17 26 -24 39c37 23 75 45 112 66c-38 22 -75 44 -113 66c7 13 16 27 24 38c36 -23 71 -48 105 -72c-1 42 -3 84 -5 125c7 0 16 1 23 1c9 0 17 -1 23 -1
c-1 -42 -3 -83 -5 -125c36 25 71 49 106 73c8 -11 17 -26 23 -39c-37 -22 -74 -44 -112 -66c38 -22 76 -44 112 -67c-7 -12 -16 -27 -25 -38c-34 25 -69 50 -104 74z" />
    <glyph glyph-name="plus" unicode="+" horiz-adv-x="524" 
d="M460 208h-170c-1 -69 -1 -140 -1 -196c-17 -2 -38 -3 -56 -3c1 64 1 131 1 199h-171c0 18 1 36 2 53c52 0 110 1 168 1c1 64 1 126 1 186c19 2 40 3 57 3c0 -54 -1 -119 -1 -188c59 0 118 1 172 1c1 -16 0 -38 -2 -56z" />
    <glyph glyph-name="comma" unicode="," horiz-adv-x="245" 
d="M110 100c38 0 73 -40 73 -84c0 -75 -52 -132 -112 -166c-10 11 -20 23 -29 35c49 31 68 63 68 93s-29 41 -50 47c-6 43 20 75 50 75z" />
    <glyph glyph-name="hyphen" unicode="-" horiz-adv-x="315" 
d="M132 213c-29 0 -69 1 -100 0c0 17 0 36 1 53h102c52 1 99 1 148 2c0 -19 -1 -38 -3 -55h-148z" />
    <glyph glyph-name="period" unicode="." horiz-adv-x="245" 
d="M124 102c40 0 54 -33 54 -56c0 -28 -20 -55 -53 -55c-34 0 -57 23 -57 55c0 25 18 56 56 56z" />
    <glyph glyph-name="slash" unicode="/" horiz-adv-x="392" 
d="M60 -56c-16 4 -32 9 -49 14c60 137 117 269 172 398c46 107 101 238 145 339c18 -3 37 -9 55 -15c-42 -96 -107 -243 -151 -344c-51 -117 -122 -281 -172 -392z" />
    <glyph glyph-name="zero" unicode="0" horiz-adv-x="524" 
d="M479 327c0 -139 -34 -227 -90 -284c-35 -36 -80 -53 -134 -53c-55 0 -95 18 -127 50c-50 50 -82 126 -82 257c0 146 37 238 93 294c36 35 82 54 135 54c54 0 95 -17 130 -55c40 -43 75 -130 75 -263zM265 598c-36 0 -60 -15 -80 -40c-33 -40 -58 -128 -58 -256
c0 -101 19 -179 46 -219c23 -32 51 -48 90 -48c31 0 58 14 78 38c37 45 57 122 57 237c0 130 -23 209 -46 243c-24 32 -50 45 -87 45z" />
    <glyph glyph-name="one" unicode="1" horiz-adv-x="524" 
d="M312 48l156 -3c1 -14 0 -31 -1 -45h-195c-65 0 -131 -1 -203 -1c-1 15 0 31 1 46l162 3c3 0 5 2 5 4v494c-53 -14 -105 -29 -173 -47c-3 14 -7 28 -10 43c119 43 252 104 258 104c2 0 3 -1 3 -5c0 -194 -2 -394 -3 -593z" />
    <glyph glyph-name="two" unicode="2" horiz-adv-x="524" 
d="M456 463c0 -128 -124 -243 -183 -296c-44 -43 -83 -76 -118 -106l1 -4c56 0 224 1 312 3h3c0 -20 -1 -43 -4 -61c-39 0 -191 1 -267 1h-143c-5 13 -10 28 -14 41c74 61 122 102 175 154c65 62 155 153 155 258c0 44 -11 80 -36 105c-21 23 -61 36 -98 36
c-41 0 -78 -13 -99 -30c-3 -3 -4 -6 -5 -12l-21 -97c-17 1 -36 4 -53 5c4 47 8 98 12 143c36 21 103 42 174 42c66 0 113 -15 147 -43c37 -30 62 -80 62 -139z" />
    <glyph glyph-name="three" unicode="3" horiz-adv-x="524" 
d="M135 560l-18 -94c-17 1 -37 3 -54 5c4 46 7 92 10 137c38 19 101 37 174 37c56 0 105 -8 146 -39c31 -23 55 -66 55 -105c0 -85 -64 -136 -135 -157v-6c101 -15 154 -78 154 -151c0 -68 -36 -115 -80 -148c-40 -31 -111 -49 -192 -49c-42 0 -95 5 -131 15
c-7 46 -15 94 -21 140c17 4 37 8 54 11l25 -92c1 -6 5 -8 8 -10c23 -11 53 -14 82 -14c51 0 98 15 124 36c28 24 47 57 47 104c0 81 -74 124 -167 124h-69c-2 16 -2 35 -2 51c150 -3 222 53 222 132c0 29 -9 57 -32 78c-24 24 -61 31 -100 31c-36 0 -70 -9 -94 -25
c-2 -2 -5 -6 -6 -11z" />
    <glyph glyph-name="four" unicode="4" horiz-adv-x="524" 
d="M388 46l79 -3c0 -14 -1 -29 -1 -43h-118c-48 0 -97 -1 -140 -1c0 15 0 30 2 44l103 3c2 0 4 2 4 4c1 41 1 81 1 121h-273c-9 18 -19 38 -25 58c39 57 87 123 141 197c67 89 124 166 165 217c22 0 45 -1 66 -3c-1 -134 -2 -277 -3 -415c43 0 84 0 110 1
c0 -16 -1 -37 -3 -54c-15 0 -86 1 -107 1c-1 -42 -1 -85 -1 -127zM318 548l-4 1c-38 -52 -68 -94 -117 -162c-38 -54 -72 -106 -104 -154c-3 -5 -2 -7 2 -7c48 -1 205 -1 222 -1z" />
    <glyph glyph-name="five" unicode="5" horiz-adv-x="524" 
d="M462 221c0 -81 -37 -142 -83 -176c-47 -35 -109 -55 -194 -55c-41 0 -83 3 -118 13c-8 45 -15 93 -22 138c17 5 36 9 53 11l25 -90c2 -6 5 -9 9 -10c20 -10 43 -13 67 -13c56 0 104 17 135 43c30 25 49 67 49 115c0 96 -67 153 -195 153c-38 0 -84 -6 -101 -9l-8 7
c10 82 24 194 37 288h163h172c0 -20 -2 -42 -4 -61c-91 0 -184 0 -276 1c-9 -59 -18 -115 -27 -171c23 3 48 4 84 4c163 0 234 -95 234 -188z" />
    <glyph glyph-name="six" unicode="6" horiz-adv-x="524" 
d="M127 316h5c48 44 108 70 164 70c58 0 99 -21 122 -44c33 -31 60 -81 60 -141c0 -69 -26 -126 -81 -170c-40 -32 -90 -41 -132 -41c-54 0 -105 20 -137 52c-42 42 -78 96 -78 219c0 154 47 244 87 293c52 64 121 91 198 91c37 0 67 -3 94 -15c6 -42 11 -86 15 -129
c-15 -3 -34 -7 -52 -10l-19 84c-1 4 -3 8 -6 10c-13 7 -28 11 -54 11c-55 0 -100 -33 -125 -72c-38 -60 -55 -136 -61 -208zM274 35c32 0 64 12 87 36c30 33 40 75 40 113c0 60 -23 93 -38 111c-22 24 -54 36 -88 36c-43 0 -109 -27 -143 -85c-2 -91 22 -134 46 -165
c15 -20 47 -46 96 -46z" />
    <glyph glyph-name="seven" unicode="7" horiz-adv-x="524" 
d="M420 568l-3 5c-156 1 -237 2 -267 -1c-17 -1 -24 -10 -27 -21l-22 -79c-16 2 -36 5 -52 9c8 51 16 103 23 154h88l318 -1c8 -16 15 -38 20 -56c-102 -167 -185 -346 -220 -458c-11 -34 -15 -84 -16 -118c-21 -3 -60 -3 -80 -3c0 46 4 84 20 127c41 108 109 236 218 442z
" />
    <glyph glyph-name="eight" unicode="8" horiz-adv-x="524" 
d="M346 343v-4c93 -34 140 -90 140 -162c0 -64 -31 -113 -79 -146c-41 -28 -94 -41 -155 -41c-63 0 -113 16 -147 39c-38 26 -67 68 -67 130c0 77 54 135 140 176v5c-60 28 -106 68 -106 140c0 51 32 96 64 121c37 28 89 44 144 44s101 -15 132 -42c26 -23 48 -61 48 -103
c0 -79 -56 -127 -114 -157zM147 490c0 -67 36 -92 143 -128c65 32 97 67 97 128c0 28 -9 57 -27 76c-22 22 -51 33 -86 33c-37 0 -66 -9 -92 -31c-21 -19 -35 -48 -35 -78zM409 163c0 82 -51 111 -177 151c-64 -29 -115 -77 -115 -150c0 -38 13 -70 40 -93
c24 -22 61 -35 102 -35c44 0 76 10 102 28c28 21 48 54 48 99z" />
    <glyph glyph-name="nine" unicode="9" horiz-adv-x="524" 
d="M397 316h-5c-48 -40 -95 -62 -158 -62c-55 0 -101 23 -127 47c-33 32 -59 75 -59 133c0 70 29 124 80 166c37 30 85 45 136 45c57 0 105 -20 137 -54c40 -44 74 -106 74 -226c0 -139 -39 -235 -84 -289c-48 -58 -112 -86 -198 -86c-29 0 -66 2 -98 10
c-8 42 -16 85 -23 126c17 5 35 9 52 11l24 -80c1 -4 6 -9 9 -11c11 -6 40 -10 57 -10c56 0 103 33 126 67c41 62 55 147 57 213zM256 600c-33 0 -63 -11 -86 -35c-29 -28 -43 -74 -43 -119c0 -51 13 -79 34 -103c23 -26 59 -38 92 -38c52 0 106 28 140 74
c2 80 -21 142 -44 173c-17 24 -47 48 -93 48z" />
    <glyph glyph-name="colon" unicode=":" horiz-adv-x="245" 
d="M125 419c40 0 54 -34 54 -56c0 -28 -21 -55 -54 -55c-34 0 -57 23 -57 54c0 26 19 57 57 57zM125 102c39 0 53 -33 53 -55c0 -29 -20 -56 -53 -56c-34 0 -57 23 -57 54c0 26 19 57 57 57z" />
    <glyph glyph-name="semicolon" unicode=";" horiz-adv-x="245" 
d="M125 419c39 0 53 -33 53 -56c0 -29 -20 -55 -53 -55c-34 0 -57 23 -57 54c0 26 19 57 57 57zM110 100c37 0 73 -40 73 -84c0 -75 -52 -132 -112 -166c-10 11 -20 23 -29 35c49 31 68 63 68 93s-29 42 -50 47c-6 43 19 75 50 75z" />
    <glyph glyph-name="less" unicode="&#x3c;" horiz-adv-x="524" 
d="M173 238c73 -61 153 -128 233 -194c-9 -14 -20 -29 -31 -41c-93 73 -180 140 -271 210c-1 15 -1 33 -1 47c90 66 185 136 274 201c10 -12 21 -27 30 -42c-84 -64 -157 -120 -234 -181z" />
    <glyph glyph-name="equal" unicode="=" horiz-adv-x="524" 
d="M63 283c0 18 1 37 2 53c122 0 272 2 399 3c0 -17 -1 -39 -3 -56h-398zM62 132c0 18 1 40 3 56h398c0 -16 -1 -35 -2 -53c-122 0 -273 -1 -399 -3z" />
    <glyph glyph-name="greater" unicode="&#x3e;" horiz-adv-x="524" 
d="M332 234c-77 63 -151 124 -234 190c9 14 20 29 30 40c90 -66 183 -137 273 -205v-47c-90 -68 -179 -135 -272 -205c-11 11 -22 26 -32 40c82 64 161 128 235 187z" />
    <glyph glyph-name="question" unicode="?" horiz-adv-x="426" 
d="M385 505c0 -83 -55 -146 -154 -215c-19 -14 -27 -22 -27 -35c0 -20 10 -51 20 -80c-13 -7 -31 -13 -51 -17c-17 22 -47 89 -47 125c115 80 172 130 172 217c0 64 -40 108 -106 108c-28 0 -54 -7 -73 -21c-3 -3 -5 -6 -6 -12l-19 -86c-18 2 -38 5 -55 7c3 42 7 89 11 132
c35 17 94 32 155 32c126 0 180 -81 180 -155zM196 92c34 0 53 -28 53 -53c0 -24 -23 -48 -53 -48s-54 21 -54 49c0 25 20 52 54 52z" />
    <glyph glyph-name="at" unicode="@" horiz-adv-x="623" 
d="M394 343h4l16 30c16 -3 30 -7 46 -11c-15 -56 -39 -155 -54 -217c-1 -5 3 -7 7 -7c27 0 56 15 70 29c24 22 47 60 47 117c0 96 -61 187 -195 187c-127 0 -241 -110 -241 -276c0 -143 102 -200 196 -200c49 0 92 14 123 35c8 -10 14 -22 17 -31c-37 -24 -84 -40 -156 -40
c-115 0 -229 76 -229 233c0 190 141 314 303 314c134 0 230 -88 230 -211c0 -75 -32 -126 -64 -153c-33 -28 -70 -44 -136 -44c-7 0 -25 9 -32 18c1 13 5 31 11 50l-6 2c-34 -32 -84 -69 -120 -69c-15 0 -51 18 -61 38c-2 5 -2 11 -2 20c0 25 5 56 15 85
c18 55 68 129 137 129c27 0 56 -11 74 -28zM232 169c0 -17 10 -23 22 -23c28 0 99 58 113 90c4 12 13 47 18 67c-13 18 -37 28 -61 28c-34 0 -61 -37 -76 -78c-10 -28 -16 -57 -16 -84z" />
    <glyph glyph-name="A" unicode="A" horiz-adv-x="606" 
d="M-13 46l56 3c2 0 4 1 5 4c70 179 163 427 232 605c11 1 33 2 54 2c67 -180 154 -430 219 -611l61 -3c0 -14 0 -31 -1 -46h-94c-46 0 -92 -1 -132 -1c0 16 1 32 1 47l78 3c2 0 3 2 2 5c-16 45 -35 101 -51 144c-1 4 -3 5 -7 5l-239 -1c-16 -48 -37 -107 -53 -153l90 -3
c0 -14 0 -31 -1 -46h-133c-29 0 -61 -1 -88 -1c0 16 1 32 1 47zM299 547h-4c-34 -91 -73 -202 -106 -290c-1 -4 -1 -6 2 -6l210 -1c-31 92 -70 205 -102 297z" />
    <glyph glyph-name="B" unicode="B" horiz-adv-x="574" 
d="M47 0c0 15 0 31 1 46l70 2c2 0 5 1 5 5v548l-75 2c0 16 0 32 1 46c43 1 125 2 176 2c85 0 143 -5 190 -27c46 -22 79 -69 79 -121c0 -73 -54 -127 -119 -151v-6c90 -11 160 -78 160 -158c0 -112 -98 -189 -249 -189c-24 0 -103 1 -122 1h-117zM202 602l-1 -239
c6 -1 23 -2 48 -2c89 0 166 49 166 125c0 68 -49 119 -155 119c-31 0 -49 -2 -58 -3zM201 313l-1 -231c0 -30 20 -37 85 -37c80 0 167 37 167 135c0 61 -47 135 -191 135c-34 0 -53 0 -60 -2z" />
    <glyph glyph-name="C" unicode="C" horiz-adv-x="585" 
d="M50 288c0 140 59 236 131 296c70 58 157 76 227 76c55 0 103 -10 128 -21c4 -56 7 -113 9 -170c-17 -2 -37 -4 -56 -6l-17 108c-1 8 -4 13 -8 15c-22 14 -49 18 -82 18c-56 0 -114 -19 -158 -64c-56 -56 -90 -134 -90 -228c0 -86 15 -142 62 -196c37 -42 102 -68 168 -68
c59 0 130 21 177 42c4 -16 9 -35 12 -51c-76 -31 -145 -49 -204 -49c-68 0 -138 18 -193 60c-64 50 -106 136 -106 238z" />
    <glyph glyph-name="D" unicode="D" horiz-adv-x="691" 
d="M48 -1c0 15 0 32 1 47l69 2c3 0 4 2 4 5l1 547l-75 3c0 15 1 32 1 46c54 1 129 2 206 2c122 0 187 -17 247 -53c83 -48 139 -143 139 -253c0 -116 -43 -220 -125 -281c-59 -43 -134 -65 -232 -65c-40 0 -95 1 -119 1c-35 0 -79 -1 -117 -1zM204 601l-2 -519
c0 -27 8 -36 76 -36c90 0 157 24 200 63c47 43 79 123 79 206c0 111 -27 172 -90 228c-45 39 -111 62 -203 62c-27 0 -50 -1 -60 -4z" />
    <glyph glyph-name="E" unicode="E" horiz-adv-x="555" 
d="M50 46l70 3c1 0 3 1 3 3v549l-74 3c0 15 1 31 2 46h115h221c42 1 65 1 87 1c4 -50 7 -101 9 -152c-16 -2 -34 -5 -53 -6l-16 87c-2 9 -7 15 -23 17c-26 3 -93 5 -158 5h-30l-1 -246c56 0 103 0 157 1c17 1 22 7 23 20l5 48h51c-1 -31 -1 -63 -2 -96v-92
c-16 -1 -34 -2 -51 -2l-4 53c-1 14 -7 19 -24 19c-45 1 -96 1 -155 1l-1 -240c0 -17 3 -20 56 -20c81 0 138 3 155 7c9 2 14 9 18 20l32 91c18 -3 37 -7 52 -10c-11 -52 -23 -105 -35 -157c-46 0 -176 1 -311 1c-42 0 -82 -1 -118 -1v47z" />
    <glyph glyph-name="F" unicode="F" horiz-adv-x="531" 
d="M123 601l-74 2c0 16 1 32 2 47h114h222c42 1 65 1 89 1c4 -52 8 -106 11 -159c-17 -2 -36 -5 -54 -7l-19 95c-2 10 -6 16 -22 18c-27 2 -95 4 -168 4h-20l-2 -261c55 1 108 2 157 2c19 1 23 7 25 19l7 51c16 0 34 0 50 -1c-1 -33 -1 -67 -2 -100v-92c-17 0 -35 -1 -52 -1
l-4 54c-1 14 -7 18 -25 19c-45 1 -97 2 -156 2l-1 -245l117 -3c1 -14 0 -31 -1 -46h-149c-41 0 -82 -1 -118 -1c0 15 0 32 1 47l68 3c2 0 4 1 4 4v548z" />
    <glyph glyph-name="G" unicode="G" horiz-adv-x="665" 
d="M513 461l-13 100c-1 7 -3 14 -9 19c-25 20 -62 27 -103 27c-53 0 -115 -17 -163 -64c-56 -53 -88 -130 -88 -223c0 -87 21 -157 71 -208c58 -61 131 -74 187 -74c52 0 92 14 92 24l1 170l-108 2c0 15 1 32 2 48c41 0 93 -1 144 -1c33 0 67 1 97 1c0 -15 0 -33 -1 -48
l-51 -2c-3 0 -4 -1 -4 -4l-2 -205c-34 -20 -98 -33 -178 -33c-95 0 -174 24 -227 68c-68 58 -110 137 -110 251c0 125 59 226 145 287c68 49 157 64 216 64c65 0 117 -11 151 -28c3 -53 6 -110 8 -165c-18 -2 -38 -4 -57 -6z" />
    <glyph glyph-name="H" unicode="H" horiz-adv-x="731" 
d="M54 46l65 3c2 0 4 2 4 4v548l-71 3c-1 15 0 31 1 46h114h123c0 -15 0 -31 -1 -47l-82 -2c-2 0 -3 -2 -3 -4l-1 -231c0 -2 1 -3 5 -3l321 -1v239l-85 2c0 15 0 32 1 47h125h108c0 -14 0 -31 -1 -46l-64 -3c-2 0 -3 -2 -3 -4l-2 -548l74 -3c0 -14 -1 -31 -1 -46h-115
c-40 0 -85 -1 -121 -1c0 15 1 32 1 47l78 3c3 0 5 2 5 4v256c0 3 -2 4 -5 4l-321 -1l-1 -263l89 -3c0 -14 0 -32 -1 -47c-36 0 -83 1 -125 1c-37 0 -79 -1 -112 -1c0 15 0 32 1 47z" />
    <glyph glyph-name="I" unicode="I" horiz-adv-x="324" 
d="M123 601l-79 3c0 15 0 31 1 46h124h117c1 -14 0 -32 -1 -46l-79 -3c-2 0 -2 -2 -2 -4l-3 -548l86 -3c0 -14 0 -32 -1 -47c-34 0 -80 1 -120 1c-39 0 -84 -1 -120 -1c0 15 0 32 1 47l72 3c2 0 4 1 4 4v548z" />
    <glyph glyph-name="J" unicode="J" horiz-adv-x="493" 
d="M462 606l-71 -3c-2 0 -2 -2 -2 -4c-1 -115 0 -232 -1 -348c0 -91 -12 -141 -49 -192c-33 -43 -91 -79 -185 -79c-32 0 -74 3 -113 12c-6 52 -11 104 -16 154c17 4 36 7 53 9l19 -99c1 -6 4 -10 8 -13c19 -9 49 -12 66 -12c51 0 91 24 111 56c27 41 27 89 27 161
c0 114 -1 237 -1 354l-126 4c0 14 1 31 1 44h170h110c0 -14 0 -30 -1 -44z" />
    <glyph glyph-name="K" unicode="K" horiz-adv-x="631" 
d="M123 601l-72 3c0 15 1 32 1 46h116h110c0 -14 0 -32 -1 -47l-70 -2c-3 0 -3 -2 -3 -6l-2 -241c17 1 45 2 69 8c38 36 142 162 197 234c2 2 0 4 -2 4l-67 3c0 16 0 32 1 47h129h80c0 -14 0 -31 -1 -46l-53 -3c-81 -95 -156 -178 -220 -249v-5c42 -30 81 -80 116 -137
c28 -44 54 -86 89 -136c11 -16 21 -23 33 -24l72 -3c0 -15 -1 -32 -2 -47c-24 -1 -55 -1 -80 -1c-22 0 -48 -1 -67 -1c-20 23 -64 98 -108 169c-40 64 -93 142 -125 142c-20 0 -47 -1 -61 -2l-1 -258l81 -3c0 -14 0 -32 -1 -47c-32 0 -77 1 -116 1c-38 0 -80 -1 -114 -1
c0 15 0 32 1 47l67 3c2 0 3 2 3 4z" />
    <glyph glyph-name="L" unicode="L" horiz-adv-x="523" 
d="M123 601l-74 2c0 16 1 32 2 47h117h127c0 -15 0 -32 -1 -47l-88 -2c-2 0 -2 -1 -2 -4l-3 -529c0 -18 1 -21 43 -21c111 0 144 3 160 6c9 2 14 9 18 21l36 105c18 -3 37 -7 52 -12c-10 -49 -26 -115 -39 -168c-47 0 -169 1 -304 1c-42 0 -82 -1 -118 -1c0 15 1 32 1 47
l69 3c2 0 3 1 3 4z" />
    <glyph glyph-name="M" unicode="M" horiz-adv-x="869" 
d="M121 600l-70 2c0 15 0 33 1 48h177c60 -150 132 -337 208 -523h5c70 174 146 368 209 523h167c0 -15 -1 -32 -2 -48l-64 -2c-2 0 -3 -2 -3 -5c0 -165 1 -371 2 -546l70 -3c0 -15 0 -31 -1 -46h-108c-40 0 -83 -1 -115 -1c-1 15 0 32 1 47l76 3c3 0 4 1 4 4
c0 152 -2 344 -3 503h-5c-89 -233 -159 -395 -219 -525c-9 0 -24 -1 -45 -1c-63 143 -139 323 -217 530h-7c-1 -162 -4 -349 -5 -511l88 -3c1 -14 0 -31 -1 -46h-123c-34 0 -66 -1 -94 -1c0 15 0 32 1 47l66 3c2 0 3 1 3 4c1 167 3 382 4 547z" />
    <glyph glyph-name="N" unicode="N" horiz-adv-x="716" 
d="M48 46l64 3c2 0 3 1 3 4v548l-73 3c0 15 0 32 1 46h145c114 -170 248 -371 358 -540l5 1c-1 163 -2 327 -4 490l-94 2c0 15 1 32 1 47h124h96c1 -14 0 -31 0 -46l-61 -3c-2 0 -3 -1 -3 -4l-3 -593c-13 -6 -35 -11 -53 -11c-104 143 -242 342 -372 538h-6
c0 -161 -1 -321 -1 -482l99 -2c0 -15 0 -32 -1 -47h-131c-33 0 -68 -1 -95 -1c0 15 0 32 1 47z" />
    <glyph glyph-name="O" unicode="O" horiz-adv-x="718" 
d="M346 -10c-88 0 -158 33 -208 84c-55 56 -88 139 -88 245c0 129 63 232 139 285c59 40 120 56 189 56c61 0 118 -15 167 -50c73 -51 123 -150 123 -265c0 -104 -34 -205 -105 -274c-52 -51 -118 -81 -217 -81zM360 40c60 0 113 21 149 62c39 45 73 111 73 222
c0 92 -23 171 -72 224c-38 43 -85 62 -145 62c-55 0 -103 -18 -141 -52c-47 -42 -88 -120 -88 -232c0 -99 20 -168 73 -224c40 -43 94 -62 151 -62z" />
    <glyph glyph-name="P" unicode="P" horiz-adv-x="547" 
d="M123 601l-69 2c0 15 0 31 1 46c46 1 106 2 164 2c73 0 111 -2 162 -17c83 -24 129 -97 129 -167c0 -89 -57 -161 -125 -190c-37 -16 -82 -25 -142 -25c-17 0 -34 0 -42 1l-1 -203l112 -3c0 -15 0 -32 -1 -47h-149c-35 0 -74 0 -108 -1c0 16 0 32 1 47l64 3c2 1 4 2 4 4
v548zM203 600l-2 -291c6 -6 28 -8 53 -8c40 0 80 8 107 25c49 30 68 78 68 128c0 99 -69 150 -175 150c-28 0 -44 -1 -51 -4z" />
    <glyph glyph-name="Q" unicode="Q" horiz-adv-x="718" 
d="M50 316c0 132 62 236 145 292c56 37 120 52 184 52c58 0 107 -12 154 -41c88 -56 136 -163 136 -277c0 -118 -44 -214 -105 -271c-34 -33 -71 -55 -110 -67v-5c57 -36 97 -58 148 -80c32 -13 57 -14 74 -14c22 0 63 7 86 14c4 -14 6 -33 7 -48c-44 -14 -107 -29 -135 -29
c-14 0 -34 0 -75 22c-55 28 -108 65 -184 127c-7 -1 -16 -1 -23 -1c-94 0 -163 33 -214 84c-62 62 -88 152 -88 242zM135 324c0 -95 21 -169 77 -224c39 -40 89 -60 150 -60c63 0 111 22 147 63c37 42 73 108 73 215c0 97 -21 181 -76 235c-40 40 -81 57 -139 57
c-60 0 -111 -22 -146 -55c-44 -41 -86 -122 -86 -231z" />
    <glyph glyph-name="R" unicode="R" horiz-adv-x="600" 
d="M123 600l-69 3c0 15 0 31 1 46c56 1 126 2 193 2c57 0 89 -2 137 -16c67 -18 122 -80 122 -150c0 -87 -58 -150 -136 -180v-5c48 -21 73 -79 124 -176c34 -64 43 -74 55 -74l61 -3c0 -15 0 -32 -1 -47c-18 0 -45 0 -66 -1c-19 0 -51 -1 -65 -1c-35 47 -96 184 -128 233
c-23 35 -44 47 -93 47c-40 0 -54 -1 -58 -2v-226l84 -4c0 -14 0 -31 -1 -46h-121c-38 0 -76 0 -109 -1c0 16 1 32 1 47l64 3c3 0 4 2 4 4zM203 600l-2 -274c5 -2 24 -2 53 -2c127 0 171 80 171 140c0 94 -67 141 -165 141c-33 0 -51 -2 -57 -5z" />
    <glyph glyph-name="S" unicode="S" horiz-adv-x="492" 
d="M98 180l18 -105c1 -5 3 -9 8 -11c19 -13 58 -23 93 -23c47 0 91 15 114 39s32 48 32 80c0 87 -47 102 -144 147c-88 40 -151 86 -151 173c0 55 29 104 65 133c38 30 95 47 163 47c45 0 97 -9 122 -22c5 -48 9 -100 12 -148c-18 -2 -37 -5 -56 -7l-17 94c-2 6 -4 10 -7 12
c-16 13 -43 20 -74 20c-35 0 -70 -9 -94 -30c-21 -18 -38 -47 -38 -83c0 -70 33 -86 137 -132c100 -44 158 -88 158 -179c0 -56 -20 -105 -59 -139c-40 -37 -97 -56 -179 -56c-49 0 -113 10 -147 24c-5 52 -9 107 -13 158c19 3 39 6 57 8z" />
    <glyph glyph-name="T" unicode="T" horiz-adv-x="567" 
d="M160 46l81 3c3 0 4 2 4 4v548c-86 0 -107 -2 -130 -4c-19 -2 -23 -8 -25 -19l-16 -97c-18 2 -38 3 -56 5c4 55 6 111 10 165c19 0 52 -1 92 -1h170h169c41 1 65 1 87 1c3 -54 6 -109 8 -164c-17 -2 -37 -4 -56 -6l-16 98c-1 11 -6 17 -24 18c-27 3 -45 3 -131 3l-3 -551
l92 -3c0 -14 -1 -32 -1 -47c-36 0 -85 1 -126 1c-42 0 -88 -1 -130 -1c0 16 0 32 1 47z" />
    <glyph glyph-name="U" unicode="U" horiz-adv-x="669" 
d="M184 601l-1 -330c-1 -98 14 -139 41 -174c18 -24 51 -53 119 -53c64 0 93 23 116 46c24 25 48 84 48 176c0 96 1 229 0 331c0 2 -1 4 -4 4l-84 2c0 15 0 32 1 47h116h104c1 -14 0 -31 -1 -47l-63 -3l-2 -335c-1 -109 -34 -175 -71 -213c-28 -30 -82 -62 -163 -62
c-70 0 -129 17 -171 58c-57 56 -66 124 -66 215v332c0 4 -1 6 -5 6l-61 2c0 16 0 32 1 47h108h128c0 -14 0 -31 -2 -47z" />
    <glyph glyph-name="V" unicode="V" horiz-adv-x="624" 
d="M630 604l-56 -3c-31 -84 -71 -186 -106 -274c-40 -102 -89 -232 -135 -336c-8 -1 -34 -1 -57 -1c-42 109 -89 240 -127 347c-29 84 -60 178 -88 261c0 2 -3 3 -6 3l-57 3c-1 15 0 31 1 46h102h150c1 -14 0 -32 -1 -47l-98 -3c11 -40 53 -177 70 -228
c29 -89 60 -186 93 -279h5c34 87 68 180 96 258c24 68 68 193 82 245c0 2 -1 4 -3 4l-87 3c-1 15 0 33 0 47h131h92c0 -14 0 -31 -1 -46z" />
    <glyph glyph-name="W" unicode="W" horiz-adv-x="880" 
d="M885 604l-56 -3c-25 -97 -49 -182 -73 -271c-28 -105 -64 -232 -99 -339c-11 -1 -35 -2 -59 -2c-48 148 -102 327 -148 494h-6c-58 -172 -121 -349 -175 -492c-11 -1 -36 -2 -56 -2c-32 119 -60 239 -87 356c-19 83 -37 168 -56 253c0 1 -2 3 -5 3l-58 3c0 15 0 31 1 46
h100h147c0 -15 0 -31 -1 -47l-96 -2c7 -46 23 -139 41 -225c17 -88 33 -170 54 -272h6c49 144 124 377 172 517c7 1 41 2 54 2c45 -156 99 -355 148 -523h7c22 89 44 179 63 258c15 65 42 180 51 238c1 3 0 5 -3 5l-87 2c-1 15 0 32 1 47h129c30 0 64 0 92 1
c0 -15 0 -32 -1 -47z" />
    <glyph glyph-name="X" unicode="X" horiz-adv-x="589" 
d="M-11 46l58 3c2 0 4 1 6 4c66 89 133 184 199 272v7c-59 88 -120 180 -176 266c-1 1 -3 3 -7 3l-60 3c0 15 0 32 1 46h105h141c1 -14 1 -31 0 -46l-88 -4c29 -50 106 -174 135 -218h7c25 37 111 173 132 214c2 3 1 5 -2 5l-80 3c0 14 0 32 1 46h126h93c1 -14 0 -31 -1 -46
l-56 -3c-58 -83 -123 -177 -183 -260v-6c64 -89 135 -198 194 -286l64 -3c0 -15 0 -31 -2 -46h-104h-137c0 15 0 31 1 46l78 3c3 0 4 3 3 6c-24 38 -112 178 -148 227h-6c-33 -45 -129 -193 -154 -233l83 -3c0 -14 0 -31 -1 -46h-129c-31 0 -65 -1 -94 -1c0 15 0 32 1 47z
" />
    <glyph glyph-name="Y" unicode="Y" horiz-adv-x="562" 
d="M160 46l79 3c4 0 5 2 5 5v196c-59 105 -132 240 -194 348c-1 1 -2 3 -4 3l-52 3c0 15 0 32 1 46h98h141c0 -14 -1 -31 -1 -46l-90 -4c37 -73 105 -204 152 -292h5c36 65 123 232 149 288c0 3 -1 5 -3 5l-81 2c0 15 0 32 1 47h123h86c0 -14 0 -31 -1 -46l-51 -3
c-62 -105 -137 -242 -199 -349l-1 -203l91 -3c1 -14 0 -32 -1 -47c-36 0 -85 1 -127 1c-41 0 -87 -1 -127 -1c0 15 0 32 1 47z" />
    <glyph glyph-name="Z" unicode="Z" horiz-adv-x="583" 
d="M494 191c20 -2 41 -6 57 -10c-12 -59 -27 -123 -42 -182c-16 0 -176 1 -286 1h-176c-6 14 -12 29 -18 43c107 135 293 391 410 550l-2 5c-72 0 -127 1 -169 1c-56 0 -83 -1 -102 -4c-9 -2 -17 -11 -21 -24l-33 -106c-18 3 -37 5 -55 9c10 59 21 120 32 178
c15 0 56 -1 91 -2h337c7 -16 13 -36 18 -54c-148 -200 -308 -415 -407 -540l1 -3c168 -1 261 -2 305 9c12 3 22 9 28 27z" />
    <glyph glyph-name="bracketleft" unicode="[" horiz-adv-x="323" 
d="M107 -128v829c59 1 125 2 186 3c1 -14 1 -29 0 -43l-112 -3c-7 0 -7 -5 -7 -8l-2 -733l122 -3c0 -13 0 -30 -1 -44c-60 0 -127 1 -186 2z" />
    <glyph glyph-name="backslash" unicode="\" horiz-adv-x="392" 
d="M329 -51c-49 111 -121 279 -172 396c-44 101 -105 244 -147 340c16 8 34 17 54 24c43 -101 99 -236 144 -343c56 -129 111 -259 170 -395c-16 -8 -32 -16 -49 -22z" />
    <glyph glyph-name="bracketright" unicode="]" horiz-adv-x="323" 
d="M217 701l-3 -829c-58 -1 -124 -2 -184 -2c-1 14 -1 31 -1 44l121 3v733c0 3 0 8 -7 8l-112 3c-1 14 -1 29 0 43c61 -1 128 -2 186 -3z" />
    <glyph glyph-name="asciicircum" unicode="^" horiz-adv-x="524" 
d="M242 632c15 1 33 1 46 1c55 -82 118 -176 183 -273c-12 -11 -28 -23 -41 -32c-60 82 -117 160 -166 228c-46 -66 -101 -144 -160 -227c-14 9 -30 20 -43 31c65 97 128 192 181 272z" />
    <glyph glyph-name="underscore" unicode="_" horiz-adv-x="500" 
d="M0 -73h500v-54h-500v54z" />
    <glyph glyph-name="quoteleft" unicode="&#x2018;" horiz-adv-x="202" 
d="M113 471c-32 0 -66 34 -66 80c0 68 49 131 109 161c10 -10 19 -23 26 -34c-46 -31 -63 -61 -63 -91s28 -38 45 -43c7 -43 -17 -73 -51 -73z" />
    <glyph glyph-name="a" unicode="a" horiz-adv-x="454" 
d="M293 35h-5c-73 -38 -110 -45 -145 -45c-50 0 -114 41 -114 98c0 56 62 135 195 135c35 -1 59 -1 69 -1c3 106 -22 148 -83 148c-42 0 -86 -29 -120 -66c-11 11 -24 25 -35 38c43 42 99 88 178 88c74 0 134 -51 134 -162c0 -47 -1 -168 -2 -210c0 -10 3 -15 9 -15l67 2
c1 -12 1 -28 0 -42c-13 -4 -70 -13 -115 -13c-10 9 -20 25 -33 45zM111 97c0 -32 27 -54 66 -54c29 0 73 14 111 41c3 1 3 3 3 8v85c-5 1 -26 2 -55 2c-89 0 -125 -37 -125 -82z" />
    <glyph glyph-name="b" unicode="b" horiz-adv-x="509" 
d="M67 -5c3 26 7 71 7 117c1 161 1 357 1 518l-73 3c0 14 0 29 1 42c42 5 140 25 148 25c1 0 2 -1 2 -3c0 -89 -1 -209 -3 -316l5 -1c94 46 115 50 153 50c93 0 161 -96 161 -186c0 -50 -6 -86 -24 -129c-14 -31 -43 -71 -81 -96c-21 -14 -61 -29 -114 -29
c-45 0 -84 14 -113 31l-23 -34c-12 0 -31 4 -47 8zM387 210c0 53 -7 83 -25 113s-49 47 -82 47c-39 0 -86 -16 -129 -47c0 -75 -1 -159 -1 -233c0 -25 49 -53 101 -53c34 0 66 12 90 37c29 30 46 78 46 136z" />
    <glyph glyph-name="c" unicode="c" horiz-adv-x="403" 
d="M40 184c0 144 101 246 243 246c43 0 77 -11 92 -21c0 -15 -21 -54 -33 -62c-9 3 -49 25 -90 25c-39 0 -64 -13 -85 -37c-23 -25 -46 -69 -46 -131c0 -56 11 -92 37 -122c23 -29 59 -38 90 -38c39 0 90 17 123 30c5 -13 9 -29 11 -43c-53 -27 -115 -41 -158 -41
c-97 0 -184 68 -184 194z" />
    <glyph glyph-name="d" unicode="d" horiz-adv-x="521" 
d="M365 35h-5c-84 -42 -105 -45 -140 -45c-47 0 -91 17 -121 49c-39 37 -59 87 -59 151c0 66 25 129 67 176c35 39 85 64 149 64c36 0 70 -9 99 -20l4 3c0 76 -1 144 -2 217l-83 2c0 15 0 30 1 43c50 6 149 25 159 25c1 0 2 -1 2 -3c0 -178 -2 -437 -3 -630
c0 -14 3 -21 11 -21l68 3v-43c-16 -5 -76 -16 -117 -16c-10 8 -20 22 -30 45zM357 96c0 89 0 180 -1 256c-29 16 -62 26 -97 26c-41 0 -77 -17 -100 -48c-23 -33 -36 -73 -36 -130c0 -50 9 -85 32 -116c21 -28 54 -41 85 -41c42 0 79 16 111 39c6 4 6 8 6 14z" />
    <glyph glyph-name="e" unicode="e" horiz-adv-x="445" 
d="M40 191c0 131 84 239 213 239c52 0 92 -19 118 -52c29 -36 38 -85 38 -129c-5 -13 -24 -36 -34 -37c-59 -2 -191 -3 -253 -3c-2 -55 9 -97 32 -124c30 -34 62 -40 103 -40c46 0 98 18 133 32c5 -14 9 -31 11 -45c-56 -27 -116 -42 -159 -42c-130 0 -202 85 -202 201z
M242 383c-35 0 -58 -12 -75 -31c-13 -15 -39 -46 -42 -97c57 0 138 1 195 3c8 1 13 4 13 11c0 34 -12 66 -27 84s-36 30 -64 30z" />
    <glyph glyph-name="f" unicode="f" horiz-adv-x="334" 
d="M177 46l98 -2c0 -15 0 -30 -1 -44h-135c-30 0 -68 -1 -99 -1c-1 15 0 29 1 44l57 3c2 0 4 2 4 4v317h-76c0 17 1 35 2 50c23 1 46 2 68 2c3 0 5 3 5 7c1 109 15 145 54 187c53 58 106 72 152 72c26 0 49 -6 64 -12c0 -17 -18 -54 -32 -65c-7 3 -43 15 -67 15
c-20 0 -48 -9 -63 -30c-24 -31 -31 -58 -30 -174c48 0 98 1 145 1c0 -16 -2 -37 -3 -52c-39 0 -99 0 -142 -1c-1 -90 -1 -218 -2 -321z" />
    <glyph glyph-name="g" unicode="g" horiz-adv-x="466" 
d="M138 114v6c-45 21 -93 64 -93 142c0 86 72 168 192 168c30 0 57 -5 68 -9c9 -2 15 -2 22 -2c43 2 99 4 131 6c1 -17 1 -35 0 -51c-21 -1 -75 0 -95 0l-1 -4c24 -22 36 -57 36 -95c0 -36 -14 -82 -45 -114c-34 -34 -80 -59 -165 -54c-24 -20 -48 -39 -48 -52
c0 -27 31 -30 130 -33c72 -4 118 -8 145 -27c31 -20 46 -38 46 -79c0 -54 -35 -105 -103 -134c-42 -17 -97 -28 -153 -28c-120 0 -191 41 -191 115c0 20 4 30 21 45c38 29 60 43 84 63v6c-29 8 -59 25 -59 68c0 9 3 11 78 63zM124 265c0 -85 46 -116 96 -116
c55 0 100 42 100 124c0 37 -8 63 -24 83c-14 18 -35 31 -70 31c-61 0 -102 -43 -102 -122zM386 -101c0 47 -27 57 -112 63c-50 3 -83 5 -104 5c-45 -39 -78 -65 -78 -98c0 -51 69 -71 125 -71c37 0 83 7 114 24c35 18 55 44 55 77z" />
    <glyph glyph-name="h" unicode="h" horiz-adv-x="545" 
d="M26 -1c0 15 0 30 1 44l57 3c2 0 4 2 4 4v583l-76 1c-1 14 0 30 1 43c39 4 143 23 151 23c2 0 3 -1 3 -4c0 -93 -2 -215 -3 -325l4 -1c106 57 126 60 163 60c50 0 90 -35 112 -72c11 -20 14 -46 14 -74c0 -76 -1 -160 -2 -238l66 -2c0 -14 -1 -30 -1 -44h-103
c-32 0 -70 -1 -101 -1c0 14 0 29 1 44l59 3c2 0 3 2 3 4c1 55 1 128 1 183c0 49 -1 81 -15 105c-17 27 -45 32 -63 32c-41 0 -96 -26 -137 -56c-1 -78 -2 -193 -2 -268l77 -2c0 -14 -1 -30 -1 -44h-116c-29 0 -67 -1 -97 -1z" />
    <glyph glyph-name="i" unicode="i" horiz-adv-x="266" 
d="M135 631c38 0 51 -30 50 -52c0 -31 -22 -53 -53 -53s-53 24 -53 52s20 53 56 53zM102 360l-78 3c0 13 1 29 1 42c42 5 144 25 152 25c2 0 2 -1 2 -3c0 -111 -2 -274 -2 -381l70 -2c0 -15 0 -30 -1 -44h-111c-34 0 -71 -1 -105 -1c0 15 0 30 1 44l67 3c2 0 4 2 4 5v309z
" />
    <glyph glyph-name="j" unicode="j" horiz-adv-x="244" 
d="M121 632c39 0 52 -31 52 -54c0 -27 -21 -52 -52 -52c-32 0 -54 24 -54 53c0 24 18 53 54 53zM94 359l-81 1c0 14 1 29 1 42c41 7 149 28 157 28c2 0 2 -1 2 -3c-1 -101 -2 -242 -1 -343c0 -87 -9 -136 -40 -196c-23 -46 -57 -92 -106 -120c-16 1 -53 27 -57 45
c38 17 75 40 95 76c19 34 33 83 32 175z" />
    <glyph glyph-name="k" unicode="k" horiz-adv-x="499" 
d="M22 -1c0 14 0 30 1 44l62 3c1 0 2 2 2 4c1 175 1 408 1 583h-76c0 15 0 29 1 42c39 5 143 25 151 25c2 0 3 -1 3 -4c0 -125 -2 -293 -2 -443c12 0 45 1 62 4c38 35 71 68 107 110c2 2 1 5 -2 5l-47 2c0 14 0 32 1 45h100c27 0 55 1 81 1v-46l-47 -3
c-59 -56 -97 -91 -135 -126v-6c28 -23 54 -55 84 -104c21 -34 36 -60 53 -80c7 -7 13 -9 18 -9l59 -2c0 -14 0 -29 -1 -44c-37 -1 -104 -1 -132 -2c-20 26 -45 69 -67 111c-29 50 -58 88 -82 100c-16 0 -41 -1 -53 -2c0 -48 -1 -114 -1 -161l63 -2c0 -14 0 -30 -1 -44h-101
c-35 0 -71 -1 -102 -1z" />
    <glyph glyph-name="l" unicode="l" horiz-adv-x="256" 
d="M18 -1c0 14 0 30 1 44l67 3c2 0 3 2 3 4c1 176 1 407 1 582l-80 2c0 14 0 29 1 43c43 4 147 23 155 23c2 0 3 -1 3 -4c-1 -181 -4 -451 -4 -650l78 -2c0 -14 0 -30 -1 -44h-116c-36 0 -75 -1 -108 -1z" />
    <glyph glyph-name="m" unicode="m" horiz-adv-x="812" 
d="M101 360l-76 2c0 13 1 29 1 41c40 6 131 26 138 26c2 0 3 -1 3 -3c3 -17 6 -36 8 -54l4 -1c95 56 116 59 150 59c56 0 92 -44 107 -67h3c96 61 120 65 160 65c56 0 90 -40 106 -65c14 -23 21 -48 21 -76c0 -74 -2 -164 -3 -241l64 -2c0 -14 0 -30 -1 -44h-103
s-67 -1 -95 -1c0 14 0 30 1 44l57 3c2 0 3 3 3 4c0 67 1 144 1 198c0 34 -2 61 -12 83c-14 29 -40 39 -68 39c-37 0 -84 -26 -119 -52c1 -76 -1 -186 -1 -271l68 -3c0 -14 0 -30 -1 -44h-111c-31 0 -65 -1 -91 -1c0 15 0 30 1 44l56 4c2 0 3 2 3 4c1 66 1 142 1 204
c0 38 0 61 -12 83c-16 28 -40 34 -63 34c-33 0 -84 -23 -122 -54c-2 -85 -2 -186 -3 -271l71 -3c0 -14 0 -30 -1 -44h-110c-31 0 -69 -1 -98 -1c0 15 1 31 1 45l59 3c2 0 4 2 4 4z" />
    <glyph glyph-name="n" unicode="n" horiz-adv-x="558" 
d="M101 360l-77 1c0 14 1 29 2 41c39 7 130 27 137 27c2 0 2 -1 2 -3c3 -19 8 -46 11 -60l5 -1c99 61 121 65 164 65c52 0 88 -36 107 -68c14 -25 19 -51 19 -74c0 -72 -2 -167 -3 -242l64 -2c0 -14 0 -30 -1 -44h-105c-31 0 -68 -1 -96 -1c0 14 0 30 1 44l58 3c2 0 3 2 3 4
c1 54 1 125 1 180c0 41 0 79 -13 101c-19 35 -44 38 -68 38c-37 0 -93 -27 -132 -58c-2 -76 -3 -192 -3 -265l72 -2c0 -14 0 -30 -1 -44h-113c-32 0 -67 -1 -97 -1c0 14 0 30 1 44l60 3c1 0 3 2 3 4z" />
    <glyph glyph-name="o" unicode="o" horiz-adv-x="505" 
d="M245 -10c-57 0 -105 17 -138 47c-44 40 -67 94 -67 164c0 71 27 136 85 183c38 31 89 46 137 46c47 0 88 -11 124 -38c50 -38 78 -94 78 -173c0 -80 -33 -146 -86 -187c-38 -30 -80 -42 -133 -42zM251 34c31 0 61 9 84 33c33 36 45 81 45 148c0 56 -12 102 -40 133
c-25 27 -51 37 -85 37c-28 0 -61 -10 -84 -34c-32 -33 -46 -81 -46 -142c0 -65 14 -109 46 -142c20 -21 48 -33 80 -33z" />
    <glyph glyph-name="p" unicode="p" horiz-adv-x="522" 
d="M23 -227c0 14 0 29 1 43l58 4c2 0 4 2 4 6v534l-76 1c0 13 0 28 1 40c39 7 131 30 138 30c2 0 2 -1 2 -2c3 -17 6 -37 8 -53l5 -1c99 51 114 55 156 55c101 0 162 -103 161 -191c0 -48 -6 -85 -24 -123c-16 -37 -36 -68 -79 -97c-22 -15 -66 -29 -111 -29
c-43 0 -74 9 -102 23l-4 -2c1 -56 0 -136 0 -191l93 -2c0 -14 0 -29 -1 -44h-130c-33 0 -70 -1 -100 -1zM399 214c0 37 -5 72 -21 104c-17 30 -49 51 -87 51c-37 0 -84 -16 -126 -47c-1 -75 -2 -163 -2 -233c0 -22 52 -51 101 -51c30 0 63 10 87 34c30 31 48 76 48 142z" />
    <glyph glyph-name="q" unicode="q" horiz-adv-x="507" 
d="M359 33l-7 1c-75 -41 -94 -43 -127 -43c-48 0 -91 15 -126 49c-35 35 -59 86 -59 153c0 66 23 124 65 171c36 42 89 65 154 65c39 0 78 -11 109 -22l28 29c12 -1 28 -5 43 -9c-2 -24 -4 -53 -4 -91c-1 -144 -3 -378 -3 -515l64 -1c0 -14 -1 -30 -2 -44
c-31 -1 -65 -1 -101 -2c-40 0 -84 -1 -126 -2c0 14 0 29 1 43l86 6c2 0 4 2 4 5zM259 378c-41 0 -77 -17 -100 -48c-24 -32 -35 -75 -35 -129c0 -49 9 -86 34 -117c21 -28 57 -40 86 -40c36 0 73 18 107 40c6 4 6 10 6 16v251c-30 18 -66 27 -98 27z" />
    <glyph glyph-name="r" unicode="r" horiz-adv-x="375" 
d="M38 -1c0 14 1 30 2 43l58 3c2 0 3 2 3 3v314l-73 1c0 13 1 28 1 41c40 6 133 26 139 26c1 0 2 -1 2 -3c1 -26 2 -81 4 -134h4c57 111 93 137 135 137c23 0 46 -5 60 -11c0 -21 -16 -64 -28 -74c-9 2 -33 8 -51 8c-10 0 -20 -4 -34 -15c-19 -15 -40 -44 -66 -93
c-11 -23 -16 -59 -17 -92c0 -35 -1 -75 -1 -107l95 -3c0 -13 0 -29 -2 -43h-127c-34 0 -72 -1 -104 -1z" />
    <glyph glyph-name="s" unicode="s" horiz-adv-x="401" 
d="M87 134l14 -65c2 -5 3 -8 8 -12c15 -11 42 -21 69 -21c29 0 54 2 75 16c15 11 29 28 29 56c0 51 -30 57 -114 82c-80 25 -112 57 -112 112c0 48 31 83 63 101c30 17 70 27 118 27c53 0 88 -13 98 -18c5 -37 8 -73 11 -110c-15 -3 -34 -6 -51 -8l-13 63c-2 5 -4 9 -8 12
c-12 9 -34 14 -58 14c-26 0 -48 -7 -63 -18c-13 -10 -24 -27 -24 -53c0 -40 19 -47 99 -71c72 -21 127 -44 127 -120c0 -44 -21 -81 -64 -106c-27 -17 -72 -25 -120 -25c-54 0 -98 10 -121 19c-4 39 -9 77 -14 116c16 3 35 7 51 9z" />
    <glyph glyph-name="t" unicode="t" horiz-adv-x="358" 
d="M202 -9c-22 0 -51 1 -78 26c-27 24 -28 47 -28 77c0 52 1 133 2 158c0 31 1 90 1 116h-69c0 16 0 34 1 49c22 0 44 1 64 2c3 0 6 3 7 7c0 28 2 63 3 92c26 17 68 34 71 34c2 0 3 -1 3 -3c-1 -34 -2 -88 -2 -130c51 0 106 0 157 1c0 -18 -2 -37 -3 -52h-156v-112
c-1 -41 -1 -101 -1 -150c0 -43 30 -62 65 -62c23 0 61 7 96 16c3 -14 5 -30 7 -44c-47 -17 -104 -25 -140 -25z" />
    <glyph glyph-name="u" unicode="u" horiz-adv-x="528" 
d="M512 47c0 -13 0 -29 -1 -42c-12 -5 -68 -15 -113 -15c-10 10 -21 28 -32 53l-5 1c-88 -52 -110 -54 -149 -54c-67 0 -129 69 -129 137c0 87 1 170 1 242l-61 2c0 14 1 31 1 45c36 1 124 4 136 4c2 0 2 -1 2 -3c-1 -76 -2 -156 -2 -239c-1 -42 -1 -70 15 -96
c17 -27 40 -36 68 -36c36 0 77 19 119 51v272l-65 2c0 15 1 32 2 47c36 0 126 2 139 2c1 0 2 -1 2 -3c0 -113 -2 -240 -2 -357c0 -10 2 -14 7 -14z" />
    <glyph glyph-name="v" unicode="v" horiz-adv-x="473" 
d="M475 376l-47 -3c-14 -30 -46 -101 -86 -192c-29 -67 -52 -115 -89 -190c-14 -1 -36 -1 -57 -1c-34 88 -51 129 -82 219c-28 83 -43 123 -56 161c-1 1 -2 3 -5 3l-51 2c0 16 0 31 1 44h95h113c0 -13 0 -30 -1 -44l-67 -2c6 -24 20 -71 42 -142c23 -70 35 -112 51 -155h6
c18 42 32 75 58 141c27 69 45 116 56 152c0 3 0 4 -3 4l-57 2c0 15 0 31 1 44h102h77c0 -13 0 -29 -1 -43z" />
    <glyph glyph-name="w" unicode="w" horiz-adv-x="680" 
d="M681 376l-44 -3c-13 -36 -32 -98 -62 -187c-24 -70 -45 -129 -71 -195c-15 -1 -33 -1 -58 -1c-34 97 -68 197 -97 303h-6c-33 -88 -92 -227 -127 -302c-14 -1 -32 -1 -54 -1c-26 84 -45 155 -61 215c-18 67 -32 123 -43 164c-1 2 -2 4 -5 4l-46 3c-1 14 0 30 0 43h86h115
c0 -13 0 -29 -1 -44l-70 -1c4 -22 17 -82 30 -142c12 -58 25 -113 35 -153l5 -1c29 75 84 219 121 315c10 1 35 1 58 1c22 -71 74 -245 97 -317h6c17 56 27 89 42 144c17 60 30 113 38 148c1 3 0 4 -3 4l-57 2c0 15 1 31 1 44h101c25 0 50 1 71 1c1 -14 0 -29 -1 -44z" />
    <glyph glyph-name="x" unicode="x" horiz-adv-x="474" 
d="M0 43l41 3c5 0 8 3 11 5c37 42 91 102 143 160v7c-43 55 -84 106 -119 151c-2 2 -4 4 -6 4l-48 2c0 15 0 30 1 44h94h107c0 -13 0 -29 -1 -44l-59 -2c19 -27 52 -74 85 -118h6c37 48 66 85 85 114c2 2 1 4 -1 4l-50 2c0 14 0 30 1 44h96c26 0 53 0 75 1
c0 -14 -1 -30 -2 -44l-45 -3c-25 -28 -71 -83 -131 -151v-6c45 -58 96 -125 132 -170l53 -2c0 -14 -1 -30 -1 -44h-91h-111c0 14 0 30 1 44l52 2c4 0 6 3 4 5c-26 40 -61 85 -93 125h-5c-35 -41 -76 -94 -104 -130l56 -2c0 -14 0 -30 -1 -44h-98c-25 0 -54 0 -78 -1
c0 15 0 30 1 44z" />
    <glyph glyph-name="y" unicode="y" horiz-adv-x="462" 
d="M466 376l-44 -3c-11 -30 -45 -111 -82 -202c-32 -76 -106 -239 -158 -319c-31 -47 -60 -83 -87 -98c-17 0 -62 32 -62 44c34 23 65 51 90 80c28 33 59 79 75 119c-32 81 -57 141 -85 218c-25 65 -43 114 -59 155c0 2 -2 3 -5 3l-49 3c0 14 1 30 1 43h87h121
c0 -13 0 -29 -1 -44l-71 -2c8 -27 24 -74 46 -138c21 -64 39 -114 56 -160h6c19 46 34 83 55 140c26 70 40 117 51 153c0 3 0 5 -3 5l-61 2c0 15 0 31 1 44h101h78c0 -13 0 -29 -1 -43z" />
    <glyph glyph-name="z" unicode="z" horiz-adv-x="441" 
d="M366 148c18 -2 36 -6 51 -10c-11 -46 -23 -92 -34 -139c-13 0 -63 1 -135 1h-117h-88c-5 12 -11 26 -15 39c78 92 204 238 280 330l-1 5c-37 0 -124 -1 -160 -2c-19 0 -24 -6 -27 -15l-26 -79c-17 2 -36 6 -53 10c10 44 20 89 30 133c14 -1 46 -2 93 -2h221
c5 -15 11 -33 15 -49c-44 -53 -209 -241 -279 -320l1 -4c60 0 139 0 184 4c15 1 27 6 31 20z" />
    <glyph glyph-name="braceleft" unicode="{" horiz-adv-x="334" 
d="M135 297v-6c42 -13 63 -49 63 -87c0 -72 -20 -116 -20 -183c0 -69 42 -117 127 -116c1 -13 2 -29 1 -42c-120 0 -196 67 -196 160c0 70 25 124 25 177c0 37 -12 71 -86 69c-1 13 -1 29 -1 43c74 0 87 28 87 61c0 49 -23 99 -23 167c0 102 66 167 197 168
c0 -13 0 -29 -1 -42c-93 -1 -128 -45 -128 -118c0 -64 19 -110 19 -169c0 -38 -22 -69 -64 -82z" />
    <glyph glyph-name="bar" unicode="|" horiz-adv-x="524" 
d="M236 750h53v-1000h-53v1000z" />
    <glyph glyph-name="braceright" unicode="}" horiz-adv-x="334" 
d="M197 289v7c-42 12 -63 43 -63 82c0 59 22 106 22 170c0 75 -35 117 -128 117c-1 14 -1 30 -1 43c131 0 197 -64 197 -168c0 -68 -27 -118 -27 -167c0 -33 15 -61 88 -61c1 -14 1 -30 -1 -43c-74 2 -88 -32 -88 -69c0 -53 27 -107 27 -177c0 -93 -78 -160 -197 -160
c0 13 0 29 1 43c85 -1 129 47 129 115c0 67 -22 111 -22 183c0 38 23 74 63 85z" />
    <glyph glyph-name="asciitilde" unicode="~" horiz-adv-x="524" 
d="M178 302c41 0 69 -17 99 -36c23 -14 49 -35 79 -35c31 0 51 33 54 73c16 1 33 1 50 0c-2 -63 -41 -135 -105 -135c-39 0 -72 23 -96 37c-24 15 -48 35 -82 35s-55 -32 -62 -71c-15 0 -32 1 -49 1c7 71 51 131 112 131z" />
    <glyph glyph-name="exclamdown" unicode="&#xa1;" horiz-adv-x="273" 
d="M90 -235c-1 0 -1 1 -1 3c6 135 16 344 21 483c14 4 40 6 52 7c3 -60 9 -166 11 -227c3 -69 9 -183 13 -248c-20 -7 -84 -18 -96 -18zM136 327c-37 0 -53 29 -53 53s23 50 53 50c31 0 53 -22 53 -50c0 -26 -20 -53 -53 -53z" />
    <glyph glyph-name="cent" unicode="&#xa2;" horiz-adv-x="524" 
d="M69 297c0 116 78 216 203 235c0 35 1 69 1 102c16 4 33 6 52 7c-1 -32 -1 -68 -2 -105c5 1 12 2 19 2c45 0 81 -10 112 -25c0 -16 -17 -51 -32 -59c-26 13 -69 31 -101 31c-1 -106 -3 -222 -4 -327c40 2 88 15 133 34c4 -13 9 -28 12 -42c-51 -23 -99 -38 -145 -42
c-1 -37 -1 -74 -1 -106c-17 -2 -34 -3 -49 -4c0 32 1 69 1 108c-106 3 -199 64 -199 191zM143 315c0 -56 16 -94 39 -118c21 -22 51 -35 86 -38c1 104 2 220 3 324c-82 -13 -128 -97 -128 -168z" />
    <glyph glyph-name="sterling" unicode="&#xa3;" horiz-adv-x="524" 
d="M344 644c27 0 67 -4 92 -15c5 -47 9 -97 12 -142l-54 -6l-16 94c-2 6 -4 11 -10 13c-14 5 -32 7 -50 7c-29 0 -57 -9 -79 -32c-21 -22 -33 -52 -33 -103c0 -37 8 -81 13 -131c57 0 114 1 181 2c0 -15 -1 -36 -3 -51h-172c1 -12 2 -25 2 -35c0 -78 -23 -136 -62 -187
c-5 -7 -3 -10 8 -10c140 0 203 2 220 7c9 1 15 9 20 21l33 98c17 -3 35 -8 50 -12c-11 -52 -25 -110 -38 -163c-48 0 -189 1 -324 1c-39 0 -79 -1 -120 -1c0 16 1 33 1 48l69 3c7 0 14 4 16 6c35 36 52 93 52 165c0 17 -1 38 -4 59h-100c0 15 1 32 2 47c29 0 58 1 87 1
c3 0 5 2 5 5c-7 48 -14 89 -14 116c0 63 22 110 61 144c41 35 92 51 155 51z" />
    <glyph glyph-name="fraction" unicode="&#x2044;" horiz-adv-x="77" 
d="M-123 -16c-13 6 -27 11 -40 18c51 90 113 201 166 298c60 113 126 234 193 359c14 -5 30 -10 44 -17c-70 -126 -141 -257 -199 -364c-47 -86 -117 -209 -164 -294z" />
    <glyph glyph-name="yen" unicode="&#xa5;" horiz-adv-x="524" 
d="M233 53v90c-45 0 -108 0 -154 -1c-1 14 0 31 1 44h153v61h-156c0 14 0 29 1 43h139c-53 98 -105 195 -157 292c-2 3 -4 5 -7 5l-41 2c-1 15 0 31 1 46c20 0 52 -1 81 -1c50 0 97 1 136 1c0 -15 -1 -31 -1 -46l-87 -3c45 -93 90 -185 136 -277h5c45 91 89 182 131 272
c1 2 -1 5 -4 5l-80 3c0 14 0 30 1 45h117c24 0 55 1 74 1c1 -14 0 -31 0 -45l-42 -4c-52 -98 -105 -196 -159 -295c46 0 93 1 136 1c0 -13 0 -30 -1 -45c-41 0 -105 1 -155 0v-61h153c0 -13 0 -28 -1 -42c-41 0 -104 0 -152 -1l-1 -95l96 -3c0 -14 0 -31 -1 -46
c-36 0 -85 1 -127 1c-41 0 -86 -1 -126 -1c0 15 1 31 2 46l83 3c4 0 6 2 6 5z" />
    <glyph glyph-name="florin" unicode="&#x192;" horiz-adv-x="524" 
d="M441 645c25 0 52 -3 68 -12c0 -12 -18 -52 -31 -64c-14 2 -54 14 -83 14c-26 0 -56 -11 -73 -31c-27 -31 -41 -66 -46 -187c60 0 122 0 189 1c0 -15 0 -35 -2 -51c-61 0 -133 1 -189 0c-3 -76 -8 -208 -19 -286c-16 -114 -119 -186 -206 -186c-21 0 -42 3 -58 9
c1 13 17 47 29 60c15 -3 39 -9 63 -9c43 0 95 36 103 131c8 86 11 206 13 281h-120c0 16 1 33 2 48c40 1 79 1 115 2c3 0 5 3 5 7c4 120 18 154 72 204c56 56 118 69 168 69z" />
    <glyph glyph-name="section" unicode="&#xa7;" horiz-adv-x="452" 
d="M396 201c0 -54 -20 -98 -50 -131c12 -17 20 -45 20 -72c0 -40 -13 -87 -52 -124c-33 -32 -80 -49 -127 -49c-65 0 -126 24 -166 62c7 17 27 40 47 45c28 -29 77 -58 126 -58c28 0 59 10 79 32c18 20 26 45 26 74c0 55 -30 86 -111 136c-84 51 -128 103 -128 180
c0 56 27 100 55 130c-17 20 -29 50 -29 83c0 41 23 84 58 112c32 25 73 37 119 37c57 0 110 -20 142 -49c-5 -17 -26 -39 -44 -46c-21 22 -69 47 -109 47c-27 0 -52 -7 -68 -22c-20 -18 -32 -40 -32 -69c0 -53 34 -82 125 -140c79 -51 119 -102 119 -178zM119 318
c0 -66 36 -100 103 -144c39 -26 70 -46 93 -72c14 19 22 45 22 78c0 67 -35 98 -103 146c-34 25 -64 46 -89 69c-15 -17 -26 -45 -26 -77z" />
    <glyph glyph-name="currency" unicode="&#xa4;" horiz-adv-x="524" 
d="M270 497c38 0 70 -8 100 -27c25 30 48 56 69 80c14 -12 28 -26 40 -39c-20 -23 -43 -49 -69 -78c22 -28 37 -66 37 -112c0 -50 -16 -98 -48 -129c28 -31 55 -62 79 -89c-12 -11 -26 -23 -40 -34c-24 28 -50 58 -78 88c-25 -17 -61 -28 -102 -28c-38 0 -69 8 -94 23
c-26 -29 -52 -58 -75 -84c-13 11 -27 23 -39 34c22 26 48 55 73 83c-26 27 -44 73 -44 120c0 49 18 92 45 123c-27 31 -50 56 -73 81c13 14 28 28 41 40c22 -25 46 -53 73 -84c31 23 69 32 105 32zM265 449c-28 0 -60 -10 -80 -29c-23 -22 -45 -58 -45 -109s17 -85 41 -107
c19 -17 51 -27 80 -27c28 0 59 7 80 26c26 22 45 57 45 114c0 50 -18 85 -43 106c-20 18 -47 26 -78 26z" />
    <glyph glyph-name="quotesingle" unicode="'" horiz-adv-x="181" 
d="M130 697c-3 -49 -9 -168 -10 -224c-13 -4 -38 -7 -48 -7c-6 83 -13 171 -18 218c21 7 63 13 76 13z" />
    <glyph glyph-name="quotedblleft" unicode="&#x201c;" horiz-adv-x="357" 
d="M111 484c-32 0 -64 33 -64 76c0 66 48 125 105 153c9 -10 18 -22 25 -33c-45 -29 -61 -57 -61 -86c0 -28 31 -37 46 -40c6 -43 -19 -70 -51 -70zM271 484c-31 0 -64 33 -64 76c0 66 48 125 105 153c9 -10 18 -22 25 -33c-45 -29 -61 -57 -61 -86s31 -37 46 -41
c6 -41 -19 -69 -51 -69z" />
    <glyph glyph-name="guillemotleft" unicode="&#xab;" horiz-adv-x="411" 
d="M118 223c31 -48 65 -97 98 -144c-9 -9 -20 -19 -31 -27c-46 50 -92 100 -141 149c-1 12 -1 26 -1 38c49 50 95 100 141 151c11 -8 22 -18 31 -28c-33 -46 -66 -92 -97 -139zM274 222c30 -45 62 -91 97 -137c-8 -9 -19 -19 -29 -27c-46 50 -91 98 -137 146v33
c46 48 89 97 135 147c10 -8 22 -18 31 -27c-34 -46 -66 -90 -97 -135z" />
    <glyph glyph-name="guilsinglleft" unicode="&#x2039;" horiz-adv-x="256" 
d="M118 223c31 -48 65 -97 99 -144c-9 -9 -21 -19 -32 -27c-46 50 -93 100 -141 149c-1 13 -1 26 -1 38c49 50 95 99 141 151c11 -8 23 -19 32 -28c-33 -46 -67 -92 -98 -139z" />
    <glyph glyph-name="guilsinglright" unicode="&#x203a;" horiz-adv-x="256" 
d="M139 222c-32 47 -65 94 -99 140c10 10 22 20 32 28c47 -50 94 -100 142 -150c0 -11 -1 -25 -1 -37c-48 -50 -94 -100 -140 -151c-11 8 -22 18 -32 28c34 46 67 95 98 142z" />
    <glyph glyph-name="fi" unicode="&#xfb01;" horiz-adv-x="561" 
d="M321 685c45 0 94 -11 126 -26c0 -18 -23 -55 -38 -64c-17 7 -66 32 -121 32c-29 0 -57 -12 -72 -30c-23 -29 -39 -54 -38 -178c41 0 86 0 134 1c55 1 150 10 160 10c2 0 2 -1 2 -3c-1 -111 -2 -274 -2 -381l70 -2c0 -15 0 -30 -1 -44h-111c-34 0 -69 -1 -102 -1v44l65 3
c2 0 3 2 3 4v316c-26 1 -65 2 -88 2c-38 0 -91 0 -130 -1c0 -90 -1 -218 -1 -321l89 -2c0 -15 0 -30 -1 -44h-126c-30 0 -68 -1 -99 -1c-1 15 0 29 1 44l57 3c2 0 4 2 4 4c0 106 0 215 -1 317h-75c0 17 1 35 2 50c22 1 46 2 68 2c2 0 5 3 5 7c0 111 20 147 58 187
c55 58 111 72 162 72z" />
    <glyph glyph-name="fl" unicode="&#xfb02;" horiz-adv-x="564" 
d="M177 46l90 -2c0 -15 -1 -29 -1 -44h-126c-31 0 -69 -1 -100 -1c0 15 0 29 1 44l58 3c2 0 3 2 3 4c0 105 0 215 -1 317h-75c0 17 1 35 2 50c22 1 46 2 68 2c3 0 5 3 5 8c0 110 13 145 54 188c54 57 107 70 161 70c52 0 119 -10 157 -23c2 -1 3 -3 3 -6
c-1 -171 -3 -420 -4 -610l78 -2v-44h-117c-35 0 -75 -1 -106 -1c0 14 1 30 2 44l65 3c2 0 3 3 3 5c1 96 1 208 1 316h-220c0 -90 -1 -218 -1 -321zM297 631c-44 0 -68 -11 -90 -35c-24 -30 -30 -61 -29 -177h220c0 70 1 139 1 198c-23 8 -61 14 -102 14z" />
    <glyph glyph-name="endash" unicode="&#x2013;" horiz-adv-x="500" 
d="M252 213c-58 0 -159 1 -220 0c0 17 0 36 1 53h219c66 1 153 1 216 2c0 -19 -1 -39 -2 -55h-214z" />
    <glyph glyph-name="dagger" unicode="&#x2020;" horiz-adv-x="454" 
d="M257 654c1 0 2 -2 2 -4c-1 -65 -2 -141 -3 -219c52 0 106 1 160 1c0 -17 -1 -38 -3 -55h-157c-3 -177 -6 -370 -8 -520c-14 -4 -42 -8 -54 -9c-2 162 -5 379 -8 529h-147c0 18 1 36 2 52c46 1 93 2 136 2c6 0 8 3 8 7c0 67 -1 135 -2 191c18 11 64 25 74 25z" />
    <glyph glyph-name="daggerdbl" unicode="&#x2021;" horiz-adv-x="454" 
d="M257 654c1 0 2 -2 2 -4c-1 -65 -2 -141 -3 -219c52 0 106 1 160 2c1 -18 0 -39 -2 -56h-159c-1 -77 -1 -156 -3 -233h163c0 -17 -1 -36 -3 -53c-46 0 -112 0 -161 -1c-1 -82 -2 -161 -3 -233c-15 -5 -41 -8 -54 -9c-1 76 -2 161 -4 242c-43 0 -96 -1 -151 -1
c0 18 1 38 3 55h141c4 0 5 3 5 7c0 64 -1 157 -2 226h-147c0 18 1 36 2 53c46 0 92 1 136 1c6 0 8 3 8 7c0 68 -1 136 -3 193c14 10 64 23 75 23z" />
    <glyph glyph-name="periodcentered" unicode="&#xb7;" horiz-adv-x="245" 
d="M124 317c40 0 54 -34 54 -56c0 -29 -20 -56 -54 -56s-56 23 -56 55c0 25 18 57 56 57z" />
    <glyph glyph-name="paragraph" unicode="&#xb6;" horiz-adv-x="536" 
d="M448 602l-3 -721c-16 -4 -34 -7 -52 -9l-1 731h-67l-3 -724c-16 -5 -34 -8 -52 -11l-1 360h-14c-17 0 -61 4 -89 15c-68 27 -129 87 -129 186c0 94 61 164 122 192c49 23 130 30 181 30c54 0 119 -2 167 -3c1 -15 1 -31 1 -47z" />
    <glyph glyph-name="bullet" unicode="&#x2022;" horiz-adv-x="308" 
d="M156 363c69 0 99 -58 99 -105c0 -57 -42 -105 -99 -105c-62 0 -103 45 -103 101c0 57 39 109 103 109z" />
    <glyph glyph-name="quotesinglbase" unicode="&#x201a;" horiz-adv-x="237" 
d="M112 100c32 0 66 -34 66 -80c0 -69 -48 -131 -108 -161c-9 11 -19 23 -27 34c47 31 64 61 64 91c0 27 -23 38 -45 43c-7 43 17 73 50 73z" />
    <glyph glyph-name="quotedblbase" unicode="&#x201e;" horiz-adv-x="392" 
d="M110 95c29 0 63 -33 63 -76c0 -65 -47 -125 -104 -153c-9 10 -18 22 -26 33c45 29 61 57 61 86c0 27 -28 38 -45 44c-5 42 18 66 51 66zM269 95c30 0 64 -33 64 -76c0 -65 -47 -125 -104 -153c-9 10 -18 22 -26 33c45 29 61 57 61 86c0 27 -28 38 -46 43
c-3 41 19 67 51 67z" />
    <glyph glyph-name="quotedblright" unicode="&#x201d;" horiz-adv-x="357" 
d="M87 699c30 0 64 -33 64 -76c0 -66 -47 -125 -104 -153c-9 10 -19 22 -26 33c45 29 61 57 61 86c0 28 -29 38 -46 43c-4 43 19 67 51 67zM247 699c30 0 64 -33 64 -76c0 -66 -47 -125 -104 -153c-9 10 -18 22 -26 33c45 29 61 57 61 86c0 28 -29 37 -46 43
c-4 41 19 67 51 67z" />
    <glyph glyph-name="guillemotright" unicode="&#xbb;" horiz-adv-x="411" 
d="M136 220c-30 46 -61 91 -96 137c10 10 20 20 30 28c47 -51 90 -99 136 -147c0 -10 0 -23 -1 -33c-44 -48 -89 -96 -135 -146c-10 8 -21 18 -30 27c34 45 67 90 96 134zM292 221c-31 47 -62 94 -96 141c9 10 20 21 30 29c47 -51 95 -101 142 -151c0 -11 -1 -25 -1 -37
c-46 -50 -92 -100 -140 -151c-11 9 -22 19 -31 29c33 46 67 93 96 140z" />
    <glyph glyph-name="ellipsis" unicode="&#x2026;" horiz-adv-x="794" 
d="M134 102c40 0 54 -33 54 -56c0 -28 -20 -55 -54 -55c-33 0 -56 23 -56 55c0 25 18 56 56 56zM399 102c40 0 54 -33 54 -56c0 -28 -20 -55 -54 -55c-33 0 -56 23 -56 55c0 25 18 56 56 56zM663 102c40 0 54 -33 54 -56c0 -28 -20 -55 -53 -55c-34 0 -57 23 -57 55
c0 25 19 56 56 56z" />
    <glyph glyph-name="perthousand" unicode="&#x2030;" horiz-adv-x="1113" 
d="M931 323c43 0 71 -12 94 -34c27 -26 48 -69 48 -127c0 -51 -19 -104 -49 -133c-28 -27 -63 -39 -100 -39c-33 0 -66 8 -91 27c-33 25 -57 75 -57 133c0 53 20 104 56 136c26 23 58 37 99 37zM927 283c-22 0 -40 -6 -55 -23c-20 -23 -32 -60 -32 -108
c0 -50 13 -82 30 -100c15 -16 34 -23 56 -23c18 0 34 4 50 19c22 20 33 54 33 110c0 47 -12 82 -29 102c-12 15 -30 23 -53 23zM511 616l-3 3c-68 -2 -147 -3 -219 -4c26 -19 50 -64 50 -120c0 -61 -19 -105 -51 -136c-24 -25 -61 -40 -101 -40c-32 0 -63 9 -88 29
c-31 25 -58 70 -58 137c0 54 20 99 53 129c28 26 70 38 107 38c80 0 306 7 358 12c9 -10 16 -20 22 -30c-56 -98 -123 -221 -176 -318c-55 -102 -124 -226 -188 -342c-14 6 -29 12 -43 20c67 120 129 234 190 347c47 86 99 185 147 275zM193 612c-22 0 -41 -5 -56 -22
c-21 -23 -32 -57 -32 -103c0 -52 11 -85 32 -106c15 -15 32 -22 54 -22c20 0 37 6 49 17c19 18 35 53 35 112c0 46 -12 82 -30 103c-11 15 -30 21 -52 21zM576 323c43 0 73 -13 94 -33c29 -27 49 -72 49 -129c0 -51 -18 -101 -49 -132c-28 -27 -64 -39 -101 -39
c-33 0 -65 8 -89 27c-34 26 -58 75 -58 134c0 53 20 103 56 135c26 23 58 37 98 37zM573 283c-23 0 -40 -6 -55 -23c-21 -23 -32 -63 -32 -107c0 -49 11 -83 31 -102c15 -15 33 -22 54 -22c19 0 38 6 53 20c18 18 31 51 31 109c0 47 -12 81 -29 102c-12 15 -30 23 -53 23z
" />
    <glyph glyph-name="questiondown" unicode="&#xbf;" horiz-adv-x="426" 
d="M230 328c-35 0 -53 29 -53 53s23 49 52 49c30 0 55 -21 55 -49c0 -25 -20 -53 -54 -53zM40 -82c0 83 55 145 154 213c19 14 28 23 28 36c0 20 -10 51 -20 80c14 7 31 13 51 17c17 -22 46 -90 47 -125c-116 -80 -173 -129 -173 -215c0 -65 40 -108 107 -108
c27 0 54 7 73 21c3 3 5 6 6 12l18 86c19 -2 39 -4 56 -7c-3 -42 -8 -89 -12 -132c-35 -17 -94 -32 -155 -32c-126 0 -180 80 -180 154z" />
    <glyph glyph-name="grave" unicode="`" horiz-adv-x="333" 
d="M119 640c42 -42 92 -94 133 -134c-9 -11 -19 -22 -29 -31c-45 37 -99 83 -147 121c13 16 29 31 43 44z" />
    <glyph glyph-name="acute" unicode="&#xb4;" horiz-adv-x="333" 
d="M223 640c15 -13 30 -29 43 -44c-49 -39 -103 -84 -150 -121c-9 9 -19 20 -28 31c43 42 93 93 135 134z" />
    <glyph glyph-name="circumflex" unicode="&#x2c6;" horiz-adv-x="333" 
d="M167 562c-29 -28 -65 -64 -93 -92c-11 9 -21 17 -30 26c35 41 73 87 105 124c12 1 26 1 37 1c30 -35 72 -87 104 -124c-9 -9 -19 -19 -29 -27c-27 27 -63 63 -94 92z" />
    <glyph glyph-name="tilde" unicode="&#x2dc;" horiz-adv-x="333" 
d="M113 596c30 0 47 -17 66 -31c17 -11 28 -23 46 -23c21 0 28 20 32 51h36c-2 -51 -16 -102 -68 -102c-26 0 -44 15 -63 29c-19 13 -32 26 -52 26c-18 0 -27 -20 -33 -50h-37c4 52 24 100 73 100z" />
    <glyph glyph-name="macron" unicode="&#xaf;" horiz-adv-x="333" 
d="M267 555c1 -15 1 -33 0 -48c-58 0 -136 0 -201 1c-1 14 -1 30 0 45c67 1 134 2 201 2z" />
    <glyph glyph-name="breve" unicode="&#x2d8;" horiz-adv-x="333" 
d="M166 487c-61 0 -106 45 -117 96c13 6 27 10 40 13c17 -34 41 -58 79 -58c39 0 64 29 76 54c13 -2 28 -5 41 -9c-9 -41 -55 -96 -119 -96z" />
    <glyph glyph-name="dotaccent" unicode="&#x2d9;" horiz-adv-x="333" 
d="M167 631c39 0 51 -30 51 -52c0 -31 -22 -53 -53 -53s-54 24 -54 52s21 53 56 53z" />
    <glyph glyph-name="dieresis" unicode="&#xa8;" horiz-adv-x="333" 
d="M88 582c33 0 43 -26 43 -45c0 -20 -15 -42 -42 -42c-26 0 -44 18 -44 43c0 20 14 44 43 44zM246 582c29 0 42 -24 42 -44c0 -25 -18 -43 -43 -43c-28 0 -43 22 -43 42c0 19 11 45 44 45z" />
    <glyph glyph-name="ring" unicode="&#x2da;" horiz-adv-x="333" 
d="M168 654c58 0 94 -37 94 -83c0 -47 -40 -86 -95 -86c-52 0 -95 33 -95 85c0 41 39 84 96 84zM168 618c-30 0 -49 -24 -49 -49c0 -27 21 -48 49 -48c32 0 47 23 47 49s-15 48 -47 48z" />
    <glyph glyph-name="cedilla" unicode="&#xb8;" horiz-adv-x="333" 
d="M150 -71l74 72h51l-61 -63c36 -7 57 -31 57 -63c0 -50 -51 -83 -125 -84c-2 10 -3 24 -5 34c45 3 73 17 73 44c0 14 -7 23 -13 28c-10 8 -24 11 -42 11z" />
    <glyph glyph-name="hungarumlaut" unicode="&#x2dd;" horiz-adv-x="333" 
d="M152 638c13 -10 28 -26 40 -39c-43 -37 -87 -76 -132 -114c-9 9 -19 19 -27 28c38 40 82 86 119 125zM278 634c13 -10 28 -26 40 -39c-43 -38 -86 -76 -130 -115c-10 9 -19 19 -28 28c36 38 82 88 118 126z" />
    <glyph glyph-name="ogonek" unicode="&#x2db;" horiz-adv-x="333" 
d="M290 4h59c-77 -54 -98 -91 -98 -121c0 -29 21 -43 41 -43c19 0 35 5 51 18c9 -9 15 -19 19 -30c-25 -25 -56 -41 -91 -41c-46 0 -92 33 -92 82c0 47 48 95 111 135z" />
    <glyph glyph-name="caron" unicode="&#x2c7;" horiz-adv-x="333" 
d="M167 542c31 30 67 66 94 92c10 -8 20 -18 29 -27c-32 -37 -75 -89 -105 -124h-37c-32 38 -69 84 -104 125c9 9 19 18 30 26c28 -27 64 -64 93 -92z" />
    <glyph glyph-name="emdash" unicode="&#x2014;" horiz-adv-x="1000" 
d="M480 214c-119 0 -330 -1 -448 -1c0 17 0 36 1 53c148 0 298 0 446 1c146 0 332 1 489 1c0 -19 -1 -38 -2 -55c-130 0 -354 1 -486 1z" />
    <glyph glyph-name="AE" unicode="&#xc6;" horiz-adv-x="853" 
d="M426 272l-187 -1c-44 -81 -86 -156 -122 -222l91 -3c0 -15 -1 -31 -2 -46h-138c-29 0 -61 -1 -87 -1c0 16 0 32 1 47l57 3c3 1 5 2 7 5c106 175 239 406 351 593c1 3 2 3 5 3h107h182c42 1 65 1 87 1c3 -50 7 -101 9 -152c-16 -2 -35 -5 -53 -6l-16 86
c-2 11 -7 17 -23 19c-21 2 -89 4 -154 4h-29l-2 -280c55 0 100 1 151 2c19 1 24 7 25 20l5 48c17 1 36 0 51 0c-1 -31 -1 -64 -2 -96v-89c-16 -1 -34 -1 -52 -1l-3 48c-1 16 -7 20 -24 20c-43 1 -93 1 -151 1l-1 -207c0 -17 3 -20 56 -20c81 0 134 3 150 7c10 2 15 9 19 20
l30 87c18 -3 37 -6 52 -10c-10 -49 -21 -102 -33 -153c-45 0 -172 1 -307 1c-43 0 -84 -1 -122 -1c0 15 0 32 1 47l72 3c3 0 4 1 4 3v216c0 3 -2 4 -5 4zM431 596h-4c-61 -102 -109 -185 -158 -271c-3 -5 -1 -6 2 -6h160v277z" />
    <glyph glyph-name="ordfeminine" unicode="&#xaa;" horiz-adv-x="361" 
d="M227 353h-3c-49 -26 -79 -32 -108 -32c-35 0 -85 29 -85 72s46 102 142 102h53c2 75 -17 104 -60 104c-32 0 -65 -23 -88 -47c-9 9 -20 20 -29 30c33 34 77 65 135 65c54 0 104 -38 104 -121c0 -34 -1 -122 -1 -151c0 -7 2 -11 5 -10l52 1v-35c-16 -3 -62 -10 -95 -10
c-6 6 -14 16 -22 32zM97 401c0 -25 23 -37 50 -37c22 0 49 10 75 28c3 1 3 2 3 4v61c-4 1 -14 1 -35 1c-63 0 -93 -23 -93 -57z" />
    <glyph glyph-name="Lslash" unicode="&#x141;" horiz-adv-x="543" 
d="M143 601l-74 2c0 16 1 32 1 47h118h127c0 -15 0 -32 -2 -47l-87 -2c-2 0 -2 -2 -2 -4l-1 -249c47 23 91 46 146 74c8 -15 14 -32 19 -47c-58 -27 -108 -53 -166 -82l-1 -225c0 -18 1 -21 43 -21c111 0 144 3 159 6c9 2 15 9 19 21l36 105c18 -3 37 -7 52 -12
c-10 -49 -26 -115 -39 -168c-47 0 -169 1 -304 1c-42 0 -82 -1 -118 -1c0 15 1 32 1 47l69 3c2 0 3 1 3 3l1 205c-28 -14 -54 -27 -86 -44c-8 13 -15 28 -20 41c38 21 72 38 106 56v291z" />
    <glyph glyph-name="Oslash" unicode="&#xd8;" horiz-adv-x="718" 
d="M381 660c81 0 137 -28 179 -62c21 26 44 52 66 77c16 -11 30 -23 42 -35c-23 -26 -47 -53 -71 -80c42 -48 71 -132 71 -216c0 -109 -37 -205 -100 -269c-55 -56 -122 -85 -221 -85c-77 0 -138 24 -183 61c-25 -28 -51 -58 -75 -85c-14 10 -27 21 -38 31
c27 30 53 60 78 88c-54 60 -79 146 -79 232c0 132 62 234 144 290c56 37 112 53 187 53zM364 610c-54 0 -109 -19 -147 -58c-38 -38 -84 -109 -84 -228c0 -75 12 -137 46 -185c58 71 113 137 167 201c51 63 111 133 170 205c-37 44 -87 65 -152 65zM360 40
c60 0 117 22 152 63c43 51 72 117 72 229c0 60 -10 122 -40 170c-61 -73 -120 -143 -168 -201c-49 -57 -109 -128 -168 -199c38 -41 91 -62 152 -62z" />
    <glyph glyph-name="OE" unicode="&#x152;" horiz-adv-x="975" 
d="M50 319c0 126 57 232 139 289c52 36 111 52 176 52c84 0 151 -38 183 -82v72h51h212c41 1 65 1 87 1c3 -50 7 -101 9 -152c-16 -2 -35 -5 -53 -6l-16 85c-2 11 -7 18 -25 19c-24 3 -91 5 -157 5h-29l-1 -244c56 0 103 0 155 2c18 0 24 6 25 20l5 47c17 1 36 0 51 0
c0 -30 -1 -63 -1 -95c-1 -31 -1 -64 -1 -93c-16 -1 -34 -2 -51 -1l-4 51c-1 16 -7 20 -26 20c-44 1 -94 2 -153 1l-1 -242c0 -17 2 -20 56 -20c80 0 138 3 154 7c10 2 15 9 19 20l32 90c18 -2 36 -6 52 -10c-11 -51 -23 -104 -35 -156c-49 0 -160 1 -295 1h-61
c0 26 0 60 1 85c-41 -56 -108 -95 -210 -95c-80 0 -147 30 -197 79c-60 60 -91 148 -91 250zM136 330c0 -97 20 -169 67 -221c45 -50 96 -69 154 -69c83 0 154 44 190 129v320c-29 71 -92 121 -185 121c-56 0 -107 -20 -143 -55c-41 -41 -83 -112 -83 -225z" />
    <glyph glyph-name="ordmasculine" unicode="&#xba;" horiz-adv-x="385" 
d="M187 321c-41 0 -79 14 -102 36c-30 31 -48 67 -48 119c0 50 21 102 60 135c29 24 66 36 102 36c35 0 68 -9 93 -27c35 -28 56 -69 56 -128s-22 -110 -64 -142c-27 -21 -61 -29 -97 -29zM191 358c24 0 43 5 59 22c23 23 31 57 31 106c0 44 -9 76 -28 98
c-17 19 -36 25 -58 25c-23 0 -42 -7 -58 -25c-20 -21 -33 -55 -33 -99c0 -49 11 -82 30 -103c15 -16 34 -24 57 -24z" />
    <glyph glyph-name="ae" unicode="&#xe6;" horiz-adv-x="690" 
d="M330 55h-7c-78 -51 -133 -65 -183 -65c-46 0 -110 42 -110 96c0 58 62 137 193 137c39 -1 61 -1 69 -1c3 106 -21 149 -81 149c-41 0 -87 -30 -121 -67c-11 11 -24 25 -34 37c43 43 97 89 172 89c54 0 94 -26 111 -83h5c36 55 91 83 154 83c52 0 91 -19 117 -51
c30 -36 39 -85 39 -130c-5 -13 -24 -36 -34 -37c-59 -2 -190 -3 -253 -3c-1 -60 9 -97 33 -125c26 -31 58 -39 103 -39s97 18 132 32c5 -14 9 -31 11 -45c-56 -28 -116 -42 -159 -42c-71 0 -127 27 -157 65zM485 383c-33 0 -56 -13 -73 -30c-13 -14 -39 -46 -42 -98
c57 0 138 1 195 3c8 1 13 4 13 11c0 34 -12 66 -27 84s-35 30 -66 30zM176 42c43 0 95 24 127 47c4 2 5 4 4 7c-9 23 -14 53 -16 81c-4 1 -22 2 -56 2c-87 0 -124 -36 -124 -82c0 -31 27 -55 65 -55z" />
    <glyph glyph-name="dotlessi" unicode="&#x131;" horiz-adv-x="266" 
d="M102 360l-78 3c0 13 1 29 1 42c42 5 144 25 152 25c2 0 2 -1 2 -3c0 -111 -2 -274 -2 -381l70 -2c0 -15 0 -30 -1 -44h-111c-34 0 -71 -1 -105 -1c0 15 0 30 1 44l67 3c2 0 4 2 4 5v309z" />
    <glyph glyph-name="lslash" unicode="&#x142;" horiz-adv-x="295" 
d="M39 43l67 3c2 0 3 2 3 4c1 77 2 214 2 299c-23 -15 -46 -31 -71 -46c-8 12 -15 26 -21 39c30 19 61 38 91 58v232l-80 2c0 14 0 29 1 43c43 4 147 23 155 23c2 0 3 -1 3 -4c-1 -83 -2 -143 -3 -251c27 16 48 30 76 48c9 -13 16 -27 22 -41c-34 -22 -65 -41 -97 -61
c-1 -98 -2 -256 -2 -345l78 -2c0 -14 0 -30 -1 -44h-116c-36 0 -75 -1 -108 -1c0 14 0 30 1 44z" />
    <glyph glyph-name="oslash" unicode="&#xf8;" horiz-adv-x="505" 
d="M261 430c46 0 84 -10 119 -35c20 24 38 45 54 65c13 -9 26 -21 36 -32c-16 -20 -35 -41 -54 -65c30 -32 48 -83 48 -142c0 -78 -30 -148 -91 -193c-37 -27 -77 -38 -128 -38c-46 0 -86 11 -117 32c-21 -24 -41 -47 -59 -68c-12 9 -23 19 -33 29c18 21 37 44 57 68
c-34 38 -53 92 -53 150c0 69 27 137 86 183c39 31 89 46 135 46zM255 385c-32 0 -61 -9 -86 -35c-32 -33 -48 -84 -49 -142c0 -40 6 -75 23 -103c67 81 134 164 199 243c-24 28 -52 37 -87 37zM252 34c31 0 61 10 83 32c35 35 49 81 49 147c0 32 -5 72 -20 95
c-66 -80 -132 -160 -198 -239c18 -20 49 -35 86 -35z" />
    <glyph glyph-name="oe" unicode="&#x153;" horiz-adv-x="781" 
d="M414 80h-5c-29 -49 -84 -90 -166 -90c-54 0 -103 16 -135 46c-44 42 -67 96 -67 165c0 70 26 137 83 183c39 31 84 46 139 46c78 0 133 -45 155 -98h5c34 61 93 98 165 98c53 0 93 -20 118 -52c29 -36 38 -84 38 -130c-4 -12 -23 -35 -34 -36c-62 -2 -191 -3 -253 -3
c-1 -55 9 -96 33 -123c29 -35 61 -41 103 -41c45 0 97 18 132 32c5 -14 9 -31 11 -45c-56 -28 -115 -42 -159 -42c-84 0 -139 36 -163 90zM253 34c29 0 58 9 80 31c34 37 45 79 45 148c0 64 -13 105 -38 135c-21 24 -51 37 -83 37c-33 0 -64 -11 -87 -36
c-27 -31 -45 -73 -45 -137c0 -71 15 -113 47 -145c19 -21 48 -33 81 -33zM574 383c-31 0 -55 -13 -71 -30c-13 -14 -40 -48 -42 -98c56 0 137 1 194 3c8 1 13 4 13 11c0 33 -12 66 -27 83c-15 19 -36 31 -67 31z" />
    <glyph glyph-name="germandbls" unicode="&#xdf;" horiz-adv-x="580" 
d="M25 417l68 2c3 0 5 3 5 7c1 103 14 151 64 197c50 47 101 62 151 62c40 0 75 -15 100 -38c35 -33 55 -95 49 -178c-23 -16 -43 -30 -64 -49c-24 -20 -41 -43 -41 -69c0 -45 23 -58 78 -81c81 -33 107 -76 107 -132c0 -48 -20 -89 -60 -117c-27 -20 -75 -31 -123 -31
c-32 0 -67 5 -89 12c-4 39 -9 78 -13 116c16 4 34 7 50 9l12 -64c2 -6 3 -10 9 -13c13 -7 30 -12 48 -12c24 0 47 4 66 19c15 13 26 32 26 62c0 47 -15 66 -86 96c-72 30 -94 67 -94 120c0 45 35 78 57 100c17 18 32 32 44 45c4 59 -12 106 -36 129c-16 15 -39 23 -63 23
c-41 0 -68 -19 -85 -39c-25 -30 -29 -78 -30 -173c0 -104 -1 -258 -1 -374l35 -2c0 -15 0 -29 -1 -44h-71c-31 0 -69 -1 -100 -1c0 15 0 29 1 44l57 3c3 0 4 2 4 4v317h-76c0 17 1 35 2 50z" />
    <glyph glyph-name="onesuperior" unicode="&#xb9;" 
d="M64 431c0 12 0 24 1 37l83 2c2 0 2 0 2 2v219c-25 -5 -51 -12 -85 -21c-3 13 -5 26 -7 39c69 22 141 51 152 51c1 0 1 -1 1 -2c0 -93 -1 -195 -1 -288l77 -2c0 -12 0 -25 -1 -37h-106h-116z" />
    <glyph glyph-name="logicalnot" unicode="&#xac;" horiz-adv-x="524" 
d="M403 33v189h-344c0 18 1 37 2 54c126 1 268 2 395 3c2 0 3 -2 3 -4c0 -72 -2 -175 -2 -239c-17 -2 -37 -3 -54 -3z" />
    <glyph glyph-name="mu" unicode="&#xb5;" horiz-adv-x="530" 
d="M516 54c4 -12 7 -29 8 -41c-21 -11 -63 -23 -110 -23c-18 12 -31 30 -46 61l-5 2c-73 -57 -105 -63 -135 -63c-31 0 -51 10 -78 35l-4 -1c1 -69 3 -202 4 -243c-19 -16 -61 -23 -74 -23c3 97 4 277 4 368c0 94 1 195 2 275c22 13 61 21 75 21c2 0 2 -2 2 -3
c-1 -77 -2 -165 -2 -240c0 -36 0 -66 16 -93c18 -29 42 -40 75 -40c42 0 113 45 113 73v281c21 14 60 22 77 22c1 0 1 -2 1 -3c0 -111 -1 -227 -2 -305c0 -47 10 -71 32 -71c10 0 31 5 47 11z" />
    <glyph glyph-name="trademark" unicode="&#x2122;" horiz-adv-x="620" 
d="M74 430l36 1v188c-26 0 -36 0 -47 -3l-7 -49c-11 1 -22 2 -33 2c1 30 1 56 3 81h112h104c1 -25 2 -51 3 -80c-11 -1 -21 -2 -34 -3l-7 49c-11 3 -26 3 -46 3v-188l38 -1v-31h-60h-62v31zM267 430l33 1c0 60 1 131 1 188h-33v31h95c18 -54 41 -128 59 -183h5
c16 49 49 145 60 183h92v-31h-33c0 -60 0 -129 1 -189h33v-31h-54h-45c0 9 0 20 1 31l23 1c1 51 2 109 2 157h-5c-26 -79 -48 -134 -65 -177c-10 -1 -17 -1 -32 -1c-17 44 -39 108 -62 180h-6c1 -48 1 -109 1 -160h24c1 -10 0 -21 0 -31h-44h-51v31z" />
    <glyph glyph-name="Eth" unicode="&#xd0;" horiz-adv-x="708" 
d="M140 346v254l-74 3c0 15 0 32 1 46c54 1 127 2 205 2c128 0 186 -18 241 -49c92 -51 146 -151 146 -257c0 -120 -45 -220 -124 -280c-59 -44 -135 -66 -233 -66c-40 0 -96 1 -120 1c-35 0 -79 -1 -117 -1c0 15 1 32 1 47l69 2c3 0 5 2 5 5v243c-28 0 -56 1 -89 0
c0 17 0 35 1 50h88zM220 296l-1 -214c0 -28 8 -36 76 -36c91 0 153 22 201 64c46 41 79 122 79 204c0 113 -28 173 -90 228c-46 40 -108 63 -209 63c-22 0 -45 -1 -55 -4l-1 -255c55 1 110 1 180 2c0 -17 -1 -36 -3 -52h-177z" />
    <glyph glyph-name="onehalf" unicode="&#xbd;" horiz-adv-x="733" 
d="M69 327c0 11 0 24 1 37l84 1c1 0 1 1 1 2v220c-24 -6 -51 -12 -85 -21c-2 13 -5 26 -7 39c69 21 142 51 152 51c1 0 1 -1 1 -3c0 -92 -1 -194 -1 -288l78 -1c0 -12 -1 -25 -1 -37h-107h-116zM209 -16c-14 6 -28 11 -42 18c51 90 113 201 166 298c61 113 126 234 194 359
c14 -5 31 -10 45 -17c-69 -126 -141 -257 -199 -364c-47 -86 -116 -209 -164 -294zM669 231c0 -63 -61 -116 -99 -145c-20 -18 -36 -28 -50 -38l1 -5c32 0 108 2 151 3c1 0 2 0 2 -2c0 -14 -1 -30 -2 -44h-151h-80c-4 10 -8 22 -11 32c39 27 63 44 93 71c35 30 81 71 81 125
c0 20 -6 34 -16 44c-10 12 -32 15 -45 15c-18 0 -35 -3 -46 -12c-2 -2 -3 -3 -3 -6l-9 -54c-14 1 -29 2 -42 3c1 31 4 61 5 89c22 10 61 19 101 19s71 -9 89 -25c18 -17 31 -39 31 -70z" />
    <glyph glyph-name="plusminus" unicode="&#xb1;" horiz-adv-x="524" 
d="M234 314l1 153c18 2 39 3 56 3c0 -42 -1 -96 -1 -155c60 0 119 1 173 1c1 -17 0 -39 -2 -56h-171c-1 -54 -1 -112 -1 -146c-16 -2 -38 -3 -54 -3v149h-171c0 18 0 36 1 53c53 1 111 1 169 1zM460 1l-397 -1c0 17 1 37 2 53c124 1 274 2 398 2c0 -16 -1 -37 -3 -54z" />
    <glyph glyph-name="Thorn" unicode="&#xde;" horiz-adv-x="555" 
d="M122 54l1 547l-70 2c0 15 1 31 1 47h114h117c0 -14 0 -30 -1 -45l-78 -3c-3 0 -4 -2 -4 -4v-72c15 0 32 1 46 1c49 0 92 -3 136 -17c82 -24 130 -92 130 -163c0 -88 -57 -155 -116 -182c-46 -21 -95 -27 -139 -27h-59v-89l97 -3c0 -14 0 -31 -1 -46h-135
c-34 0 -73 0 -108 -1c0 16 0 32 1 47l64 3c3 0 4 2 4 5zM202 475l-1 -281c5 -6 28 -9 56 -9c42 0 84 10 114 29c41 26 60 72 60 121c0 95 -69 144 -182 144c-20 0 -40 -2 -47 -4z" />
    <glyph glyph-name="onequarter" unicode="&#xbc;" horiz-adv-x="733" 
d="M80 327c0 11 0 24 1 37l84 1c1 0 2 1 2 2v220c-25 -6 -51 -12 -85 -21c-3 13 -6 26 -8 39c70 21 142 51 152 51c2 0 2 -1 2 -3c-1 -92 -1 -194 -2 -288l78 -1c0 -12 0 -25 -1 -37h-106h-117zM224 -16c-13 6 -27 11 -41 18c51 90 113 201 166 298c60 113 126 234 193 359
c15 -5 31 -10 46 -17c-70 -126 -142 -257 -199 -364c-48 -86 -117 -209 -165 -294zM503 0v32l64 2c1 0 2 0 2 1v45c-24 -1 -136 -1 -152 -1c-7 13 -13 26 -19 38c23 29 46 60 75 97c35 45 65 84 87 110c21 0 42 -1 62 -2c0 -65 -1 -136 -1 -202h60c0 -13 -1 -26 -1 -40h-59
v-46l42 -2c0 -10 0 -22 -1 -32h-75h-84zM570 267h-7c-19 -26 -34 -45 -56 -75c-20 -26 -40 -53 -49 -66c-2 -3 -1 -6 2 -6h109z" />
    <glyph glyph-name="divide" unicode="&#xf7;" horiz-adv-x="524" 
d="M215 378c0 25 17 48 48 48c28 0 46 -22 46 -48c0 -23 -16 -50 -46 -50c-33 0 -48 27 -48 50zM460 210h-398c0 18 1 36 2 53c123 1 273 2 399 3c0 -17 -1 -39 -3 -56zM215 99c0 24 18 48 49 48c27 0 45 -22 45 -51c0 -20 -16 -47 -46 -47c-34 0 -49 27 -48 50z" />
    <glyph glyph-name="brokenbar" unicode="&#xa6;" horiz-adv-x="524" 
d="M236 675h53v-350h-53v350zM236 175h53v-350h-53v350z" />
    <glyph glyph-name="degree" unicode="&#xb0;" horiz-adv-x="314" 
d="M159 655c68 0 110 -44 110 -103c0 -60 -50 -106 -111 -106c-60 0 -111 38 -111 102c0 54 47 107 112 107zM159 614c-36 0 -56 -32 -56 -65c0 -37 24 -62 56 -62c36 0 54 29 54 63c0 36 -18 64 -54 64z" />
    <glyph glyph-name="thorn" unicode="&#xfe;" horiz-adv-x="513" 
d="M15 -228v44l58 3c2 1 4 3 4 6v738l-77 2c0 13 0 28 1 40c40 7 144 28 153 28c2 0 2 -1 2 -3c0 -66 -2 -188 -3 -253l5 -1c87 46 109 54 153 54c100 0 161 -101 161 -187c0 -47 -5 -85 -23 -126c-16 -37 -42 -70 -73 -93c-26 -19 -70 -34 -117 -34c-44 0 -73 8 -102 23
l-5 -2c1 -56 1 -135 0 -191l91 -2c0 -14 0 -30 -1 -44c-38 0 -85 -1 -128 -1c-33 0 -69 0 -99 -1zM390 215c0 39 -3 71 -21 103c-17 31 -48 51 -88 51c-37 0 -83 -17 -126 -47c0 -75 -1 -163 -1 -233c0 -22 52 -51 101 -51c32 0 65 11 87 33c30 32 48 73 48 144z" />
    <glyph glyph-name="threequarters" unicode="&#xbe;" horiz-adv-x="733" 
d="M112 419l11 -49c1 -1 2 -4 4 -5c10 -5 27 -9 43 -9c21 0 42 6 55 15s22 20 22 43c0 38 -34 59 -84 59h-39c0 12 -1 26 0 38c79 -1 115 23 115 58c0 16 -5 25 -14 33c-10 10 -27 13 -47 13c-14 0 -34 -4 -45 -11c-1 -2 -3 -4 -3 -6l-8 -47c-14 0 -28 1 -43 2
c2 29 3 56 5 81c23 10 64 18 103 18c36 0 68 -5 87 -21c15 -11 29 -33 29 -52c0 -40 -27 -66 -73 -79v-4c58 -7 82 -44 82 -77c0 -35 -17 -59 -42 -75c-21 -14 -58 -25 -107 -25c-32 0 -63 3 -84 7c-4 27 -7 56 -11 86c15 3 30 5 44 7zM220 -16c-14 6 -28 11 -42 18
c51 90 113 201 166 298c61 113 126 234 193 359c15 -5 32 -10 46 -17c-70 -126 -141 -257 -199 -364c-47 -86 -116 -209 -164 -294zM497 0v32l63 2c2 0 3 0 3 1v45c-25 -1 -136 -1 -152 -1c-7 13 -14 26 -19 38c23 29 46 60 75 97c35 45 65 84 86 110c22 0 43 -1 63 -2
c0 -65 -1 -136 -1 -202h59v-40h-59c0 -14 -1 -32 -1 -46l43 -2c0 -10 0 -22 -1 -32h-76h-83zM563 267h-6c-19 -26 -34 -45 -56 -75c-20 -26 -40 -53 -49 -66c-2 -3 -1 -6 2 -6h109v147z" />
    <glyph glyph-name="twosuperior" unicode="&#xb2;" 
d="M279 663c0 -64 -61 -116 -98 -146c-20 -17 -36 -28 -51 -38l2 -5c32 0 107 3 150 4c1 0 3 -1 3 -2c0 -15 -1 -31 -3 -45h-151h-79c-4 11 -9 22 -12 32c40 27 64 45 94 71c34 31 81 71 81 125c0 21 -7 34 -16 44c-11 12 -32 16 -45 16c-18 0 -35 -4 -47 -13
c-1 -1 -2 -3 -3 -6l-8 -53c-15 0 -29 1 -43 2c2 32 4 61 6 89c21 10 61 20 101 20s71 -10 88 -26c19 -16 31 -38 31 -69z" />
    <glyph glyph-name="registered" unicode="&#xae;" horiz-adv-x="475" 
d="M239 660c105 0 183 -81 183 -186c0 -104 -82 -189 -186 -189c-106 0 -183 81 -183 186c0 104 81 189 186 189zM237 630c-87 0 -149 -71 -149 -158c0 -88 61 -157 149 -157s150 71 150 158c0 88 -62 157 -150 157zM172 400v147h-22c1 10 1 18 1 26c23 0 46 1 67 1
c26 0 44 -1 59 -5c27 -7 41 -27 41 -45c0 -28 -19 -47 -42 -55v-4c15 -8 22 -22 37 -52c6 -12 9 -13 15 -13h14v-26h-55c-11 14 -25 51 -35 68c-7 10 -16 10 -24 10h-13v-52h24v-26h-88v26h21zM215 547v-68h13c32 0 45 17 45 36c0 25 -21 32 -44 32h-14z" />
    <glyph glyph-name="minus" unicode="&#x2212;" horiz-adv-x="524" 
d="M460 208h-397c0 18 1 36 2 53c122 1 272 2 398 3c0 -16 -1 -39 -3 -56z" />
    <glyph glyph-name="eth" unicode="&#xf0;" horiz-adv-x="501" 
d="M368 379l7 3c-16 60 -44 124 -90 171c-32 -25 -64 -49 -101 -77c-10 12 -19 25 -27 36c36 27 64 48 93 71c-35 32 -88 54 -150 62c3 15 6 29 10 43c78 -4 151 -38 188 -67c29 22 60 46 92 70c10 -11 20 -25 27 -37l-84 -63c66 -61 124 -174 124 -304
c0 -107 -25 -187 -77 -240c-34 -34 -83 -57 -145 -57c-42 0 -86 11 -119 38c-45 36 -73 96 -73 162c0 62 22 124 72 171c37 37 86 57 142 57c44 0 82 -13 111 -39zM243 34c37 0 70 19 91 46c33 43 46 105 46 173c0 39 -3 60 -18 76c-34 36 -71 43 -108 43
c-35 0 -69 -17 -92 -45c-25 -30 -38 -78 -38 -128c0 -63 16 -111 50 -140c19 -16 45 -25 69 -25z" />
    <glyph glyph-name="multiply" unicode="&#xd7;" horiz-adv-x="524" 
d="M302 231c54 -55 108 -111 158 -162c-10 -12 -24 -25 -37 -36c-50 51 -105 106 -159 161l-161 -161l-36 36c49 50 103 105 158 162c-51 52 -102 103 -150 150c12 15 29 30 41 42c45 -45 95 -97 148 -151c53 55 105 107 150 154c14 -11 30 -27 41 -41
c-48 -48 -100 -100 -153 -154z" />
    <glyph glyph-name="threesuperior" unicode="&#xb3;" 
d="M88 523l12 -48c1 -2 1 -4 3 -6c10 -5 27 -9 43 -9c21 0 42 6 55 15s22 21 22 43c0 38 -34 59 -84 59h-39v38c80 -1 115 24 115 59c0 15 -4 24 -14 32c-10 10 -27 13 -47 13c-14 0 -34 -3 -45 -11c-1 -1 -3 -3 -3 -5l-8 -48c-14 1 -28 2 -43 2c2 29 3 56 5 81
c23 10 64 18 103 18c36 0 68 -5 88 -21c14 -12 28 -33 28 -52c0 -40 -27 -66 -72 -78v-5c57 -7 81 -44 81 -77c0 -35 -17 -59 -42 -75c-21 -14 -58 -24 -106 -24c-33 0 -63 2 -85 7c-3 27 -7 55 -10 86c15 2 29 5 43 6z" />
    <glyph glyph-name="copyright" unicode="&#xa9;" horiz-adv-x="761" 
d="M383 660c188 0 326 -146 326 -332s-145 -338 -331 -338c-187 0 -326 145 -326 332c0 185 146 338 331 338zM381 622c-163 0 -279 -136 -279 -298c0 -164 115 -296 279 -296c162 0 279 136 279 298c0 163 -115 296 -279 296zM461 385l-9 64c0 4 -3 7 -5 8
c-9 6 -23 10 -43 10c-27 0 -54 -7 -78 -29c-32 -31 -48 -69 -48 -124c0 -42 11 -74 33 -97c23 -24 54 -33 90 -33c33 0 71 11 98 24c4 -14 6 -27 8 -40c-43 -19 -86 -28 -118 -28c-44 0 -84 11 -115 34c-36 27 -61 74 -61 132c0 72 34 126 73 158c38 32 91 45 133 45
c33 0 65 -6 77 -12c3 -34 5 -69 6 -107c-12 -2 -27 -4 -41 -5z" />
    <glyph glyph-name="Aacute" unicode="&#xc1;" horiz-adv-x="606" 
d="M400 850c11 -14 26 -36 37 -54c-51 -28 -119 -67 -169 -95c-7 11 -17 24 -23 34c47 34 107 79 155 115zM-13 46l56 3c2 0 4 1 5 4c70 179 163 427 232 605c11 1 33 2 54 2c67 -180 154 -430 219 -611l61 -3c0 -14 0 -31 -1 -46h-94c-46 0 -92 -1 -132 -1c0 16 1 32 1 47
l78 3c2 0 3 2 2 5c-16 45 -35 101 -51 144c-1 4 -3 5 -7 5l-239 -1c-16 -48 -37 -107 -53 -153l90 -3c0 -14 0 -31 -1 -46h-133c-29 0 -61 -1 -88 -1c0 16 1 32 1 47zM299 547h-4c-34 -91 -73 -202 -106 -290c-1 -4 -1 -6 2 -6l210 -1c-31 92 -70 205 -102 297z" />
    <glyph glyph-name="Acircumflex" unicode="&#xc2;" horiz-adv-x="606" 
d="M311 778c-37 -24 -79 -51 -111 -74c-9 9 -19 21 -27 31c40 33 82 68 120 100c11 0 25 1 35 0c37 -29 82 -68 118 -97c-7 -11 -17 -22 -27 -33c-31 23 -73 49 -108 73zM-13 46l56 3c2 0 4 1 5 4c70 179 163 427 232 605c11 1 33 2 54 2c67 -180 154 -430 219 -611l61 -3
c0 -14 0 -31 -1 -46h-94c-46 0 -92 -1 -132 -1c0 16 1 32 1 47l78 3c2 0 3 2 2 5c-16 45 -35 101 -51 144c-1 4 -3 5 -7 5l-239 -1c-16 -48 -37 -107 -53 -153l90 -3c0 -14 0 -31 -1 -46h-133c-29 0 -61 -1 -88 -1c0 16 1 32 1 47zM299 547h-4c-34 -91 -73 -202 -106 -290
c-1 -4 -1 -6 2 -6l210 -1c-31 92 -70 205 -102 297z" />
    <glyph glyph-name="Adieresis" unicode="&#xc4;" horiz-adv-x="606" 
d="M227 805c31 0 42 -26 42 -45c0 -20 -15 -42 -42 -42c-26 0 -44 18 -44 43c0 20 13 44 44 44zM396 805c30 0 43 -24 43 -44c0 -25 -19 -43 -41 -43c-30 0 -46 22 -46 42c0 19 12 45 44 45zM-13 46l56 3c2 0 4 1 5 4c70 179 163 427 232 605c11 1 33 2 54 2
c67 -180 154 -430 219 -611l61 -3c0 -14 0 -31 -1 -46h-94c-46 0 -92 -1 -132 -1c0 16 1 32 1 47l78 3c2 0 3 2 2 5c-16 45 -35 101 -51 144c-1 4 -3 5 -7 5l-239 -1c-16 -48 -37 -107 -53 -153l90 -3c0 -14 0 -31 -1 -46h-133c-29 0 -61 -1 -88 -1c0 16 1 32 1 47zM299 547
h-4c-34 -91 -73 -202 -106 -290c-1 -4 -1 -6 2 -6l210 -1c-31 92 -70 205 -102 297z" />
    <glyph glyph-name="Agrave" unicode="&#xc0;" horiz-adv-x="606" 
d="M212 850c48 -35 108 -81 154 -114c-6 -11 -15 -24 -23 -35c-50 28 -116 66 -169 96c11 18 25 38 38 53zM-13 46l56 3c2 0 4 1 5 4c70 179 163 427 232 605c11 1 33 2 54 2c67 -180 154 -430 219 -611l61 -3c0 -14 0 -31 -1 -46h-94c-46 0 -92 -1 -132 -1c0 16 1 32 1 47
l78 3c2 0 3 2 2 5c-16 45 -35 101 -51 144c-1 4 -3 5 -7 5l-239 -1c-16 -48 -37 -107 -53 -153l90 -3c0 -14 0 -31 -1 -46h-133c-29 0 -61 -1 -88 -1c0 16 1 32 1 47zM299 547h-4c-34 -91 -73 -202 -106 -290c-1 -4 -1 -6 2 -6l210 -1c-31 92 -70 205 -102 297z" />
    <glyph glyph-name="Aring" unicode="&#xc5;" horiz-adv-x="606" 
d="M307 870c59 0 96 -37 96 -84c0 -48 -41 -86 -96 -86s-98 31 -98 84c0 43 39 86 98 86zM307 833c-30 0 -48 -23 -48 -49c0 -27 20 -47 48 -47c30 0 46 22 46 48c0 27 -16 48 -46 48zM-13 46l56 3c2 0 4 1 5 4c70 179 163 427 232 605c11 1 33 2 54 2
c67 -180 154 -430 219 -611l61 -3c0 -14 0 -31 -1 -46h-94c-46 0 -92 -1 -132 -1c0 16 1 32 1 47l78 3c2 0 3 2 2 5c-16 45 -35 101 -51 144c-1 4 -3 5 -7 5l-239 -1c-16 -48 -37 -107 -53 -153l90 -3c0 -14 0 -31 -1 -46h-133c-29 0 -61 -1 -88 -1c0 16 1 32 1 47zM299 547
h-4c-34 -91 -73 -202 -106 -290c-1 -4 -1 -6 2 -6l210 -1c-31 92 -70 205 -102 297z" />
    <glyph glyph-name="Atilde" unicode="&#xc3;" horiz-adv-x="606" 
d="M254 809c28 0 50 -13 71 -26c19 -11 35 -21 53 -21c21 0 31 20 34 45h39c0 -45 -26 -99 -77 -99c-25 0 -44 14 -64 25c-21 11 -36 23 -59 23c-18 0 -34 -18 -37 -44h-39c2 49 34 97 79 97zM-13 46l56 3c2 0 4 1 5 4c70 179 163 427 232 605c11 1 33 2 54 2
c67 -180 154 -430 219 -611l61 -3c0 -14 0 -31 -1 -46h-94c-46 0 -92 -1 -132 -1c0 16 1 32 1 47l78 3c2 0 3 2 2 5c-16 45 -35 101 -51 144c-1 4 -3 5 -7 5l-239 -1c-16 -48 -37 -107 -53 -153l90 -3c0 -14 0 -31 -1 -46h-133c-29 0 -61 -1 -88 -1c0 16 1 32 1 47zM299 547
h-4c-34 -91 -73 -202 -106 -290c-1 -4 -1 -6 2 -6l210 -1c-31 92 -70 205 -102 297z" />
    <glyph glyph-name="Ccedilla" unicode="&#xc7;" horiz-adv-x="585" 
d="M399 -6l-59 -60c48 -8 68 -36 68 -68c0 -50 -52 -90 -141 -90c-2 11 -4 25 -5 36c48 2 82 16 82 48c0 12 -6 23 -13 28c-11 9 -24 11 -51 11c-4 9 -6 17 -8 24l68 67c-65 2 -131 20 -184 60c-64 50 -106 136 -106 238c0 140 59 236 131 296c70 58 157 76 227 76
c55 0 103 -10 128 -21c4 -56 7 -113 9 -170c-17 -2 -37 -4 -56 -6l-17 108c-1 8 -4 13 -8 15c-22 14 -49 18 -82 18c-56 0 -114 -19 -158 -64c-56 -56 -90 -134 -90 -228c0 -86 15 -142 62 -196c37 -42 102 -68 168 -68c59 0 130 21 177 42c4 -16 9 -35 12 -51
c-55 -23 -107 -38 -154 -45z" />
    <glyph glyph-name="Eacute" unicode="&#xc9;" horiz-adv-x="555" 
d="M382 850c11 -14 26 -36 36 -54c-51 -28 -118 -67 -168 -95c-8 11 -17 24 -23 34c46 34 107 79 155 115zM50 46l70 3c1 0 3 1 3 3v549l-74 3c0 15 1 31 2 46h115h221c42 1 65 1 87 1c4 -50 7 -101 9 -152c-16 -2 -34 -5 -53 -6l-16 87c-2 9 -7 15 -23 17
c-26 3 -93 5 -158 5h-30l-1 -246c56 0 103 0 157 1c17 1 22 7 23 20l5 48h51c-1 -31 -1 -63 -2 -96v-92c-16 -1 -34 -2 -51 -2l-4 53c-1 14 -7 19 -24 19c-45 1 -96 1 -155 1l-1 -240c0 -17 3 -20 56 -20c81 0 138 3 155 7c9 2 14 9 18 20l32 91c18 -3 37 -7 52 -10
c-11 -52 -23 -105 -35 -157c-46 0 -176 1 -311 1c-42 0 -82 -1 -118 -1v47z" />
    <glyph glyph-name="Ecircumflex" unicode="&#xca;" horiz-adv-x="555" 
d="M278 779c-37 -24 -79 -51 -112 -74c-8 10 -18 21 -26 31c40 33 82 68 120 100c11 0 25 1 35 0c37 -29 82 -68 118 -97c-7 -11 -17 -22 -27 -32c-32 22 -73 48 -108 72zM50 46l70 3c1 0 3 1 3 3v549l-74 3c0 15 1 31 2 46h115h221c42 1 65 1 87 1c4 -50 7 -101 9 -152
c-16 -2 -34 -5 -53 -6l-16 87c-2 9 -7 15 -23 17c-26 3 -93 5 -158 5h-30l-1 -246c56 0 103 0 157 1c17 1 22 7 23 20l5 48h51c-1 -31 -1 -63 -2 -96v-92c-16 -1 -34 -2 -51 -2l-4 53c-1 14 -7 19 -24 19c-45 1 -96 1 -155 1l-1 -240c0 -17 3 -20 56 -20c81 0 138 3 155 7
c9 2 14 9 18 20l32 91c18 -3 37 -7 52 -10c-11 -52 -23 -105 -35 -157c-46 0 -176 1 -311 1c-42 0 -82 -1 -118 -1v47z" />
    <glyph glyph-name="Edieresis" unicode="&#xcb;" horiz-adv-x="555" 
d="M192 806c31 0 42 -26 42 -45c0 -20 -16 -42 -42 -42s-44 18 -44 43c0 20 13 44 44 44zM361 806c30 0 43 -24 43 -44c0 -25 -19 -43 -41 -43c-30 0 -46 22 -46 42c0 19 11 45 44 45zM50 46l70 3c1 0 3 1 3 3v549l-74 3c0 15 1 31 2 46h115h221c42 1 65 1 87 1
c4 -50 7 -101 9 -152c-16 -2 -34 -5 -53 -6l-16 87c-2 9 -7 15 -23 17c-26 3 -93 5 -158 5h-30l-1 -246c56 0 103 0 157 1c17 1 22 7 23 20l5 48h51c-1 -31 -1 -63 -2 -96v-92c-16 -1 -34 -2 -51 -2l-4 53c-1 14 -7 19 -24 19c-45 1 -96 1 -155 1l-1 -240
c0 -17 3 -20 56 -20c81 0 138 3 155 7c9 2 14 9 18 20l32 91c18 -3 37 -7 52 -10c-11 -52 -23 -105 -35 -157c-46 0 -176 1 -311 1c-42 0 -82 -1 -118 -1v47z" />
    <glyph glyph-name="Egrave" unicode="&#xc8;" horiz-adv-x="555" 
d="M205 850c49 -35 109 -81 154 -114c-6 -11 -15 -24 -23 -35c-49 28 -116 66 -168 96c10 18 24 38 37 53zM50 46l70 3c1 0 3 1 3 3v549l-74 3c0 15 1 31 2 46h115h221c42 1 65 1 87 1c4 -50 7 -101 9 -152c-16 -2 -34 -5 -53 -6l-16 87c-2 9 -7 15 -23 17
c-26 3 -93 5 -158 5h-30l-1 -246c56 0 103 0 157 1c17 1 22 7 23 20l5 48h51c-1 -31 -1 -63 -2 -96v-92c-16 -1 -34 -2 -51 -2l-4 53c-1 14 -7 19 -24 19c-45 1 -96 1 -155 1l-1 -240c0 -17 3 -20 56 -20c81 0 138 3 155 7c9 2 14 9 18 20l32 91c18 -3 37 -7 52 -10
c-11 -52 -23 -105 -35 -157c-46 0 -176 1 -311 1c-42 0 -82 -1 -118 -1v47z" />
    <glyph glyph-name="Iacute" unicode="&#xcd;" horiz-adv-x="324" 
d="M247 850c11 -14 26 -36 37 -54c-51 -28 -119 -67 -169 -95c-7 11 -16 24 -23 34c47 34 107 79 155 115zM123 601l-79 3c0 15 0 31 1 46h124h117c1 -14 0 -32 -1 -46l-79 -3c-2 0 -2 -2 -2 -4l-3 -548l86 -3c0 -14 0 -32 -1 -47c-34 0 -80 1 -120 1c-39 0 -84 -1 -120 -1
c0 15 0 32 1 47l72 3c2 0 4 1 4 4v548z" />
    <glyph glyph-name="Icircumflex" unicode="&#xce;" horiz-adv-x="324" 
d="M165 779c-36 -24 -78 -51 -111 -74c-8 10 -18 21 -26 31c40 33 82 68 120 100c11 0 24 1 35 0c37 -29 82 -68 118 -97c-7 -11 -17 -22 -27 -32c-32 22 -73 48 -109 72zM123 601l-79 3c0 15 0 31 1 46h124h117c1 -14 0 -32 -1 -46l-79 -3c-2 0 -2 -2 -2 -4l-3 -548l86 -3
c0 -14 0 -32 -1 -47c-34 0 -80 1 -120 1c-39 0 -84 -1 -120 -1c0 15 0 32 1 47l72 3c2 0 4 1 4 4v548z" />
    <glyph glyph-name="Idieresis" unicode="&#xcf;" horiz-adv-x="324" 
d="M86 806c31 0 43 -26 43 -45c0 -20 -16 -42 -43 -42c-25 0 -44 18 -44 43c0 20 14 44 44 44zM255 806c31 0 43 -24 43 -44c0 -25 -18 -43 -41 -43c-30 0 -45 22 -45 42c0 19 11 45 43 45zM123 601l-79 3c0 15 0 31 1 46h124h117c1 -14 0 -32 -1 -46l-79 -3
c-2 0 -2 -2 -2 -4l-3 -548l86 -3c0 -14 0 -32 -1 -47c-34 0 -80 1 -120 1c-39 0 -84 -1 -120 -1c0 15 0 32 1 47l72 3c2 0 4 1 4 4v548z" />
    <glyph glyph-name="Igrave" unicode="&#xcc;" horiz-adv-x="324" 
d="M89 850c49 -35 109 -81 155 -114c-7 -11 -16 -24 -24 -35c-49 28 -116 66 -168 96c11 18 25 38 37 53zM123 601l-79 3c0 15 0 31 1 46h124h117c1 -14 0 -32 -1 -46l-79 -3c-2 0 -2 -2 -2 -4l-3 -548l86 -3c0 -14 0 -32 -1 -47c-34 0 -80 1 -120 1c-39 0 -84 -1 -120 -1
c0 15 0 32 1 47l72 3c2 0 4 1 4 4v548z" />
    <glyph glyph-name="Ntilde" unicode="&#xd1;" horiz-adv-x="716" 
d="M313 809c28 0 50 -13 71 -26c19 -11 35 -21 53 -21c21 0 31 20 34 45h39c-1 -45 -26 -99 -77 -99c-25 0 -44 14 -64 25c-22 11 -36 23 -59 23c-18 0 -34 -18 -37 -44h-39c2 49 34 97 79 97zM48 46l64 3c2 0 3 1 3 4v548l-73 3c0 15 0 32 1 46h145
c114 -170 248 -371 358 -540l5 1c-1 163 -2 327 -4 490l-94 2c0 15 1 32 1 47h124h96c1 -14 0 -31 0 -46l-61 -3c-2 0 -3 -1 -3 -4l-3 -593c-13 -6 -35 -11 -53 -11c-104 143 -242 342 -372 538h-6c0 -161 -1 -321 -1 -482l99 -2c0 -15 0 -32 -1 -47h-131
c-33 0 -68 -1 -95 -1c0 15 0 32 1 47z" />
    <glyph glyph-name="Oacute" unicode="&#xd3;" horiz-adv-x="718" 
d="M457 855c11 -14 26 -35 37 -53c-51 -29 -119 -67 -169 -95c-7 10 -17 23 -23 34c47 33 107 79 155 114zM346 -10c-88 0 -158 33 -208 84c-55 56 -88 139 -88 245c0 129 63 232 139 285c59 40 120 56 189 56c61 0 118 -15 167 -50c73 -51 123 -150 123 -265
c0 -104 -34 -205 -105 -274c-52 -51 -118 -81 -217 -81zM360 40c60 0 113 21 149 62c39 45 73 111 73 222c0 92 -23 171 -72 224c-38 43 -85 62 -145 62c-55 0 -103 -18 -141 -52c-47 -42 -88 -120 -88 -232c0 -99 20 -168 73 -224c40 -43 94 -62 151 -62z" />
    <glyph glyph-name="Ocircumflex" unicode="&#xd4;" horiz-adv-x="718" 
d="M375 779c-37 -24 -79 -51 -112 -74c-8 10 -18 21 -26 31c40 33 82 68 120 100c11 0 25 1 35 0c37 -29 82 -68 118 -97c-7 -11 -17 -22 -27 -32c-32 22 -73 48 -108 72zM346 -10c-88 0 -158 33 -208 84c-55 56 -88 139 -88 245c0 129 63 232 139 285c59 40 120 56 189 56
c61 0 118 -15 167 -50c73 -51 123 -150 123 -265c0 -104 -34 -205 -105 -274c-52 -51 -118 -81 -217 -81zM360 40c60 0 113 21 149 62c39 45 73 111 73 222c0 92 -23 171 -72 224c-38 43 -85 62 -145 62c-55 0 -103 -18 -141 -52c-47 -42 -88 -120 -88 -232
c0 -99 20 -168 73 -224c40 -43 94 -62 151 -62z" />
    <glyph glyph-name="Odieresis" unicode="&#xd6;" horiz-adv-x="718" 
d="M293 806c31 0 43 -26 43 -45c0 -20 -16 -42 -43 -42c-25 0 -44 18 -44 43c0 20 14 44 44 44zM462 806c30 0 43 -24 43 -44c0 -25 -18 -43 -41 -43c-30 0 -45 22 -45 42c0 19 11 45 43 45zM346 -10c-88 0 -158 33 -208 84c-55 56 -88 139 -88 245c0 129 63 232 139 285
c59 40 120 56 189 56c61 0 118 -15 167 -50c73 -51 123 -150 123 -265c0 -104 -34 -205 -105 -274c-52 -51 -118 -81 -217 -81zM360 40c60 0 113 21 149 62c39 45 73 111 73 222c0 92 -23 171 -72 224c-38 43 -85 62 -145 62c-55 0 -103 -18 -141 -52
c-47 -42 -88 -120 -88 -232c0 -99 20 -168 73 -224c40 -43 94 -62 151 -62z" />
    <glyph glyph-name="Ograve" unicode="&#xd2;" horiz-adv-x="718" 
d="M287 855c48 -35 108 -80 154 -114c-6 -11 -15 -24 -23 -34c-50 28 -116 66 -169 95c11 18 25 38 38 53zM346 -10c-88 0 -158 33 -208 84c-55 56 -88 139 -88 245c0 129 63 232 139 285c59 40 120 56 189 56c61 0 118 -15 167 -50c73 -51 123 -150 123 -265
c0 -104 -34 -205 -105 -274c-52 -51 -118 -81 -217 -81zM360 40c60 0 113 21 149 62c39 45 73 111 73 222c0 92 -23 171 -72 224c-38 43 -85 62 -145 62c-55 0 -103 -18 -141 -52c-47 -42 -88 -120 -88 -232c0 -99 20 -168 73 -224c40 -43 94 -62 151 -62z" />
    <glyph glyph-name="Otilde" unicode="&#xd5;" horiz-adv-x="718" 
d="M317 814c29 0 51 -13 71 -25s35 -22 53 -22c21 0 32 20 34 45c12 1 27 1 39 0c0 -44 -26 -99 -77 -99c-24 0 -43 14 -64 25c-21 12 -36 23 -59 23c-17 0 -33 -18 -37 -43c-11 -1 -26 0 -38 0c1 48 33 96 78 96zM346 -10c-88 0 -158 33 -208 84c-55 56 -88 139 -88 245
c0 129 63 232 139 285c59 40 120 56 189 56c61 0 118 -15 167 -50c73 -51 123 -150 123 -265c0 -104 -34 -205 -105 -274c-52 -51 -118 -81 -217 -81zM360 40c60 0 113 21 149 62c39 45 73 111 73 222c0 92 -23 171 -72 224c-38 43 -85 62 -145 62c-55 0 -103 -18 -141 -52
c-47 -42 -88 -120 -88 -232c0 -99 20 -168 73 -224c40 -43 94 -62 151 -62z" />
    <glyph glyph-name="Scaron" unicode="&#x160;" horiz-adv-x="492" 
d="M273 771c36 24 78 52 110 73c10 -9 19 -20 26 -31c-36 -30 -82 -69 -119 -100c-11 0 -24 0 -35 1c-38 31 -79 66 -118 97c8 12 17 23 25 32c33 -21 74 -48 111 -72zM98 180l18 -105c1 -5 3 -9 8 -11c19 -13 58 -23 93 -23c47 0 91 15 114 39s32 48 32 80
c0 87 -47 102 -144 147c-88 40 -151 86 -151 173c0 55 29 104 65 133c38 30 95 47 163 47c45 0 97 -9 122 -22c5 -48 9 -100 12 -148c-18 -2 -37 -5 -56 -7l-17 94c-2 6 -4 10 -7 12c-16 13 -43 20 -74 20c-35 0 -70 -9 -94 -30c-21 -18 -38 -47 -38 -83
c0 -70 33 -86 137 -132c100 -44 158 -88 158 -179c0 -56 -20 -105 -59 -139c-40 -37 -97 -56 -179 -56c-49 0 -113 10 -147 24c-5 52 -9 107 -13 158c19 3 39 6 57 8z" />
    <glyph glyph-name="Uacute" unicode="&#xda;" horiz-adv-x="669" 
d="M447 850c11 -14 26 -36 37 -54c-51 -28 -118 -67 -168 -95c-8 11 -17 24 -24 34c47 34 107 79 155 115zM184 601l-1 -330c-1 -98 14 -139 41 -174c18 -24 51 -53 119 -53c64 0 93 23 116 46c24 25 48 84 48 176c0 96 1 229 0 331c0 2 -1 4 -4 4l-84 2c0 15 0 32 1 47h116
h104c1 -14 0 -31 -1 -47l-63 -3l-2 -335c-1 -109 -34 -175 -71 -213c-28 -30 -82 -62 -163 -62c-70 0 -129 17 -171 58c-57 56 -66 124 -66 215v332c0 4 -1 6 -5 6l-61 2c0 16 0 32 1 47h108h128c0 -14 0 -31 -2 -47z" />
    <glyph glyph-name="Ucircumflex" unicode="&#xdb;" horiz-adv-x="669" 
d="M354 779c-37 -24 -78 -51 -111 -74c-9 10 -18 21 -26 31c39 33 81 68 119 100c11 0 25 1 35 0c37 -29 83 -68 118 -97c-7 -11 -16 -22 -26 -32c-32 22 -74 48 -109 72zM184 601l-1 -330c-1 -98 14 -139 41 -174c18 -24 51 -53 119 -53c64 0 93 23 116 46
c24 25 48 84 48 176c0 96 1 229 0 331c0 2 -1 4 -4 4l-84 2c0 15 0 32 1 47h116h104c1 -14 0 -31 -1 -47l-63 -3l-2 -335c-1 -109 -34 -175 -71 -213c-28 -30 -82 -62 -163 -62c-70 0 -129 17 -171 58c-57 56 -66 124 -66 215v332c0 4 -1 6 -5 6l-61 2c0 16 0 32 1 47h108
h128c0 -14 0 -31 -2 -47z" />
    <glyph glyph-name="Udieresis" unicode="&#xdc;" horiz-adv-x="669" 
d="M271 806c31 0 42 -26 42 -45c0 -20 -15 -42 -42 -42c-26 0 -44 18 -44 43c0 20 13 44 44 44zM440 806c30 0 43 -24 43 -44c0 -25 -19 -43 -41 -43c-30 0 -46 22 -46 42c0 19 12 45 44 45zM184 601l-1 -330c-1 -98 14 -139 41 -174c18 -24 51 -53 119 -53
c64 0 93 23 116 46c24 25 48 84 48 176c0 96 1 229 0 331c0 2 -1 4 -4 4l-84 2c0 15 0 32 1 47h116h104c1 -14 0 -31 -1 -47l-63 -3l-2 -335c-1 -109 -34 -175 -71 -213c-28 -30 -82 -62 -163 -62c-70 0 -129 17 -171 58c-57 56 -66 124 -66 215v332c0 4 -1 6 -5 6l-61 2
c0 16 0 32 1 47h108h128c0 -14 0 -31 -2 -47z" />
    <glyph glyph-name="Ugrave" unicode="&#xd9;" horiz-adv-x="669" 
d="M277 850c48 -35 108 -81 154 -114c-6 -11 -15 -24 -23 -35c-50 28 -116 66 -169 96c11 18 25 38 38 53zM184 601l-1 -330c-1 -98 14 -139 41 -174c18 -24 51 -53 119 -53c64 0 93 23 116 46c24 25 48 84 48 176c0 96 1 229 0 331c0 2 -1 4 -4 4l-84 2c0 15 0 32 1 47h116
h104c1 -14 0 -31 -1 -47l-63 -3l-2 -335c-1 -109 -34 -175 -71 -213c-28 -30 -82 -62 -163 -62c-70 0 -129 17 -171 58c-57 56 -66 124 -66 215v332c0 4 -1 6 -5 6l-61 2c0 16 0 32 1 47h108h128c0 -14 0 -31 -2 -47z" />
    <glyph glyph-name="Yacute" unicode="&#xdd;" horiz-adv-x="562" 
d="M416 850c11 -14 26 -36 36 -54c-51 -28 -118 -67 -168 -95c-8 11 -17 24 -23 34c46 34 107 79 155 115zM160 46l79 3c4 0 5 2 5 5v196c-59 105 -132 240 -194 348c-1 1 -2 3 -4 3l-52 3c0 15 0 32 1 46h98h141c0 -14 -1 -31 -1 -46l-90 -4c37 -73 105 -204 152 -292h5
c36 65 123 232 149 288c0 3 -1 5 -3 5l-81 2c0 15 0 32 1 47h123h86c0 -14 0 -31 -1 -46l-51 -3c-62 -105 -137 -242 -199 -349l-1 -203l91 -3c1 -14 0 -32 -1 -47c-36 0 -85 1 -127 1c-41 0 -87 -1 -127 -1c0 15 0 32 1 47z" />
    <glyph glyph-name="Ydieresis" unicode="&#x178;" horiz-adv-x="562" 
d="M227 806c31 0 42 -26 42 -45c0 -20 -15 -42 -42 -42c-26 0 -44 18 -44 43c0 20 13 44 44 44zM396 806c30 0 43 -24 43 -44c0 -25 -19 -43 -41 -43c-30 0 -46 22 -46 42c0 19 12 45 44 45zM160 46l79 3c4 0 5 2 5 5v196c-59 105 -132 240 -194 348c-1 1 -2 3 -4 3l-52 3
c0 15 0 32 1 46h98h141c0 -14 -1 -31 -1 -46l-90 -4c37 -73 105 -204 152 -292h5c36 65 123 232 149 288c0 3 -1 5 -3 5l-81 2c0 15 0 32 1 47h123h86c0 -14 0 -31 -1 -46l-51 -3c-62 -105 -137 -242 -199 -349l-1 -203l91 -3c1 -14 0 -32 -1 -47c-36 0 -85 1 -127 1
c-41 0 -87 -1 -127 -1c0 15 0 32 1 47z" />
    <glyph glyph-name="Zcaron" unicode="&#x17d;" horiz-adv-x="583" 
d="M311 771c37 24 79 52 111 73c9 -9 18 -20 26 -31c-36 -30 -82 -69 -120 -100c-10 0 -24 0 -35 1c-37 31 -78 66 -118 97c9 12 18 23 26 32c32 -21 74 -48 110 -72zM494 191c20 -2 41 -6 57 -10c-12 -59 -27 -123 -42 -182c-16 0 -176 1 -286 1h-176c-6 14 -12 29 -18 43
c107 135 293 391 410 550l-2 5c-72 0 -127 1 -169 1c-56 0 -83 -1 -102 -4c-9 -2 -17 -11 -21 -24l-33 -106c-18 3 -37 5 -55 9c10 59 21 120 32 178c15 0 56 -1 91 -2h337c7 -16 13 -36 18 -54c-148 -200 -308 -415 -407 -540l1 -3c168 -1 261 -2 305 9c12 3 22 9 28 27z
" />
    <glyph glyph-name="aacute" unicode="&#xe1;" horiz-adv-x="454" 
d="M304 640c16 -13 31 -29 43 -44c-48 -39 -103 -84 -149 -121c-10 9 -19 20 -28 31c43 42 92 93 134 134zM293 35h-5c-73 -38 -110 -45 -145 -45c-50 0 -114 41 -114 98c0 56 62 135 195 135c35 -1 59 -1 69 -1c3 106 -22 148 -83 148c-42 0 -86 -29 -120 -66
c-11 11 -24 25 -35 38c43 42 99 88 178 88c74 0 134 -51 134 -162c0 -47 -1 -168 -2 -210c0 -10 3 -15 9 -15l67 2c1 -12 1 -28 0 -42c-13 -4 -70 -13 -115 -13c-10 9 -20 25 -33 45zM111 97c0 -32 27 -54 66 -54c29 0 73 14 111 41c3 1 3 3 3 8v85c-5 1 -26 2 -55 2
c-89 0 -125 -37 -125 -82z" />
    <glyph glyph-name="acircumflex" unicode="&#xe2;" horiz-adv-x="454" 
d="M219 562c-28 -28 -65 -64 -93 -92c-10 9 -21 17 -30 26c35 41 73 87 105 124c12 1 26 1 37 1c30 -35 73 -87 104 -124c-8 -9 -19 -19 -29 -27c-27 27 -63 63 -94 92zM293 35h-5c-73 -38 -110 -45 -145 -45c-50 0 -114 41 -114 98c0 56 62 135 195 135c35 -1 59 -1 69 -1
c3 106 -22 148 -83 148c-42 0 -86 -29 -120 -66c-11 11 -24 25 -35 38c43 42 99 88 178 88c74 0 134 -51 134 -162c0 -47 -1 -168 -2 -210c0 -10 3 -15 9 -15l67 2c1 -12 1 -28 0 -42c-13 -4 -70 -13 -115 -13c-10 9 -20 25 -33 45zM111 97c0 -32 27 -54 66 -54
c29 0 73 14 111 41c3 1 3 3 3 8v85c-5 1 -26 2 -55 2c-89 0 -125 -37 -125 -82z" />
    <glyph glyph-name="adieresis" unicode="&#xe4;" horiz-adv-x="454" 
d="M137 579c32 0 42 -25 42 -44c0 -20 -15 -42 -42 -42c-25 0 -44 18 -44 43c0 19 14 43 44 43zM294 579c29 0 42 -24 42 -43c0 -25 -18 -43 -43 -43c-28 0 -42 22 -42 42c0 19 10 44 43 44zM293 35h-5c-73 -38 -110 -45 -145 -45c-50 0 -114 41 -114 98
c0 56 62 135 195 135c35 -1 59 -1 69 -1c3 106 -22 148 -83 148c-42 0 -86 -29 -120 -66c-11 11 -24 25 -35 38c43 42 99 88 178 88c74 0 134 -51 134 -162c0 -47 -1 -168 -2 -210c0 -10 3 -15 9 -15l67 2c1 -12 1 -28 0 -42c-13 -4 -70 -13 -115 -13c-10 9 -20 25 -33 45z
M111 97c0 -32 27 -54 66 -54c29 0 73 14 111 41c3 1 3 3 3 8v85c-5 1 -26 2 -55 2c-89 0 -125 -37 -125 -82z" />
    <glyph glyph-name="agrave" unicode="&#xe0;" horiz-adv-x="454" 
d="M154 640c43 -42 93 -94 133 -134c-9 -11 -19 -22 -29 -31c-45 37 -99 83 -147 121c13 16 29 31 43 44zM293 35h-5c-73 -38 -110 -45 -145 -45c-50 0 -114 41 -114 98c0 56 62 135 195 135c35 -1 59 -1 69 -1c3 106 -22 148 -83 148c-42 0 -86 -29 -120 -66
c-11 11 -24 25 -35 38c43 42 99 88 178 88c74 0 134 -51 134 -162c0 -47 -1 -168 -2 -210c0 -10 3 -15 9 -15l67 2c1 -12 1 -28 0 -42c-13 -4 -70 -13 -115 -13c-10 9 -20 25 -33 45zM111 97c0 -32 27 -54 66 -54c29 0 73 14 111 41c3 1 3 3 3 8v85c-5 1 -26 2 -55 2
c-89 0 -125 -37 -125 -82z" />
    <glyph glyph-name="aring" unicode="&#xe5;" horiz-adv-x="454" 
d="M219 654c59 0 94 -37 94 -83c0 -47 -39 -86 -94 -86c-53 0 -96 33 -96 85c0 41 39 84 96 84zM220 618c-31 0 -49 -24 -49 -49c0 -27 21 -48 48 -48c33 0 47 23 47 49s-15 48 -46 48zM293 35h-5c-73 -38 -110 -45 -145 -45c-50 0 -114 41 -114 98c0 56 62 135 195 135
c35 -1 59 -1 69 -1c3 106 -22 148 -83 148c-42 0 -86 -29 -120 -66c-11 11 -24 25 -35 38c43 42 99 88 178 88c74 0 134 -51 134 -162c0 -47 -1 -168 -2 -210c0 -10 3 -15 9 -15l67 2c1 -12 1 -28 0 -42c-13 -4 -70 -13 -115 -13c-10 9 -20 25 -33 45zM111 97
c0 -32 27 -54 66 -54c29 0 73 14 111 41c3 1 3 3 3 8v85c-5 1 -26 2 -55 2c-89 0 -125 -37 -125 -82z" />
    <glyph glyph-name="atilde" unicode="&#xe3;" horiz-adv-x="454" 
d="M160 593c31 0 48 -17 67 -30c17 -11 28 -24 46 -24c21 0 27 20 31 51c12 1 26 1 37 0c-2 -50 -16 -102 -68 -102c-26 0 -44 16 -63 29c-19 14 -33 27 -52 27c-18 0 -28 -21 -33 -50c-12 -1 -25 0 -37 0c4 52 24 99 72 99zM293 35h-5c-73 -38 -110 -45 -145 -45
c-50 0 -114 41 -114 98c0 56 62 135 195 135c35 -1 59 -1 69 -1c3 106 -22 148 -83 148c-42 0 -86 -29 -120 -66c-11 11 -24 25 -35 38c43 42 99 88 178 88c74 0 134 -51 134 -162c0 -47 -1 -168 -2 -210c0 -10 3 -15 9 -15l67 2c1 -12 1 -28 0 -42c-13 -4 -70 -13 -115 -13
c-10 9 -20 25 -33 45zM111 97c0 -32 27 -54 66 -54c29 0 73 14 111 41c3 1 3 3 3 8v85c-5 1 -26 2 -55 2c-89 0 -125 -37 -125 -82z" />
    <glyph glyph-name="ccedilla" unicode="&#xe7;" horiz-adv-x="403" 
d="M268 -6l-54 -56c36 -7 57 -31 57 -63c0 -50 -51 -83 -125 -84c-2 10 -3 24 -5 34c45 3 73 17 73 44c0 14 -7 23 -13 28c-10 8 -24 11 -42 11l-9 21l63 61c-92 5 -173 73 -173 194c0 144 101 246 243 246c43 0 77 -11 92 -21c0 -15 -21 -54 -33 -62c-9 3 -49 25 -90 25
c-39 0 -64 -13 -85 -37c-23 -25 -46 -69 -46 -131c0 -56 11 -92 37 -122c23 -29 59 -38 90 -38c39 0 90 17 123 30c5 -13 9 -29 11 -43c-37 -19 -78 -31 -114 -37z" />
    <glyph glyph-name="eacute" unicode="&#xe9;" horiz-adv-x="445" 
d="M317 640c16 -13 30 -29 43 -44c-49 -39 -103 -84 -150 -121c-9 9 -18 20 -27 31c42 42 92 93 134 134zM40 191c0 131 84 239 213 239c52 0 92 -19 118 -52c29 -36 38 -85 38 -129c-5 -13 -24 -36 -34 -37c-59 -2 -191 -3 -253 -3c-2 -55 9 -97 32 -124
c30 -34 62 -40 103 -40c46 0 98 18 133 32c5 -14 9 -31 11 -45c-56 -27 -116 -42 -159 -42c-130 0 -202 85 -202 201zM242 383c-35 0 -58 -12 -75 -31c-13 -15 -39 -46 -42 -97c57 0 138 1 195 3c8 1 13 4 13 11c0 34 -12 66 -27 84s-36 30 -64 30z" />
    <glyph glyph-name="ecircumflex" unicode="&#xea;" horiz-adv-x="445" 
d="M249 562c-29 -28 -65 -64 -93 -92c-11 9 -21 17 -30 26c35 41 73 87 105 124c12 1 26 1 37 1c30 -35 72 -87 104 -124c-9 -9 -19 -19 -29 -27c-27 27 -63 63 -94 92zM40 191c0 131 84 239 213 239c52 0 92 -19 118 -52c29 -36 38 -85 38 -129c-5 -13 -24 -36 -34 -37
c-59 -2 -191 -3 -253 -3c-2 -55 9 -97 32 -124c30 -34 62 -40 103 -40c46 0 98 18 133 32c5 -14 9 -31 11 -45c-56 -27 -116 -42 -159 -42c-130 0 -202 85 -202 201zM242 383c-35 0 -58 -12 -75 -31c-13 -15 -39 -46 -42 -97c57 0 138 1 195 3c8 1 13 4 13 11
c0 34 -12 66 -27 84s-36 30 -64 30z" />
    <glyph glyph-name="edieresis" unicode="&#xeb;" horiz-adv-x="445" 
d="M170 579c32 0 42 -25 42 -44c0 -20 -15 -42 -42 -42c-25 0 -43 18 -43 43c0 19 14 43 43 43zM327 579c29 0 43 -24 43 -43c0 -25 -19 -43 -44 -43c-27 0 -42 22 -42 42c0 19 10 44 43 44zM40 191c0 131 84 239 213 239c52 0 92 -19 118 -52c29 -36 38 -85 38 -129
c-5 -13 -24 -36 -34 -37c-59 -2 -191 -3 -253 -3c-2 -55 9 -97 32 -124c30 -34 62 -40 103 -40c46 0 98 18 133 32c5 -14 9 -31 11 -45c-56 -27 -116 -42 -159 -42c-130 0 -202 85 -202 201zM242 383c-35 0 -58 -12 -75 -31c-13 -15 -39 -46 -42 -97c57 0 138 1 195 3
c8 1 13 4 13 11c0 34 -12 66 -27 84s-36 30 -64 30z" />
    <glyph glyph-name="egrave" unicode="&#xe8;" horiz-adv-x="445" 
d="M187 640c43 -42 93 -94 133 -134c-9 -11 -19 -22 -29 -31c-45 37 -99 83 -147 121c13 16 29 31 43 44zM40 191c0 131 84 239 213 239c52 0 92 -19 118 -52c29 -36 38 -85 38 -129c-5 -13 -24 -36 -34 -37c-59 -2 -191 -3 -253 -3c-2 -55 9 -97 32 -124
c30 -34 62 -40 103 -40c46 0 98 18 133 32c5 -14 9 -31 11 -45c-56 -27 -116 -42 -159 -42c-130 0 -202 85 -202 201zM242 383c-35 0 -58 -12 -75 -31c-13 -15 -39 -46 -42 -97c57 0 138 1 195 3c8 1 13 4 13 11c0 34 -12 66 -27 84s-36 30 -64 30z" />
    <glyph glyph-name="iacute" unicode="&#xed;" horiz-adv-x="266" 
d="M201 640c16 -13 31 -29 43 -44c-48 -39 -102 -84 -149 -121c-9 9 -19 20 -28 31c43 42 92 93 134 134zM102 360l-78 3c0 13 1 29 1 42c42 5 144 25 152 25c2 0 2 -1 2 -3c0 -111 -2 -274 -2 -381l70 -2c0 -15 0 -30 -1 -44h-111c-34 0 -71 -1 -105 -1c0 15 0 30 1 44
l67 3c2 0 4 2 4 5v309z" />
    <glyph glyph-name="icircumflex" unicode="&#xee;" horiz-adv-x="266" 
d="M133 562c-29 -28 -66 -64 -94 -92c-10 9 -20 17 -29 26c34 41 73 87 105 124c12 1 25 1 36 1c31 -35 73 -87 105 -124c-9 -9 -19 -19 -30 -27c-26 27 -63 63 -93 92zM102 360l-78 3c0 13 1 29 1 42c42 5 144 25 152 25c2 0 2 -1 2 -3c0 -111 -2 -274 -2 -381l70 -2
c0 -15 0 -30 -1 -44h-111c-34 0 -71 -1 -105 -1c0 15 0 30 1 44l67 3c2 0 4 2 4 5v309z" />
    <glyph glyph-name="idieresis" unicode="&#xef;" horiz-adv-x="266" 
d="M50 579c33 0 42 -25 42 -44c0 -20 -14 -42 -42 -42c-25 0 -43 18 -43 43c0 19 14 43 43 43zM207 579c29 0 43 -24 43 -43c0 -25 -19 -43 -43 -43c-28 0 -43 22 -43 42c0 19 10 44 43 44zM102 360l-78 3c0 13 1 29 1 42c42 5 144 25 152 25c2 0 2 -1 2 -3
c0 -111 -2 -274 -2 -381l70 -2c0 -15 0 -30 -1 -44h-111c-34 0 -71 -1 -105 -1c0 15 0 30 1 44l67 3c2 0 4 2 4 5v309z" />
    <glyph glyph-name="igrave" unicode="&#xec;" horiz-adv-x="266" 
d="M55 640c42 -42 92 -94 133 -134c-9 -11 -19 -22 -29 -31c-45 37 -99 83 -147 121c13 16 29 31 43 44zM102 360l-78 3c0 13 1 29 1 42c42 5 144 25 152 25c2 0 2 -1 2 -3c0 -111 -2 -274 -2 -381l70 -2c0 -15 0 -30 -1 -44h-111c-34 0 -71 -1 -105 -1c0 15 0 30 1 44l67 3
c2 0 4 2 4 5v309z" />
    <glyph glyph-name="ntilde" unicode="&#xf1;" horiz-adv-x="558" 
d="M230 593c31 0 48 -17 67 -30c17 -11 28 -24 46 -24c21 0 27 20 31 51c12 1 26 1 37 0c-2 -50 -16 -102 -68 -102c-26 0 -44 16 -63 29c-19 14 -32 27 -52 27c-18 0 -28 -21 -33 -50c-12 -1 -25 0 -37 0c4 52 24 99 72 99zM101 360l-77 1c0 14 1 29 2 41
c39 7 130 27 137 27c2 0 2 -1 2 -3c3 -19 8 -46 11 -60l5 -1c99 61 121 65 164 65c52 0 88 -36 107 -68c14 -25 19 -51 19 -74c0 -72 -2 -167 -3 -242l64 -2c0 -14 0 -30 -1 -44h-105c-31 0 -68 -1 -96 -1c0 14 0 30 1 44l58 3c2 0 3 2 3 4c1 54 1 125 1 180
c0 41 0 79 -13 101c-19 35 -44 38 -68 38c-37 0 -93 -27 -132 -58c-2 -76 -3 -192 -3 -265l72 -2c0 -14 0 -30 -1 -44h-113c-32 0 -67 -1 -97 -1c0 14 0 30 1 44l60 3c1 0 3 2 3 4z" />
    <glyph glyph-name="oacute" unicode="&#xf3;" horiz-adv-x="505" 
d="M338 640c15 -13 30 -29 43 -44c-49 -39 -103 -84 -150 -121c-9 9 -19 20 -28 31c43 42 93 93 135 134zM245 -10c-57 0 -105 17 -138 47c-44 40 -67 94 -67 164c0 71 27 136 85 183c38 31 89 46 137 46c47 0 88 -11 124 -38c50 -38 78 -94 78 -173
c0 -80 -33 -146 -86 -187c-38 -30 -80 -42 -133 -42zM251 34c31 0 61 9 84 33c33 36 45 81 45 148c0 56 -12 102 -40 133c-25 27 -51 37 -85 37c-28 0 -61 -10 -84 -34c-32 -33 -46 -81 -46 -142c0 -65 14 -109 46 -142c20 -21 48 -33 80 -33z" />
    <glyph glyph-name="ocircumflex" unicode="&#xf4;" horiz-adv-x="505" 
d="M264 562c-29 -28 -66 -64 -94 -92c-10 9 -20 17 -29 26c35 41 73 87 105 124c12 1 25 1 36 1c31 -35 73 -87 105 -124c-9 -9 -19 -19 -30 -27c-26 27 -63 63 -93 92zM245 -10c-57 0 -105 17 -138 47c-44 40 -67 94 -67 164c0 71 27 136 85 183c38 31 89 46 137 46
c47 0 88 -11 124 -38c50 -38 78 -94 78 -173c0 -80 -33 -146 -86 -187c-38 -30 -80 -42 -133 -42zM251 34c31 0 61 9 84 33c33 36 45 81 45 148c0 56 -12 102 -40 133c-25 27 -51 37 -85 37c-28 0 -61 -10 -84 -34c-32 -33 -46 -81 -46 -142c0 -65 14 -109 46 -142
c20 -21 48 -33 80 -33z" />
    <glyph glyph-name="odieresis" unicode="&#xf6;" horiz-adv-x="505" 
d="M183 579c32 0 42 -25 42 -44c0 -20 -15 -42 -42 -42c-25 0 -44 18 -44 43c0 19 14 43 44 43zM340 579c29 0 42 -24 42 -43c0 -25 -18 -43 -43 -43c-28 0 -42 22 -42 42c0 19 10 44 43 44zM245 -10c-57 0 -105 17 -138 47c-44 40 -67 94 -67 164c0 71 27 136 85 183
c38 31 89 46 137 46c47 0 88 -11 124 -38c50 -38 78 -94 78 -173c0 -80 -33 -146 -86 -187c-38 -30 -80 -42 -133 -42zM251 34c31 0 61 9 84 33c33 36 45 81 45 148c0 56 -12 102 -40 133c-25 27 -51 37 -85 37c-28 0 -61 -10 -84 -34c-32 -33 -46 -81 -46 -142
c0 -65 14 -109 46 -142c20 -21 48 -33 80 -33z" />
    <glyph glyph-name="ograve" unicode="&#xf2;" horiz-adv-x="505" 
d="M195 640c42 -42 92 -94 132 -134c-8 -11 -18 -22 -28 -31c-45 37 -99 83 -147 121c13 16 29 31 43 44zM245 -10c-57 0 -105 17 -138 47c-44 40 -67 94 -67 164c0 71 27 136 85 183c38 31 89 46 137 46c47 0 88 -11 124 -38c50 -38 78 -94 78 -173
c0 -80 -33 -146 -86 -187c-38 -30 -80 -42 -133 -42zM251 34c31 0 61 9 84 33c33 36 45 81 45 148c0 56 -12 102 -40 133c-25 27 -51 37 -85 37c-28 0 -61 -10 -84 -34c-32 -33 -46 -81 -46 -142c0 -65 14 -109 46 -142c20 -21 48 -33 80 -33z" />
    <glyph glyph-name="otilde" unicode="&#xf5;" horiz-adv-x="505" 
d="M209 593c31 0 48 -17 67 -30c17 -11 28 -24 46 -24c21 0 27 20 31 51c12 1 26 1 37 0c-2 -50 -16 -102 -68 -102c-26 0 -44 16 -63 29c-19 14 -33 27 -52 27c-18 0 -28 -21 -33 -50c-12 -1 -25 0 -37 0c4 52 24 99 72 99zM245 -10c-57 0 -105 17 -138 47
c-44 40 -67 94 -67 164c0 71 27 136 85 183c38 31 89 46 137 46c47 0 88 -11 124 -38c50 -38 78 -94 78 -173c0 -80 -33 -146 -86 -187c-38 -30 -80 -42 -133 -42zM251 34c31 0 61 9 84 33c33 36 45 81 45 148c0 56 -12 102 -40 133c-25 27 -51 37 -85 37
c-28 0 -61 -10 -84 -34c-32 -33 -46 -81 -46 -142c0 -65 14 -109 46 -142c20 -21 48 -33 80 -33z" />
    <glyph glyph-name="scaron" unicode="&#x161;" horiz-adv-x="401" 
d="M212 542c31 30 67 66 94 92c10 -8 20 -18 29 -27c-32 -37 -75 -89 -105 -124h-37c-32 38 -69 84 -104 125c9 9 19 18 30 26c28 -27 64 -64 93 -92zM87 134l14 -65c2 -5 3 -8 8 -12c15 -11 42 -21 69 -21c29 0 54 2 75 16c15 11 29 28 29 56c0 51 -30 57 -114 82
c-80 25 -112 57 -112 112c0 48 31 83 63 101c30 17 70 27 118 27c53 0 88 -13 98 -18c5 -37 8 -73 11 -110c-15 -3 -34 -6 -51 -8l-13 63c-2 5 -4 9 -8 12c-12 9 -34 14 -58 14c-26 0 -48 -7 -63 -18c-13 -10 -24 -27 -24 -53c0 -40 19 -47 99 -71c72 -21 127 -44 127 -120
c0 -44 -21 -81 -64 -106c-27 -17 -72 -25 -120 -25c-54 0 -98 10 -121 19c-4 39 -9 77 -14 116c16 3 35 7 51 9z" />
    <glyph glyph-name="uacute" unicode="&#xfa;" horiz-adv-x="528" 
d="M329 640c15 -13 30 -29 43 -44c-49 -39 -103 -84 -150 -121c-9 9 -19 20 -28 31c43 42 93 93 135 134zM512 47c0 -13 0 -29 -1 -42c-12 -5 -68 -15 -113 -15c-10 10 -21 28 -32 53l-5 1c-88 -52 -110 -54 -149 -54c-67 0 -129 69 -129 137c0 87 1 170 1 242l-61 2
c0 14 1 31 1 45c36 1 124 4 136 4c2 0 2 -1 2 -3c-1 -76 -2 -156 -2 -239c-1 -42 -1 -70 15 -96c17 -27 40 -36 68 -36c36 0 77 19 119 51v272l-65 2c0 15 1 32 2 47c36 0 126 2 139 2c1 0 2 -1 2 -3c0 -113 -2 -240 -2 -357c0 -10 2 -14 7 -14z" />
    <glyph glyph-name="ucircumflex" unicode="&#xfb;" horiz-adv-x="528" 
d="M258 562c-29 -28 -66 -64 -94 -92c-10 9 -21 17 -30 26c35 41 73 87 105 124c13 1 26 1 37 1c30 -35 73 -87 104 -124c-8 -9 -19 -19 -29 -27c-27 27 -63 63 -93 92zM512 47c0 -13 0 -29 -1 -42c-12 -5 -68 -15 -113 -15c-10 10 -21 28 -32 53l-5 1
c-88 -52 -110 -54 -149 -54c-67 0 -129 69 -129 137c0 87 1 170 1 242l-61 2c0 14 1 31 1 45c36 1 124 4 136 4c2 0 2 -1 2 -3c-1 -76 -2 -156 -2 -239c-1 -42 -1 -70 15 -96c17 -27 40 -36 68 -36c36 0 77 19 119 51v272l-65 2c0 15 1 32 2 47c36 0 126 2 139 2
c1 0 2 -1 2 -3c0 -113 -2 -240 -2 -357c0 -10 2 -14 7 -14z" />
    <glyph glyph-name="udieresis" unicode="&#xfc;" horiz-adv-x="528" 
d="M178 579c33 0 43 -25 43 -44c0 -20 -15 -42 -42 -42c-26 0 -44 18 -44 43c0 19 14 43 43 43zM336 579c28 0 42 -24 42 -43c0 -25 -18 -43 -43 -43c-28 0 -43 22 -43 42c0 19 11 44 44 44zM512 47c0 -13 0 -29 -1 -42c-12 -5 -68 -15 -113 -15c-10 10 -21 28 -32 53l-5 1
c-88 -52 -110 -54 -149 -54c-67 0 -129 69 -129 137c0 87 1 170 1 242l-61 2c0 14 1 31 1 45c36 1 124 4 136 4c2 0 2 -1 2 -3c-1 -76 -2 -156 -2 -239c-1 -42 -1 -70 15 -96c17 -27 40 -36 68 -36c36 0 77 19 119 51v272l-65 2c0 15 1 32 2 47c36 0 126 2 139 2
c1 0 2 -1 2 -3c0 -113 -2 -240 -2 -357c0 -10 2 -14 7 -14z" />
    <glyph glyph-name="ugrave" unicode="&#xf9;" horiz-adv-x="528" 
d="M185 640c42 -42 92 -94 132 -134c-8 -11 -18 -22 -28 -31c-45 37 -99 83 -147 121c13 16 29 31 43 44zM512 47c0 -13 0 -29 -1 -42c-12 -5 -68 -15 -113 -15c-10 10 -21 28 -32 53l-5 1c-88 -52 -110 -54 -149 -54c-67 0 -129 69 -129 137c0 87 1 170 1 242l-61 2
c0 14 1 31 1 45c36 1 124 4 136 4c2 0 2 -1 2 -3c-1 -76 -2 -156 -2 -239c-1 -42 -1 -70 15 -96c17 -27 40 -36 68 -36c36 0 77 19 119 51v272l-65 2c0 15 1 32 2 47c36 0 126 2 139 2c1 0 2 -1 2 -3c0 -113 -2 -240 -2 -357c0 -10 2 -14 7 -14z" />
    <glyph glyph-name="yacute" unicode="&#xfd;" horiz-adv-x="462" 
d="M328 640c16 -13 30 -29 43 -44c-49 -39 -103 -84 -150 -121c-9 9 -18 20 -27 31c42 42 92 93 134 134zM466 376l-44 -3c-11 -30 -45 -111 -82 -202c-32 -76 -106 -239 -158 -319c-31 -47 -60 -83 -87 -98c-17 0 -62 32 -62 44c34 23 65 51 90 80c28 33 59 79 75 119
c-32 81 -57 141 -85 218c-25 65 -43 114 -59 155c0 2 -2 3 -5 3l-49 3c0 14 1 30 1 43h87h121c0 -13 0 -29 -1 -44l-71 -2c8 -27 24 -74 46 -138c21 -64 39 -114 56 -160h6c19 46 34 83 55 140c26 70 40 117 51 153c0 3 0 5 -3 5l-61 2c0 15 0 31 1 44h101h78
c0 -13 0 -29 -1 -43z" />
    <glyph glyph-name="ydieresis" unicode="&#xff;" horiz-adv-x="462" 
d="M163 579c32 0 42 -25 42 -44c0 -20 -15 -42 -42 -42c-25 0 -44 18 -44 43c0 19 14 43 44 43zM320 579c29 0 42 -24 42 -43c0 -25 -18 -43 -43 -43c-28 0 -42 22 -42 42c0 19 10 44 43 44zM466 376l-44 -3c-11 -30 -45 -111 -82 -202c-32 -76 -106 -239 -158 -319
c-31 -47 -60 -83 -87 -98c-17 0 -62 32 -62 44c34 23 65 51 90 80c28 33 59 79 75 119c-32 81 -57 141 -85 218c-25 65 -43 114 -59 155c0 2 -2 3 -5 3l-49 3c0 14 1 30 1 43h87h121c0 -13 0 -29 -1 -44l-71 -2c8 -27 24 -74 46 -138c21 -64 39 -114 56 -160h6
c19 46 34 83 55 140c26 70 40 117 51 153c0 3 0 5 -3 5l-61 2c0 15 0 31 1 44h101h78c0 -13 0 -29 -1 -43z" />
    <glyph glyph-name="zcaron" unicode="&#x17e;" horiz-adv-x="441" 
d="M222 542c31 30 67 66 94 92c10 -8 20 -18 29 -27c-32 -37 -75 -89 -105 -124h-37c-32 38 -69 84 -104 125c9 9 19 18 30 26c28 -27 64 -64 93 -92zM366 148c18 -2 36 -6 51 -10c-11 -46 -23 -92 -34 -139c-13 0 -63 1 -135 1h-117h-88c-5 12 -11 26 -15 39
c78 92 204 238 280 330l-1 5c-37 0 -124 -1 -160 -2c-19 0 -24 -6 -27 -15l-26 -79c-17 2 -36 6 -53 10c10 44 20 89 30 133c14 -1 46 -2 93 -2h221c5 -15 11 -33 15 -49c-44 -53 -209 -241 -279 -320l1 -4c60 0 139 0 184 4c15 1 27 6 31 20z" />
    <glyph glyph-name="R_p" unicode="&#xf6dd;" horiz-adv-x="1050" 
d="M123 596l-69 2c0 16 0 32 1 47c55 0 126 1 190 1c55 0 83 -2 131 -15c66 -18 122 -78 122 -150c0 -87 -59 -149 -136 -178v-5c48 -21 73 -77 123 -175c34 -64 43 -73 55 -73l86 -1v311h-64c0 13 1 28 1 40c26 6 120 30 128 30c2 0 2 -1 2 -3c2 -17 5 -36 6 -51l5 -1
c94 51 114 55 150 55c100 0 158 -102 157 -191c0 -48 -7 -85 -24 -123c-17 -37 -36 -68 -79 -97c-22 -15 -63 -29 -106 -29c-42 0 -69 9 -97 23l-3 -2c-1 -58 -2 -144 -1 -202l93 -2c0 -14 -1 -30 -2 -44c-38 0 -86 0 -129 -1c-33 0 -70 0 -100 -1c0 14 0 30 1 44l58 4
c2 0 3 2 3 5v188c-31 -1 -64 -2 -91 -2c-18 0 -51 -1 -65 -1c-35 45 -95 181 -128 231c-23 34 -40 46 -88 46c-34 0 -49 -1 -53 -2v-224l83 -4c1 -14 0 -31 -1 -46h-120c-38 0 -76 0 -109 -1c0 16 1 32 1 47l64 3c3 0 4 2 4 4zM203 596l-2 -272c5 -2 25 -2 48 -2
c126 0 167 79 167 138c0 94 -64 140 -161 140c-27 0 -46 -2 -52 -4zM826 369c-36 0 -80 -17 -122 -47c-1 -75 -2 -163 -2 -233c0 -22 49 -51 97 -51c28 0 58 10 82 34c30 31 48 76 48 142c0 37 -5 74 -22 105c-16 28 -43 50 -81 50z" />
    <glyph glyph-name="zero.slash" horiz-adv-x="524" 
d="M265 598c-36 0 -60 -15 -80 -40c-33 -40 -58 -128 -58 -256c0 -72 12 -130 31 -170c32 74 64 142 94 214c29 66 62 139 93 211c-1 3 -2 6 -4 8c-20 24 -43 33 -76 33zM263 35c31 0 58 13 78 37c37 45 57 123 57 238c0 87 -13 143 -28 184c-25 -59 -53 -117 -74 -165
c-10 -23 -101 -224 -111 -250c-1 -4 -1 -9 4 -14c20 -22 43 -30 74 -30zM479 327c0 -139 -34 -227 -90 -284c-35 -36 -80 -53 -134 -53c-55 0 -95 18 -127 50c-50 50 -82 126 -82 257c0 146 37 238 93 294c36 35 82 54 135 54c54 0 95 -17 130 -55c40 -43 75 -130 75 -263z
" />
    <glyph glyph-name="i.dot" horiz-adv-x="266" 
d="M135 631c38 0 51 -30 50 -52c0 -31 -22 -53 -53 -53s-53 24 -53 52s20 53 56 53zM102 360l-78 3c0 13 1 29 1 42c42 5 144 25 152 25c2 0 2 -1 2 -3c0 -111 -2 -274 -2 -381l70 -2c0 -15 0 -30 -1 -44h-111c-34 0 -71 -1 -105 -1c0 15 0 30 1 44l67 3c2 0 4 2 4 5v309z
" />
    <glyph glyph-name="twodotenleader" unicode="&#x2025;" horiz-adv-x="529" 
d="M134 102c40 0 54 -33 54 -56c0 -28 -20 -55 -54 -55c-33 0 -56 23 -56 55c0 25 18 56 56 56zM399 102c40 0 54 -33 54 -56c0 -28 -20 -55 -54 -55c-33 0 -56 23 -56 55c0 25 18 56 56 56z" />
    <glyph glyph-name="onedotenleader" unicode="&#x2024;" horiz-adv-x="265" 
d="M134 102c40 0 54 -33 54 -56c0 -28 -20 -55 -54 -55c-33 0 -56 23 -56 55c0 25 18 56 56 56z" />
    <glyph glyph-name="a.sc" unicode="&#xf761;" horiz-adv-x="532" 
d="M2 43l44 3c2 1 4 1 5 4c57 136 132 316 191 453c16 0 35 1 62 1c55 -138 125 -322 180 -458l49 -2c0 -16 0 -30 -1 -44h-81h-116v43l66 3c2 0 2 2 1 5c-11 31 -25 67 -36 95c-1 3 -2 3 -6 3h-203c-12 -31 -27 -71 -39 -103l76 -2c0 -16 -1 -30 -1 -44h-120h-72
c0 14 0 28 1 43zM267 419h-6c-27 -70 -61 -154 -86 -221c-1 -2 -1 -4 1 -4h173c-25 69 -56 154 -82 225z" />
    <glyph glyph-name="b.sc" unicode="&#xf762;" horiz-adv-x="517" 
d="M47 0c0 14 0 28 1 43l59 3c3 0 5 1 5 5v399l-64 2c0 17 0 30 1 44c49 0 122 1 171 1c73 0 119 -3 158 -20c37 -17 64 -53 64 -93c0 -56 -42 -97 -99 -115v-6c75 -8 130 -58 130 -119c0 -86 -79 -144 -202 -144h-114h-110zM189 450l-1 -169c7 -1 23 -1 41 -1
c73 0 136 29 136 88c0 52 -41 85 -127 85c-24 0 -40 -1 -49 -3zM188 234l-1 -162c0 -23 19 -28 71 -28c69 0 135 24 135 96c0 48 -38 95 -155 95c-25 0 -41 0 -50 -1z" />
    <glyph glyph-name="c.sc" unicode="&#xf763;" horiz-adv-x="518" 
d="M407 345l-13 85c-1 6 -4 11 -7 12c-18 9 -39 12 -63 12c-43 0 -91 -13 -128 -47c-42 -41 -68 -99 -68 -169c0 -61 11 -103 49 -144c30 -32 82 -50 135 -50c47 0 105 16 145 30c5 -16 9 -33 12 -49c-65 -22 -121 -35 -173 -35c-60 0 -121 14 -165 47
c-51 38 -87 104 -87 183c0 107 49 181 107 227c57 44 126 59 192 59c50 0 89 -7 110 -16c4 -45 7 -91 9 -139c-16 -2 -35 -4 -55 -6z" />
    <glyph glyph-name="d.sc" unicode="&#xf764;" horiz-adv-x="592" 
d="M46 -1c0 15 0 29 1 45l57 2c3 0 5 1 5 4v399l-63 2c0 17 1 31 1 45c52 0 117 1 181 1c101 0 159 -12 208 -40c66 -37 112 -109 112 -194c0 -88 -35 -168 -102 -214c-47 -33 -113 -50 -192 -50c-35 0 -85 1 -106 1c-29 0 -65 -1 -102 -1zM187 449l-2 -377
c0 -21 8 -28 60 -27c71 0 122 15 157 45c38 33 63 94 63 150c0 78 -18 126 -70 168c-37 29 -92 44 -162 44c-20 0 -37 -2 -46 -3z" />
    <glyph glyph-name="e.sc" unicode="&#xf765;" horiz-adv-x="489" 
d="M46 0c0 14 0 28 1 44l58 2c2 0 3 2 3 3v401l-61 2v44h105h183c34 0 54 1 81 1c3 -39 5 -80 6 -122c-15 -3 -32 -5 -51 -7l-13 64c-2 8 -6 13 -20 14c-20 2 -76 4 -129 4h-23l-1 -172c47 0 86 0 129 1c14 0 19 5 20 16l3 35c18 1 36 0 50 0c0 -26 -1 -53 -1 -78v-73
c-16 -1 -33 -2 -51 -2l-2 37c-2 14 -6 17 -21 17c-37 1 -78 1 -127 1l-1 -170c0 -13 2 -16 45 -16c65 0 114 3 128 6c7 1 11 6 15 16l25 66c18 -2 36 -6 50 -9c-8 -43 -18 -85 -28 -125h-265h-108z" />
    <glyph glyph-name="f.sc" unicode="&#xf766;" horiz-adv-x="473" 
d="M111 449l-62 3c0 16 0 31 1 44h104h187c34 1 53 1 78 1c3 -42 6 -85 9 -129c-17 -1 -35 -3 -52 -5l-16 69c-2 9 -5 13 -20 14c-21 2 -76 4 -131 4c-8 0 -16 0 -20 -1l-1 -185c44 0 86 0 127 1c16 1 20 5 21 16l5 37c18 1 35 0 51 0c-1 -26 -2 -55 -2 -82v-74
c-17 0 -33 -1 -51 0l-4 40c-1 12 -6 15 -22 15c-35 1 -79 1 -125 1l-1 -171l99 -3c0 -15 0 -30 -1 -44h-127h-108c0 14 0 28 1 44l56 2c3 1 4 1 4 5v398z" />
    <glyph glyph-name="g.sc" unicode="&#xf767;" horiz-adv-x="570" 
d="M295 224h149h86c0 -14 0 -30 -1 -45l-44 -2c-2 0 -3 -1 -3 -3l-2 -158c-29 -15 -81 -26 -151 -26c-82 0 -149 18 -193 52c-56 45 -90 106 -90 193c0 96 48 174 118 222c56 37 129 49 183 49c58 0 100 -9 129 -22c3 -43 5 -88 6 -135c-18 -1 -35 -3 -55 -4l-12 80
c-1 5 -2 10 -6 14c-20 12 -46 17 -79 17c-42 0 -92 -11 -131 -46c-45 -41 -69 -101 -69 -166c0 -61 15 -114 55 -154c45 -44 107 -53 151 -53c36 0 69 8 69 16v124l-111 2c0 16 0 31 1 45z" />
    <glyph glyph-name="h.sc" unicode="&#xf768;" horiz-adv-x="627" 
d="M50 44l56 3c3 0 4 1 4 4v399l-61 2v44h102h109c0 -13 0 -28 -1 -44l-69 -2c-1 0 -2 -2 -2 -3v-159c0 -2 0 -2 3 -2h251l1 164l-72 2c0 16 1 31 1 44h110h97c0 -13 0 -29 -1 -44l-55 -2c-2 0 -2 -2 -2 -3l-2 -400l62 -3c1 -15 0 -30 -1 -44h-100c-37 0 -76 -1 -108 -1
c0 15 0 30 1 45l66 3c2 0 3 1 3 4l1 184c0 1 -2 3 -4 3l-252 -2l-1 -189l75 -3c0 -15 0 -30 -1 -44h-111c-33 0 -66 -1 -99 -1v45z" />
    <glyph glyph-name="i.sc" unicode="&#xf769;" horiz-adv-x="299" 
d="M111 449l-67 3c0 16 0 31 1 44h111h103v-44l-67 -3c-3 0 -3 -1 -3 -3l-2 -399l72 -3c0 -15 0 -30 -1 -44h-104s-72 -1 -109 -1c0 15 0 29 1 45l61 3c3 0 4 1 4 4v398z" />
    <glyph glyph-name="j.sc" unicode="&#xf76a;" horiz-adv-x="454" 
d="M171 496h149h96v-43l-61 -2c-2 0 -3 -2 -3 -3c0 -84 1 -169 0 -255c0 -70 -10 -109 -41 -148c-28 -33 -79 -62 -166 -62c-31 0 -70 3 -103 11c-6 42 -12 84 -17 127c17 4 35 8 51 11l20 -81c2 -4 4 -7 6 -9c16 -7 44 -9 56 -9c42 0 78 16 94 40c22 33 24 67 24 123
c0 83 -1 171 -1 255l-105 2c0 16 1 30 1 43z" />
    <glyph glyph-name="k.sc" unicode="&#xf76b;" horiz-adv-x="562" 
d="M111 449l-60 3c0 16 0 31 1 44h104h95v-44l-59 -2c-3 -1 -3 -2 -3 -5l-1 -170c11 1 35 1 54 6c28 24 107 115 147 165c2 2 1 3 -1 3l-51 3c0 16 0 30 1 44h117h70c0 -13 -1 -28 -1 -44l-52 -3c-62 -66 -119 -125 -170 -179v-4c35 -24 66 -62 95 -105
c23 -34 42 -63 69 -99c8 -11 16 -13 29 -14l58 -3c0 -15 0 -31 -1 -45c-26 0 -51 -1 -73 -1c-18 0 -41 -1 -62 -1c-16 18 -51 75 -87 129c-30 49 -71 104 -95 104c-17 0 -38 -1 -47 -2l-1 -182l67 -3c1 -15 0 -30 0 -44h-100s-69 -1 -103 -1v45l56 3c3 0 4 1 4 3v399z" />
    <glyph glyph-name="l.sc" unicode="&#xf76c;" horiz-adv-x="472" 
d="M111 449l-61 3c0 16 0 31 1 44h104h111c0 -13 0 -28 -1 -44l-74 -2c-2 0 -2 -1 -2 -3l-2 -385c0 -14 1 -16 35 -16c89 0 115 2 133 5c7 1 11 7 14 16l31 85c18 -3 35 -7 51 -11c-9 -46 -22 -98 -33 -141h-264h-104c0 14 0 28 1 44l56 2c3 0 4 2 4 4v399z" />
    <glyph glyph-name="m.sc" unicode="&#xf76d;" horiz-adv-x="737" 
d="M105 448l-59 3c0 16 0 32 1 45h163c49 -116 103 -255 159 -391h4c51 126 111 272 162 391h155c0 -13 0 -28 -1 -45l-53 -2c-2 0 -3 -1 -3 -4c0 -122 1 -271 1 -398l58 -3c1 -15 0 -30 0 -44h-98c-33 0 -71 -1 -99 -1c0 15 0 30 1 45l63 3c4 0 5 0 5 3c0 112 -1 253 0 370
h-6c-70 -174 -124 -297 -173 -396c-12 -1 -30 -1 -47 -1c-51 109 -110 246 -168 398h-6c-1 -118 -2 -255 -3 -374l73 -3c0 -15 0 -30 -1 -44h-106h-84c0 14 0 29 1 44l53 3c3 0 5 0 5 3c0 123 2 279 3 398z" />
    <glyph glyph-name="n.sc" unicode="&#xf76e;" horiz-adv-x="619" 
d="M52 44l52 3c4 0 5 2 5 4v399l-61 2c-1 16 0 31 0 44h136c93 -130 197 -282 279 -408l4 1c0 119 -1 241 -3 361l-79 2c0 16 0 31 1 44h106h88c1 -13 0 -28 0 -44l-51 -2c-2 0 -3 -1 -3 -4l-3 -441c-17 -6 -42 -10 -61 -10c-82 107 -191 260 -288 404h-6
c0 -116 0 -235 -1 -352l85 -3c0 -15 0 -30 -1 -44h-112h-88c0 14 0 29 1 44z" />
    <glyph glyph-name="o.sc" unicode="&#xf76f;" horiz-adv-x="608" 
d="M293 -10c-77 0 -134 25 -176 65c-44 41 -73 106 -73 186c0 100 52 181 113 221c49 33 101 44 160 44c56 0 104 -11 149 -42c57 -39 98 -116 98 -203c0 -78 -28 -156 -86 -208c-44 -40 -103 -63 -185 -63zM302 36c45 0 89 17 119 49c30 34 59 88 59 165
c0 64 -20 121 -57 161c-32 35 -71 49 -117 49c-43 0 -78 -14 -109 -41c-37 -32 -68 -93 -68 -173c0 -62 15 -121 58 -163c33 -32 74 -47 115 -47z" />
    <glyph glyph-name="p.sc" unicode="&#xf770;" horiz-adv-x="491" 
d="M110 449l-59 2c0 16 0 31 1 44c48 1 103 2 156 2c62 0 97 -2 138 -13c68 -19 103 -74 103 -128c0 -70 -45 -125 -101 -148c-30 -13 -67 -21 -118 -21c-17 0 -37 1 -44 1l-1 -141l94 -2c0 -16 0 -31 -1 -45h-131h-96c0 14 1 29 1 44l54 3c3 0 4 0 4 4v398zM188 449
l-2 -209c5 -5 23 -7 44 -7c33 0 64 5 86 18c40 23 53 58 53 95c0 73 -54 106 -140 106c-23 0 -35 -1 -41 -3z" />
    <glyph glyph-name="q.sc" unicode="&#xf771;" horiz-adv-x="608" 
d="M386 2v-4c46 -28 77 -43 120 -59c23 -9 44 -9 59 -9c17 0 51 6 71 11c3 -14 5 -31 6 -45c-38 -12 -92 -23 -118 -23c-15 0 -33 1 -65 17c-45 22 -87 54 -149 101c-5 -1 -11 -1 -17 -1c-76 0 -134 26 -176 65c-50 48 -74 118 -74 187c0 100 52 179 120 222
c44 29 98 42 158 42c48 0 95 -11 135 -36c70 -43 109 -125 109 -210c0 -89 -39 -163 -89 -207c-27 -24 -59 -42 -90 -51zM128 247c0 -64 16 -125 61 -167c32 -30 72 -44 117 -44c48 0 86 17 117 49c29 31 57 87 57 160c0 66 -16 132 -60 172c-34 32 -67 43 -111 43
c-46 0 -85 -15 -114 -41c-35 -30 -67 -95 -67 -172z" />
    <glyph glyph-name="r.sc" unicode="&#xf772;" horiz-adv-x="540" 
d="M50 0c0 14 0 29 1 43l54 4c2 0 4 1 4 2v400l-60 2c1 16 1 31 1 45c59 0 122 1 182 1c47 0 77 -1 117 -12c54 -14 99 -60 99 -117c0 -64 -48 -113 -110 -135v-4c40 -16 59 -60 100 -133c26 -46 34 -51 45 -52l50 -2c0 -14 0 -28 -1 -42h-65c-15 -1 -41 -1 -56 -1
c-28 35 -76 136 -102 174c-18 26 -41 34 -77 34c-17 0 -37 0 -46 -2l-1 -158l70 -3c1 -15 0 -30 0 -44h-104h-101zM187 448l-1 -194c9 -3 22 -2 43 -2c100 0 138 59 138 101c0 70 -53 99 -133 99c-24 0 -44 -2 -47 -4z" />
    <glyph glyph-name="s.sc" unicode="&#xf773;" horiz-adv-x="446" 
d="M99 145l15 -80c1 -5 3 -8 7 -10c14 -9 47 -17 75 -17c40 0 78 10 97 29c18 17 24 34 24 58c0 60 -44 73 -123 105c-73 30 -128 67 -128 137c0 42 24 79 53 101c31 23 81 38 146 38c40 0 87 -8 109 -19c4 -38 7 -79 10 -120c-17 -2 -35 -4 -54 -6l-14 73c-2 5 -3 7 -5 9
c-13 9 -37 15 -59 15c-30 0 -62 -6 -82 -22c-17 -14 -29 -33 -29 -57c0 -51 30 -63 116 -97c83 -33 135 -68 135 -142c0 -42 -17 -79 -48 -105c-33 -29 -85 -45 -159 -45c-43 0 -100 9 -129 20c-4 41 -7 84 -11 128c17 3 36 6 54 7z" />
    <glyph glyph-name="t.sc" unicode="&#xf774;" horiz-adv-x="505" 
d="M142 44l69 3c2 0 3 1 3 2v400c-64 0 -82 -1 -101 -3c-15 -1 -18 -6 -20 -14l-13 -79c-17 1 -36 2 -54 4c3 50 5 96 8 140c24 0 49 -1 81 -1h143h139c34 1 53 1 77 1c3 -44 5 -90 7 -140c-17 -1 -35 -3 -54 -4l-12 79c-2 9 -5 13 -20 14c-23 2 -39 3 -102 3l-2 -402l76 -3
c1 -15 0 -30 0 -44h-110c-36 0 -76 -1 -115 -1v45z" />
    <glyph glyph-name="u.sc" unicode="&#xf775;" horiz-adv-x="586" 
d="M172 450l-2 -239c0 -81 11 -109 34 -135c15 -17 43 -37 93 -37c42 0 68 14 88 33s41 61 41 134c0 71 0 167 -1 241c0 2 -1 3 -3 3l-71 2c0 16 1 31 1 44h105c31 0 63 1 92 1c0 -14 0 -28 -1 -45l-54 -2l-2 -249c0 -82 -27 -134 -56 -163c-23 -23 -71 -48 -141 -48
c-64 0 -113 14 -148 45c-47 41 -54 94 -54 165v246c0 3 -1 4 -4 4l-52 2c0 16 0 31 1 44h95h114c0 -13 0 -28 -2 -44z" />
    <glyph glyph-name="v.sc" unicode="&#xf776;" horiz-adv-x="539" 
d="M7 496h89h131v-44l-83 -3c8 -23 42 -127 54 -166c23 -67 50 -141 73 -208h6c26 63 55 136 78 196c20 53 53 142 63 173c0 3 0 5 -2 5l-74 2c0 16 1 32 1 45h115h80v-44l-47 -3c-25 -57 -56 -133 -83 -200c-33 -79 -75 -176 -112 -257c-14 -1 -38 -1 -62 -1
c-37 84 -76 183 -107 265c-25 65 -49 134 -69 190c-1 3 -3 4 -6 4l-46 2c0 16 0 31 1 44z" />
    <glyph glyph-name="w.sc" unicode="&#xf777;" horiz-adv-x="747" 
d="M748 452l-49 -3c-19 -66 -39 -130 -58 -197c-23 -80 -53 -177 -81 -260c-17 -1 -38 -1 -63 -1c-38 114 -81 246 -114 369h-5c-42 -125 -91 -257 -135 -368c-15 -1 -37 -1 -61 -1c-26 92 -49 183 -71 272c-16 64 -31 126 -44 184c0 2 -3 3 -5 3l-50 2c0 16 0 31 1 44h91
h124v-44l-78 -3c5 -29 18 -95 31 -162c14 -68 26 -131 42 -206h5c39 112 97 286 136 393c9 1 39 1 53 1c36 -118 79 -269 116 -396h6c16 65 35 134 50 195c12 50 32 135 39 171c0 3 0 4 -3 4l-71 3c0 16 0 31 1 44h109c28 0 57 0 85 1c0 -14 0 -29 -1 -45z" />
    <glyph glyph-name="x.sc" unicode="&#xf778;" horiz-adv-x="523" 
d="M3 44l54 3c3 0 4 1 6 4c48 59 102 129 155 197v5c-49 67 -97 136 -138 194c-1 2 -3 2 -6 3l-55 2c0 16 1 31 1 44h92h123c0 -13 0 -28 -1 -44l-65 -3c20 -32 79 -123 98 -151h5c20 28 84 124 98 148c2 2 0 3 -2 3l-61 3c0 16 1 31 1 44h111h82c0 -13 0 -28 -1 -44l-54 -3
c-45 -60 -93 -125 -143 -188v-6c51 -68 108 -147 152 -208l59 -3c0 -16 0 -30 -2 -44h-90h-122c0 14 1 28 1 44l59 3c3 0 5 2 3 5c-14 21 -85 125 -109 158h-4c-22 -29 -97 -138 -115 -163l63 -3c0 -15 0 -30 -1 -44h-112h-82c-1 14 0 28 0 44z" />
    <glyph glyph-name="y.sc" unicode="&#xf779;" horiz-adv-x="483" 
d="M135 44l67 3c4 0 5 1 5 5v139c-49 80 -109 180 -154 255c-1 3 -3 4 -5 4l-45 2c-1 16 0 31 0 44h83h126c0 -13 0 -28 -1 -44l-70 -3c27 -50 79 -147 114 -207h4c25 43 93 166 111 203c1 2 1 4 -2 4l-63 3c-1 16 0 30 0 44h109c23 0 51 1 74 1c0 -14 0 -28 -1 -45l-45 -3
c-45 -74 -107 -175 -158 -257l-1 -145l76 -3c0 -15 0 -30 -1 -44h-110c-35 0 -75 -1 -114 -1c0 15 0 29 1 45z" />
    <glyph glyph-name="z.sc" unicode="&#xf77a;" horiz-adv-x="505" 
d="M417 156c21 -2 39 -6 55 -10c-10 -49 -22 -99 -35 -147c-21 0 -151 1 -239 1h-150c-4 11 -10 24 -14 35c88 104 237 293 328 408l-1 4c-123 1 -181 0 -207 -3c-7 -2 -14 -9 -17 -18l-26 -81c-18 2 -37 5 -54 8c8 49 17 98 26 144c15 0 48 -1 76 -1h287
c6 -13 11 -29 14 -43c-123 -153 -245 -306 -326 -401l1 -2c147 -1 209 0 233 7c10 2 17 6 22 20z" />
    <glyph glyph-name="germandbls.sc" horiz-adv-x="893" 
d="M99 145l15 -80c1 -5 3 -8 7 -10c14 -9 47 -17 75 -17c40 0 78 10 97 29c18 17 24 34 24 58c0 60 -44 73 -123 105c-73 30 -128 67 -128 137c0 42 24 79 53 101c31 23 81 38 146 38c40 0 87 -8 109 -19c4 -38 7 -79 10 -120c-17 -2 -35 -4 -54 -6l-14 73c-2 5 -3 7 -5 9
c-13 9 -37 15 -59 15c-30 0 -62 -6 -82 -22c-17 -14 -29 -33 -29 -57c0 -51 30 -63 116 -97c83 -33 135 -68 135 -142c0 -42 -17 -79 -48 -105c-33 -29 -85 -45 -159 -45c-43 0 -100 9 -129 20c-4 41 -7 84 -11 128c17 3 36 6 54 7zM546 145l14 -80c1 -5 3 -8 7 -10
c14 -9 48 -17 75 -17c40 0 79 10 98 29c17 17 24 34 24 58c0 60 -44 73 -123 105c-74 30 -128 67 -128 137c0 42 23 79 52 101c31 23 82 38 146 38c41 0 88 -8 110 -19c4 -38 7 -79 9 -120c-17 -2 -35 -4 -53 -6l-15 73c-1 5 -2 7 -5 9c-13 9 -36 15 -58 15
c-30 0 -63 -6 -82 -22c-18 -14 -29 -33 -29 -57c0 -51 30 -63 115 -97c83 -33 136 -68 136 -142c0 -42 -17 -79 -48 -105c-33 -29 -86 -45 -160 -45c-43 0 -99 9 -129 20c-3 41 -7 84 -10 128c17 3 35 6 54 7z" />
    <glyph glyph-name="ae.sc" unicode="&#xf7e6;" horiz-adv-x="741" 
d="M361 191l-155 -1c-28 -45 -57 -96 -85 -143l70 -3v-44h-122h-76c0 14 0 28 1 44l51 3c2 0 4 1 5 3c84 133 189 303 280 444c3 2 4 3 6 3c14 -1 50 -1 73 -1h179c33 0 53 1 81 1c3 -40 5 -82 6 -124c-16 -2 -33 -4 -51 -6l-13 65c-2 9 -5 13 -20 15c-21 1 -75 3 -127 3
h-23l-1 -194c46 0 85 0 127 1c14 0 19 6 20 16l3 38c17 0 35 0 50 -1c0 -27 0 -53 -1 -78v-72c-17 0 -34 -1 -51 -1l-2 33c-1 14 -6 17 -21 17c-37 1 -77 1 -125 1l-1 -148c0 -13 2 -16 45 -16c64 0 112 3 125 6c8 1 12 6 15 15l25 64c18 -3 35 -6 51 -10
c-8 -41 -17 -82 -27 -121h-272h-102c0 14 0 29 1 44l61 2c2 0 4 1 4 3v138c0 3 -2 4 -4 4zM365 450h-6c-46 -74 -84 -139 -125 -208c-2 -3 -1 -6 3 -6h128v214z" />
    <glyph glyph-name="oe.sc" unicode="&#xf6fa;" horiz-adv-x="832" 
d="M529 233l-1 -172c0 -13 2 -16 45 -16c64 0 113 3 126 6c8 1 11 6 15 16l26 68c17 -3 34 -6 50 -10c-8 -42 -18 -85 -28 -125h-255h-53v61c-36 -42 -86 -71 -170 -71c-69 0 -125 23 -165 61c-49 46 -75 114 -75 191c0 96 47 179 113 223c42 28 89 41 148 41
c72 0 121 -29 149 -61l1 51h45h178c33 0 52 1 80 1c3 -39 5 -80 7 -122c-17 -3 -34 -5 -51 -7l-14 65c-1 8 -5 13 -20 14c-20 2 -74 4 -127 4h-23l-1 -174c45 0 84 0 127 2c14 0 18 5 20 15l3 35c17 1 34 1 50 0c0 -25 -1 -51 -1 -76v-74c-17 -1 -34 -1 -51 -1l-2 37
c-2 13 -7 16 -21 17c-37 1 -77 1 -125 1zM302 38c65 0 123 31 151 95v236c-23 53 -76 90 -147 90c-44 0 -82 -14 -111 -41c-33 -31 -66 -88 -66 -167c0 -67 15 -123 52 -162c36 -38 79 -51 121 -51z" />
    <glyph glyph-name="eth.sc" unicode="&#xf7f0;" horiz-adv-x="599" 
d="M115 268v181l-62 2c0 17 0 31 1 45c52 0 116 1 181 1c100 0 158 -12 207 -40c67 -37 113 -109 113 -194c0 -88 -35 -168 -102 -214c-48 -33 -113 -50 -193 -50c-35 0 -84 1 -106 1c-28 0 -64 -1 -101 -1v45l58 2c3 0 4 1 4 4v171h-72c0 15 0 32 2 47h70zM192 221v-149
c0 -21 7 -28 59 -27c71 0 122 15 158 45c38 33 63 94 63 150c0 78 -19 126 -71 168c-36 29 -91 44 -161 44c-20 0 -38 -2 -47 -3l-1 -181c45 0 93 0 153 1c0 -16 -1 -33 -2 -48h-151z" />
    <glyph glyph-name="oslash.sc" unicode="&#xf7f8;" horiz-adv-x="608" 
d="M293 -10c-61 0 -107 14 -147 44c-23 -24 -44 -46 -67 -69c-12 9 -25 20 -35 30c23 24 45 47 66 70c-39 40 -66 98 -66 179c0 97 51 178 112 219c48 31 102 43 162 43c55 0 107 -14 146 -44c20 21 39 43 58 63c14 -10 27 -22 38 -34c-19 -21 -38 -41 -57 -62
c35 -42 61 -99 61 -167c0 -79 -28 -157 -85 -210c-42 -39 -101 -62 -186 -62zM309 460c-42 0 -79 -14 -111 -40c-38 -31 -71 -91 -71 -172c0 -60 10 -99 32 -135c46 52 90 103 132 151c42 47 87 98 135 152c-32 33 -68 44 -117 44zM303 37c45 0 90 16 119 48
c30 34 60 84 60 167c0 55 -8 91 -29 126c-49 -54 -94 -106 -134 -152c-39 -43 -86 -96 -133 -148c34 -32 71 -41 117 -41z" />
    <glyph glyph-name="thorn.sc" unicode="&#xf7fe;" horiz-adv-x="492" 
d="M258 454l-68 -3c-2 0 -4 -1 -4 -4v-44h48c40 0 76 -2 111 -13c67 -18 104 -69 104 -125c0 -71 -45 -119 -93 -140c-38 -16 -80 -21 -114 -21h-57l-1 -58l86 -2c0 -15 0 -30 -1 -44h-122h-96c0 14 0 29 1 44l54 3c2 0 3 1 3 4l1 398l-59 3c-1 16 0 31 1 44h100h107
c0 -12 0 -27 -1 -42zM186 355l-1 -199c2 -5 24 -7 44 -7c37 0 68 5 92 19c34 20 49 49 49 88c0 69 -54 102 -145 102c-16 0 -35 -1 -39 -3z" />
    <glyph glyph-name="ampersand.sc" unicode="&#xf726;" horiz-adv-x="632" 
d="M424 303h96h78c1 -14 1 -29 0 -43l-47 -2c-17 -64 -46 -119 -85 -158c15 -16 33 -34 44 -46c8 -9 17 -10 29 -10l61 -1c1 -16 0 -30 -1 -44c-41 -2 -89 -4 -126 -5c-17 20 -39 44 -56 63c-41 -34 -94 -67 -193 -67c-52 0 -96 12 -125 32c-38 25 -59 60 -59 105
c0 64 48 118 120 147v3c-38 26 -72 59 -72 109c0 38 21 69 45 87c28 21 66 33 113 33c44 0 79 -9 104 -28c22 -16 40 -46 40 -76c0 -56 -35 -98 -112 -129v-4c53 -34 110 -94 155 -136c22 25 47 82 48 119c0 5 0 6 -3 6l-55 2c0 14 1 29 1 43zM160 391c0 -41 31 -65 74 -93
c54 21 86 49 86 96c0 17 -7 35 -20 48c-15 15 -36 20 -58 20c-24 0 -44 -5 -60 -19s-22 -33 -22 -52zM243 39c57 0 112 22 142 50c-61 64 -125 120 -183 159c-42 -19 -83 -54 -83 -111c0 -27 12 -54 37 -72c20 -16 50 -26 87 -26z" />
    <glyph glyph-name="exclam.sc" unicode="&#xf721;" horiz-adv-x="266" 
d="M179 506c2 0 3 0 3 -2c-6 -99 -16 -252 -22 -354c-14 -3 -39 -5 -52 -6c-2 43 -8 120 -10 164c-3 51 -10 134 -13 184c21 7 73 14 94 14zM135 94c36 0 52 -30 52 -54c0 -25 -22 -49 -52 -49c-31 0 -54 21 -54 49c0 26 21 54 54 54z" />
    <glyph glyph-name="exclamdown.sc" unicode="&#xf7a1;" horiz-adv-x="266" 
d="M131 403c-35 0 -52 30 -52 54c0 25 23 49 53 49s53 -21 53 -49c0 -26 -21 -54 -54 -54zM87 -10c-1 0 -2 0 -2 2c6 99 16 254 22 355c14 3 38 5 51 6c2 -43 8 -119 11 -164c3 -51 9 -134 12 -185c-21 -7 -73 -14 -94 -14z" />
    <glyph glyph-name="question.sc" unicode="&#xf73f;" horiz-adv-x="411" 
d="M370 386c0 -74 -53 -120 -136 -164c-16 -8 -21 -14 -21 -26c0 -14 7 -36 16 -58c-15 -6 -35 -11 -54 -15c-14 17 -38 70 -39 99c102 55 150 88 150 155c0 54 -38 79 -90 79c-34 0 -62 -10 -79 -23c-3 -2 -3 -4 -5 -9l-14 -69c-18 1 -37 3 -55 5c3 38 6 75 8 110
c35 20 91 36 157 36c106 0 162 -52 162 -120zM200 87c33 0 52 -23 52 -50c0 -23 -22 -46 -51 -46c-30 0 -54 20 -54 46c0 24 21 50 53 50z" />
    <glyph glyph-name="questiondown.sc" unicode="&#xf7bf;" horiz-adv-x="411" 
d="M212 410c-34 0 -52 23 -52 50c0 23 22 46 51 46s53 -20 53 -46c0 -24 -20 -50 -52 -50zM42 110c0 74 52 120 136 164c15 8 20 15 20 26c0 14 -7 36 -15 58c15 7 35 12 53 15c14 -17 39 -70 39 -99c-101 -55 -149 -88 -149 -155c0 -53 38 -79 90 -79c34 0 62 11 78 23
c3 2 4 5 5 9l15 70c18 -1 37 -3 55 -6c-3 -37 -6 -75 -9 -110c-35 -20 -91 -36 -157 -36c-105 0 -161 52 -161 120z" />
    <glyph glyph-name="aacute.sc" unicode="&#xf7e1;" horiz-adv-x="532" 
d="M367 701c13 -16 23 -34 32 -52c-55 -28 -117 -60 -171 -87c-7 12 -14 25 -21 37c51 32 110 71 160 102zM2 43l44 3c2 1 4 1 5 4c57 136 132 316 191 453c16 0 35 1 62 1c55 -138 125 -322 180 -458l49 -2c0 -16 0 -30 -1 -44h-81h-116v43l66 3c2 0 2 2 1 5
c-11 31 -25 67 -36 95c-1 3 -2 3 -6 3h-203c-12 -31 -27 -71 -39 -103l76 -2c0 -16 -1 -30 -1 -44h-120h-72c0 14 0 28 1 43zM267 419h-6c-27 -70 -61 -154 -86 -221c-1 -2 -1 -4 1 -4h173c-25 69 -56 154 -82 225z" />
    <glyph glyph-name="abreve.sc" horiz-adv-x="532" 
d="M269 582c-61 0 -106 45 -117 96c13 6 27 10 40 13c17 -34 41 -58 79 -58c39 0 64 29 76 54c13 -2 28 -5 41 -10c-9 -40 -55 -95 -119 -95zM2 43l44 3c2 1 4 1 5 4c57 136 132 316 191 453c16 0 35 1 62 1c55 -138 125 -322 180 -458l49 -2c0 -16 0 -30 -1 -44h-81h-116
v43l66 3c2 0 2 2 1 5c-11 31 -25 67 -36 95c-1 3 -2 3 -6 3h-203c-12 -31 -27 -71 -39 -103l76 -2c0 -16 -1 -30 -1 -44h-120h-72c0 14 0 28 1 43zM267 419h-6c-27 -70 -61 -154 -86 -221c-1 -2 -1 -4 1 -4h173c-25 69 -56 154 -82 225z" />
    <glyph glyph-name="acircumflex.sc" unicode="&#xf7e2;" horiz-adv-x="532" 
d="M274 644c-28 -28 -65 -64 -93 -92c-10 9 -21 17 -30 26c35 41 73 87 105 124c12 1 26 1 37 1c30 -35 73 -87 104 -124c-8 -9 -19 -19 -29 -27c-27 27 -63 63 -94 92zM2 43l44 3c2 1 4 1 5 4c57 136 132 316 191 453c16 0 35 1 62 1c55 -138 125 -322 180 -458l49 -2
c0 -16 0 -30 -1 -44h-81h-116v43l66 3c2 0 2 2 1 5c-11 31 -25 67 -36 95c-1 3 -2 3 -6 3h-203c-12 -31 -27 -71 -39 -103l76 -2c0 -16 -1 -30 -1 -44h-120h-72c0 14 0 28 1 43zM267 419h-6c-27 -70 -61 -154 -86 -221c-1 -2 -1 -4 1 -4h173c-25 69 -56 154 -82 225z" />
    <glyph glyph-name="adieresis.sc" unicode="&#xf7e4;" horiz-adv-x="532" 
d="M193 657c33 0 42 -25 42 -44c0 -20 -15 -42 -42 -42c-25 0 -43 18 -43 43c0 19 14 43 43 43zM350 657c29 0 43 -24 43 -43c0 -25 -19 -43 -43 -43c-28 0 -43 22 -43 42c0 19 10 44 43 44zM2 43l44 3c2 1 4 1 5 4c57 136 132 316 191 453c16 0 35 1 62 1
c55 -138 125 -322 180 -458l49 -2c0 -16 0 -30 -1 -44h-81h-116v43l66 3c2 0 2 2 1 5c-11 31 -25 67 -36 95c-1 3 -2 3 -6 3h-203c-12 -31 -27 -71 -39 -103l76 -2c0 -16 -1 -30 -1 -44h-120h-72c0 14 0 28 1 43zM267 419h-6c-27 -70 -61 -154 -86 -221c-1 -2 -1 -4 1 -4
h173c-25 69 -56 154 -82 225z" />
    <glyph glyph-name="agrave.sc" unicode="&#xf7e0;" horiz-adv-x="532" 
d="M174 700c50 -31 111 -71 159 -102c-6 -12 -13 -24 -21 -36c-52 27 -115 59 -171 86c10 18 22 36 33 52zM2 43l44 3c2 1 4 1 5 4c57 136 132 316 191 453c16 0 35 1 62 1c55 -138 125 -322 180 -458l49 -2c0 -16 0 -30 -1 -44h-81h-116v43l66 3c2 0 2 2 1 5
c-11 31 -25 67 -36 95c-1 3 -2 3 -6 3h-203c-12 -31 -27 -71 -39 -103l76 -2c0 -16 -1 -30 -1 -44h-120h-72c0 14 0 28 1 43zM267 419h-6c-27 -70 -61 -154 -86 -221c-1 -2 -1 -4 1 -4h173c-25 69 -56 154 -82 225z" />
    <glyph glyph-name="amacron.sc" horiz-adv-x="532" 
d="M374 626c1 -15 1 -33 0 -48c-58 0 -136 0 -201 1c0 14 -1 30 0 45c67 1 134 2 201 2zM2 43l44 3c2 1 4 1 5 4c57 136 132 316 191 453c16 0 35 1 62 1c55 -138 125 -322 180 -458l49 -2c0 -16 0 -30 -1 -44h-81h-116v43l66 3c2 0 2 2 1 5c-11 31 -25 67 -36 95
c-1 3 -2 3 -6 3h-203c-12 -31 -27 -71 -39 -103l76 -2c0 -16 -1 -30 -1 -44h-120h-72c0 14 0 28 1 43zM267 419h-6c-27 -70 -61 -154 -86 -221c-1 -2 -1 -4 1 -4h173c-25 69 -56 154 -82 225z" />
    <glyph glyph-name="aogonek.sc" horiz-adv-x="532" 
d="M267 419h-6c-27 -70 -61 -154 -86 -221c-1 -2 -1 -4 1 -4h173c-25 69 -56 154 -82 225zM427 0h-92v43l66 3c2 0 2 2 1 5c-11 31 -25 67 -36 95c-1 3 -2 3 -6 3h-203c-12 -31 -27 -71 -39 -103l76 -2c0 -16 -1 -30 -1 -44h-120h-72c0 14 0 28 1 43l44 3c2 1 4 1 5 4
c57 136 132 316 191 453c16 0 35 1 62 1c55 -138 125 -322 180 -458l49 -2c0 -16 0 -30 -1 -44h-18c-45 -1 -120 -68 -120 -117c0 -29 22 -43 42 -43c18 0 34 5 50 18c9 -9 15 -19 19 -30c-25 -25 -56 -41 -91 -41c-46 0 -91 33 -91 82c0 47 45 93 104 131z" />
    <glyph glyph-name="aring.sc" unicode="&#xf7e5;" horiz-adv-x="532" 
d="M273 734c59 0 96 -35 96 -83c0 -49 -41 -86 -97 -86c-53 0 -98 32 -98 84c0 43 41 85 99 85zM273 698c-32 0 -52 -22 -52 -49c0 -29 23 -48 52 -48c33 0 49 21 49 49s-17 48 -49 48zM2 43l44 3c2 1 4 1 5 4c57 136 132 316 191 453c16 0 35 1 62 1
c55 -138 125 -322 180 -458l49 -2c0 -16 0 -30 -1 -44h-81h-116v43l66 3c2 0 2 2 1 5c-11 31 -25 67 -36 95c-1 3 -2 3 -6 3h-203c-12 -31 -27 -71 -39 -103l76 -2c0 -16 -1 -30 -1 -44h-120h-72c0 14 0 28 1 43zM267 419h-6c-27 -70 -61 -154 -86 -221c-1 -2 -1 -4 1 -4
h173c-25 69 -56 154 -82 225z" />
    <glyph glyph-name="atilde.sc" unicode="&#xf7e3;" horiz-adv-x="532" 
d="M329 566c-27 0 -44 16 -64 29c-19 14 -32 27 -51 27c-18 0 -28 -21 -34 -50c-11 -1 -25 0 -37 0c5 52 24 99 73 99c30 0 48 -17 67 -30c17 -12 27 -24 46 -24c20 0 27 20 31 51c12 1 25 1 36 0c-2 -50 -16 -102 -67 -102zM2 43l44 3c2 1 4 1 5 4c57 136 132 316 191 453
c16 0 35 1 62 1c55 -138 125 -322 180 -458l49 -2c0 -16 0 -30 -1 -44h-81h-116v43l66 3c2 0 2 2 1 5c-11 31 -25 67 -36 95c-1 3 -2 3 -6 3h-203c-12 -31 -27 -71 -39 -103l76 -2c0 -16 -1 -30 -1 -44h-120h-72c0 14 0 28 1 43zM267 419h-6c-27 -70 -61 -154 -86 -221
c-1 -2 -1 -4 1 -4h173c-25 69 -56 154 -82 225z" />
    <glyph glyph-name="cacute.sc" horiz-adv-x="518" 
d="M407 702c13 -16 23 -35 33 -52c-56 -28 -118 -60 -172 -87c-7 12 -14 25 -21 36c51 33 110 72 160 103zM407 345l-13 85c-1 6 -4 11 -7 12c-18 9 -39 12 -63 12c-43 0 -91 -13 -128 -47c-42 -41 -68 -99 -68 -169c0 -61 11 -103 49 -144c30 -32 82 -50 135 -50
c47 0 105 16 145 30c5 -16 9 -33 12 -49c-65 -22 -121 -35 -173 -35c-60 0 -121 14 -165 47c-51 38 -87 104 -87 183c0 107 49 181 107 227c57 44 126 59 192 59c50 0 89 -7 110 -16c4 -45 7 -91 9 -139c-16 -2 -35 -4 -55 -6z" />
    <glyph glyph-name="ccaron.sc" horiz-adv-x="518" 
d="M300 633c31 30 67 67 94 92c10 -7 20 -17 29 -26c-32 -37 -75 -90 -105 -124c-11 -1 -25 -1 -37 0c-32 38 -69 84 -104 124c9 10 19 18 29 26c28 -27 65 -64 94 -92zM407 345l-13 85c-1 6 -4 11 -7 12c-18 9 -39 12 -63 12c-43 0 -91 -13 -128 -47
c-42 -41 -68 -99 -68 -169c0 -61 11 -103 49 -144c30 -32 82 -50 135 -50c47 0 105 16 145 30c5 -16 9 -33 12 -49c-65 -22 -121 -35 -173 -35c-60 0 -121 14 -165 47c-51 38 -87 104 -87 183c0 107 49 181 107 227c57 44 126 59 192 59c50 0 89 -7 110 -16
c4 -45 7 -91 9 -139c-16 -2 -35 -4 -55 -6z" />
    <glyph glyph-name="ccedilla.sc" unicode="&#xf7e7;" horiz-adv-x="518" 
d="M341 -7l-53 -55c36 -7 57 -31 57 -63c0 -50 -51 -83 -125 -84c-2 10 -3 24 -5 34c45 3 73 17 73 44c0 14 -7 23 -13 28c-9 8 -24 11 -42 11c-3 7 -5 14 -8 21l62 61c-57 1 -114 16 -156 47c-51 38 -87 104 -87 183c0 107 49 181 107 227c57 44 126 59 192 59
c50 0 89 -7 110 -16c4 -45 7 -91 9 -139c-16 -2 -35 -4 -55 -6l-13 85c-1 6 -4 11 -7 12c-18 9 -39 12 -63 12c-43 0 -91 -13 -128 -47c-42 -41 -68 -99 -68 -169c0 -61 11 -103 49 -144c30 -32 82 -50 135 -50c47 0 105 16 145 30c5 -16 9 -33 12 -49
c-47 -16 -89 -27 -128 -32z" />
    <glyph glyph-name="dcaron.sc" horiz-adv-x="592" 
d="M287 623c31 30 67 66 94 92c10 -8 20 -18 29 -27c-32 -37 -75 -89 -105 -124h-37c-32 38 -69 84 -104 125c9 9 19 18 29 26c28 -27 65 -64 94 -92zM46 -1c0 15 0 29 1 45l57 2c3 0 5 1 5 4v399l-63 2c0 17 1 31 1 45c52 0 117 1 181 1c101 0 159 -12 208 -40
c66 -37 112 -109 112 -194c0 -88 -35 -168 -102 -214c-47 -33 -113 -50 -192 -50c-35 0 -85 1 -106 1c-29 0 -65 -1 -102 -1zM187 449l-2 -377c0 -21 8 -28 60 -27c71 0 122 15 157 45c38 33 63 94 63 150c0 78 -18 126 -70 168c-37 29 -92 44 -162 44c-20 0 -37 -2 -46 -3z
" />
    <glyph glyph-name="dcroat.sc" horiz-adv-x="599" 
d="M115 268v181l-62 2c0 17 0 31 1 45c52 0 116 1 181 1c100 0 158 -12 207 -40c67 -37 113 -109 113 -194c0 -88 -35 -168 -102 -214c-48 -33 -113 -50 -193 -50c-35 0 -84 1 -106 1c-28 0 -64 -1 -101 -1v45l58 2c3 0 4 1 4 4v171h-72c0 15 0 32 2 47h70zM192 221v-149
c0 -21 7 -28 59 -27c71 0 122 15 158 45c38 33 63 94 63 150c0 78 -19 126 -71 168c-36 29 -91 44 -161 44c-20 0 -38 -2 -47 -3l-1 -181c45 0 93 0 153 1c0 -16 -1 -33 -2 -48h-151z" />
    <glyph glyph-name="eacute.sc" unicode="&#xf7e9;" horiz-adv-x="489" 
d="M339 709c13 -16 24 -35 33 -52c-56 -28 -118 -60 -172 -87c-7 12 -14 25 -20 37c50 32 109 71 159 102zM46 0c0 14 0 28 1 44l58 2c2 0 3 2 3 3v401l-61 2v44h105h183c34 0 54 1 81 1c3 -39 5 -80 6 -122c-15 -3 -32 -5 -51 -7l-13 64c-2 8 -6 13 -20 14
c-20 2 -76 4 -129 4h-23l-1 -172c47 0 86 0 129 1c14 0 19 5 20 16l3 35c18 1 36 0 50 0c0 -26 -1 -53 -1 -78v-73c-16 -1 -33 -2 -51 -2l-2 37c-2 14 -6 17 -21 17c-37 1 -78 1 -127 1l-1 -170c0 -13 2 -16 45 -16c65 0 114 3 128 6c7 1 11 6 15 16l25 66
c18 -2 36 -6 50 -9c-8 -43 -18 -85 -28 -125h-265h-108z" />
    <glyph glyph-name="ecaron.sc" horiz-adv-x="489" 
d="M257 628c30 30 66 66 93 92c10 -8 21 -18 29 -27c-31 -37 -75 -89 -104 -124h-37c-32 38 -70 84 -105 125c10 9 20 18 30 26c28 -27 65 -64 94 -92zM46 0c0 14 0 28 1 44l58 2c2 0 3 2 3 3v401l-61 2v44h105h183c34 0 54 1 81 1c3 -39 5 -80 6 -122c-15 -3 -32 -5 -51 -7
l-13 64c-2 8 -6 13 -20 14c-20 2 -76 4 -129 4h-23l-1 -172c47 0 86 0 129 1c14 0 19 5 20 16l3 35c18 1 36 0 50 0c0 -26 -1 -53 -1 -78v-73c-16 -1 -33 -2 -51 -2l-2 37c-2 14 -6 17 -21 17c-37 1 -78 1 -127 1l-1 -170c0 -13 2 -16 45 -16c65 0 114 3 128 6
c7 1 11 6 15 16l25 66c18 -2 36 -6 50 -9c-8 -43 -18 -85 -28 -125h-265h-108z" />
    <glyph glyph-name="ecircumflex.sc" unicode="&#xf7ea;" horiz-adv-x="489" 
d="M243 652c-29 -27 -65 -64 -93 -92c-11 9 -21 18 -30 26c35 41 73 87 105 124c12 1 26 1 37 1c30 -35 73 -87 104 -124c-9 -9 -19 -19 -29 -27c-27 27 -63 63 -94 92zM46 0c0 14 0 28 1 44l58 2c2 0 3 2 3 3v401l-61 2v44h105h183c34 0 54 1 81 1c3 -39 5 -80 6 -122
c-15 -3 -32 -5 -51 -7l-13 64c-2 8 -6 13 -20 14c-20 2 -76 4 -129 4h-23l-1 -172c47 0 86 0 129 1c14 0 19 5 20 16l3 35c18 1 36 0 50 0c0 -26 -1 -53 -1 -78v-73c-16 -1 -33 -2 -51 -2l-2 37c-2 14 -6 17 -21 17c-37 1 -78 1 -127 1l-1 -170c0 -13 2 -16 45 -16
c65 0 114 3 128 6c7 1 11 6 15 16l25 66c18 -2 36 -6 50 -9c-8 -43 -18 -85 -28 -125h-265h-108z" />
    <glyph glyph-name="edieresis.sc" unicode="&#xf7eb;" horiz-adv-x="489" 
d="M169 665c33 0 43 -26 43 -44c0 -20 -15 -42 -42 -42c-26 0 -44 18 -44 43c0 19 14 43 43 43zM327 665c29 0 42 -24 42 -43c0 -25 -18 -43 -43 -43c-28 0 -43 22 -43 42c0 18 11 44 44 44zM46 0c0 14 0 28 1 44l58 2c2 0 3 2 3 3v401l-61 2v44h105h183c34 0 54 1 81 1
c3 -39 5 -80 6 -122c-15 -3 -32 -5 -51 -7l-13 64c-2 8 -6 13 -20 14c-20 2 -76 4 -129 4h-23l-1 -172c47 0 86 0 129 1c14 0 19 5 20 16l3 35c18 1 36 0 50 0c0 -26 -1 -53 -1 -78v-73c-16 -1 -33 -2 -51 -2l-2 37c-2 14 -6 17 -21 17c-37 1 -78 1 -127 1l-1 -170
c0 -13 2 -16 45 -16c65 0 114 3 128 6c7 1 11 6 15 16l25 66c18 -2 36 -6 50 -9c-8 -43 -18 -85 -28 -125h-265h-108z" />
    <glyph glyph-name="edotaccent.sc" horiz-adv-x="489" 
d="M256 671c38 0 50 -30 50 -52c0 -31 -22 -54 -53 -54s-54 24 -54 53c0 28 21 53 57 53zM46 0c0 14 0 28 1 44l58 2c2 0 3 2 3 3v401l-61 2v44h105h183c34 0 54 1 81 1c3 -39 5 -80 6 -122c-15 -3 -32 -5 -51 -7l-13 64c-2 8 -6 13 -20 14c-20 2 -76 4 -129 4h-23l-1 -172
c47 0 86 0 129 1c14 0 19 5 20 16l3 35c18 1 36 0 50 0c0 -26 -1 -53 -1 -78v-73c-16 -1 -33 -2 -51 -2l-2 37c-2 14 -6 17 -21 17c-37 1 -78 1 -127 1l-1 -170c0 -13 2 -16 45 -16c65 0 114 3 128 6c7 1 11 6 15 16l25 66c18 -2 36 -6 50 -9c-8 -43 -18 -85 -28 -125h-265
h-108z" />
    <glyph glyph-name="egrave.sc" unicode="&#xf7e8;" horiz-adv-x="489" 
d="M156 708c50 -31 111 -72 159 -102c-6 -12 -13 -24 -21 -36c-52 26 -115 59 -171 86c10 18 22 36 33 52zM46 0c0 14 0 28 1 44l58 2c2 0 3 2 3 3v401l-61 2v44h105h183c34 0 54 1 81 1c3 -39 5 -80 6 -122c-15 -3 -32 -5 -51 -7l-13 64c-2 8 -6 13 -20 14
c-20 2 -76 4 -129 4h-23l-1 -172c47 0 86 0 129 1c14 0 19 5 20 16l3 35c18 1 36 0 50 0c0 -26 -1 -53 -1 -78v-73c-16 -1 -33 -2 -51 -2l-2 37c-2 14 -6 17 -21 17c-37 1 -78 1 -127 1l-1 -170c0 -13 2 -16 45 -16c65 0 114 3 128 6c7 1 11 6 15 16l25 66
c18 -2 36 -6 50 -9c-8 -43 -18 -85 -28 -125h-265h-108z" />
    <glyph glyph-name="emacron.sc" horiz-adv-x="489" 
d="M351 640c0 -15 0 -33 -1 -48c-58 0 -136 0 -200 1c-1 14 -1 30 0 45c67 1 133 2 201 2zM46 0c0 14 0 28 1 44l58 2c2 0 3 2 3 3v401l-61 2v44h105h183c34 0 54 1 81 1c3 -39 5 -80 6 -122c-15 -3 -32 -5 -51 -7l-13 64c-2 8 -6 13 -20 14c-20 2 -76 4 -129 4h-23l-1 -172
c47 0 86 0 129 1c14 0 19 5 20 16l3 35c18 1 36 0 50 0c0 -26 -1 -53 -1 -78v-73c-16 -1 -33 -2 -51 -2l-2 37c-2 14 -6 17 -21 17c-37 1 -78 1 -127 1l-1 -170c0 -13 2 -16 45 -16c65 0 114 3 128 6c7 1 11 6 15 16l25 66c18 -2 36 -6 50 -9c-8 -43 -18 -85 -28 -125h-265
h-108z" />
    <glyph glyph-name="eogonek.sc" horiz-adv-x="489" 
d="M346 0h-192h-108c0 14 0 28 1 44l58 2c2 0 3 2 3 3v401l-61 2v44h105h183c34 0 54 1 81 1c3 -39 5 -80 6 -122c-15 -3 -32 -5 -51 -7l-13 64c-2 8 -6 13 -20 14c-20 2 -76 4 -129 4h-23l-1 -172c47 0 86 0 129 1c14 0 19 5 20 16l3 35c18 1 36 0 50 0
c0 -26 -1 -53 -1 -78v-73c-16 -1 -33 -2 -51 -2l-2 37c-2 14 -6 17 -21 17c-37 1 -78 1 -127 1l-1 -170c0 -13 2 -16 45 -16c65 0 114 3 128 6c7 1 11 6 15 16l25 66c18 -2 36 -6 50 -9c-8 -43 -16 -79 -28 -125c-81 -42 -101 -85 -101 -117c0 -29 21 -43 41 -43
c19 0 35 5 51 18c9 -9 15 -18 19 -29c-25 -25 -56 -42 -91 -42c-46 0 -91 33 -91 82c0 47 44 97 99 131z" />
    <glyph glyph-name="colonmonetary" unicode="&#x20a1;" horiz-adv-x="528" 
d="M340 33l-10 -110c-14 -1 -29 -1 -42 -1l10 109c-21 1 -43 3 -63 8l-12 -116c-13 -1 -28 -1 -41 -1l13 129c-102 38 -154 135 -154 235c0 137 76 262 202 301l10 122c14 2 30 3 46 3l-11 -113c21 4 42 5 62 6l9 103c14 3 29 4 46 4l-11 -109c52 -2 93 -16 115 -30
c0 -16 -18 -48 -33 -61c-24 17 -59 32 -87 36l-45 -464c48 3 95 18 135 34c4 -14 8 -31 11 -47c-55 -21 -105 -35 -150 -38zM302 84l44 469c-21 1 -43 -1 -63 -5l-43 -453c19 -6 40 -10 62 -11zM200 113l38 421c-66 -34 -120 -118 -120 -228c0 -103 29 -153 82 -193z" />
    <glyph glyph-name="gbreve.sc" horiz-adv-x="570" 
d="M305 569c-61 0 -106 45 -117 96c13 6 27 10 40 13c17 -34 41 -58 79 -58c39 0 64 29 76 54c13 -2 28 -5 41 -9c-9 -41 -55 -96 -119 -96zM295 224h149h86c0 -14 0 -30 -1 -45l-44 -2c-2 0 -3 -1 -3 -3l-2 -158c-29 -15 -81 -26 -151 -26c-82 0 -149 18 -193 52
c-56 45 -90 106 -90 193c0 96 48 174 118 222c56 37 129 49 183 49c58 0 100 -9 129 -22c3 -43 5 -88 6 -135c-18 -1 -35 -3 -55 -4l-12 80c-1 5 -2 10 -6 14c-20 12 -46 17 -79 17c-42 0 -92 -11 -131 -46c-45 -41 -69 -101 -69 -166c0 -61 15 -114 55 -154
c45 -44 107 -53 151 -53c36 0 69 8 69 16v124l-111 2c0 16 0 31 1 45z" />
    <glyph glyph-name="uni0123.sc" horiz-adv-x="570" 
d="M310 -53c31 0 60 -35 60 -73c0 -65 -42 -114 -92 -143c-8 9 -17 19 -23 29c39 27 55 55 55 81c0 27 -24 36 -41 41c-5 37 17 65 41 65zM295 224h149h86c0 -14 0 -30 -1 -45l-44 -2c-2 0 -3 -1 -3 -3l-2 -158c-29 -15 -81 -26 -151 -26c-82 0 -149 18 -193 52
c-56 45 -90 106 -90 193c0 96 48 174 118 222c56 37 129 49 183 49c58 0 100 -9 129 -22c3 -43 5 -88 6 -135c-18 -1 -35 -3 -55 -4l-12 80c-1 5 -2 10 -6 14c-20 12 -46 17 -79 17c-42 0 -92 -11 -131 -46c-45 -41 -69 -101 -69 -166c0 -61 15 -114 55 -154
c45 -44 107 -53 151 -53c36 0 69 8 69 16v124l-111 2c0 16 0 31 1 45z" />
    <glyph glyph-name="iacute.sc" unicode="&#xf7ed;" horiz-adv-x="299" 
d="M240 709c13 -16 24 -35 33 -52c-56 -28 -118 -60 -171 -87c-8 12 -15 25 -21 37c50 32 110 71 159 102zM111 449l-67 3c0 16 0 31 1 44h111h103v-44l-67 -3c-3 0 -3 -1 -3 -3l-2 -399l72 -3c0 -15 0 -30 -1 -44h-104s-72 -1 -109 -1c0 15 0 29 1 45l61 3c3 0 4 1 4 4v398
z" />
    <glyph glyph-name="icircumflex.sc" unicode="&#xf7ee;" horiz-adv-x="299" 
d="M151 652c-29 -27 -66 -64 -94 -92c-10 9 -20 18 -29 26c34 41 73 87 105 124c12 1 25 1 36 1c31 -35 73 -87 105 -124c-9 -9 -19 -19 -30 -27c-26 27 -63 63 -93 92zM111 449l-67 3c0 16 0 31 1 44h111h103v-44l-67 -3c-3 0 -3 -1 -3 -3l-2 -399l72 -3
c0 -15 0 -30 -1 -44h-104s-72 -1 -109 -1c0 15 0 29 1 45l61 3c3 0 4 1 4 4v398z" />
    <glyph glyph-name="idieresis.sc" unicode="&#xf7ef;" horiz-adv-x="299" 
d="M72 665c32 0 42 -26 42 -44c0 -20 -15 -42 -42 -42c-26 0 -44 18 -44 43c0 19 14 43 44 43zM229 665c29 0 42 -24 42 -43c0 -25 -18 -43 -43 -43c-28 0 -43 22 -43 42c0 18 11 44 44 44zM111 449l-67 3c0 16 0 31 1 44h111h103v-44l-67 -3c-3 0 -3 -1 -3 -3l-2 -399
l72 -3c0 -15 0 -30 -1 -44h-104s-72 -1 -109 -1c0 15 0 29 1 45l61 3c3 0 4 1 4 4v398z" />
    <glyph glyph-name="igrave.sc" unicode="&#xf7ec;" horiz-adv-x="299" 
d="M62 708c51 -31 112 -72 159 -102c-6 -12 -13 -24 -20 -36c-53 26 -116 59 -171 86c9 18 21 36 32 52zM111 449l-67 3c0 16 0 31 1 44h111h103v-44l-67 -3c-3 0 -3 -1 -3 -3l-2 -399l72 -3c0 -15 0 -30 -1 -44h-104s-72 -1 -109 -1c0 15 0 29 1 45l61 3c3 0 4 1 4 4v398z
" />
    <glyph glyph-name="imacron.sc" horiz-adv-x="299" 
d="M250 624c1 -15 1 -33 0 -48c-58 0 -136 0 -201 1c-1 14 -1 30 0 45c67 1 134 2 201 2zM111 449l-67 3c0 16 0 31 1 44h111h103v-44l-67 -3c-3 0 -3 -1 -3 -3l-2 -399l72 -3c0 -15 0 -30 -1 -44h-104s-72 -1 -109 -1c0 15 0 29 1 45l61 3c3 0 4 1 4 4v398z" />
    <glyph glyph-name="iogonek.sc" horiz-adv-x="299" 
d="M45 496h111h103v-44l-67 -3c-3 0 -3 -1 -3 -3l-2 -399l72 -3c0 -15 0 -30 -1 -44h-13c-45 -1 -120 -68 -120 -117c0 -29 21 -43 41 -43c19 0 35 5 51 18c9 -9 15 -19 19 -30c-25 -25 -56 -41 -91 -41c-46 0 -91 33 -91 82c0 47 45 93 104 131c-34 0 -76 -1 -113 -1
c0 15 0 29 1 45l61 3c3 0 4 1 4 4v398l-67 3c0 16 0 31 1 44z" />
    <glyph glyph-name="dotlessi.sc" horiz-adv-x="299" 
d="M111 449l-67 3c0 16 0 31 1 44h111h103v-44l-67 -3c-3 0 -3 -1 -3 -3l-2 -399l72 -3c0 -15 0 -30 -1 -44h-104s-72 -1 -109 -1c0 15 0 29 1 45l61 3c3 0 4 1 4 4v398z" />
    <glyph glyph-name="uni0137.sc" horiz-adv-x="562" 
d="M300 -45c30 0 59 -34 59 -73c0 -64 -42 -113 -92 -143c-7 10 -16 20 -23 30c40 26 55 55 55 81c0 27 -23 36 -40 41c-6 37 16 64 41 64zM111 449l-60 3c0 16 0 31 1 44h104h95v-44l-59 -2c-3 -1 -3 -2 -3 -5l-1 -170c11 1 35 1 54 6c28 24 107 115 147 165c2 2 1 3 -1 3
l-51 3c0 16 0 30 1 44h117h70c0 -13 -1 -28 -1 -44l-52 -3c-62 -66 -119 -125 -170 -179v-4c35 -24 66 -62 95 -105c23 -34 42 -63 69 -99c8 -11 16 -13 29 -14l58 -3c0 -15 0 -31 -1 -45c-26 0 -51 -1 -73 -1c-18 0 -41 -1 -62 -1c-16 18 -51 75 -87 129
c-30 49 -71 104 -95 104c-17 0 -38 -1 -47 -2l-1 -182l67 -3c1 -15 0 -30 0 -44h-100s-69 -1 -103 -1v45l56 3c3 0 4 1 4 3v399z" />
    <glyph glyph-name="lacute.sc" horiz-adv-x="472" 
d="M275 693c12 -16 23 -35 32 -53c-55 -27 -118 -60 -171 -86c-7 11 -14 24 -21 36c51 33 110 71 160 103zM111 449l-61 3c0 16 0 31 1 44h104h111c0 -13 0 -28 -1 -44l-74 -2c-2 0 -2 -1 -2 -3l-2 -385c0 -14 1 -16 35 -16c89 0 115 2 133 5c7 1 11 7 14 16l31 85
c18 -3 35 -7 51 -11c-9 -46 -22 -98 -33 -141h-264h-104c0 14 0 28 1 44l56 2c3 0 4 2 4 4v399z" />
    <glyph glyph-name="lcaron.sc" horiz-adv-x="472" 
d="M421 543c-14 -68 -34 -139 -52 -187c-12 -1 -37 5 -48 8c14 71 18 119 23 181c22 4 60 2 77 -2zM111 449l-61 3c0 16 0 31 1 44h104h111c0 -13 0 -28 -1 -44l-74 -2c-2 0 -2 -1 -2 -3l-2 -385c0 -14 1 -16 35 -16c89 0 115 2 133 5c7 1 11 7 14 16l31 85
c18 -3 35 -7 51 -11c-9 -46 -22 -98 -33 -141h-264h-104c0 14 0 28 1 44l56 2c3 0 4 2 4 4v399z" />
    <glyph glyph-name="figuredash" unicode="&#x2012;" horiz-adv-x="524" 
d="M36 324c76 0 152 1 227 1c71 0 159 0 228 1c0 -19 -1 -38 -2 -53h-226h-229c0 16 0 35 2 51z" />
    <glyph glyph-name="uni013C.sc" horiz-adv-x="472" 
d="M233 -45c31 0 60 -34 60 -73c0 -65 -43 -114 -92 -143c-8 9 -17 20 -24 30c40 26 56 54 56 81c0 26 -24 36 -41 41c-5 36 16 64 41 64zM111 449l-61 3c0 16 0 31 1 44h104h111c0 -13 0 -28 -1 -44l-74 -2c-2 0 -2 -1 -2 -3l-2 -385c0 -14 1 -16 35 -16c89 0 115 2 133 5
c7 1 11 7 14 16l31 85c18 -3 35 -7 51 -11c-9 -46 -22 -98 -33 -141h-264h-104c0 14 0 28 1 44l56 2c3 0 4 2 4 4v399z" />
    <glyph glyph-name="lslash.sc" unicode="&#xf6f9;" horiz-adv-x="482" 
d="M197 62c0 -14 0 -16 35 -16c89 0 114 2 132 5c7 1 12 7 15 16l31 85c18 -3 35 -7 51 -11c-10 -46 -22 -98 -33 -141h-264h-104c0 14 0 28 1 44l56 2c3 0 3 2 3 4l1 137c-27 -14 -42 -21 -70 -36c-8 14 -15 29 -20 42c35 19 56 29 90 47v209l-61 3c-1 16 0 31 1 44h104
h111c0 -13 -1 -28 -1 -44l-74 -2c-2 0 -3 -1 -3 -3v-170c50 24 67 34 123 63c9 -15 15 -32 20 -46c-58 -28 -88 -44 -144 -72v-160z" />
    <glyph glyph-name="nacute.sc" horiz-adv-x="619" 
d="M410 703c13 -16 24 -35 33 -53c-55 -27 -118 -60 -171 -86c-7 11 -14 24 -21 36c51 33 110 71 159 103zM52 44l52 3c4 0 5 2 5 4v399l-61 2c-1 16 0 31 0 44h136c93 -130 197 -282 279 -408l4 1c0 119 -1 241 -3 361l-79 2c0 16 0 31 1 44h106h88c1 -13 0 -28 0 -44
l-51 -2c-2 0 -3 -1 -3 -4l-3 -441c-17 -6 -42 -10 -61 -10c-82 107 -191 260 -288 404h-6c0 -116 0 -235 -1 -352l85 -3c0 -15 0 -30 -1 -44h-112h-88c0 14 0 29 1 44z" />
    <glyph glyph-name="ncaron.sc" horiz-adv-x="619" 
d="M320 633c31 30 67 66 94 92c10 -8 20 -18 29 -27c-32 -37 -75 -89 -105 -124h-37c-32 38 -69 84 -104 125c9 9 19 18 29 26c28 -27 65 -64 94 -92zM52 44l52 3c4 0 5 2 5 4v399l-61 2c-1 16 0 31 0 44h136c93 -130 197 -282 279 -408l4 1c0 119 -1 241 -3 361l-79 2
c0 16 0 31 1 44h106h88c1 -13 0 -28 0 -44l-51 -2c-2 0 -3 -1 -3 -4l-3 -441c-17 -6 -42 -10 -61 -10c-82 107 -191 260 -288 404h-6c0 -116 0 -235 -1 -352l85 -3c0 -15 0 -30 -1 -44h-112h-88c0 14 0 29 1 44z" />
    <glyph glyph-name="uni0146.sc" horiz-adv-x="619" 
d="M314 -45c31 0 60 -34 60 -73c0 -64 -43 -113 -92 -143c-8 10 -17 20 -24 30c40 26 55 55 55 81c0 27 -23 36 -40 41c-5 37 16 64 41 64zM52 44l52 3c4 0 5 2 5 4v399l-61 2c-1 16 0 31 0 44h136c93 -130 197 -282 279 -408l4 1c0 119 -1 241 -3 361l-79 2c0 16 0 31 1 44
h106h88c1 -13 0 -28 0 -44l-51 -2c-2 0 -3 -1 -3 -4l-3 -441c-17 -6 -42 -10 -61 -10c-82 107 -191 260 -288 404h-6c0 -116 0 -235 -1 -352l85 -3c0 -15 0 -30 -1 -44h-112h-88c0 14 0 29 1 44z" />
    <glyph glyph-name="oneeighth" unicode="&#x215b;" horiz-adv-x="733" 
d="M66 327c-1 11 -1 24 0 37l84 1c1 0 2 1 2 2v220c-25 -6 -51 -12 -85 -21c-3 13 -6 26 -8 39c70 21 142 51 152 51c2 0 2 -1 2 -3c0 -92 -1 -194 -1 -288l77 -1c0 -12 0 -25 -1 -37h-106h-116zM210 -16c-14 6 -28 11 -42 18c51 90 113 201 166 298c61 113 126 234 193 359
c15 -5 32 -10 46 -17c-70 -126 -141 -257 -199 -364c-47 -86 -117 -209 -164 -294zM612 172v-4c50 -15 74 -45 74 -81c0 -27 -12 -51 -35 -68c-21 -16 -54 -27 -98 -27c-41 0 -70 7 -93 25c-19 13 -31 34 -31 60c0 36 25 69 73 89v3c-32 15 -57 37 -57 72c0 21 11 44 31 59
s50 25 89 25c34 0 61 -7 78 -20c18 -13 29 -33 29 -55c0 -37 -28 -63 -60 -78zM503 243c0 -24 20 -41 68 -58c27 14 43 36 43 59c0 14 -4 24 -11 31c-9 9 -23 15 -41 15s-32 -4 -41 -11c-10 -8 -18 -20 -18 -36zM626 82c0 33 -26 49 -83 69c-28 -14 -53 -38 -53 -68
c0 -18 9 -32 20 -41c12 -9 31 -14 47 -14c17 0 35 4 47 12c13 9 22 23 22 42z" />
    <glyph glyph-name="threeeighths" unicode="&#x215c;" horiz-adv-x="733" 
d="M96 419l11 -49c1 -1 2 -4 4 -5c9 -5 27 -9 43 -9c20 0 42 6 54 15c13 9 22 20 22 43c0 38 -34 59 -83 59h-39c-1 12 -1 26 -1 38c80 -1 115 23 115 58c0 16 -4 25 -13 33c-11 10 -27 13 -48 13c-14 0 -34 -4 -44 -11c-2 -2 -3 -4 -4 -6l-8 -47c-13 0 -28 1 -42 2
c2 29 3 56 4 81c24 10 64 18 104 18c35 0 67 -5 87 -21c15 -11 28 -33 28 -52c0 -40 -26 -66 -72 -79v-4c58 -7 82 -44 82 -77c0 -35 -17 -59 -43 -75c-21 -14 -57 -25 -106 -25c-33 0 -63 3 -84 7c-4 27 -8 56 -11 86c15 3 29 5 44 7zM204 -16c-13 6 -27 11 -41 18
c50 90 112 201 165 298c61 113 126 234 194 359c14 -5 31 -10 45 -17c-69 -126 -141 -257 -199 -364c-47 -86 -116 -209 -164 -294zM607 172v-4c49 -15 74 -45 74 -81c0 -27 -12 -51 -35 -68c-21 -16 -54 -27 -98 -27c-42 0 -71 7 -94 25c-19 13 -30 34 -30 60
c0 36 25 69 73 89v3c-33 15 -58 37 -58 72c0 21 12 44 32 59c19 15 49 25 89 25c34 0 61 -7 77 -20c18 -13 29 -33 29 -55c0 -37 -27 -63 -59 -78zM497 243c0 -24 20 -41 69 -58c26 14 43 36 43 59c0 14 -5 24 -12 31c-8 9 -23 15 -41 15s-31 -4 -41 -11
c-10 -8 -18 -20 -18 -36zM620 82c0 33 -26 49 -83 69c-28 -14 -53 -38 -53 -68c0 -18 9 -32 21 -41c11 -9 30 -14 47 -14s34 4 47 12c12 9 21 23 21 42z" />
    <glyph glyph-name="fiveeighths" unicode="&#x215d;" horiz-adv-x="733" 
d="M78 486l-4 4c5 46 12 106 19 155h99h98c0 -13 -1 -29 -3 -44h-145c-4 -22 -9 -47 -13 -70c13 1 27 2 42 2c73 0 127 -35 127 -97c0 -42 -20 -71 -43 -88c-26 -19 -63 -29 -112 -29c-30 0 -57 2 -74 7c-5 27 -9 54 -13 83c13 3 29 7 43 8l12 -49c1 -3 3 -4 5 -5
c10 -5 22 -6 35 -6c25 0 45 6 60 17c14 12 23 29 23 51c0 41 -30 67 -90 67c-26 0 -58 -4 -66 -6zM201 -16c-13 6 -27 11 -41 18c51 90 113 201 166 298c60 113 126 234 193 359c15 -5 31 -10 46 -17c-70 -126 -142 -257 -199 -364c-47 -86 -117 -209 -165 -294zM604 172v-4
c50 -15 74 -45 74 -81c0 -27 -12 -51 -35 -68c-21 -16 -54 -27 -98 -27c-41 0 -70 7 -93 25c-20 13 -31 34 -31 60c0 36 25 69 73 89v3c-33 15 -57 37 -57 72c0 21 11 44 31 59s50 25 89 25c34 0 61 -7 78 -20c18 -13 29 -33 29 -55c0 -37 -28 -63 -60 -78zM495 243
c0 -24 20 -41 68 -58c27 14 43 36 43 59c0 14 -4 24 -11 31c-9 9 -23 15 -41 15c-19 0 -32 -4 -41 -11c-11 -8 -18 -20 -18 -36zM618 82c0 33 -27 49 -84 69c-27 -14 -52 -38 -52 -68c0 -18 8 -32 20 -41s31 -14 47 -14c17 0 34 4 47 12c12 9 22 23 22 42z" />
    <glyph glyph-name="seveneighths" unicode="&#x215e;" horiz-adv-x="733" 
d="M267 597l-2 3c-73 1 -111 1 -126 0c-8 0 -11 -5 -13 -12l-11 -43c-13 2 -28 4 -42 7c5 31 10 63 15 93h58h167c5 -13 10 -29 14 -42c-51 -80 -92 -164 -109 -221c-5 -17 -8 -40 -9 -59c-20 -1 -46 -2 -63 -2c0 22 3 43 11 64c20 54 58 121 110 212zM174 -16
c-13 6 -27 11 -41 18c50 90 112 201 165 298c61 113 126 234 194 359c14 -5 31 -10 45 -17c-69 -126 -141 -257 -199 -364c-47 -86 -116 -209 -164 -294zM577 172v-4c49 -15 74 -45 74 -81c0 -27 -12 -51 -35 -68c-21 -16 -54 -27 -98 -27c-42 0 -71 7 -94 25
c-19 13 -30 34 -30 60c0 36 25 69 73 89v3c-33 15 -58 37 -58 72c0 21 12 44 32 59c19 15 49 25 89 25c34 0 61 -7 77 -20c18 -13 29 -33 29 -55c0 -37 -27 -63 -59 -78zM467 243c0 -24 20 -41 69 -58c26 14 43 36 43 59c0 14 -5 24 -12 31c-8 9 -23 15 -41 15
s-31 -4 -41 -11c-10 -8 -18 -20 -18 -36zM590 82c0 33 -26 49 -83 69c-28 -14 -53 -38 -53 -68c0 -18 9 -32 21 -41c11 -9 30 -14 47 -14s34 4 47 12c12 9 21 23 21 42z" />
    <glyph glyph-name="onethird" unicode="&#x2153;" horiz-adv-x="733" 
d="M62 327c0 11 0 24 1 37l83 1c2 0 2 1 2 2v220c-25 -6 -51 -12 -85 -21c-3 13 -5 26 -7 39c69 21 141 51 152 51c1 0 1 -1 1 -3c0 -92 -1 -194 -1 -288l77 -1c0 -12 0 -25 -1 -37h-106h-116zM206 -16c-14 6 -28 11 -42 18c51 90 113 201 166 298c61 113 126 234 193 359
c15 -5 32 -10 46 -17c-70 -126 -141 -257 -199 -364c-47 -86 -116 -209 -164 -294zM480 92l11 -49c1 -2 2 -4 4 -5c10 -5 27 -9 43 -9c21 0 42 5 55 14c13 10 22 21 22 44c0 37 -34 59 -84 59h-39v38c79 -1 115 23 115 58c0 15 -4 25 -14 33c-10 10 -27 13 -47 13
c-14 0 -34 -4 -45 -11c-1 -2 -3 -4 -3 -6l-8 -48c-14 1 -28 2 -43 3c2 29 3 56 5 81c23 10 64 18 103 18c36 0 68 -5 88 -21c14 -12 28 -33 28 -53c0 -39 -27 -65 -72 -78v-4c57 -7 81 -44 81 -78s-17 -58 -42 -74c-21 -14 -58 -25 -107 -25c-32 0 -62 2 -84 7
c-4 27 -7 56 -11 86c15 3 30 5 44 7z" />
    <glyph glyph-name="twothirds" unicode="&#x2154;" horiz-adv-x="733" 
d="M279 558c0 -63 -61 -116 -98 -145c-20 -18 -36 -28 -51 -38l2 -5c32 0 108 2 151 3c1 0 2 0 2 -1c0 -15 -1 -31 -3 -45h-151h-79c-4 10 -8 22 -12 32c40 27 64 44 94 71c34 30 81 71 81 125c0 20 -6 34 -16 44c-11 12 -32 16 -45 16c-18 0 -35 -4 -47 -13
c-1 -2 -2 -3 -2 -6l-9 -54c-15 1 -29 2 -42 3c1 31 3 61 5 89c21 10 61 19 101 19s71 -9 88 -25c19 -16 31 -38 31 -70zM208 -16c-14 6 -28 11 -42 18c51 90 113 201 166 298c61 113 126 234 193 359c15 -5 32 -10 46 -17c-70 -126 -141 -257 -199 -364
c-47 -86 -117 -209 -164 -294zM482 92l11 -49c1 -2 2 -4 4 -5c9 -5 27 -9 43 -9c21 0 42 5 55 14c13 10 22 21 22 44c0 37 -34 59 -84 59h-39c0 12 -1 26 0 38c79 -1 115 23 115 58c0 15 -5 25 -14 33c-10 10 -27 13 -47 13c-15 0 -34 -4 -45 -11c-1 -2 -3 -4 -3 -6l-8 -48
c-14 1 -28 2 -43 3c2 29 3 56 5 81c23 10 64 18 103 18c36 0 68 -5 87 -21c15 -12 28 -33 28 -53c0 -39 -26 -65 -72 -78v-4c58 -7 82 -44 82 -78s-17 -58 -42 -74c-21 -14 -58 -25 -107 -25c-32 0 -63 2 -84 7c-4 27 -7 56 -11 86c15 3 30 5 44 7z" />
    <glyph glyph-name="ntilde.sc" unicode="&#xf7f1;" horiz-adv-x="619" 
d="M388 575c-26 0 -44 15 -63 28c-19 14 -32 27 -52 27c-18 0 -28 -21 -33 -50c-12 -1 -25 0 -37 0c4 52 24 99 72 99c31 0 48 -17 67 -30c17 -11 28 -23 46 -23c21 0 28 20 32 50c12 1 25 1 36 0c-2 -50 -16 -101 -68 -101zM52 44l52 3c4 0 5 2 5 4v399l-61 2
c-1 16 0 31 0 44h136c93 -130 197 -282 279 -408l4 1c0 119 -1 241 -3 361l-79 2c0 16 0 31 1 44h106h88c1 -13 0 -28 0 -44l-51 -2c-2 0 -3 -1 -3 -4l-3 -441c-17 -6 -42 -10 -61 -10c-82 107 -191 260 -288 404h-6c0 -116 0 -235 -1 -352l85 -3c0 -15 0 -30 -1 -44h-112
h-88c0 14 0 29 1 44z" />
    <glyph glyph-name="oacute.sc" unicode="&#xf7f3;" horiz-adv-x="608" 
d="M406 709c13 -16 24 -35 33 -52c-56 -28 -118 -60 -172 -87c-7 12 -14 25 -21 37c51 32 110 71 160 102zM293 -10c-77 0 -134 25 -176 65c-44 41 -73 106 -73 186c0 100 52 181 113 221c49 33 101 44 160 44c56 0 104 -11 149 -42c57 -39 98 -116 98 -203
c0 -78 -28 -156 -86 -208c-44 -40 -103 -63 -185 -63zM302 36c45 0 89 17 119 49c30 34 59 88 59 165c0 64 -20 121 -57 161c-32 35 -71 49 -117 49c-43 0 -78 -14 -109 -41c-37 -32 -68 -93 -68 -173c0 -62 15 -121 58 -163c33 -32 74 -47 115 -47z" />
    <glyph glyph-name="ocircumflex.sc" unicode="&#xf7f4;" horiz-adv-x="608" 
d="M311 652c-29 -27 -65 -64 -93 -92c-11 9 -21 18 -30 26c35 41 73 87 105 124c12 1 26 1 37 1c30 -35 72 -87 104 -124c-9 -9 -19 -19 -29 -27c-27 27 -63 63 -94 92zM293 -10c-77 0 -134 25 -176 65c-44 41 -73 106 -73 186c0 100 52 181 113 221c49 33 101 44 160 44
c56 0 104 -11 149 -42c57 -39 98 -116 98 -203c0 -78 -28 -156 -86 -208c-44 -40 -103 -63 -185 -63zM302 36c45 0 89 17 119 49c30 34 59 88 59 165c0 64 -20 121 -57 161c-32 35 -71 49 -117 49c-43 0 -78 -14 -109 -41c-37 -32 -68 -93 -68 -173c0 -62 15 -121 58 -163
c33 -32 74 -47 115 -47z" />
    <glyph glyph-name="odieresis.sc" unicode="&#xf7f6;" horiz-adv-x="608" 
d="M233 665c33 0 43 -26 43 -44c0 -20 -15 -42 -42 -42c-26 0 -44 18 -44 43c0 19 14 43 43 43zM391 665c29 0 42 -24 42 -43c0 -25 -18 -43 -43 -43c-28 0 -43 22 -43 42c0 18 11 44 44 44zM293 -10c-77 0 -134 25 -176 65c-44 41 -73 106 -73 186c0 100 52 181 113 221
c49 33 101 44 160 44c56 0 104 -11 149 -42c57 -39 98 -116 98 -203c0 -78 -28 -156 -86 -208c-44 -40 -103 -63 -185 -63zM302 36c45 0 89 17 119 49c30 34 59 88 59 165c0 64 -20 121 -57 161c-32 35 -71 49 -117 49c-43 0 -78 -14 -109 -41c-37 -32 -68 -93 -68 -173
c0 -62 15 -121 58 -163c33 -32 74 -47 115 -47z" />
    <glyph glyph-name="ograve.sc" unicode="&#xf7f2;" horiz-adv-x="608" 
d="M218 708c50 -31 111 -72 158 -102c-6 -12 -13 -24 -20 -36c-52 26 -116 59 -171 86c10 18 22 36 33 52zM293 -10c-77 0 -134 25 -176 65c-44 41 -73 106 -73 186c0 100 52 181 113 221c49 33 101 44 160 44c56 0 104 -11 149 -42c57 -39 98 -116 98 -203
c0 -78 -28 -156 -86 -208c-44 -40 -103 -63 -185 -63zM302 36c45 0 89 17 119 49c30 34 59 88 59 165c0 64 -20 121 -57 161c-32 35 -71 49 -117 49c-43 0 -78 -14 -109 -41c-37 -32 -68 -93 -68 -173c0 -62 15 -121 58 -163c33 -32 74 -47 115 -47z" />
    <glyph glyph-name="ohungarumlaut.sc" horiz-adv-x="608" 
d="M339 695c11 -12 22 -31 31 -46c-48 -28 -99 -57 -151 -86c-8 11 -15 23 -22 33c46 32 98 69 142 99zM491 691c11 -11 22 -30 31 -45c-49 -29 -99 -58 -150 -88c-8 12 -15 23 -22 33c43 31 98 70 141 100zM293 -10c-77 0 -134 25 -176 65c-44 41 -73 106 -73 186
c0 100 52 181 113 221c49 33 101 44 160 44c56 0 104 -11 149 -42c57 -39 98 -116 98 -203c0 -78 -28 -156 -86 -208c-44 -40 -103 -63 -185 -63zM302 36c45 0 89 17 119 49c30 34 59 88 59 165c0 64 -20 121 -57 161c-32 35 -71 49 -117 49c-43 0 -78 -14 -109 -41
c-37 -32 -68 -93 -68 -173c0 -62 15 -121 58 -163c33 -32 74 -47 115 -47z" />
    <glyph glyph-name="omacron.sc" horiz-adv-x="608" 
d="M404 640c0 -16 0 -33 -1 -49c-58 0 -136 1 -200 1c-1 14 -1 31 0 46c67 0 133 1 201 2zM293 -10c-77 0 -134 25 -176 65c-44 41 -73 106 -73 186c0 100 52 181 113 221c49 33 101 44 160 44c56 0 104 -11 149 -42c57 -39 98 -116 98 -203c0 -78 -28 -156 -86 -208
c-44 -40 -103 -63 -185 -63zM302 36c45 0 89 17 119 49c30 34 59 88 59 165c0 64 -20 121 -57 161c-32 35 -71 49 -117 49c-43 0 -78 -14 -109 -41c-37 -32 -68 -93 -68 -173c0 -62 15 -121 58 -163c33 -32 74 -47 115 -47z" />
    <glyph glyph-name="otilde.sc" unicode="&#xf7f5;" horiz-adv-x="608" 
d="M360 575c-26 0 -44 15 -63 28c-20 14 -33 27 -52 27c-18 0 -28 -21 -34 -50c-11 -1 -24 0 -36 0c4 52 24 99 72 99c31 0 48 -17 67 -30c17 -11 27 -23 46 -23c21 0 27 20 31 50c12 1 25 1 37 0c-3 -50 -17 -101 -68 -101zM293 -10c-77 0 -134 25 -176 65
c-44 41 -73 106 -73 186c0 100 52 181 113 221c49 33 101 44 160 44c56 0 104 -11 149 -42c57 -39 98 -116 98 -203c0 -78 -28 -156 -86 -208c-44 -40 -103 -63 -185 -63zM302 36c45 0 89 17 119 49c30 34 59 88 59 165c0 64 -20 121 -57 161c-32 35 -71 49 -117 49
c-43 0 -78 -14 -109 -41c-37 -32 -68 -93 -68 -173c0 -62 15 -121 58 -163c33 -32 74 -47 115 -47z" />
    <glyph glyph-name="racute.sc" horiz-adv-x="540" 
d="M342 703c13 -16 24 -35 33 -53c-56 -27 -118 -60 -171 -86c-8 11 -15 24 -21 36c50 33 110 71 159 103zM50 0c0 14 0 29 1 43l54 4c2 0 4 1 4 2v400l-60 2c1 16 1 31 1 45c59 0 122 1 182 1c47 0 77 -1 117 -12c54 -14 99 -60 99 -117c0 -64 -48 -113 -110 -135v-4
c40 -16 59 -60 100 -133c26 -46 34 -51 45 -52l50 -2c0 -14 0 -28 -1 -42h-65c-15 -1 -41 -1 -56 -1c-28 35 -76 136 -102 174c-18 26 -41 34 -77 34c-17 0 -37 0 -46 -2l-1 -158l70 -3c1 -15 0 -30 0 -44h-104h-101zM187 448l-1 -194c9 -3 22 -2 43 -2
c100 0 138 59 138 101c0 70 -53 99 -133 99c-24 0 -44 -2 -47 -4z" />
    <glyph glyph-name="rcaron.sc" horiz-adv-x="540" 
d="M241 630c31 29 67 66 94 92c10 -8 20 -18 29 -27c-32 -37 -75 -89 -105 -124c-11 0 -25 -1 -37 0c-32 38 -69 84 -104 124c9 10 19 19 29 26c28 -27 65 -63 94 -91zM50 0c0 14 0 29 1 43l54 4c2 0 4 1 4 2v400l-60 2c1 16 1 31 1 45c59 0 122 1 182 1c47 0 77 -1 117 -12
c54 -14 99 -60 99 -117c0 -64 -48 -113 -110 -135v-4c40 -16 59 -60 100 -133c26 -46 34 -51 45 -52l50 -2c0 -14 0 -28 -1 -42h-65c-15 -1 -41 -1 -56 -1c-28 35 -76 136 -102 174c-18 26 -41 34 -77 34c-17 0 -37 0 -46 -2l-1 -158l70 -3c1 -15 0 -30 0 -44h-104h-101z
M187 448l-1 -194c9 -3 22 -2 43 -2c100 0 138 59 138 101c0 70 -53 99 -133 99c-24 0 -44 -2 -47 -4z" />
    <glyph glyph-name="uni0157.sc" horiz-adv-x="540" 
d="M289 -45c31 0 60 -34 60 -73c0 -64 -42 -113 -92 -143c-8 10 -16 20 -23 30c40 26 55 55 55 81c0 27 -23 36 -41 41c-5 37 17 64 41 64zM50 0c0 14 0 29 1 43l54 4c2 0 4 1 4 2v400l-60 2c1 16 1 31 1 45c59 0 122 1 182 1c47 0 77 -1 117 -12c54 -14 99 -60 99 -117
c0 -64 -48 -113 -110 -135v-4c40 -16 59 -60 100 -133c26 -46 34 -51 45 -52l50 -2c0 -14 0 -28 -1 -42h-65c-15 -1 -41 -1 -56 -1c-28 35 -76 136 -102 174c-18 26 -41 34 -77 34c-17 0 -37 0 -46 -2l-1 -158l70 -3c1 -15 0 -30 0 -44h-104h-101zM187 448l-1 -194
c9 -3 22 -2 43 -2c100 0 138 59 138 101c0 70 -53 99 -133 99c-24 0 -44 -2 -47 -4z" />
    <glyph glyph-name="sacute.sc" horiz-adv-x="446" 
d="M327 704c13 -16 24 -35 33 -52c-56 -28 -118 -60 -171 -87c-7 12 -15 24 -21 36c51 33 110 72 159 103zM99 145l15 -80c1 -5 3 -8 7 -10c14 -9 47 -17 75 -17c40 0 78 10 97 29c18 17 24 34 24 58c0 60 -44 73 -123 105c-73 30 -128 67 -128 137c0 42 24 79 53 101
c31 23 81 38 146 38c40 0 87 -8 109 -19c4 -38 7 -79 10 -120c-17 -2 -35 -4 -54 -6l-14 73c-2 5 -3 7 -5 9c-13 9 -37 15 -59 15c-30 0 -62 -6 -82 -22c-17 -14 -29 -33 -29 -57c0 -51 30 -63 116 -97c83 -33 135 -68 135 -142c0 -42 -17 -79 -48 -105
c-33 -29 -85 -45 -159 -45c-43 0 -100 9 -129 20c-4 41 -7 84 -11 128c17 3 36 6 54 7z" />
    <glyph glyph-name="scaron.sc" unicode="&#xf6fd;" horiz-adv-x="446" 
d="M235 634c31 30 67 66 93 92c11 -7 21 -17 30 -27c-32 -36 -75 -89 -105 -123c-11 -1 -25 -1 -37 0c-32 38 -69 83 -104 124c9 9 19 18 29 26c28 -27 65 -64 94 -92zM99 145l15 -80c1 -5 3 -8 7 -10c14 -9 47 -17 75 -17c40 0 78 10 97 29c18 17 24 34 24 58
c0 60 -44 73 -123 105c-73 30 -128 67 -128 137c0 42 24 79 53 101c31 23 81 38 146 38c40 0 87 -8 109 -19c4 -38 7 -79 10 -120c-17 -2 -35 -4 -54 -6l-14 73c-2 5 -3 7 -5 9c-13 9 -37 15 -59 15c-30 0 -62 -6 -82 -22c-17 -14 -29 -33 -29 -57c0 -51 30 -63 116 -97
c83 -33 135 -68 135 -142c0 -42 -17 -79 -48 -105c-33 -29 -85 -45 -159 -45c-43 0 -100 9 -129 20c-4 41 -7 84 -11 128c17 3 36 6 54 7z" />
    <glyph glyph-name="uni015F.sc" horiz-adv-x="446" 
d="M330 361l-14 73c-2 5 -3 7 -5 9c-13 9 -37 15 -59 15c-30 0 -62 -6 -82 -22c-17 -14 -29 -33 -29 -57c0 -51 30 -63 116 -97c83 -33 135 -68 135 -142c0 -42 -17 -79 -48 -105c-22 -20 -53 -33 -94 -40l-58 -60c36 -7 57 -31 57 -63c0 -50 -51 -83 -125 -84
c-2 10 -3 24 -4 34c44 3 72 17 72 44c0 14 -7 23 -13 28c-9 8 -24 11 -41 11c-4 7 -6 14 -9 21l66 64h-10c-43 0 -100 9 -129 20c-4 41 -7 84 -11 128c17 3 36 6 54 7l15 -80c1 -5 3 -8 7 -10c14 -9 47 -17 75 -17c40 0 78 10 97 29c18 17 24 34 24 58c0 60 -44 73 -123 105
c-73 30 -128 67 -128 137c0 42 24 79 53 101c31 23 81 38 146 38c40 0 87 -8 109 -19c4 -38 7 -79 10 -120c-17 -2 -35 -4 -54 -6z" />
    <glyph glyph-name="uni0219.sc" horiz-adv-x="446" 
d="M221 -53c30 0 59 -34 59 -73c0 -65 -42 -114 -92 -143c-8 9 -16 20 -23 29c40 27 55 55 55 82c0 26 -23 36 -41 41c-5 36 17 64 42 64zM99 145l15 -80c1 -5 3 -8 7 -10c14 -9 47 -17 75 -17c40 0 78 10 97 29c18 17 24 34 24 58c0 60 -44 73 -123 105
c-73 30 -128 67 -128 137c0 42 24 79 53 101c31 23 81 38 146 38c40 0 87 -8 109 -19c4 -38 7 -79 10 -120c-17 -2 -35 -4 -54 -6l-14 73c-2 5 -3 7 -5 9c-13 9 -37 15 -59 15c-30 0 -62 -6 -82 -22c-17 -14 -29 -33 -29 -57c0 -51 30 -63 116 -97c83 -33 135 -68 135 -142
c0 -42 -17 -79 -48 -105c-33 -29 -85 -45 -159 -45c-43 0 -100 9 -129 20c-4 41 -7 84 -11 128c17 3 36 6 54 7z" />
    <glyph glyph-name="tcaron.sc" horiz-adv-x="505" 
d="M253 631c31 30 67 66 94 92c10 -8 20 -17 29 -27c-32 -36 -75 -89 -105 -123c-11 -1 -25 -1 -37 0c-32 37 -69 83 -104 124c9 9 19 18 30 26c28 -27 64 -64 93 -92zM142 44l69 3c2 0 3 1 3 2v400c-64 0 -82 -1 -101 -3c-15 -1 -18 -6 -20 -14l-13 -79c-17 1 -36 2 -54 4
c3 50 5 96 8 140c24 0 49 -1 81 -1h143h139c34 1 53 1 77 1c3 -44 5 -90 7 -140c-17 -1 -35 -3 -54 -4l-12 79c-2 9 -5 13 -20 14c-23 2 -39 3 -102 3l-2 -402l76 -3c1 -15 0 -30 0 -44h-110c-36 0 -76 -1 -115 -1v45z" />
    <glyph glyph-name="uni021B.sc" horiz-adv-x="505" 
d="M252 -49c30 0 60 -35 60 -73c0 -65 -43 -114 -93 -143c-7 9 -16 20 -23 29c40 27 55 55 55 81c0 27 -23 37 -40 41c-6 37 16 65 41 65zM142 44l69 3c2 0 3 1 3 2v400c-64 0 -82 -1 -101 -3c-15 -1 -18 -6 -20 -14l-13 -79c-17 1 -36 2 -54 4c3 50 5 96 8 140
c24 0 49 -1 81 -1h143h139c34 1 53 1 77 1c3 -44 5 -90 7 -140c-17 -1 -35 -3 -54 -4l-12 79c-2 9 -5 13 -20 14c-23 2 -39 3 -102 3l-2 -402l76 -3c1 -15 0 -30 0 -44h-110c-36 0 -76 -1 -115 -1v45z" />
    <glyph glyph-name="uacute.sc" unicode="&#xf7fa;" horiz-adv-x="586" 
d="M393 709c13 -16 24 -35 33 -52c-56 -28 -118 -60 -171 -87c-8 12 -15 25 -21 37c50 32 110 71 159 102zM172 450l-2 -239c0 -81 11 -109 34 -135c15 -17 43 -37 93 -37c42 0 68 14 88 33s41 61 41 134c0 71 0 167 -1 241c0 2 -1 3 -3 3l-71 2c0 16 1 31 1 44h105
c31 0 63 1 92 1c0 -14 0 -28 -1 -45l-54 -2l-2 -249c0 -82 -27 -134 -56 -163c-23 -23 -71 -48 -141 -48c-64 0 -113 14 -148 45c-47 41 -54 94 -54 165v246c0 3 -1 4 -4 4l-52 2c0 16 0 31 1 44h95h114c0 -13 0 -28 -2 -44z" />
    <glyph glyph-name="ucircumflex.sc" unicode="&#xf7fb;" horiz-adv-x="586" 
d="M293 652c-29 -27 -65 -64 -93 -92c-11 9 -21 18 -30 26c35 41 73 87 105 124c12 1 26 1 37 1c30 -35 72 -87 104 -124c-9 -9 -19 -19 -29 -27c-27 27 -63 63 -94 92zM172 450l-2 -239c0 -81 11 -109 34 -135c15 -17 43 -37 93 -37c42 0 68 14 88 33s41 61 41 134
c0 71 0 167 -1 241c0 2 -1 3 -3 3l-71 2c0 16 1 31 1 44h105c31 0 63 1 92 1c0 -14 0 -28 -1 -45l-54 -2l-2 -249c0 -82 -27 -134 -56 -163c-23 -23 -71 -48 -141 -48c-64 0 -113 14 -148 45c-47 41 -54 94 -54 165v246c0 3 -1 4 -4 4l-52 2c0 16 0 31 1 44h95h114
c0 -13 0 -28 -2 -44z" />
    <glyph glyph-name="udieresis.sc" unicode="&#xf7fc;" horiz-adv-x="586" 
d="M215 665c32 0 42 -26 42 -44c0 -20 -15 -42 -42 -42c-25 0 -44 18 -44 43c0 19 14 43 44 43zM372 665c29 0 42 -24 42 -43c0 -25 -18 -43 -43 -43c-28 0 -42 22 -42 42c0 18 10 44 43 44zM172 450l-2 -239c0 -81 11 -109 34 -135c15 -17 43 -37 93 -37c42 0 68 14 88 33
s41 61 41 134c0 71 0 167 -1 241c0 2 -1 3 -3 3l-71 2c0 16 1 31 1 44h105c31 0 63 1 92 1c0 -14 0 -28 -1 -45l-54 -2l-2 -249c0 -82 -27 -134 -56 -163c-23 -23 -71 -48 -141 -48c-64 0 -113 14 -148 45c-47 41 -54 94 -54 165v246c0 3 -1 4 -4 4l-52 2c0 16 0 31 1 44h95
h114c0 -13 0 -28 -2 -44z" />
    <glyph glyph-name="ugrave.sc" unicode="&#xf7f9;" horiz-adv-x="586" 
d="M195 708c51 -31 112 -72 159 -102c-6 -12 -13 -24 -20 -36c-53 26 -116 59 -171 86c10 18 21 36 32 52zM172 450l-2 -239c0 -81 11 -109 34 -135c15 -17 43 -37 93 -37c42 0 68 14 88 33s41 61 41 134c0 71 0 167 -1 241c0 2 -1 3 -3 3l-71 2c0 16 1 31 1 44h105
c31 0 63 1 92 1c0 -14 0 -28 -1 -45l-54 -2l-2 -249c0 -82 -27 -134 -56 -163c-23 -23 -71 -48 -141 -48c-64 0 -113 14 -148 45c-47 41 -54 94 -54 165v246c0 3 -1 4 -4 4l-52 2c0 16 0 31 1 44h95h114c0 -13 0 -28 -2 -44z" />
    <glyph glyph-name="uhungarumlaut.sc" horiz-adv-x="586" 
d="M327 703c11 -12 22 -30 31 -46c-48 -27 -99 -57 -151 -86c-7 11 -15 23 -22 34c46 32 98 68 142 98zM479 700c11 -12 23 -31 32 -46c-50 -29 -100 -58 -151 -88c-7 12 -15 23 -22 34c43 30 99 69 141 100zM172 450l-2 -239c0 -81 11 -109 34 -135c15 -17 43 -37 93 -37
c42 0 68 14 88 33s41 61 41 134c0 71 0 167 -1 241c0 2 -1 3 -3 3l-71 2c0 16 1 31 1 44h105c31 0 63 1 92 1c0 -14 0 -28 -1 -45l-54 -2l-2 -249c0 -82 -27 -134 -56 -163c-23 -23 -71 -48 -141 -48c-64 0 -113 14 -148 45c-47 41 -54 94 -54 165v246c0 3 -1 4 -4 4l-52 2
c0 16 0 31 1 44h95h114c0 -13 0 -28 -2 -44z" />
    <glyph glyph-name="umacron.sc" horiz-adv-x="586" 
d="M394 641c1 -15 1 -33 0 -48c-58 0 -136 0 -201 1c-1 14 -1 30 0 45c67 1 133 2 201 2zM172 450l-2 -239c0 -81 11 -109 34 -135c15 -17 43 -37 93 -37c42 0 68 14 88 33s41 61 41 134c0 71 0 167 -1 241c0 2 -1 3 -3 3l-71 2c0 16 1 31 1 44h105c31 0 63 1 92 1
c0 -14 0 -28 -1 -45l-54 -2l-2 -249c0 -82 -27 -134 -56 -163c-23 -23 -71 -48 -141 -48c-64 0 -113 14 -148 45c-47 41 -54 94 -54 165v246c0 3 -1 4 -4 4l-52 2c0 16 0 31 1 44h95h114c0 -13 0 -28 -2 -44z" />
    <glyph glyph-name="uogonek.sc" horiz-adv-x="586" 
d="M313 -10c-84 -2 -131 14 -166 45c-47 41 -54 94 -54 165v246c0 3 -1 4 -4 4l-52 2c0 16 0 31 1 44h95h114c0 -13 0 -28 -2 -44l-73 -2l-2 -239c0 -81 11 -109 34 -135c15 -17 43 -37 93 -37c42 0 68 14 88 33s41 61 41 134c0 71 0 167 -1 241c0 2 -1 3 -3 3l-71 2
c0 16 1 31 1 44h105c31 0 63 1 92 1c0 -14 0 -28 -1 -45l-54 -2l-2 -249c0 -82 -25 -132 -56 -163c-14 -13 -20 -18 -41 -32c-70 -46 -96 -90 -96 -123c0 -29 22 -43 41 -43s35 5 51 18c9 -9 15 -19 19 -30c-25 -25 -56 -41 -91 -41c-45 0 -91 33 -91 82c0 47 41 89 85 121z
" />
    <glyph glyph-name="uring.sc" horiz-adv-x="586" 
d="M295 736c59 0 96 -35 96 -83c0 -49 -41 -86 -97 -86c-53 0 -98 32 -98 85c0 42 41 84 99 84zM295 701c-31 0 -52 -23 -52 -50c0 -29 23 -48 52 -48c33 0 50 22 50 49c0 28 -17 49 -50 49zM172 450l-2 -239c0 -81 11 -109 34 -135c15 -17 43 -37 93 -37c42 0 68 14 88 33
s41 61 41 134c0 71 0 167 -1 241c0 2 -1 3 -3 3l-71 2c0 16 1 31 1 44h105c31 0 63 1 92 1c0 -14 0 -28 -1 -45l-54 -2l-2 -249c0 -82 -27 -134 -56 -163c-23 -23 -71 -48 -141 -48c-64 0 -113 14 -148 45c-47 41 -54 94 -54 165v246c0 3 -1 4 -4 4l-52 2c0 16 0 31 1 44h95
h114c0 -13 0 -28 -2 -44z" />
    <glyph glyph-name="yacute.sc" unicode="&#xf7fd;" horiz-adv-x="483" 
d="M377 709c13 -16 23 -35 32 -52c-55 -28 -118 -60 -171 -87c-7 12 -14 25 -21 37c51 32 110 71 160 102zM135 44l67 3c4 0 5 1 5 5v139c-49 80 -109 180 -154 255c-1 3 -3 4 -5 4l-45 2c-1 16 0 31 0 44h83h126c0 -13 0 -28 -1 -44l-70 -3c27 -50 79 -147 114 -207h4
c25 43 93 166 111 203c1 2 1 4 -2 4l-63 3c-1 16 0 30 0 44h109c23 0 51 1 74 1c0 -14 0 -28 -1 -45l-45 -3c-45 -74 -107 -175 -158 -257l-1 -145l76 -3c0 -15 0 -30 -1 -44h-110c-35 0 -75 -1 -114 -1c0 15 0 29 1 45z" />
    <glyph glyph-name="ydieresis.sc" unicode="&#xf7ff;" horiz-adv-x="483" 
d="M178 665c33 0 43 -26 43 -44c0 -20 -15 -42 -42 -42c-26 0 -44 18 -44 43c0 19 14 43 43 43zM336 665c29 0 42 -24 42 -43c0 -25 -18 -43 -43 -43c-28 0 -43 22 -43 42c0 18 11 44 44 44zM135 44l67 3c4 0 5 1 5 5v139c-49 80 -109 180 -154 255c-1 3 -3 4 -5 4l-45 2
c-1 16 0 31 0 44h83h126c0 -13 0 -28 -1 -44l-70 -3c27 -50 79 -147 114 -207h4c25 43 93 166 111 203c1 2 1 4 -2 4l-63 3c-1 16 0 30 0 44h109c23 0 51 1 74 1c0 -14 0 -28 -1 -45l-45 -3c-45 -74 -107 -175 -158 -257l-1 -145l76 -3c0 -15 0 -30 -1 -44h-110
c-35 0 -75 -1 -114 -1c0 15 0 29 1 45z" />
    <glyph glyph-name="zacute.sc" horiz-adv-x="505" 
d="M357 693c13 -16 24 -35 33 -53c-56 -27 -118 -60 -172 -86c-7 11 -14 24 -21 36c51 33 110 71 160 103zM417 156c21 -2 39 -6 55 -10c-10 -49 -22 -99 -35 -147c-21 0 -151 1 -239 1h-150c-4 11 -10 24 -14 35c88 104 237 293 328 408l-1 4c-123 1 -181 0 -207 -3
c-7 -2 -14 -9 -17 -18l-26 -81c-18 2 -37 5 -54 8c8 49 17 98 26 144c15 0 48 -1 76 -1h287c6 -13 11 -29 14 -43c-123 -153 -245 -306 -326 -401l1 -2c147 -1 209 0 233 7c10 2 17 6 22 20z" />
    <glyph glyph-name="zcaron.sc" unicode="&#xf6ff;" horiz-adv-x="505" 
d="M258 634c31 30 67 66 94 92c10 -7 20 -17 29 -27c-32 -36 -75 -89 -105 -123c-11 -1 -25 -1 -37 0c-32 38 -69 83 -104 124c9 9 19 18 29 26c28 -27 65 -64 94 -92zM417 156c21 -2 39 -6 55 -10c-10 -49 -22 -99 -35 -147c-21 0 -151 1 -239 1h-150c-4 11 -10 24 -14 35
c88 104 237 293 328 408l-1 4c-123 1 -181 0 -207 -3c-7 -2 -14 -9 -17 -18l-26 -81c-18 2 -37 5 -54 8c8 49 17 98 26 144c15 0 48 -1 76 -1h287c6 -13 11 -29 14 -43c-123 -153 -245 -306 -326 -401l1 -2c147 -1 209 0 233 7c10 2 17 6 22 20z" />
    <glyph glyph-name="zdotaccent.sc" horiz-adv-x="505" 
d="M267 671c38 0 50 -30 50 -52c0 -31 -22 -54 -53 -54s-54 24 -54 53c0 28 21 53 57 53zM417 156c21 -2 39 -6 55 -10c-10 -49 -22 -99 -35 -147c-21 0 -151 1 -239 1h-150c-4 11 -10 24 -14 35c88 104 237 293 328 408l-1 4c-123 1 -181 0 -207 -3c-7 -2 -14 -9 -17 -18
l-26 -81c-18 2 -37 5 -54 8c8 49 17 98 26 144c15 0 48 -1 76 -1h287c6 -13 11 -29 14 -43c-123 -153 -245 -306 -326 -401l1 -2c147 -1 209 0 233 7c10 2 17 6 22 20z" />
    <glyph glyph-name="acute.sc" unicode="&#xf7b4;" horiz-adv-x="333" 
d="M229 693c13 -16 23 -35 32 -53c-55 -27 -118 -60 -171 -86c-7 11 -14 24 -21 36c51 33 110 71 160 103z" />
    <glyph glyph-name="breve.sc" unicode="&#xf6f4;" horiz-adv-x="333" 
d="M166 553c-61 0 -106 45 -117 97c13 5 27 10 40 13c17 -35 41 -58 79 -58c39 0 64 28 76 54c13 -3 28 -6 41 -10c-9 -40 -55 -96 -119 -96z" />
    <glyph glyph-name="caron.sc" unicode="&#xf6f5;" horiz-adv-x="333" 
d="M167 618c31 30 67 66 94 92c10 -8 20 -18 29 -27c-32 -37 -75 -89 -105 -124h-37c-32 38 -69 84 -104 125c9 9 19 18 30 26c28 -27 64 -64 93 -92z" />
    <glyph glyph-name="cedilla.sc" unicode="&#xf7b8;" horiz-adv-x="333" 
d="M223 -71l74 72h50l-61 -63c37 -7 57 -31 57 -63c0 -50 -51 -83 -125 -84c-2 10 -3 24 -4 34c44 3 72 17 72 44c0 14 -7 23 -13 28c-9 8 -23 11 -41 11c-4 7 -6 14 -9 21z" />
    <glyph glyph-name="circumflex.sc" unicode="&#xf6f6;" horiz-adv-x="333" 
d="M167 636c-29 -28 -65 -65 -93 -92c-11 8 -21 17 -30 26c35 41 73 87 105 124c12 0 26 1 37 0c30 -34 72 -87 104 -124c-9 -8 -19 -18 -29 -26c-27 26 -63 63 -94 92z" />
    <glyph glyph-name="u00200326.sc" horiz-adv-x="333" 
d="M165 -43c31 0 60 -35 60 -73c0 -65 -42 -114 -92 -143c-8 9 -17 20 -23 29c39 27 55 55 55 81c0 27 -24 37 -41 41c-5 37 17 65 41 65z" />
    <glyph glyph-name="dieresis.sc" unicode="&#xf7a8;" horiz-adv-x="333" 
d="M88 649c33 0 43 -26 43 -45c0 -20 -15 -41 -42 -41c-26 0 -44 18 -44 42c0 20 14 44 43 44zM246 649c29 0 42 -24 42 -44c0 -24 -18 -42 -43 -42c-28 0 -43 21 -43 41c0 19 11 45 44 45z" />
    <glyph glyph-name="dotaccent.sc" unicode="&#xf6f7;" horiz-adv-x="333" 
d="M170 671c38 0 50 -30 50 -52c0 -31 -22 -54 -53 -54s-54 24 -54 53c0 28 21 53 57 53z" />
    <glyph glyph-name="grave.sc" unicode="&#xf760;" horiz-adv-x="333" 
d="M104 692c50 -32 111 -72 159 -102c-6 -13 -14 -25 -21 -36c-52 26 -116 59 -171 85c10 18 22 37 33 53z" />
    <glyph glyph-name="hungarumlaut.sc" unicode="&#xf6f8;" horiz-adv-x="333" 
d="M204 688c12 -13 23 -31 32 -46c-48 -28 -100 -57 -151 -86c-8 10 -15 23 -22 33c46 32 98 68 141 99zM357 684c11 -12 22 -31 31 -46c-49 -28 -99 -57 -150 -87c-8 11 -15 22 -22 33c43 30 98 70 141 100z" />
    <glyph glyph-name="macron.sc" unicode="&#xf7af;" horiz-adv-x="333" 
d="M267 626c1 -15 1 -33 0 -48c-58 0 -136 0 -201 1c-1 14 -1 30 0 45c67 1 134 2 201 2z" />
    <glyph glyph-name="ogonek.sc" unicode="&#xf6fb;" horiz-adv-x="333" 
d="M262 5h42c-41 -32 -62 -68 -62 -99s19 -46 44 -46c12 0 29 4 37 7c4 -10 7 -21 9 -32c-17 -10 -41 -17 -63 -17c-41 0 -84 26 -84 73c0 38 24 77 77 114z" />
    <glyph glyph-name="ring.sc" unicode="&#xf6fc;" horiz-adv-x="333" 
d="M168 725c59 0 96 -36 96 -83c0 -49 -41 -87 -97 -87c-53 0 -98 32 -98 85c0 43 41 85 99 85zM168 689c-31 0 -52 -23 -52 -50c0 -29 23 -48 52 -48c33 0 50 22 50 49c0 28 -17 49 -50 49z" />
    <glyph glyph-name="tilde.sc" unicode="&#xf6fe;" horiz-adv-x="333" 
d="M225 558c-26 0 -44 15 -63 29c-19 13 -32 26 -52 26c-18 0 -27 -20 -33 -49c-12 -1 -25 -1 -37 0c4 51 24 99 73 99c30 0 47 -17 66 -30c17 -12 28 -24 46 -24c21 0 28 20 32 51c12 1 25 0 36 0c-2 -51 -16 -102 -68 -102z" />
    <glyph glyph-name="zero.oldstyle" unicode="&#xf730;" horiz-adv-x="539" 
d="M261 -10c-55 0 -106 17 -143 48c-43 35 -74 92 -74 169c0 66 29 135 81 179c36 32 91 54 155 54c56 0 104 -18 136 -42c51 -40 79 -101 79 -172c0 -79 -31 -147 -85 -189c-38 -31 -91 -47 -149 -47zM264 46c39 0 75 11 103 36c30 29 51 75 51 137c0 60 -21 103 -55 132
c-26 24 -57 32 -92 32c-34 0 -67 -12 -92 -34c-33 -31 -57 -76 -57 -139c0 -58 21 -101 51 -129c24 -22 58 -35 91 -35z" />
    <glyph glyph-name="one.oldstyle" unicode="&#xf731;" horiz-adv-x="429" 
d="M54 45l143 3c3 0 4 3 4 5v299c-48 -13 -94 -27 -144 -41c-4 14 -8 28 -12 44c92 35 226 89 232 89c2 0 3 -1 3 -4c-1 -116 -2 -284 -2 -391l129 -4c1 -15 0 -31 -1 -45h-169c-60 0 -121 -1 -184 -1c-1 15 0 30 1 46z" />
    <glyph glyph-name="two.oldstyle" unicode="&#xf732;" horiz-adv-x="440" 
d="M134 59l1 -5c49 0 201 1 271 1c0 -20 0 -39 -3 -55h-239h-126c-5 15 -10 33 -13 51c57 28 97 49 137 73c93 56 138 103 138 170c0 25 -8 46 -22 60c-20 21 -50 28 -77 28c-55 0 -104 -35 -133 -70c-12 9 -25 21 -36 32c30 37 89 96 195 96c51 0 92 -16 119 -44
c26 -26 38 -60 38 -93c0 -86 -54 -146 -164 -206c-29 -15 -60 -28 -86 -38z" />
    <glyph glyph-name="three.oldstyle" unicode="&#xf733;" horiz-adv-x="428" 
d="M243 163v-6c96 -4 147 -71 147 -140c0 -54 -23 -100 -62 -132c-42 -37 -107 -59 -186 -59c-50 0 -107 12 -138 28c5 16 11 33 17 47c21 -9 65 -23 117 -23s101 14 132 42c24 22 38 50 38 90c0 75 -60 113 -156 113h-53c0 16 -1 33 -1 48c126 1 186 57 186 122
c0 25 -5 46 -22 64c-15 17 -40 27 -73 27c-58 0 -107 -35 -134 -69c-11 10 -23 22 -33 34c22 29 82 91 191 91c49 0 88 -15 115 -42c22 -22 35 -54 35 -89c0 -76 -57 -126 -120 -146z" />
    <glyph glyph-name="four.oldstyle" unicode="&#xf734;" horiz-adv-x="496" 
d="M309 -180c1 56 1 126 1 183c-30 0 -240 -1 -269 -1c-8 19 -16 38 -23 58c34 46 80 111 132 180c63 81 116 148 160 200c25 0 51 -1 76 -3c-1 -124 -2 -257 -3 -382c42 0 81 -1 105 -1c0 -16 0 -34 -2 -50h-103c-1 -57 -1 -116 -2 -180c-22 -3 -49 -4 -72 -4zM313 361h-5
c-43 -55 -70 -94 -117 -158c-38 -51 -72 -99 -99 -139c-3 -5 -1 -7 3 -7c44 0 197 -2 215 -2z" />
    <glyph glyph-name="five.oldstyle" unicode="&#xf735;" horiz-adv-x="439" 
d="M60 161l-7 6c10 77 24 178 36 263h142c41 0 107 -1 154 -1c-1 -18 -1 -37 -3 -57c-79 0 -165 -1 -240 -1c-9 -52 -17 -100 -25 -150c19 1 39 1 71 1c141 0 209 -84 209 -174c0 -67 -29 -126 -76 -165c-44 -36 -105 -58 -189 -58c-36 0 -86 9 -116 24c4 15 9 32 15 47
c24 -9 67 -18 104 -18c61 0 105 15 136 42c29 27 47 68 47 114c0 80 -56 131 -168 131c-31 0 -69 -3 -90 -4z" />
    <glyph glyph-name="six.oldstyle" unicode="&#xf736;" horiz-adv-x="494" 
d="M127 315l6 -1c38 46 89 70 150 70c46 0 90 -18 118 -47c31 -32 49 -85 49 -127c0 -67 -22 -128 -68 -171c-32 -30 -79 -49 -141 -49c-57 0 -102 19 -138 56c-35 37 -58 104 -58 170c0 131 54 236 124 307c47 47 112 85 189 108c8 -13 16 -28 21 -44
c-65 -21 -116 -54 -153 -92c-42 -43 -78 -101 -99 -180zM249 38c32 0 59 9 80 30c28 28 42 73 42 123c0 41 -14 78 -32 103c-18 24 -49 36 -78 36c-48 0 -102 -24 -136 -87c-1 -11 -1 -24 -1 -33c1 -50 17 -102 41 -132c20 -24 50 -40 84 -40z" />
    <glyph glyph-name="seven.oldstyle" unicode="&#xf737;" horiz-adv-x="429" 
d="M320 366l-2 5c-105 0 -266 -1 -304 -2c1 20 3 43 6 61h238h133c6 -15 12 -35 16 -53c-88 -161 -201 -420 -259 -551c-18 6 -40 12 -61 21c65 140 139 317 233 519z" />
    <glyph glyph-name="eight.oldstyle" unicode="&#xf738;" horiz-adv-x="501" 
d="M319 328v-5c94 -28 140 -89 140 -158c0 -51 -22 -97 -63 -129c-37 -30 -91 -46 -154 -46c-60 0 -107 15 -140 40c-34 25 -60 60 -60 115c0 71 49 139 139 170v5c-65 25 -108 70 -108 137c0 34 17 72 45 99c31 32 82 53 145 53c53 0 102 -16 132 -45c23 -23 38 -54 38 -90
c0 -72 -49 -119 -114 -146zM145 467c0 -65 44 -93 120 -121c55 23 97 63 97 121c0 26 -9 50 -24 66c-18 21 -47 31 -83 31c-35 0 -67 -11 -87 -35c-13 -16 -23 -37 -23 -62zM383 152c0 75 -52 110 -150 141c-63 -21 -115 -75 -115 -141c0 -35 13 -64 36 -84
c23 -21 59 -32 94 -32c39 0 76 10 100 32c22 21 35 48 35 84z" />
    <glyph glyph-name="nine.oldstyle" unicode="&#xf739;" horiz-adv-x="489" 
d="M365 122l-6 3c-35 -46 -88 -70 -143 -70c-47 0 -92 16 -121 44c-35 33 -56 79 -56 133c0 64 27 120 69 157c37 32 83 51 141 51c50 0 99 -18 132 -53c39 -41 63 -95 63 -185c0 -130 -56 -240 -125 -303c-54 -48 -118 -78 -185 -93c-9 15 -16 32 -22 48
c59 14 119 44 157 81c42 40 79 105 96 187zM237 392c-32 0 -59 -12 -79 -33c-26 -28 -40 -66 -40 -117c0 -44 14 -78 35 -101c19 -22 49 -34 77 -34c45 0 100 28 134 81v28c0 58 -17 105 -36 130c-21 28 -51 46 -91 46z" />
    <glyph glyph-name="Abreve" unicode="&#x102;" horiz-adv-x="606" 
d="M311 746c-67 0 -116 47 -129 99c13 6 27 11 40 14c19 -35 49 -60 91 -60c43 0 75 29 88 56c14 -3 29 -6 41 -11c-10 -41 -61 -98 -131 -98zM-13 46l56 3c2 0 4 1 5 4c70 179 163 427 232 605c11 1 33 2 54 2c67 -180 154 -430 219 -611l61 -3c0 -14 0 -31 -1 -46h-94
c-46 0 -92 -1 -132 -1c0 16 1 32 1 47l78 3c2 0 3 2 2 5c-16 45 -35 101 -51 144c-1 4 -3 5 -7 5l-239 -1c-16 -48 -37 -107 -53 -153l90 -3c0 -14 0 -31 -1 -46h-133c-29 0 -61 -1 -88 -1c0 16 1 32 1 47zM299 547h-4c-34 -91 -73 -202 -106 -290c-1 -4 -1 -6 2 -6l210 -1
c-31 92 -70 205 -102 297z" />
    <glyph glyph-name="Amacron" unicode="&#x100;" horiz-adv-x="606" 
d="M416 785c1 -16 0 -33 0 -49c-68 0 -152 1 -225 1c-1 14 -1 30 0 46c76 0 148 1 225 2zM-13 46l56 3c2 0 4 1 5 4c70 179 163 427 232 605c11 1 33 2 54 2c67 -180 154 -430 219 -611l61 -3c0 -14 0 -31 -1 -46h-94c-46 0 -92 -1 -132 -1c0 16 1 32 1 47l78 3c2 0 3 2 2 5
c-16 45 -35 101 -51 144c-1 4 -3 5 -7 5l-239 -1c-16 -48 -37 -107 -53 -153l90 -3c0 -14 0 -31 -1 -46h-133c-29 0 -61 -1 -88 -1c0 16 1 32 1 47zM299 547h-4c-34 -91 -73 -202 -106 -290c-1 -4 -1 -6 2 -6l210 -1c-31 92 -70 205 -102 297z" />
    <glyph glyph-name="Aogonek" unicode="&#x104;" horiz-adv-x="606" 
d="M613 0h-29c-46 -1 -120 -68 -120 -117c0 -29 21 -43 41 -43c19 0 34 5 51 18c8 -9 14 -19 18 -30c-24 -25 -56 -41 -91 -41c-45 0 -91 33 -91 82c0 47 46 93 104 131c-42 0 -69 -1 -109 -1c0 16 1 32 1 47l78 3c2 0 3 2 2 5c-16 45 -35 101 -51 144c-1 4 -3 5 -7 5
l-239 -1c-16 -48 -37 -107 -53 -153l90 -3c0 -14 0 -31 -1 -46h-133c-29 0 -61 -1 -88 -1c0 16 1 32 1 47l56 3c2 0 4 1 5 4c70 179 163 427 232 605c11 1 33 2 54 2c67 -180 154 -430 219 -611l61 -3c0 -14 0 -31 -1 -46zM299 547h-4c-34 -91 -73 -202 -106 -290
c-1 -4 -1 -6 2 -6l210 -1c-31 92 -70 205 -102 297z" />
    <glyph glyph-name="Cacute" unicode="&#x106;" horiz-adv-x="585" 
d="M479 857c11 -14 26 -36 37 -54c-51 -28 -118 -67 -168 -95c-8 11 -17 24 -24 34c47 34 107 79 155 115zM50 288c0 140 59 236 131 296c70 58 157 76 227 76c55 0 103 -10 128 -21c4 -56 7 -113 9 -170c-17 -2 -37 -4 -56 -6l-17 108c-1 8 -4 13 -8 15
c-22 14 -49 18 -82 18c-56 0 -114 -19 -158 -64c-56 -56 -90 -134 -90 -228c0 -86 15 -142 62 -196c37 -42 102 -68 168 -68c59 0 130 21 177 42c4 -16 9 -35 12 -51c-76 -31 -145 -49 -204 -49c-68 0 -138 18 -193 60c-64 50 -106 136 -106 238z" />
    <glyph glyph-name="Ccaron" unicode="&#x10c;" horiz-adv-x="585" 
d="M362 779c36 24 78 52 110 73c10 -9 18 -20 26 -31c-36 -30 -82 -69 -120 -100c-10 0 -24 0 -34 1c-38 31 -79 65 -118 97c8 12 17 23 25 31c32 -20 74 -47 111 -71zM50 288c0 140 59 236 131 296c70 58 157 76 227 76c55 0 103 -10 128 -21c4 -56 7 -113 9 -170
c-17 -2 -37 -4 -56 -6l-17 108c-1 8 -4 13 -8 15c-22 14 -49 18 -82 18c-56 0 -114 -19 -158 -64c-56 -56 -90 -134 -90 -228c0 -86 15 -142 62 -196c37 -42 102 -68 168 -68c59 0 130 21 177 42c4 -16 9 -35 12 -51c-76 -31 -145 -49 -204 -49c-68 0 -138 18 -193 60
c-64 50 -106 136 -106 238z" />
    <glyph glyph-name="Dcaron" unicode="&#x10e;" horiz-adv-x="691" 
d="M310 771c36 24 78 52 110 73c10 -9 18 -20 26 -31c-36 -30 -82 -69 -120 -100c-10 0 -24 0 -34 1c-38 31 -79 66 -118 97c8 12 17 23 25 32c32 -21 74 -48 111 -72zM48 -1c0 15 0 32 1 47l69 2c3 0 4 2 4 5l1 547l-75 3c0 15 1 32 1 46c54 1 129 2 206 2
c122 0 187 -17 247 -53c83 -48 139 -143 139 -253c0 -116 -43 -220 -125 -281c-59 -43 -134 -65 -232 -65c-40 0 -95 1 -119 1c-35 0 -79 -1 -117 -1zM204 601l-2 -519c0 -27 8 -36 76 -36c90 0 157 24 200 63c47 43 79 123 79 206c0 111 -27 172 -90 228
c-45 39 -111 62 -203 62c-27 0 -50 -1 -60 -4z" />
    <glyph glyph-name="Dcroat" unicode="&#x110;" horiz-adv-x="708" 
d="M140 346v254l-74 3c0 15 0 32 1 46c54 1 127 2 205 2c128 0 186 -18 241 -49c92 -51 146 -151 146 -257c0 -120 -45 -220 -124 -280c-59 -44 -135 -66 -233 -66c-40 0 -96 1 -120 1c-35 0 -79 -1 -117 -1c0 15 1 32 1 47l69 2c3 0 5 2 5 5v243c-28 0 -56 1 -89 0
c0 17 0 35 1 50h88zM220 296l-1 -214c0 -28 8 -36 76 -36c91 0 153 22 201 64c46 41 79 122 79 204c0 113 -28 173 -90 228c-46 40 -108 63 -209 63c-22 0 -45 -1 -55 -4l-1 -255c55 1 110 1 180 2c0 -17 -1 -36 -3 -52h-177z" />
    <glyph glyph-name="Ecaron" unicode="&#x11a;" horiz-adv-x="555" 
d="M278 771c37 24 79 52 111 73c10 -9 18 -20 26 -31c-36 -30 -82 -69 -120 -100c-10 0 -24 0 -34 1c-38 31 -79 66 -119 97c9 12 18 23 26 32c32 -21 74 -48 110 -72zM50 46l70 3c1 0 3 1 3 3v549l-74 3c0 15 1 31 2 46h115h221c42 1 65 1 87 1c4 -50 7 -101 9 -152
c-16 -2 -34 -5 -53 -6l-16 87c-2 9 -7 15 -23 17c-26 3 -93 5 -158 5h-30l-1 -246c56 0 103 0 157 1c17 1 22 7 23 20l5 48h51c-1 -31 -1 -63 -2 -96v-92c-16 -1 -34 -2 -51 -2l-4 53c-1 14 -7 19 -24 19c-45 1 -96 1 -155 1l-1 -240c0 -17 3 -20 56 -20c81 0 138 3 155 7
c9 2 14 9 18 20l32 91c18 -3 37 -7 52 -10c-11 -52 -23 -105 -35 -157c-46 0 -176 1 -311 1c-42 0 -82 -1 -118 -1v47z" />
    <glyph glyph-name="Edotaccent" unicode="&#x116;" horiz-adv-x="555" 
d="M289 821c38 0 51 -30 51 -52c-1 -31 -23 -54 -53 -54c-32 0 -54 24 -54 53c0 28 20 53 56 53zM50 46l70 3c1 0 3 1 3 3v549l-74 3c0 15 1 31 2 46h115h221c42 1 65 1 87 1c4 -50 7 -101 9 -152c-16 -2 -34 -5 -53 -6l-16 87c-2 9 -7 15 -23 17c-26 3 -93 5 -158 5h-30
l-1 -246c56 0 103 0 157 1c17 1 22 7 23 20l5 48h51c-1 -31 -1 -63 -2 -96v-92c-16 -1 -34 -2 -51 -2l-4 53c-1 14 -7 19 -24 19c-45 1 -96 1 -155 1l-1 -240c0 -17 3 -20 56 -20c81 0 138 3 155 7c9 2 14 9 18 20l32 91c18 -3 37 -7 52 -10c-11 -52 -23 -105 -35 -157
c-46 0 -176 1 -311 1c-42 0 -82 -1 -118 -1v47z" />
    <glyph glyph-name="Emacron" unicode="&#x112;" horiz-adv-x="555" 
d="M390 785c1 -16 0 -33 0 -49c-68 0 -152 1 -226 1c0 14 0 30 1 46c76 0 148 1 225 2zM50 46l70 3c1 0 3 1 3 3v549l-74 3c0 15 1 31 2 46h115h221c42 1 65 1 87 1c4 -50 7 -101 9 -152c-16 -2 -34 -5 -53 -6l-16 87c-2 9 -7 15 -23 17c-26 3 -93 5 -158 5h-30l-1 -246
c56 0 103 0 157 1c17 1 22 7 23 20l5 48h51c-1 -31 -1 -63 -2 -96v-92c-16 -1 -34 -2 -51 -2l-4 53c-1 14 -7 19 -24 19c-45 1 -96 1 -155 1l-1 -240c0 -17 3 -20 56 -20c81 0 138 3 155 7c9 2 14 9 18 20l32 91c18 -3 37 -7 52 -10c-11 -52 -23 -105 -35 -157
c-46 0 -176 1 -311 1c-42 0 -82 -1 -118 -1v47z" />
    <glyph glyph-name="Eogonek" unicode="&#x118;" horiz-adv-x="555" 
d="M51 650h115h221c42 0 65 1 87 1c4 -50 7 -101 9 -152c-16 -2 -34 -5 -53 -6l-16 87c-2 9 -7 15 -23 17c-26 3 -93 5 -158 5h-30l-1 -246c56 0 103 0 157 1c17 1 22 7 23 20l5 48h51c-1 -31 -1 -63 -2 -96v-92c-16 -1 -34 -2 -51 -2l-4 53c-1 14 -7 19 -24 19
c-45 1 -96 1 -155 1l-1 -240c0 -17 3 -20 56 -20c81 0 138 3 155 7c9 2 14 9 18 20l32 91c18 -3 37 -7 52 -10c-11 -52 -23 -107 -35 -157c-83 -33 -112 -85 -112 -116c0 -29 21 -43 41 -43c19 0 35 5 51 18c9 -9 15 -19 19 -30c-25 -25 -56 -41 -91 -41
c-46 0 -91 33 -91 82c0 48 47 94 103 130c-48 1 -99 1 -231 1c-42 0 -82 -1 -118 -1v47l70 3c1 0 3 1 3 3v549l-74 3c0 15 1 31 2 46z" />
    <glyph glyph-name="Gbreve" unicode="&#x11e;" horiz-adv-x="665" 
d="M374 726c-67 0 -116 46 -128 99c12 6 26 10 39 13c19 -35 49 -59 91 -59c43 0 75 29 89 55c13 -2 28 -6 40 -10c-10 -41 -60 -98 -131 -98zM513 461l-13 100c-1 7 -3 14 -9 19c-25 20 -62 27 -103 27c-53 0 -115 -17 -163 -64c-56 -53 -88 -130 -88 -223
c0 -87 21 -157 71 -208c58 -61 131 -74 187 -74c52 0 92 14 92 24l1 170l-108 2c0 15 1 32 2 48c41 0 93 -1 144 -1c33 0 67 1 97 1c0 -15 0 -33 -1 -48l-51 -2c-3 0 -4 -1 -4 -4l-2 -205c-34 -20 -98 -33 -178 -33c-95 0 -174 24 -227 68c-68 58 -110 137 -110 251
c0 125 59 226 145 287c68 49 157 64 216 64c65 0 117 -11 151 -28c3 -53 6 -110 8 -165c-18 -2 -38 -4 -57 -6z" />
    <glyph glyph-name="uni0122" unicode="&#x122;" horiz-adv-x="665" 
d="M379 -52c31 0 60 -35 60 -73c0 -65 -43 -114 -92 -143c-8 9 -17 20 -24 29c40 27 56 55 56 81c0 27 -24 37 -41 41c-5 37 16 65 41 65zM513 461l-13 100c-1 7 -3 14 -9 19c-25 20 -62 27 -103 27c-53 0 -115 -17 -163 -64c-56 -53 -88 -130 -88 -223
c0 -87 21 -157 71 -208c58 -61 131 -74 187 -74c52 0 92 14 92 24l1 170l-108 2c0 15 1 32 2 48c41 0 93 -1 144 -1c33 0 67 1 97 1c0 -15 0 -33 -1 -48l-51 -2c-3 0 -4 -1 -4 -4l-2 -205c-34 -20 -98 -33 -178 -33c-95 0 -174 24 -227 68c-68 58 -110 137 -110 251
c0 125 59 226 145 287c68 49 157 64 216 64c65 0 117 -11 151 -28c3 -53 6 -110 8 -165c-18 -2 -38 -4 -57 -6z" />
    <glyph glyph-name="Imacron" unicode="&#x12a;" horiz-adv-x="324" 
d="M279 781c1 -15 1 -33 0 -48h-225c-1 15 -1 31 0 46c76 1 148 2 225 2zM123 601l-79 3c0 15 0 31 1 46h124h117c1 -14 0 -32 -1 -46l-79 -3c-2 0 -2 -2 -2 -4l-3 -548l86 -3c0 -14 0 -32 -1 -47c-34 0 -80 1 -120 1c-39 0 -84 -1 -120 -1c0 15 0 32 1 47l72 3c2 0 4 1 4 4
v548z" />
    <glyph glyph-name="Iogonek" unicode="&#x12e;" horiz-adv-x="324" 
d="M46 -1c0 15 0 32 1 47l72 3c2 0 4 1 4 4v548l-79 3c0 15 0 31 1 46h124h117c1 -14 0 -32 -1 -46l-79 -3c-2 0 -2 -2 -2 -4l-3 -548l86 -3c0 -14 0 -31 -1 -47l-46 1c-46 -1 -120 -68 -120 -117c0 -29 21 -43 41 -43c19 0 34 5 51 18c9 -9 14 -19 19 -30
c-25 -25 -56 -41 -92 -41c-45 0 -91 33 -91 82c0 47 46 93 105 131c-41 0 -71 -1 -107 -1z" />
    <glyph glyph-name="uni0136" unicode="&#x136;" horiz-adv-x="631" 
d="M331 -43c31 0 60 -35 60 -74c0 -64 -42 -113 -92 -143c-8 10 -16 20 -23 30c39 27 55 55 55 81c0 27 -23 36 -41 41c-5 37 17 65 41 65zM123 601l-72 3c0 15 1 32 1 46h116h110c0 -14 0 -32 -1 -47l-70 -2c-3 0 -3 -2 -3 -6l-2 -241c17 1 45 2 69 8
c38 36 142 162 197 234c2 2 0 4 -2 4l-67 3c0 16 0 32 1 47h129h80c0 -14 0 -31 -1 -46l-53 -3c-81 -95 -156 -178 -220 -249v-5c42 -30 81 -80 116 -137c28 -44 54 -86 89 -136c11 -16 21 -23 33 -24l72 -3c0 -15 -1 -32 -2 -47c-24 -1 -55 -1 -80 -1c-22 0 -48 -1 -67 -1
c-20 23 -64 98 -108 169c-40 64 -93 142 -125 142c-20 0 -47 -1 -61 -2l-1 -258l81 -3c0 -14 0 -32 -1 -47c-32 0 -77 1 -116 1c-38 0 -80 -1 -114 -1c0 15 0 32 1 47l67 3c2 0 3 2 3 4z" />
    <glyph glyph-name="Lacute" unicode="&#x139;" horiz-adv-x="523" 
d="M281 850c11 -14 26 -36 37 -54c-51 -28 -118 -67 -168 -95c-8 11 -17 24 -24 34c47 34 107 79 155 115zM123 601l-74 2c0 16 1 32 2 47h117h127c0 -15 0 -32 -1 -47l-88 -2c-2 0 -2 -1 -2 -4l-3 -529c0 -18 1 -21 43 -21c111 0 144 3 160 6c9 2 14 9 18 21l36 105
c18 -3 37 -7 52 -12c-10 -49 -26 -115 -39 -168c-47 0 -169 1 -304 1c-42 0 -82 -1 -118 -1c0 15 1 32 1 47l69 3c2 0 3 1 3 4z" />
    <glyph glyph-name="Lcaron" unicode="&#x13d;" horiz-adv-x="523" 
d="M450 697c-14 -68 -34 -139 -52 -187c-12 -1 -37 5 -48 7c14 72 18 119 23 182c22 3 61 2 77 -2zM123 601l-74 2c0 16 1 32 2 47h117h127c0 -15 0 -32 -1 -47l-88 -2c-2 0 -2 -1 -2 -4l-3 -529c0 -18 1 -21 43 -21c111 0 144 3 160 6c9 2 14 9 18 21l36 105
c18 -3 37 -7 52 -12c-10 -49 -26 -115 -39 -168c-47 0 -169 1 -304 1c-42 0 -82 -1 -118 -1c0 15 1 32 1 47l69 3c2 0 3 1 3 4z" />
    <glyph glyph-name="uni013B" unicode="&#x13b;" horiz-adv-x="523" 
d="M288 -48c31 0 60 -35 60 -74c0 -64 -42 -113 -92 -143c-8 10 -17 20 -23 30c39 27 55 55 55 81c0 27 -24 36 -41 41c-5 37 17 65 41 65zM123 601l-74 2c0 16 1 32 2 47h117h127c0 -15 0 -32 -1 -47l-88 -2c-2 0 -2 -1 -2 -4l-3 -529c0 -18 1 -21 43 -21
c111 0 144 3 160 6c9 2 14 9 18 21l36 105c18 -3 37 -7 52 -12c-10 -49 -26 -115 -39 -168c-47 0 -169 1 -304 1c-42 0 -82 -1 -118 -1c0 15 1 32 1 47l69 3c2 0 3 1 3 4z" />
    <glyph glyph-name="Nacute" unicode="&#x143;" horiz-adv-x="716" 
d="M449 835c11 -14 26 -36 36 -54c-51 -28 -118 -67 -168 -95c-8 11 -17 24 -23 34c46 34 107 79 155 115zM48 46l64 3c2 0 3 1 3 4v548l-73 3c0 15 0 32 1 46h145c114 -170 248 -371 358 -540l5 1c-1 163 -2 327 -4 490l-94 2c0 15 1 32 1 47h124h96c1 -14 0 -31 0 -46
l-61 -3c-2 0 -3 -1 -3 -4l-3 -593c-13 -6 -35 -11 -53 -11c-104 143 -242 342 -372 538h-6c0 -161 -1 -321 -1 -482l99 -2c0 -15 0 -32 -1 -47h-131c-33 0 -68 -1 -95 -1c0 15 0 32 1 47z" />
    <glyph glyph-name="Ncaron" unicode="&#x147;" horiz-adv-x="716" 
d="M353 771c36 24 78 52 110 73c10 -9 19 -20 27 -31c-36 -30 -82 -69 -120 -100c-11 0 -24 0 -35 1c-38 31 -79 66 -118 97c8 12 17 23 25 32c33 -21 75 -48 111 -72zM48 46l64 3c2 0 3 1 3 4v548l-73 3c0 15 0 32 1 46h145c114 -170 248 -371 358 -540l5 1
c-1 163 -2 327 -4 490l-94 2c0 15 1 32 1 47h124h96c1 -14 0 -31 0 -46l-61 -3c-2 0 -3 -1 -3 -4l-3 -593c-13 -6 -35 -11 -53 -11c-104 143 -242 342 -372 538h-6c0 -161 -1 -321 -1 -482l99 -2c0 -15 0 -32 -1 -47h-131c-33 0 -68 -1 -95 -1c0 15 0 32 1 47z" />
    <glyph glyph-name="uni0145" unicode="&#x145;" horiz-adv-x="716" 
d="M363 -43c31 0 60 -35 60 -73c0 -65 -42 -114 -92 -143c-8 9 -17 20 -23 29c39 27 55 55 55 81c0 27 -24 37 -41 41c-5 37 17 65 41 65zM48 46l64 3c2 0 3 1 3 4v548l-73 3c0 15 0 32 1 46h145c114 -170 248 -371 358 -540l5 1c-1 163 -2 327 -4 490l-94 2c0 15 1 32 1 47
h124h96c1 -14 0 -31 0 -46l-61 -3c-2 0 -3 -1 -3 -4l-3 -593c-13 -6 -35 -11 -53 -11c-104 143 -242 342 -372 538h-6c0 -161 -1 -321 -1 -482l99 -2c0 -15 0 -32 -1 -47h-131c-33 0 -68 -1 -95 -1c0 15 0 32 1 47z" />
    <glyph glyph-name="Ohungarumlaut" unicode="&#x150;" horiz-adv-x="718" 
d="M392 862c12 -12 26 -28 36 -43c-47 -33 -95 -68 -144 -102c-9 10 -17 21 -25 31c42 37 91 78 133 114zM514 858c12 -11 25 -27 36 -42c-48 -34 -95 -68 -144 -104c-8 10 -17 21 -24 31c39 35 91 80 132 115zM346 -10c-88 0 -158 33 -208 84c-55 56 -88 139 -88 245
c0 129 63 232 139 285c59 40 120 56 189 56c61 0 118 -15 167 -50c73 -51 123 -150 123 -265c0 -104 -34 -205 -105 -274c-52 -51 -118 -81 -217 -81zM360 40c60 0 113 21 149 62c39 45 73 111 73 222c0 92 -23 171 -72 224c-38 43 -85 62 -145 62c-55 0 -103 -18 -141 -52
c-47 -42 -88 -120 -88 -232c0 -99 20 -168 73 -224c40 -43 94 -62 151 -62z" />
    <glyph glyph-name="Omacron" unicode="&#x14c;" horiz-adv-x="718" 
d="M476 785c1 -16 1 -33 0 -49c-67 0 -151 1 -225 1c-1 14 -1 30 0 46c76 0 148 1 225 2zM346 -10c-88 0 -158 33 -208 84c-55 56 -88 139 -88 245c0 129 63 232 139 285c59 40 120 56 189 56c61 0 118 -15 167 -50c73 -51 123 -150 123 -265c0 -104 -34 -205 -105 -274
c-52 -51 -118 -81 -217 -81zM360 40c60 0 113 21 149 62c39 45 73 111 73 222c0 92 -23 171 -72 224c-38 43 -85 62 -145 62c-55 0 -103 -18 -141 -52c-47 -42 -88 -120 -88 -232c0 -99 20 -168 73 -224c40 -43 94 -62 151 -62z" />
    </font>
</defs>
</svg>
