<?xml version="1.0" standalone="no"?>
<!DOCTYPE svg PUBLIC "-//W3C//DTD SVG 1.1//EN" "http://www.w3.org/Graphics/SVG/1.1/DTD/svg11.dtd" >
<svg xmlns="http://www.w3.org/2000/svg" xmlns:xlink="http://www.w3.org/1999/xlink" version="1.1">
<metadata>
Created by FontForge 20141024 at Thu Jul  2 09:33:21 2015
 By Jimmy Warting
Michael Muranaka
</metadata>
<defs>
<font id="DolceVita" horiz-adv-x="1014" >
  <font-face 
    font-family="Dolce Vita"
    font-weight="400"
    font-stretch="normal"
    units-per-em="2048"
    panose-1="2 0 5 0 0 0 0 0 0 0"
    ascent="1638"
    descent="-410"
    x-height="1433"
    cap-height="1443"
    bbox="-148 -380 2302 1721"
    underline-thickness="150"
    underline-position="-142"
    unicode-range="U+0020-F002"
  />
<missing-glyph horiz-adv-x="2348" 
d="M831 1393q101 36 207 41h114v-697h-172v516q-78 -13 -149 -49v-467h-172v329q-116 -144 -116 -329h-174q0 143 55 272q54 126 151 223q-156 -54 -254 -188q-99 -137 -99 -307h-174q0 138 52 265q51 123 143 218q92 96 213 151q124 57 261 63h114v-41zM1371 737h-172v697
h114q106 -5 207 -41v41h113q137 -6 262 -63q120 -55 212 -151q92 -95 143 -218q52 -127 52 -265h-174q0 170 -99 307q-97 134 -253 188q97 -97 150 -223q56 -129 56 -272h-174q0 186 -117 329v-329h-171v467q-71 36 -149 49v-516zM1776 202q156 54 253 188q99 137 99 307
h174q0 -138 -52 -265q-51 -123 -143 -218q-92 -96 -212 -151q-125 -57 -262 -63h-113v41q-101 -36 -207 -41h-114v697h172v-516q78 13 149 49v467h171v-329q117 143 117 329h174q0 -143 -56 -272q-53 -126 -150 -223zM980 697h172v-697h-114q-107 5 -207 41v-41h-114
q-137 6 -261 63q-121 55 -213 151q-92 95 -143 218q-52 127 -52 265h174q0 -170 99 -307q98 -134 254 -188q-98 97 -151 223q-55 129 -55 272h174q0 -185 116 -329v329h172v-467q71 -36 149 -49v516z" />
    <glyph glyph-name=".notdef" horiz-adv-x="2348" 
d="M831 1393q101 36 207 41h114v-697h-172v516q-78 -13 -149 -49v-467h-172v329q-116 -144 -116 -329h-174q0 143 55 272q54 126 151 223q-156 -54 -254 -188q-99 -137 -99 -307h-174q0 138 52 265q51 123 143 218q92 96 213 151q124 57 261 63h114v-41zM1371 737h-172v697
h114q106 -5 207 -41v41h113q137 -6 262 -63q120 -55 212 -151q92 -95 143 -218q52 -127 52 -265h-174q0 170 -99 307q-97 134 -253 188q97 -97 150 -223q56 -129 56 -272h-174q0 186 -117 329v-329h-171v467q-71 36 -149 49v-516zM1776 202q156 54 253 188q99 137 99 307
h174q0 -138 -52 -265q-51 -123 -143 -218q-92 -96 -212 -151q-125 -57 -262 -63h-113v41q-101 -36 -207 -41h-114v697h172v-516q78 13 149 49v467h171v-329q117 143 117 329h174q0 -143 -56 -272q-53 -126 -150 -223zM980 697h172v-697h-114q-107 5 -207 41v-41h-114
q-137 6 -261 63q-121 55 -213 151q-92 95 -143 218q-52 127 -52 265h174q0 -170 99 -307q98 -134 254 -188q-98 97 -151 223q-55 129 -55 272h174q0 -185 116 -329v329h172v-467q71 -36 149 -49v516z" />
    <glyph glyph-name=".null" horiz-adv-x="0" 
 />
    <glyph glyph-name="nonmarkingreturn" horiz-adv-x="508" 
 />
    <glyph glyph-name="space" unicode=" " horiz-adv-x="460" 
 />
    <glyph glyph-name="space" unicode="&#xa0;" horiz-adv-x="460" 
 />
    <glyph glyph-name="exclam" unicode="!" horiz-adv-x="336" 
d="M103 149q-28 -28 -28 -67q0 -40 28 -68t68 -28q39 0 67 28t28 68q0 39 -28 67t-67 28q-40 0 -68 -28zM237 291h-132v1152h132v-1152z" />
    <glyph glyph-name="quotedbl" unicode="&#x22;" horiz-adv-x="467" 
d="M182 1429q-27 20 -58 20q-40 0 -68 -28t-28 -68t28 -68t68 -28q6 0 13 1q-11 -39 -49 -62l27 -37q79 34 99 115q13 50 2 105q-9 30 -34 50zM394 1429q-27 20 -58 20q-40 0 -68 -28t-28 -68t28 -68t68 -28q6 0 13 1q-11 -39 -49 -62l27 -37q79 34 99 115q13 50 2 105
q-9 30 -34 50z" />
    <glyph glyph-name="numbersign" unicode="#" horiz-adv-x="1089" 
d="M739 1436l-45 -482h-209l44 482h-132l-45 -482h-332v-132h320l-16 -177h-304v-132h292l-48 -513h133l47 513h209l-47 -513h132l48 513h273v132h-261l16 177h245v132h-233l45 482h-132zM473 822h209l-16 -177h-210z" />
    <glyph glyph-name="dollar" unicode="$" horiz-adv-x="764" 
d="M442 619q160 -66 156 -162q-2 -52 -44 -95q-43 -45 -112 -62v319zM234 1089q32 20 76 29v-315q-152 64 -148 157q4 88 72 129zM442 1119q88 -17 137 -70l97 90q-88 95 -234 114v195h-132v-196q-83 -12 -145 -50q-128 -78 -135 -236q-9 -205 280 -304v-362
q-127 29 -160 119l-125 -46q32 -87 116 -143q74 -50 169 -64v-197h132v197q125 19 207 105q77 80 81 180q5 102 -69 181q-75 79 -219 128v359z" />
    <glyph glyph-name="percent" unicode="%" horiz-adv-x="1032" 
d="M803 1436l-689 -1436h146l689 1436h-146zM166 1177q-36 -36 -36 -86q0 -51 36 -87t87 -36q50 0 86 36t36 87q0 50 -36 86t-86 36q-51 0 -87 -36zM73 911q-75 74 -75 180q0 105 75 180q74 74 180 74q105 0 180 -74q74 -75 74 -180q0 -106 -74 -180q-75 -75 -180 -75
q-106 0 -180 75zM696 374q-36 -36 -36 -86q0 -51 36 -87t87 -36q50 0 86 36t36 87q0 50 -36 86t-86 36q-51 0 -87 -36zM603 108q-75 74 -75 180q0 105 75 180q74 74 180 74q105 0 180 -74q74 -75 74 -180q0 -106 -74 -180q-75 -75 -180 -75q-106 0 -180 75z" />
    <glyph glyph-name="ampersand" unicode="&#x26;" horiz-adv-x="856" 
d="M607 132h-189q-108 0 -184 77q-77 77 -77 186q0 108 77 184q76 77 184 77h189v-524zM739 788v165h-132v-165h-104q-106 0 -182 76q-76 75 -76 182t76 182q76 76 182 76h170v132h-170q-161 0 -275 -114q-115 -115 -115 -276q0 -179 137 -296q-101 -48 -162 -143
q-63 -97 -63 -212q0 -164 115 -279q116 -116 278 -116h321v656h90v132h-90z" />
    <glyph glyph-name="quotesingle" unicode="'" horiz-adv-x="255" 
d="M182 1429q-27 20 -58 20q-40 0 -68 -28t-28 -68t28 -68t68 -28q6 0 13 1q-11 -39 -49 -62l27 -37q79 34 99 115q13 50 2 105q-9 30 -34 50z" />
    <glyph glyph-name="parenleft" unicode="(" horiz-adv-x="382" 
d="M380 1390v145q-156 -60 -243 -218q-112 -205 -112 -596q0 -377 112 -586q88 -165 243 -227v147q-223 143 -223 666q0 537 223 669z" />
    <glyph glyph-name="parenright" unicode=")" horiz-adv-x="382" 
d="M3 53v-145q155 60 242 218q113 205 113 596q0 376 -112 586q-89 165 -243 227v-147q223 -143 223 -666q0 -537 -223 -669z" />
    <glyph glyph-name="asterisk" unicode="*" horiz-adv-x="559" 
d="M210 1434v-154l-146 48l-41 -125l146 -48l-90 -124l106 -77l90 124l91 -124l106 77l-90 124l146 48l-41 125l-146 -48v154h-131z" />
    <glyph glyph-name="plus" unicode="+" horiz-adv-x="552" 
d="M514 828h-172v172h-132v-172h-173v-132h173v-173h132v173h172v132z" />
    <glyph glyph-name="comma" unicode="," horiz-adv-x="349" 
d="M231 157q-27 20 -58 20q-40 0 -68 -28t-28 -68t28 -68t68 -28q6 0 13 1q-11 -39 -49 -62l27 -37q79 34 99 115q13 50 2 105q-9 30 -34 50z" />
    <glyph glyph-name="hyphen" unicode="-" horiz-adv-x="530" 
d="M501 694h-477v133h477v-133z" />
    <glyph glyph-name="hyphen" unicode="&#xad;" horiz-adv-x="530" 
d="M501 694h-477v133h477v-133z" />
    <glyph glyph-name="period" unicode="." horiz-adv-x="354" 
d="M103 149q-28 -28 -28 -67q0 -40 28 -68t68 -28q39 0 67 28t28 68q0 39 -28 67t-67 28q-40 0 -68 -28z" />
    <glyph glyph-name="slash" unicode="/" horiz-adv-x="545" 
d="M540 1436l-688 -1436h146l689 1436h-147z" />
    <glyph glyph-name="zero" unicode="0" horiz-adv-x="973" 
d="M268 1194q-121 -160 -121 -477q0 -286 88 -443t248 -157t248 157t88 443q0 317 -122 477q-92 123 -214 123q-123 0 -215 -123zM144 169q-129 190 -129 548q0 364 151 561q130 171 317 171t317 -171q150 -197 150 -561q0 -430 -181 -613q-117 -118 -286 -118
q-214 0 -339 183z" />
    <glyph glyph-name="one" unicode="1" horiz-adv-x="325" 
d="M50 1436v-132h71v-1304h132v1436h-203z" />
    <glyph glyph-name="two" unicode="2" horiz-adv-x="750" 
d="M687 0h-695l58 100q494 849 494 989q0 104 -60 169q-61 66 -156 66q-64 0 -119 -40t-83 -107l-122 51q43 104 131 167q89 62 193 62q152 0 250 -104q99 -104 99 -264q0 -112 -109 -335q-86 -175 -345 -621h464v-133z" />
    <glyph glyph-name="three" unicode="3" horiz-adv-x="806" 
d="M20 142l102 84q89 -108 228 -108q123 0 210 87q87 88 87 211t-87 209q-87 87 -210 87v132q98 0 168 69q70 70 70 167q0 99 -70 168q-70 70 -168 70q-133 0 -202 -113l-113 69q51 83 135 129q83 47 180 47q153 0 261 -108q109 -109 109 -262q0 -185 -151 -296
q96 -57 152 -153q58 -100 58 -215q0 -178 -126 -304t-303 -126q-201 0 -330 156z" />
    <glyph glyph-name="four" unicode="4" horiz-adv-x="813" 
d="M608 1436v-718h-435l110 718h-134l-130 -850h589v-586h132v1436h-132z" />
    <glyph glyph-name="five" unicode="5" horiz-adv-x="806" 
d="M23 132l100 86q89 -102 223 -102q123 0 210 87t87 210q0 122 -87 208q-87 87 -210 87h-252l70 726h545v-132h-425l-45 -462h107q177 0 303 -125t126 -302t-126 -303q-125 -126 -303 -126q-195 0 -323 148z" />
    <glyph glyph-name="six" unicode="6" horiz-adv-x="905" 
d="M661 637q87 -88 87 -210q0 -124 -87 -211q-87 -88 -210 -88t-210 88q-87 87 -87 211q0 122 87 210q87 87 210 87t210 -87zM149 121q126 -125 302 -125q177 0 303 127q126 126 126 304q0 177 -126 303t-303 126q-150 0 -268 -95q6 25 12 48q110 386 457 507l-44 125
q-413 -145 -541 -601q-61 -217 -45 -417q2 -177 127 -302z" />
    <glyph glyph-name="seven" unicode="7" horiz-adv-x="743" 
d="M20 1436v-132h519l-363 -1304h137l399 1436h-692z" />
    <glyph glyph-name="eight" unicode="8" horiz-adv-x="887" 
d="M233 219q-86 87 -86 210q0 122 86 209q87 86 210 86q122 0 209 -86q87 -87 87 -209q0 -123 -87 -210t-209 -87q-123 0 -210 87zM275 1259q70 70 168 70t167 -70q69 -69 69 -167t-69 -167t-167 -69t-168 69q-69 69 -69 167t69 167zM811 1078q0 152 -108 260t-260 108
q-153 0 -261 -108t-108 -260q0 -186 150 -296q-95 -57 -151 -153q-58 -99 -58 -214q0 -177 125 -303q126 -126 303 -126q176 0 302 126q125 126 125 303q0 115 -58 214q-56 96 -151 153q150 110 150 296z" />
    <glyph glyph-name="nine" unicode="9" horiz-adv-x="905" 
d="M237 801q-87 87 -87 210t87 210q87 88 210 88t210 -88q87 -87 87 -210t-87 -210t-210 -87t-210 87zM749 1316q-126 125 -302 125q-177 0 -303 -126q-126 -127 -126 -304q0 -178 126 -304q126 -125 303 -125q150 0 268 94q-6 -25 -12 -47q-110 -387 -457 -508l44 -125
q413 145 541 601q61 217 45 417q-2 177 -127 302z" />
    <glyph glyph-name="colon" unicode=":" horiz-adv-x="361" 
d="M103 149q-28 -28 -28 -67q0 -40 28 -68t68 -28q39 0 67 28t28 68q0 39 -28 67t-67 28q-40 0 -68 -28zM103 828q-28 -28 -28 -68t28 -67q28 -28 68 -28q39 0 67 28q28 27 28 67t-28 68t-67 28q-40 0 -68 -28z" />
    <glyph glyph-name="semicolon" unicode=";" horiz-adv-x="354" 
d="M230 157q-26 20 -57 20q-40 0 -68 -28t-28 -68t28 -68t68 -28q6 0 13 1q-11 -39 -50 -62l28 -37q78 34 99 115q12 50 2 105q-10 30 -35 50zM103 828q-28 -28 -28 -68t28 -67q28 -28 68 -28q39 0 67 28q28 27 28 67t-28 68t-67 28q-40 0 -68 -28z" />
    <glyph glyph-name="semicolon" unicode="&#x37e;" horiz-adv-x="354" 
d="M230 157q-26 20 -57 20q-40 0 -68 -28t-28 -68t28 -68t68 -28q6 0 13 1q-11 -39 -50 -62l28 -37q78 34 99 115q12 50 2 105q-10 30 -35 50zM103 828q-28 -28 -28 -68t28 -67q28 -28 68 -28q39 0 67 28q28 27 28 67t-28 68t-67 28q-40 0 -68 -28z" />
    <glyph glyph-name="less" unicode="&#x3c;" horiz-adv-x="799" 
d="M289 426l477 251v150l-767 -404l767 -382v147z" />
    <glyph glyph-name="equal" unicode="=" horiz-adv-x="530" 
d="M501 694h-477v133h477v-133zM501 432h-477v133h477v-133z" />
    <glyph glyph-name="greater" unicode="&#x3e;" horiz-adv-x="799" 
d="M29 188v-147l767 382l-767 404v-150l478 -251z" />
    <glyph glyph-name="question" unicode="?" horiz-adv-x="644" 
d="M206 285q0 212 18 302q23 110 101 219q16 23 53 66q108 127 108 212q0 103 -60 169q-60 65 -155 65q-89 0 -154 -72l-98 89q104 115 252 115q151 0 249 -103q98 -104 98 -263q0 -89 -47 -172q-27 -48 -92 -125q-34 -40 -47 -58q-62 -87 -79 -172q-15 -75 -15 -272h-132z
M212 149q-28 -28 -28 -67q0 -40 28 -68t68 -28q39 0 67 28t28 68q0 39 -28 67t-67 28q-40 0 -68 -28z" />
    <glyph glyph-name="at" unicode="@" horiz-adv-x="1432" 
d="M629 436q-91 27 -134 125q-46 105 -10 225q66 222 257 222q28 0 56 -9q91 -27 134 -126q45 -104 10 -224q-67 -222 -257 -222q-29 0 -56 9zM788 1445q-282 29 -502 -165q-219 -193 -250 -493q-31 -301 146 -535q176 -234 456 -262q33 -4 66 -4q165 0 312 81l-63 116
q-143 -79 -301 -62q-226 23 -368 214q-142 192 -117 439q26 248 206 407q177 156 402 133q224 -23 366 -213q144 -191 118 -440q-8 -77 -33 -148q-56 -139 -123 -154q-21 -4 -42 15q-51 48 -8 194q9 22 15 43q50 166 -15 315q-68 155 -218 200q-46 13 -93 13
q-128 0 -235 -88t-149 -228q-49 -166 16 -314q67 -155 217 -200q46 -14 94 -14q124 0 229 84q15 -63 57 -101q71 -67 161 -47q135 29 217 234l1 3q31 87 40 179q31 300 -143 533q-177 236 -459 265z" />
    <glyph glyph-name="A" unicode="A" horiz-adv-x="1177" 
d="M914 1436l-908 -1436h156l227 359h570v-359h131v1436h-176zM959 1260v-769h-487z" />
    <glyph glyph-name="B" unicode="B" horiz-adv-x="1032" 
d="M225 787h300q106 0 182 76t76 183t-76 182q-76 76 -182 76h-300v-517zM225 132h385q108 0 185 77q76 77 76 186q0 107 -76 184q-77 76 -185 76h-385v-523zM93 0v1436h432q161 0 275 -114q115 -115 115 -276q0 -179 -137 -297q102 -48 163 -142q62 -97 62 -212
q0 -164 -115 -279q-116 -116 -278 -116h-517z" />
    <glyph glyph-name="C" unicode="C" horiz-adv-x="1110" 
d="M335 294q-176 176 -176 424t176 424t424 176q177 0 326 -97v152q-154 77 -326 77q-303 0 -517 -215q-215 -214 -215 -517t215 -517q214 -215 517 -215q172 0 326 77v152q-149 -97 -326 -97q-248 0 -424 176z" />
    <glyph glyph-name="D" unicode="D" horiz-adv-x="1188" 
d="M218 131h222q243 0 415 172t172 415t-172 415t-415 172h-222v-1174zM87 0v1436h353q297 0 508 -211q210 -210 210 -507t-210 -507q-211 -211 -508 -211h-353z" />
    <glyph glyph-name="E" unicode="E" horiz-adv-x="849" 
d="M90 1436v-1436h733v132h-601v522h475v132h-475v518h601v132h-733z" />
    <glyph glyph-name="F" unicode="F" horiz-adv-x="849" 
d="M90 1436v-1436h132v654h475v132h-475v518h601v132h-733z" />
    <glyph glyph-name="G" unicode="G" horiz-adv-x="1103" 
d="M233 201q-215 214 -215 517q0 302 215 517q214 214 517 214q149 0 285 -57l-52 -122q-111 47 -233 47q-248 0 -424 -175q-176 -176 -176 -424t176 -424t424 -176q100 0 194 32v506h-299v132h431v-727l-40 -17q-137 -58 -286 -58q-303 0 -517 215z" />
    <glyph glyph-name="H" unicode="H" horiz-adv-x="1139" 
d="M937 1436v-650h-728v650h-132v-1436h132v654h728v-654h132v1436h-132z" />
    <glyph glyph-name="I" unicode="I" horiz-adv-x="219" 
d="M40 0h133v1443h-133v-1443z" />
    <glyph glyph-name="J" unicode="J" horiz-adv-x="552" 
d="M349 1440v-972q0 -145 -103 -249q-103 -103 -249 -103v-132q201 0 343 142t142 342v972h-133z" />
    <glyph glyph-name="K" unicode="K" horiz-adv-x="1025" 
d="M834 1436l-611 -761v760h-132v-1434h132v464l121 151l508 -616h170l-593 721l574 715h-169z" />
    <glyph glyph-name="L" unicode="L" horiz-adv-x="919" 
d="M90 1436v-1436h799v132h-667v1304h-132z" />
    <glyph glyph-name="M" unicode="M" horiz-adv-x="1542" 
d="M1325 1436l-549 -1270l-548 1270h-138v-1435h132v1116l482 -1117h144l483 1117v-1116h131v1435h-137z" />
    <glyph glyph-name="N" unicode="N" horiz-adv-x="1167" 
d="M948 1436v-1197l-715 1197h-143v-1436h132v1197l716 -1197h142v1436h-132z" />
    <glyph glyph-name="O" unicode="O" horiz-adv-x="1513" 
d="M331 1141q-176 -176 -176 -424t176 -424t424 -176t424 176t176 424t-176 424t-424 176t-424 -176zM238 200q-215 214 -215 517t215 518q214 214 517 214t518 -214q214 -215 214 -518t-214 -517q-215 -215 -518 -215t-517 215z" />
    <glyph glyph-name="P" unicode="P" horiz-adv-x="1032" 
d="M225 780h385q108 0 185 77q76 76 76 184q0 109 -76 186q-77 77 -185 77h-385v-524zM225 0h-132v1436h517q162 0 278 -116q115 -115 115 -279q0 -162 -115 -278q-116 -115 -278 -115h-385v-648z" />
    <glyph glyph-name="Q" unicode="Q" horiz-adv-x="1577" 
d="M331 293q-176 176 -176 424q0 57 11 113l894 -630q-141 -83 -305 -83q-248 0 -424 176zM1179 1141q176 -176 176 -424q0 -255 -185 -433l-962 678q71 160 217 256q150 99 330 99q248 0 424 -176zM1573 0l-293 207q207 213 207 510q0 303 -214 518q-215 214 -518 214
t-517 -214q-215 -215 -215 -518t215 -517q214 -215 517 -215q231 0 421 134l168 -119h229z" />
    <glyph glyph-name="R" unicode="R" horiz-adv-x="1054" 
d="M225 781v523h384q108 0 185 -77q76 -77 76 -185t-76 -185q-77 -76 -185 -76h-384zM711 662q127 34 208 138q83 107 83 242q0 163 -115 278q-115 116 -278 116h-516v-1435h132v648h344l337 -649h148z" />
    <glyph glyph-name="S" unicode="S" horiz-adv-x="969" 
d="M454 -13q-139 6 -255 73q-132 76 -179 203l124 45q32 -86 130 -139q86 -46 186 -51q153 -6 256 77q92 74 97 174q8 188 -344 287q-254 71 -363 198q-83 97 -78 218q9 205 174 306q131 80 317 71q224 -10 358 -154l-97 -90q-97 105 -267 113q-146 6 -242 -52
q-105 -65 -111 -200q-8 -184 344 -283q254 -71 363 -199q83 -98 78 -220q-8 -161 -146 -272q-132 -106 -319 -106q-13 0 -26 1z" />
    <glyph glyph-name="T" unicode="T" horiz-adv-x="933" 
d="M20 1436v-132h377v-1304h132v1304h376v132h-885z" />
    <glyph glyph-name="U" unicode="U" horiz-adv-x="1146" 
d="M233 129q-145 145 -145 350v954h132v-954q0 -150 106 -257q107 -107 257 -107t257 107q106 107 106 257v954h132v-954q0 -205 -145 -350t-350 -145t-350 145z" />
    <glyph glyph-name="V" unicode="V" horiz-adv-x="1174" 
d="M1017 1436l-796 -1260v1260h-132v-1436h176l908 1436h-156z" />
    <glyph glyph-name="W" unicode="W" horiz-adv-x="2093" 
d="M1933 1436l-796 -1260v1260h-132l-796 -1260v1260h-132v-1436h176l752 1189v-1189h176l908 1436h-156z" />
    <glyph glyph-name="X" unicode="X" horiz-adv-x="1018" 
d="M864 1436l-355 -602l-354 602h-153l431 -731l-415 -705h153l338 575l339 -575h153l-415 705l430 731h-152z" />
    <glyph glyph-name="Y" unicode="Y" horiz-adv-x="1018" 
d="M865 1436l-355 -602l-354 602h-153l441 -749v-687h132v687l441 749h-152z" />
    <glyph glyph-name="Z" unicode="Z" horiz-adv-x="919" 
d="M63 1436v-132h639l-707 -1304h861v132h-639l706 1304h-860z" />
    <glyph glyph-name="bracketleft" unicode="[" horiz-adv-x="311" 
d="M309 -92v132h-142v1363h142v132h-274v-1627h274z" />
    <glyph glyph-name="backslash" unicode="\" horiz-adv-x="545" 
d="M-2 0l689 1436h-147l-688 -1436h146z" />
    <glyph glyph-name="bracketright" unicode="]" horiz-adv-x="311" 
d="M0 1535v-132h142v-1363h-142v-132h274v1627h-274z" />
    <glyph glyph-name="asciicircum" unicode="^" horiz-adv-x="530" 
d="M155 1438l-132 -226h153l86 148l87 -148h153l-132 226h-215z" />
    <glyph glyph-name="underscore" unicode="_" horiz-adv-x="530" 
d="M501 -162h-477v133h477v-133z" />
    <glyph glyph-name="grave" unicode="`" horiz-adv-x="226" 
d="M30 1721l107 -226h56v226h-163z" />
    <glyph glyph-name="a" unicode="a" horiz-adv-x="1177" 
d="M914 1436l-908 -1436h156l227 359h570v-359h131v1436h-176zM959 1260v-769h-487z" />
    <glyph glyph-name="b" unicode="b" horiz-adv-x="1032" 
d="M225 787h300q106 0 182 76t76 183t-76 182q-76 76 -182 76h-300v-517zM225 132h385q108 0 185 77q76 77 76 186q0 107 -76 184q-77 76 -185 76h-385v-523zM93 0v1436h432q161 0 275 -114q115 -115 115 -276q0 -179 -137 -297q102 -48 163 -142q62 -97 62 -212
q0 -164 -115 -279q-116 -116 -278 -116h-517z" />
    <glyph glyph-name="c" unicode="c" horiz-adv-x="1110" 
d="M335 294q-176 176 -176 424t176 424t424 176q177 0 326 -97v152q-154 77 -326 77q-303 0 -517 -215q-215 -214 -215 -517t215 -517q214 -215 517 -215q172 0 326 77v152q-149 -97 -326 -97q-248 0 -424 176z" />
    <glyph glyph-name="d" unicode="d" horiz-adv-x="1188" 
d="M218 131h222q243 0 415 172t172 415t-172 415t-415 172h-222v-1174zM87 0v1436h353q297 0 508 -211q210 -210 210 -507t-210 -507q-211 -211 -508 -211h-353z" />
    <glyph glyph-name="e" unicode="e" horiz-adv-x="849" 
d="M90 1436v-1436h733v132h-601v522h475v132h-475v518h601v132h-733z" />
    <glyph glyph-name="f" unicode="f" horiz-adv-x="849" 
d="M90 1436v-1436h132v654h475v132h-475v518h601v132h-733z" />
    <glyph glyph-name="g" unicode="g" horiz-adv-x="1103" 
d="M233 201q-215 214 -215 517q0 302 215 517q214 214 517 214q149 0 285 -57l-52 -122q-111 47 -233 47q-248 0 -424 -175q-176 -176 -176 -424t176 -424t424 -176q100 0 194 32v506h-299v132h431v-727l-40 -17q-137 -58 -286 -58q-303 0 -517 215z" />
    <glyph glyph-name="h" unicode="h" horiz-adv-x="1139" 
d="M937 1436v-650h-728v650h-132v-1436h132v654h728v-654h132v1436h-132z" />
    <glyph glyph-name="i" unicode="i" horiz-adv-x="219" 
d="M40 0h133v1443h-133v-1443z" />
    <glyph glyph-name="j" unicode="j" horiz-adv-x="552" 
d="M349 1440v-972q0 -145 -103 -249q-103 -103 -249 -103v-132q201 0 343 142t142 342v972h-133z" />
    <glyph glyph-name="k" unicode="k" horiz-adv-x="1025" 
d="M834 1436l-611 -761v760h-132v-1434h132v464l121 151l508 -616h170l-593 721l574 715h-169z" />
    <glyph glyph-name="l" unicode="l" horiz-adv-x="919" 
d="M90 1436v-1436h799v132h-667v1304h-132z" />
    <glyph glyph-name="m" unicode="m" horiz-adv-x="1542" 
d="M1325 1436l-549 -1270l-548 1270h-138v-1435h132v1116l482 -1117h144l483 1117v-1116h131v1435h-137z" />
    <glyph glyph-name="n" unicode="n" horiz-adv-x="1167" 
d="M948 1436v-1197l-715 1197h-143v-1436h132v1197l716 -1197h142v1436h-132z" />
    <glyph glyph-name="o" unicode="o" horiz-adv-x="1513" 
d="M331 1141q-176 -176 -176 -424t176 -424t424 -176t424 176t176 424t-176 424t-424 176t-424 -176zM238 200q-215 214 -215 517t215 518q214 214 517 214t518 -214q214 -215 214 -518t-214 -517q-215 -215 -518 -215t-517 215z" />
    <glyph glyph-name="p" unicode="p" horiz-adv-x="1032" 
d="M225 780h385q108 0 185 77q76 76 76 184q0 109 -76 186q-77 77 -185 77h-385v-524zM225 0h-132v1436h517q162 0 278 -116q115 -115 115 -279q0 -162 -115 -278q-116 -115 -278 -115h-385v-648z" />
    <glyph glyph-name="q" unicode="q" horiz-adv-x="1577" 
d="M331 293q-176 176 -176 424q0 57 11 113l894 -630q-141 -83 -305 -83q-248 0 -424 176zM1179 1141q176 -176 176 -424q0 -255 -185 -433l-962 678q71 160 217 256q150 99 330 99q248 0 424 -176zM1573 0l-293 207q207 213 207 510q0 303 -214 518q-215 214 -518 214
t-517 -214q-215 -215 -215 -518t215 -517q214 -215 517 -215q231 0 421 134l168 -119h229z" />
    <glyph glyph-name="r" unicode="r" horiz-adv-x="1054" 
d="M225 781v523h384q108 0 185 -77q76 -77 76 -185t-76 -185q-77 -76 -185 -76h-384zM711 662q127 34 208 138q83 107 83 242q0 163 -115 278q-115 116 -278 116h-516v-1435h132v648h344l337 -649h148z" />
    <glyph glyph-name="s" unicode="s" horiz-adv-x="976" 
d="M454 -13q-139 6 -255 73q-132 76 -179 203l124 45q32 -86 130 -139q86 -46 186 -51q153 -6 256 77q92 74 97 174q8 188 -344 287q-254 71 -363 198q-83 97 -78 218q9 205 174 306q131 80 317 71q224 -10 358 -154l-97 -90q-97 105 -267 113q-146 6 -242 -52
q-105 -65 -111 -200q-8 -184 344 -283q254 -71 363 -199q83 -98 78 -220q-8 -161 -146 -272q-132 -106 -319 -106q-13 0 -26 1z" />
    <glyph glyph-name="t" unicode="t" horiz-adv-x="933" 
d="M20 1436v-132h377v-1304h132v1304h376v132h-885z" />
    <glyph glyph-name="u" unicode="u" horiz-adv-x="1146" 
d="M233 129q-145 145 -145 350v954h132v-954q0 -150 106 -257q107 -107 257 -107t257 107q106 107 106 257v954h132v-954q0 -205 -145 -350t-350 -145t-350 145z" />
    <glyph glyph-name="v" unicode="v" horiz-adv-x="1174" 
d="M1017 1436l-796 -1260v1260h-132v-1436h176l908 1436h-156z" />
    <glyph glyph-name="w" unicode="w" horiz-adv-x="2093" 
d="M1933 1436l-796 -1260v1260h-132l-796 -1260v1260h-132v-1436h176l752 1189v-1189h176l908 1436h-156z" />
    <glyph glyph-name="x" unicode="x" horiz-adv-x="1018" 
d="M864 1436l-355 -602l-354 602h-153l431 -731l-415 -705h153l338 575l339 -575h153l-415 705l430 731h-152z" />
    <glyph glyph-name="y" unicode="y" horiz-adv-x="1018" 
d="M865 1436l-355 -602l-354 602h-153l441 -749v-687h132v687l441 749h-152z" />
    <glyph glyph-name="z" unicode="z" horiz-adv-x="919" 
d="M63 1436v-132h639l-707 -1304h861v132h-639l706 1304h-860z" />
    <glyph glyph-name="braceleft" unicode="{" 
 />
    <glyph glyph-name="bar" unicode="|" 
 />
    <glyph glyph-name="braceright" unicode="}" 
 />
    <glyph glyph-name="asciitilde" unicode="~" horiz-adv-x="601" 
d="M283 1268q-34 19 -53 27q-59 28 -105 -34l-106 79q39 52 101 79q84 35 166 -4q22 -10 60 -31q61 -33 83 -35q23 -2 53 24l88 -99q-65 -57 -135 -57q-56 0 -152 51z" />
    <glyph glyph-name="exclamdown" unicode="&#xa1;" horiz-adv-x="336" 
d="M238 919q28 28 28 67q0 40 -28 68t-68 28q-39 0 -67 -28t-28 -68q0 -39 28 -67t67 -28q40 0 68 28zM104 777h132v-1152h-132v1152z" />
    <glyph glyph-name="cent" unicode="&#xa2;" horiz-adv-x="919" 
d="M477 318q-139 31 -230 142q-92 114 -92 259q0 146 92 259q91 111 230 142v-802zM891 1153q-126 94 -282 106v197h-132v-202q-194 -33 -324 -183q-130 -153 -130 -353t130 -353q130 -150 324 -183v-202h132v197q156 12 282 106v183q-108 -139 -282 -157v818
q174 -18 282 -157v183z" />
    <glyph glyph-name="sterling" unicode="&#xa3;" horiz-adv-x="751" 
d="M597 410v132h-350q2 192 -47 443q-15 75 -19 107q-13 85 42 148q65 76 173 76q140 0 201 -146l121 51q-43 103 -130 165q-88 62 -192 62q-168 0 -273 -121q-94 -109 -73 -254q5 -35 20 -113q88 -444 -19 -878l-20 -82h668v132h-501q31 143 42 278h357z" />
    <glyph glyph-name="currency" unicode="&#xa4;" 
 />
    <glyph glyph-name="yen" unicode="&#xa5;" horiz-adv-x="1018" 
d="M863 1436l-355 -602l-354 602h-153l384 -652h-234v-132h291v-89h-291v-132h291v-431h132v431h292v132h-292v89h292v132h-235l384 652h-152z" />
    <glyph glyph-name="brokenbar" unicode="&#xa6;" 
 />
    <glyph glyph-name="section" unicode="&#xa7;" 
 />
    <glyph glyph-name="dieresis" unicode="&#xa8;" horiz-adv-x="488" 
d="M283 1690q-28 -28 -28 -67q0 -40 28 -68t68 -28q39 0 67 28t28 68q0 39 -28 67t-67 28q-40 0 -68 -28zM57 1690q-28 -28 -28 -67q0 -40 28 -68t68 -28q39 0 67 28t28 68q0 39 -28 67t-67 28q-40 0 -68 -28z" />
    <glyph glyph-name="copyright" unicode="&#xa9;" horiz-adv-x="1153" 
d="M869 608q-120 -120 -290 -120t-290 120q-121 121 -121 291t121 290q120 121 290 121t290 -121q121 -120 121 -290t-121 -291zM963 1283q-159 159 -384 159t-384 -159q-159 -160 -159 -384q0 -225 159 -384t384 -159t384 159t159 384q0 224 -159 384zM716 569
q-53 -17 -109 -17q-144 0 -246 101q-102 102 -102 246q0 143 102 245t246 102q56 0 109 -18v-145q-51 31 -109 31q-89 0 -153 -63q-63 -63 -63 -152t63 -152q64 -63 153 -63q58 0 109 30v-145z" />
    <glyph glyph-name="ordfeminine" unicode="&#xaa;" horiz-adv-x="648" 
 />
    <glyph glyph-name="guillemotleft" unicode="&#xab;" horiz-adv-x="799" 
 />
    <glyph glyph-name="logicalnot" unicode="&#xac;" 
 />
    <glyph glyph-name="registered" unicode="&#xae;" horiz-adv-x="1153" 
d="M495 1084h119q28 0 48 -20t20 -49q0 -28 -20 -48t-48 -20h-119v137zM495 815h78l119 -228h148l-131 252q105 57 105 176q0 83 -59 142t-141 59h-251v-629h132v228zM281 1192q-121 -120 -121 -290t121 -291q120 -120 290 -120t290 120q121 121 121 291t-121 290
q-120 121 -290 121t-290 -121zM187 518q-159 159 -159 384q0 224 159 383q159 160 384 160t384 -160q159 -159 159 -383q0 -225 -159 -384t-384 -159t-384 159z" />
    <glyph glyph-name="macron" unicode="&#xaf;" horiz-adv-x="670" 
 />
    <glyph glyph-name="degree" unicode="&#xb0;" horiz-adv-x="233" 
d="M101 1361q-6 -6 -6 -14q0 -9 6 -15q6 -5 14 -5t14 5q6 6 6 15q0 8 -6 14t-14 6t-14 -6zM50 1282q-27 27 -27 65t27 65t65 27t65 -27t27 -65t-27 -65t-65 -27t-65 27z" />
    <glyph glyph-name="plusminus" unicode="&#xb1;" 
 />
    <glyph glyph-name="uni00B2" unicode="&#xb2;" 
 />
    <glyph glyph-name="uni00B3" unicode="&#xb3;" 
 />
    <glyph glyph-name="acute" unicode="&#xb4;" horiz-adv-x="226" 
d="M30 1721v-226h56l107 226h-163z" />
    <glyph glyph-name="mu" unicode="&#xb5;" horiz-adv-x="1180" 
 />
    <glyph glyph-name="paragraph" unicode="&#xb6;" horiz-adv-x="1024" 
 />
    <glyph glyph-name="periodcentered" unicode="&#xb7;" horiz-adv-x="508" 
 />
    <glyph glyph-name="periodcentered" unicode="&#x2219;" horiz-adv-x="508" 
 />
    <glyph glyph-name="cedilla" unicode="&#xb8;" horiz-adv-x="1024" 
 />
    <glyph glyph-name="uni00B9" unicode="&#xb9;" 
 />
    <glyph glyph-name="ordmasculine" unicode="&#xba;" horiz-adv-x="718" 
 />
    <glyph glyph-name="guillemotright" unicode="&#xbb;" horiz-adv-x="944" 
 />
    <glyph glyph-name="onequarter" unicode="&#xbc;" horiz-adv-x="1708" 
 />
    <glyph glyph-name="onehalf" unicode="&#xbd;" horiz-adv-x="1964" 
 />
    <glyph glyph-name="threequarters" unicode="&#xbe;" horiz-adv-x="1708" 
 />
    <glyph glyph-name="questiondown" unicode="&#xbf;" horiz-adv-x="644" 
d="M431 785q0 -212 -18 -302q-23 -110 -101 -219q-16 -23 -53 -66q-108 -127 -108 -212q0 -103 60 -169q60 -65 155 -65q89 0 154 72l98 -89q-104 -115 -252 -115q-151 0 -249 103q-98 104 -98 263q0 89 47 172q27 48 92 125q34 40 47 58q62 87 79 172q15 75 15 272h132z
M425 921q28 28 28 67q0 40 -28 68t-68 28q-39 0 -67 -28t-28 -68q0 -39 28 -67t67 -28q40 0 68 28z" />
    <glyph glyph-name="Agrave" unicode="&#xc0;" horiz-adv-x="1177" 
d="M914 1436l-908 -1436h156l227 359h570v-359h131v1436h-176zM959 1260v-769h-487zM927 1721l107 -226h56v226h-163z" />
    <glyph glyph-name="Aacute" unicode="&#xc1;" horiz-adv-x="1177" 
d="M914 1436l-908 -1436h156l227 359h570v-359h131v1436h-176zM959 1260v-769h-487zM916 1721v-226h56l107 226h-163z" />
    <glyph glyph-name="Acircumflex" unicode="&#xc2;" horiz-adv-x="1177" 
d="M914 1436l-908 -1436h156l227 359h570v-359h131v1436h-176zM959 1260v-769h-487zM892 1721l-133 -226h153l87 148l86 -148h153l-132 226h-214z" />
    <glyph glyph-name="Atilde" unicode="&#xc3;" horiz-adv-x="1177" 
d="M914 1436l-908 -1436h156l227 359h570v-359h131v1436h-176zM959 1260v-769h-487zM804 1544q-35 19 -53 27q-60 28 -106 -34l-106 79q39 52 102 79q83 35 166 -4q21 -10 59 -31q62 -33 83 -35q24 -2 53 24l88 -99q-64 -57 -134 -57q-57 0 -152 51z" />
    <glyph glyph-name="Adieresis" unicode="&#xc4;" horiz-adv-x="1177" 
d="M914 1436l-908 -1436h156l227 359h570v-359h131v1436h-176zM959 1260v-769h-487zM927 1690q-28 -28 -28 -67q0 -40 28 -68t68 -28q39 0 67 28t28 68q0 39 -28 67t-67 28q-40 0 -68 -28zM701 1690q-28 -28 -28 -67q0 -40 28 -68t68 -28q39 0 67 28t28 68q0 39 -28 67
t-67 28q-40 0 -68 -28z" />
    <glyph glyph-name="Aring" unicode="&#xc5;" horiz-adv-x="1177" 
d="M914 1436l-908 -1436h156l227 359h570v-359h131v1436h-176zM959 1260v-769h-487zM980 1637q-6 -6 -6 -14q0 -9 6 -15q6 -5 14 -5q9 0 15 5q6 6 6 15q0 8 -6 14t-15 6q-8 0 -14 -6zM929 1558q-27 27 -27 65t27 65t65 27q39 0 65 -27q27 -27 27 -65t-27 -65
q-26 -27 -65 -27q-38 0 -65 27z" />
    <glyph glyph-name="AE" unicode="&#xc6;" horiz-adv-x="1711" 
d="M907 1436l-908 -1436h156l227 359h570v-358h731v132h-600v522h475v131h-475v517h600v133h-776zM952 1260v-769h-487z" />
    <glyph glyph-name="Ccedilla" unicode="&#xc7;" horiz-adv-x="1047" 
d="M330 295q-176 176 -176 424t176 423q175 176 423 176q138 0 261 -59v143q-126 48 -261 48q-302 0 -517 -214q-214 -215 -214 -517q0 -284 192 -494q191 -208 470 -234v-165h66q68 0 68 -35q0 -34 -68 -34t-68 34h-132q0 -70 58 -118t142 -48t142 48t58 118
q0 120 -134 157v42q102 9 198 45v144q-123 -60 -261 -60q-248 0 -423 176z" />
    <glyph glyph-name="Egrave" unicode="&#xc8;" horiz-adv-x="849" 
d="M90 1436v-1436h733v132h-601v522h475v132h-475v518h601v132h-733zM375 1721l107 -226h56v226h-163z" />
    <glyph glyph-name="Eacute" unicode="&#xc9;" horiz-adv-x="849" 
d="M90 1436v-1436h733v132h-601v522h475v132h-475v518h601v132h-733zM375 1721v-226h56l107 226h-163z" />
    <glyph glyph-name="Ecircumflex" unicode="&#xca;" horiz-adv-x="849" 
d="M90 1436v-1436h733v132h-601v522h475v132h-475v518h601v132h-733zM349 1721l-132 -226h153l86 148l87 -148h153l-132 226h-215z" />
    <glyph glyph-name="Edieresis" unicode="&#xcb;" horiz-adv-x="849" 
d="M90 1436v-1436h733v132h-601v522h475v132h-475v518h601v132h-733zM517 1690q-28 -28 -28 -67q0 -40 28 -68t68 -28q39 0 67 28t28 68q0 39 -28 67t-67 28q-40 0 -68 -28zM291 1690q-28 -28 -28 -67q0 -40 28 -68t68 -28q39 0 67 28t28 68q0 39 -28 67t-67 28
q-40 0 -68 -28z" />
    <glyph glyph-name="Igrave" unicode="&#xcc;" horiz-adv-x="219" 
d="M40 0h133v1443h-133v-1443zM10 1721l107 -226h56v226h-163z" />
    <glyph glyph-name="Iacute" unicode="&#xcd;" horiz-adv-x="219" 
d="M40 0h133v1443h-133v-1443zM40 1721v-226h56l107 226h-163z" />
    <glyph glyph-name="Icircumflex" unicode="&#xce;" horiz-adv-x="219" 
d="M40 0h133v1443h-133v-1443zM0 1721l-132 -226h153l86 148l87 -148h153l-132 226h-215z" />
    <glyph glyph-name="Idieresis" unicode="&#xcf;" horiz-adv-x="219" 
d="M40 0h133v1443h-133v-1443zM156 1690q-28 -28 -28 -67q0 -40 28 -68t68 -28q39 0 67 28t28 68q0 39 -28 67t-67 28q-40 0 -68 -28zM-70 1690q-28 -28 -28 -67q0 -40 28 -68t68 -28q39 0 67 28t28 68q0 39 -28 67t-67 28q-40 0 -68 -28z" />
    <glyph glyph-name="Eth" unicode="&#xd0;" horiz-adv-x="1195" 
d="M224 131v524h247v131h-247v519h222q242 0 414 -172t172 -415t-172 -415t-414 -172h-222zM93 1436v-650h-95v-131h95v-655h353q297 0 507 211q211 210 211 507t-211 507q-210 211 -507 211h-353z" />
    <glyph glyph-name="Ntilde" unicode="&#xd1;" horiz-adv-x="1167" 
d="M948 1436v-1197l-715 1197h-143v-1436h132v1197l716 -1197h142v1436h-132zM574 1544q-35 19 -53 27q-60 28 -105 -34l-106 79q38 52 101 79q83 35 166 -4q22 -10 59 -31q62 -33 83 -35q24 -2 53 24l88 -99q-64 -57 -134 -57q-56 0 -152 51z" />
    <glyph glyph-name="Ograve" unicode="&#xd2;" horiz-adv-x="1513" 
d="M331 1141q-176 -176 -176 -424t176 -424t424 -176t424 176t176 424t-176 424t-424 176t-424 -176zM238 200q-215 214 -215 517t215 518q214 214 517 214t518 -214q214 -215 214 -518t-214 -517q-215 -215 -518 -215t-517 215zM674 1721l107 -226h56v226h-163z" />
    <glyph glyph-name="Oacute" unicode="&#xd3;" horiz-adv-x="1513" 
d="M331 1141q-176 -176 -176 -424t176 -424t424 -176t424 176t176 424t-176 424t-424 176t-424 -176zM238 200q-215 214 -215 517t215 518q214 214 517 214t518 -214q214 -215 214 -518t-214 -517q-215 -215 -518 -215t-517 215zM674 1721v-226h56l107 226h-163z" />
    <glyph glyph-name="Ocircumflex" unicode="&#xd4;" horiz-adv-x="1513" 
d="M331 1141q-176 -176 -176 -424t176 -424t424 -176t424 176t176 424t-176 424t-424 176t-424 -176zM238 200q-215 214 -215 517t215 518q214 214 517 214t518 -214q214 -215 214 -518t-214 -517q-215 -215 -518 -215t-517 215zM648 1721l-132 -226h153l86 148l86 -148h153
l-132 226h-214z" />
    <glyph glyph-name="Otilde" unicode="&#xd5;" horiz-adv-x="1513" 
d="M331 1141q-176 -176 -176 -424t176 -424t424 -176t424 176t176 424t-176 424t-424 176t-424 -176zM238 200q-215 214 -215 517t215 518q214 214 517 214t518 -214q214 -215 214 -518t-214 -517q-215 -215 -518 -215t-517 215zM744 1544q-35 19 -53 27q-60 28 -105 -34
l-106 79q38 52 101 79q83 35 166 -4q22 -10 59 -31q62 -33 83 -35q24 -2 53 24l88 -99q-64 -57 -134 -57q-56 0 -152 51z" />
    <glyph glyph-name="Odieresis" unicode="&#xd6;" horiz-adv-x="1513" 
d="M331 1141q-176 -176 -176 -424t176 -424t424 -176t424 176t176 424t-176 424t-424 176t-424 -176zM238 200q-215 214 -215 517t215 518q214 214 517 214t518 -214q214 -215 214 -518t-214 -517q-215 -215 -518 -215t-517 215zM804 1690q-28 -28 -28 -67q0 -40 28 -68
t68 -28q39 0 67 28t28 68q0 39 -28 67t-67 28q-40 0 -68 -28zM578 1690q-28 -28 -28 -67q0 -40 28 -68t68 -28q39 0 67 28t28 68q0 39 -28 67t-67 28q-40 0 -68 -28z" />
    <glyph glyph-name="multiply" unicode="&#xd7;" 
 />
    <glyph glyph-name="Oslash" unicode="&#xd8;" horiz-adv-x="1614" 
 />
    <glyph glyph-name="Ugrave" unicode="&#xd9;" horiz-adv-x="1146" 
d="M233 129q-145 145 -145 350v954h132v-954q0 -150 106 -257q107 -107 257 -107t257 107q106 107 106 257v954h132v-954q0 -205 -145 -350t-350 -145t-350 145zM502 1721l107 -226h56v226h-163z" />
    <glyph glyph-name="Uacute" unicode="&#xda;" horiz-adv-x="1146" 
d="M233 129q-145 145 -145 350v954h132v-954q0 -150 106 -257q107 -107 257 -107t257 107q106 107 106 257v954h132v-954q0 -205 -145 -350t-350 -145t-350 145zM502 1721v-226h56l107 226h-163z" />
    <glyph glyph-name="Ucircumflex" unicode="&#xdb;" horiz-adv-x="1146" 
d="M233 129q-145 145 -145 350v954h132v-954q0 -150 106 -257q107 -107 257 -107t257 107q106 107 106 257v954h132v-954q0 -205 -145 -350t-350 -145t-350 145zM476 1721l-132 -226h153l86 148l86 -148h153l-132 226h-214z" />
    <glyph glyph-name="Udieresis" unicode="&#xdc;" horiz-adv-x="1146" 
d="M233 129q-145 145 -145 350v954h132v-954q0 -150 106 -257q107 -107 257 -107t257 107q106 107 106 257v954h132v-954q0 -205 -145 -350t-350 -145t-350 145zM627 1690q-28 -28 -28 -67q0 -40 28 -68t68 -28q39 0 67 28t28 68q0 39 -28 67t-67 28q-40 0 -68 -28z
M401 1690q-28 -28 -28 -67q0 -40 28 -68t68 -28q39 0 67 28t28 68q0 39 -28 67t-67 28q-40 0 -68 -28z" />
    <glyph glyph-name="Yacute" unicode="&#xdd;" horiz-adv-x="1018" 
d="M865 1436l-355 -602l-354 602h-153l441 -749v-687h132v687l441 749h-152zM429 1721v-226h56l107 226h-163z" />
    <glyph glyph-name="Thorn" unicode="&#xde;" horiz-adv-x="1266" 
d="M222 278v876h438q181 0 309 -129q129 -128 129 -309t-129 -309q-128 -129 -309 -129h-438zM222 1286v150h-132v-1436h132v146h438q236 0 403 167t167 403t-167 403t-403 167h-438z" />
    <glyph glyph-name="germandbls" unicode="&#xdf;" horiz-adv-x="928" 
d="M828 1079q0 153 -108 262q-109 108 -261 108q-153 0 -262 -108q-108 -109 -108 -262v-1079h132v1079q0 99 70 168q69 70 168 70q98 0 167 -70q70 -69 70 -168q0 -97 -70 -167q-69 -69 -167 -69v-132q122 0 209 -87q87 -86 87 -209t-87 -211q-87 -87 -209 -87
q-67 0 -127 28l-57 -119q87 -41 184 -41q177 0 303 126q125 126 125 304q0 115 -58 215q-56 96 -152 153q151 111 151 296z" />
    <glyph glyph-name="agrave" unicode="&#xe0;" horiz-adv-x="1177" 
d="M914 1436l-908 -1436h156l227 359h570v-359h131v1436h-176zM959 1260v-769h-487zM927 1721l107 -226h56v226h-163z" />
    <glyph glyph-name="aacute" unicode="&#xe1;" horiz-adv-x="1177" 
d="M914 1436l-908 -1436h156l227 359h570v-359h131v1436h-176zM959 1260v-769h-487zM916 1721v-226h56l107 226h-163z" />
    <glyph glyph-name="acircumflex" unicode="&#xe2;" horiz-adv-x="1177" 
d="M914 1436l-908 -1436h156l227 359h570v-359h131v1436h-176zM959 1260v-769h-487zM892 1721l-133 -226h153l87 148l86 -148h153l-132 226h-214z" />
    <glyph glyph-name="atilde" unicode="&#xe3;" horiz-adv-x="1177" 
d="M914 1436l-908 -1436h156l227 359h570v-359h131v1436h-176zM959 1260v-769h-487zM804 1544q-35 19 -53 27q-60 28 -106 -34l-106 79q39 52 102 79q83 35 166 -4q21 -10 59 -31q62 -33 83 -35q24 -2 53 24l88 -99q-64 -57 -134 -57q-57 0 -152 51z" />
    <glyph glyph-name="adieresis" unicode="&#xe4;" horiz-adv-x="1177" 
d="M914 1436l-908 -1436h156l227 359h570v-359h131v1436h-176zM959 1260v-769h-487zM927 1690q-28 -28 -28 -67q0 -40 28 -68t68 -28q39 0 67 28t28 68q0 39 -28 67t-67 28q-40 0 -68 -28zM701 1690q-28 -28 -28 -67q0 -40 28 -68t68 -28q39 0 67 28t28 68q0 39 -28 67
t-67 28q-40 0 -68 -28z" />
    <glyph glyph-name="aring" unicode="&#xe5;" horiz-adv-x="1177" 
d="M914 1436l-908 -1436h156l227 359h570v-359h131v1436h-176zM959 1260v-769h-487zM980 1637q-6 -6 -6 -14q0 -9 6 -15q6 -5 14 -5q9 0 15 5q6 6 6 15q0 8 -6 14t-15 6q-8 0 -14 -6zM929 1558q-27 27 -27 65t27 65t65 27q39 0 65 -27q27 -27 27 -65t-27 -65
q-26 -27 -65 -27q-38 0 -65 27z" />
    <glyph glyph-name="ae" unicode="&#xe6;" horiz-adv-x="1711" 
d="M907 1436l-908 -1436h156l227 359h570v-358h731v132h-600v522h475v131h-475v517h600v133h-776zM952 1260v-769h-487z" />
    <glyph glyph-name="ccedilla" unicode="&#xe7;" horiz-adv-x="1047" 
d="M330 295q-176 176 -176 424t176 423q175 176 423 176q138 0 261 -59v143q-126 48 -261 48q-302 0 -517 -214q-214 -215 -214 -517q0 -284 192 -494q191 -208 470 -234v-165h66q68 0 68 -35q0 -34 -68 -34t-68 34h-132q0 -70 58 -118t142 -48t142 48t58 118
q0 120 -134 157v42q102 9 198 45v144q-123 -60 -261 -60q-248 0 -423 176z" />
    <glyph glyph-name="egrave" unicode="&#xe8;" horiz-adv-x="849" 
d="M90 1436v-1436h733v132h-601v522h475v132h-475v518h601v132h-733zM375 1721l107 -226h56v226h-163z" />
    <glyph glyph-name="eacute" unicode="&#xe9;" horiz-adv-x="849" 
d="M90 1436v-1436h733v132h-601v522h475v132h-475v518h601v132h-733zM375 1721v-226h56l107 226h-163z" />
    <glyph glyph-name="ecircumflex" unicode="&#xea;" horiz-adv-x="849" 
d="M90 1436v-1436h733v132h-601v522h475v132h-475v518h601v132h-733zM349 1721l-132 -226h153l86 148l87 -148h153l-132 226h-215z" />
    <glyph glyph-name="edieresis" unicode="&#xeb;" horiz-adv-x="849" 
d="M90 1436v-1436h733v132h-601v522h475v132h-475v518h601v132h-733zM517 1690q-28 -28 -28 -67q0 -40 28 -68t68 -28q39 0 67 28t28 68q0 39 -28 67t-67 28q-40 0 -68 -28zM291 1690q-28 -28 -28 -67q0 -40 28 -68t68 -28q39 0 67 28t28 68q0 39 -28 67t-67 28
q-40 0 -68 -28z" />
    <glyph glyph-name="igrave" unicode="&#xec;" horiz-adv-x="219" 
d="M40 0h133v1443h-133v-1443zM10 1721l107 -226h56v226h-163z" />
    <glyph glyph-name="iacute" unicode="&#xed;" horiz-adv-x="219" 
d="M40 0h133v1443h-133v-1443zM40 1721v-226h56l107 226h-163z" />
    <glyph glyph-name="icircumflex" unicode="&#xee;" horiz-adv-x="219" 
d="M40 0h133v1443h-133v-1443zM0 1721l-132 -226h153l86 148l87 -148h153l-132 226h-215z" />
    <glyph glyph-name="idieresis" unicode="&#xef;" horiz-adv-x="219" 
d="M40 0h133v1443h-133v-1443zM156 1690q-28 -28 -28 -67q0 -40 28 -68t68 -28q39 0 67 28t28 68q0 39 -28 67t-67 28q-40 0 -68 -28zM-70 1690q-28 -28 -28 -67q0 -40 28 -68t68 -28q39 0 67 28t28 68q0 39 -28 67t-67 28q-40 0 -68 -28z" />
    <glyph glyph-name="eth" unicode="&#xf0;" horiz-adv-x="1195" 
d="M224 131v524h247v131h-247v519h222q242 0 414 -172t172 -415t-172 -415t-414 -172h-222zM93 1436v-650h-95v-131h95v-655h353q297 0 507 211q211 210 211 507t-211 507q-210 211 -507 211h-353z" />
    <glyph glyph-name="ntilde" unicode="&#xf1;" horiz-adv-x="1167" 
d="M948 1436v-1197l-715 1197h-143v-1436h132v1197l716 -1197h142v1436h-132zM574 1544q-35 19 -53 27q-60 28 -105 -34l-106 79q38 52 101 79q83 35 166 -4q22 -10 59 -31q62 -33 83 -35q24 -2 53 24l88 -99q-64 -57 -134 -57q-56 0 -152 51z" />
    <glyph glyph-name="ograve" unicode="&#xf2;" horiz-adv-x="1513" 
d="M331 1141q-176 -176 -176 -424t176 -424t424 -176t424 176t176 424t-176 424t-424 176t-424 -176zM238 200q-215 214 -215 517t215 518q214 214 517 214t518 -214q214 -215 214 -518t-214 -517q-215 -215 -518 -215t-517 215zM674 1721l107 -226h56v226h-163z" />
    <glyph glyph-name="oacute" unicode="&#xf3;" horiz-adv-x="1513" 
d="M331 1141q-176 -176 -176 -424t176 -424t424 -176t424 176t176 424t-176 424t-424 176t-424 -176zM238 200q-215 214 -215 517t215 518q214 214 517 214t518 -214q214 -215 214 -518t-214 -517q-215 -215 -518 -215t-517 215zM674 1721v-226h56l107 226h-163z" />
    <glyph glyph-name="ocircumflex" unicode="&#xf4;" horiz-adv-x="1513" 
d="M331 1141q-176 -176 -176 -424t176 -424t424 -176t424 176t176 424t-176 424t-424 176t-424 -176zM238 200q-215 214 -215 517t215 518q214 214 517 214t518 -214q214 -215 214 -518t-214 -517q-215 -215 -518 -215t-517 215zM648 1721l-132 -226h153l86 148l86 -148h153
l-132 226h-214z" />
    <glyph glyph-name="otilde" unicode="&#xf5;" horiz-adv-x="1513" 
d="M331 1141q-176 -176 -176 -424t176 -424t424 -176t424 176t176 424t-176 424t-424 176t-424 -176zM238 200q-215 214 -215 517t215 518q214 214 517 214t518 -214q214 -215 214 -518t-214 -517q-215 -215 -518 -215t-517 215zM744 1544q-35 19 -53 27q-60 28 -105 -34
l-106 79q38 52 101 79q83 35 166 -4q22 -10 59 -31q62 -33 83 -35q24 -2 53 24l88 -99q-64 -57 -134 -57q-56 0 -152 51z" />
    <glyph glyph-name="odieresis" unicode="&#xf6;" horiz-adv-x="1513" 
d="M331 1141q-176 -176 -176 -424t176 -424t424 -176t424 176t176 424t-176 424t-424 176t-424 -176zM238 200q-215 214 -215 517t215 518q214 214 517 214t518 -214q214 -215 214 -518t-214 -517q-215 -215 -518 -215t-517 215zM804 1690q-28 -28 -28 -67q0 -40 28 -68
t68 -28q39 0 67 28t28 68q0 39 -28 67t-67 28q-40 0 -68 -28zM578 1690q-28 -28 -28 -67q0 -40 28 -68t68 -28q39 0 67 28t28 68q0 39 -28 67t-67 28q-40 0 -68 -28z" />
    <glyph glyph-name="divide" unicode="&#xf7;" 
 />
    <glyph glyph-name="oslash" unicode="&#xf8;" horiz-adv-x="1010" 
 />
    <glyph glyph-name="ugrave" unicode="&#xf9;" horiz-adv-x="1146" 
d="M233 129q-145 145 -145 350v954h132v-954q0 -150 106 -257q107 -107 257 -107t257 107q106 107 106 257v954h132v-954q0 -205 -145 -350t-350 -145t-350 145zM502 1721l107 -226h56v226h-163z" />
    <glyph glyph-name="uacute" unicode="&#xfa;" horiz-adv-x="1146" 
d="M233 129q-145 145 -145 350v954h132v-954q0 -150 106 -257q107 -107 257 -107t257 107q106 107 106 257v954h132v-954q0 -205 -145 -350t-350 -145t-350 145zM502 1721v-226h56l107 226h-163z" />
    <glyph glyph-name="ucircumflex" unicode="&#xfb;" horiz-adv-x="1146" 
d="M233 129q-145 145 -145 350v954h132v-954q0 -150 106 -257q107 -107 257 -107t257 107q106 107 106 257v954h132v-954q0 -205 -145 -350t-350 -145t-350 145zM476 1721l-132 -226h153l86 148l86 -148h153l-132 226h-214z" />
    <glyph glyph-name="udieresis" unicode="&#xfc;" horiz-adv-x="1146" 
d="M233 129q-145 145 -145 350v954h132v-954q0 -150 106 -257q107 -107 257 -107t257 107q106 107 106 257v954h132v-954q0 -205 -145 -350t-350 -145t-350 145zM627 1690q-28 -28 -28 -67q0 -40 28 -68t68 -28q39 0 67 28t28 68q0 39 -28 67t-67 28q-40 0 -68 -28z
M401 1690q-28 -28 -28 -67q0 -40 28 -68t68 -28q39 0 67 28t28 68q0 39 -28 67t-67 28q-40 0 -68 -28z" />
    <glyph glyph-name="yacute" unicode="&#xfd;" horiz-adv-x="1018" 
d="M865 1436l-355 -602l-354 602h-153l441 -749v-687h132v687l441 749h-152zM429 1721v-226h56l107 226h-163z" />
    <glyph glyph-name="thorn" unicode="&#xfe;" horiz-adv-x="1266" 
d="M222 278v876h438q181 0 309 -129q129 -128 129 -309t-129 -309q-128 -129 -309 -129h-438zM222 1286v150h-132v-1436h132v146h438q236 0 403 167t167 403t-167 403t-403 167h-438z" />
    <glyph glyph-name="ydieresis" unicode="&#xff;" horiz-adv-x="1018" 
d="M865 1436l-355 -602l-354 602h-153l441 -749v-687h132v687l441 749h-152zM551 1690q-28 -28 -28 -67q0 -40 28 -68t68 -28q39 0 67 28t28 68q0 39 -28 67t-67 28q-40 0 -68 -28zM325 1690q-28 -28 -28 -67q0 -40 28 -68t68 -28q39 0 67 28t28 68q0 39 -28 67t-67 28
q-40 0 -68 -28z" />
    <glyph glyph-name="dotlessi" unicode="&#x131;" horiz-adv-x="219" 
d="M40 0h133v1443h-133v-1443z" />
    <glyph glyph-name="circumflex" unicode="&#x2c6;" horiz-adv-x="1024" 
 />
    <glyph glyph-name="caron" unicode="&#x2c7;" horiz-adv-x="1024" 
 />
    <glyph glyph-name="uni02C9" unicode="&#x2c9;" horiz-adv-x="1024" 
 />
    <glyph glyph-name="breve" unicode="&#x2d8;" horiz-adv-x="1024" 
 />
    <glyph glyph-name="dotaccent" unicode="&#x2d9;" horiz-adv-x="1024" 
 />
    <glyph glyph-name="ring" unicode="&#x2da;" horiz-adv-x="233" 
d="M101 1361q-6 -6 -6 -14q0 -9 6 -15q6 -5 14 -5t14 5q6 6 6 15q0 8 -6 14t-14 6t-14 -6zM50 1282q-27 27 -27 65t27 65t65 27t65 -27t27 -65t-27 -65t-65 -27t-65 27z" />
    <glyph glyph-name="ogonek" unicode="&#x2db;" horiz-adv-x="1024" 
 />
    <glyph glyph-name="tilde" unicode="&#x2dc;" horiz-adv-x="1024" 
 />
    <glyph glyph-name="hungarumlaut" unicode="&#x2dd;" horiz-adv-x="1024" 
 />
    <glyph glyph-name="endash" unicode="&#x2013;" horiz-adv-x="1108" 
 />
    <glyph glyph-name="emdash" unicode="&#x2014;" horiz-adv-x="2048" 
 />
    <glyph glyph-name="quoteleft" unicode="&#x2018;" horiz-adv-x="255" 
d="M67 1179q27 -20 58 -20q40 0 68 28t28 68t-28 68t-68 28q-6 0 -13 -1q11 39 49 62l-27 37q-79 -34 -99 -115q-13 -50 -2 -105q9 -30 34 -50z" />
    <glyph glyph-name="quoteright" unicode="&#x2019;" horiz-adv-x="255" 
d="M182 1429q-27 20 -58 20q-40 0 -68 -28t-28 -68t28 -68t68 -28q6 0 13 1q-11 -39 -49 -62l27 -37q79 34 99 115q13 50 2 105q-9 30 -34 50z" />
    <glyph glyph-name="quotesinglbase" unicode="&#x201a;" horiz-adv-x="557" 
 />
    <glyph glyph-name="quotedblleft" unicode="&#x201c;" horiz-adv-x="467" 
d="M279 1179q27 -20 58 -20q40 0 68 28t28 68t-28 68t-68 28q-6 0 -13 -1q11 39 49 62l-27 37q-79 -34 -99 -115q-13 -50 -2 -105q9 -30 34 -50zM67 1179q27 -20 58 -20q40 0 68 28t28 68t-28 68t-68 28q-6 0 -13 -1q11 39 49 62l-27 37q-79 -34 -99 -115q-13 -50 -2 -105
q9 -30 34 -50z" />
    <glyph glyph-name="quotedblright" unicode="&#x201d;" horiz-adv-x="467" 
d="M182 1429q-27 20 -58 20q-40 0 -68 -28t-28 -68t28 -68t68 -28q6 0 13 1q-11 -39 -49 -62l27 -37q79 34 99 115q13 50 2 105q-9 30 -34 50zM394 1429q-27 20 -58 20q-40 0 -68 -28t-28 -68t28 -68t68 -28q6 0 13 1q-11 -39 -49 -62l27 -37q79 34 99 115q13 50 2 105
q-9 30 -34 50z" />
    <glyph glyph-name="quotedblbase" unicode="&#x201e;" horiz-adv-x="910" 
 />
    <glyph glyph-name="dagger" unicode="&#x2020;" 
 />
    <glyph glyph-name="daggerdbl" unicode="&#x2021;" 
 />
    <glyph glyph-name="bullet" unicode="&#x2022;" horiz-adv-x="354" 
d="M103 828q-28 -28 -28 -68t28 -67q28 -28 68 -28q39 0 67 28q28 27 28 67t-28 68t-67 28q-40 0 -68 -28z" />
    <glyph glyph-name="ellipsis" unicode="&#x2026;" horiz-adv-x="2048" 
 />
    <glyph glyph-name="guilsinglleft" unicode="&#x2039;" horiz-adv-x="799" 
 />
    <glyph glyph-name="guilsinglright" unicode="&#x203a;" horiz-adv-x="799" 
 />
    <glyph glyph-name="fraction" unicode="&#x2044;" horiz-adv-x="342" 
 />
    <glyph glyph-name="fraction" unicode="&#x2215;" horiz-adv-x="342" 
 />
    <glyph glyph-name="franc" unicode="&#x20a3;" 
 />
    <glyph glyph-name="lira" unicode="&#x20a4;" 
 />
    <glyph glyph-name="peseta" unicode="&#x20a7;" horiz-adv-x="2028" 
 />
    <glyph glyph-name="Euro" unicode="&#x20ac;" horiz-adv-x="997" 
d="M742 561v132h-459q-1 16 -1 17q0 35 5 72h455v132h-424q64 176 217 285q156 111 347 111q29 0 59 -3l20 131q-40 4 -79 4q-246 0 -442 -150q-193 -147 -260 -378h-154v-132h128q-4 -36 -4 -72q0 1 1 -17h-125v-132h140q44 -215 202 -371q157 -155 373 -198l19 131
q-167 34 -292 154q-125 119 -167 284h441z" />
    <glyph glyph-name="afii61352" unicode="&#x2116;" horiz-adv-x="2271" 
 />
    <glyph glyph-name="trademark" unicode="&#x2122;" horiz-adv-x="1497" 
 />
    <glyph glyph-name="partialdiff" unicode="&#x2202;" 
 />
    <glyph glyph-name="Delta" unicode="&#x2206;" horiz-adv-x="1081" 
 />
    <glyph glyph-name="product" unicode="&#x220f;" horiz-adv-x="1515" 
 />
    <glyph glyph-name="summation" unicode="&#x2211;" horiz-adv-x="1206" 
 />
    <glyph glyph-name="minus" unicode="&#x2212;" 
 />
    <glyph glyph-name="radical" unicode="&#x221a;" 
 />
    <glyph glyph-name="infinity" unicode="&#x221e;" 
 />
    <glyph glyph-name="integral" unicode="&#x222b;" horiz-adv-x="665" 
 />
    <glyph glyph-name="approxequal" unicode="&#x2248;" 
 />
    <glyph glyph-name="lessequal" unicode="&#x2264;" 
 />
    <glyph glyph-name="greaterequal" unicode="&#x2265;" 
 />
    <glyph glyph-name="uniF001" unicode="&#xf001;" horiz-adv-x="1073" 
 />
    <glyph glyph-name="uniF001" unicode="&#xfb01;" horiz-adv-x="1073" 
 />
    <glyph glyph-name="uniF002" unicode="&#xf002;" horiz-adv-x="1081" 
 />
    <glyph glyph-name="uniF002" unicode="&#xfb02;" horiz-adv-x="1081" 
 />
    </font>
</defs>
</svg>
