<?xml version="1.0" standalone="no"?>
<!DOCTYPE svg PUBLIC "-//W3C//DTD SVG 1.1//EN" "http://www.w3.org/Graphics/SVG/1.1/DTD/svg11.dtd" >
<svg xmlns="http://www.w3.org/2000/svg" xmlns:xlink="http://www.w3.org/1999/xlink" version="1.1">
<metadata>
Created by FontForge 20141024 at Mon Jun  8 06:23:29 2015
 By System Administrator
schoener 2014
</metadata>
<defs>
<font id="ElegantLux-Mager" horiz-adv-x="463" >
  <font-face 
    font-family="Elegant Lux Mager"
    font-weight="400"
    font-stretch="normal"
    units-per-em="1000"
    panose-1="0 0 5 0 0 0 0 0 0 0"
    ascent="800"
    descent="-200"
    x-height="384"
    cap-height="665"
    bbox="-140.764 -180.159 1084 903"
    underline-thickness="50"
    underline-position="-50"
    unicode-range="U+0020-25CA"
  />
<missing-glyph horiz-adv-x="700" 
d="M352 359l302 302c6 6 15 6 21 0l5 -5c6 -6 6 -15 0 -21l-302 -303l302 -302c6 -6 7 -15 0 -21l-5 -5c-5 -6 -15 -6 -21 0l-303 302l-301 -301c-7 -7 -16 -7 -22 -1l-5 5c-6 6 -6 15 1 22l301 302l-301 301c-7 7 -7 17 -1 22l5 5c6 7 15 6 22 -1z" />
    <glyph glyph-name="f_f" unicode="ff" horiz-adv-x="407" 
d="M399 617h-2c-23 0 -47 -14 -65 -32c-22 -22 -33 -50 -33 -81v-120h93c9 0 16 -7 16 -16v-16c0 -9 -7 -16 -16 -16h-93v-500c0 -9 -7 -16 -16 -16h-16c-9 0 -16 7 -16 16v500h-120v-500c0 -9 -7 -16 -16 -16h-16c-9 0 -16 7 -16 16v500h-42c-9 0 -16 7 -16 16
c0 6 3 12 11 15l47 16v121c0 74 49 132 106 152c18 6 30 9 39 9s16 -7 16 -16v-16c0 -8 -6 -16 -13 -16h-2c-23 0 -47 -14 -65 -32c-22 -22 -33 -50 -33 -81v-120h120v120c0 74 49 132 106 152c18 6 30 9 39 9s16 -7 16 -16v-16c0 -8 -6 -16 -13 -16z" />
    <glyph glyph-name="f_f_i" unicode="ffi" horiz-adv-x="517" 
d="M299 384h152c9 0 16 -7 16 -16v-352c0 -9 -7 -16 -16 -16h-16c-9 0 -16 7 -16 16v320h-120v-500c0 -9 -7 -16 -16 -16h-16c-9 0 -16 7 -16 16v500h-120v-500c0 -9 -7 -16 -16 -16h-16c-9 0 -16 7 -16 16v500h-42c-9 0 -16 7 -16 16c0 6 3 12 11 15l47 16v121
c0 74 49 132 106 152c18 6 30 9 39 9s16 -7 16 -16v-16c0 -8 -6 -16 -13 -16h-2c-23 0 -47 -14 -65 -32c-22 -22 -33 -50 -33 -81v-120h120v120c0 74 49 132 106 152c18 6 30 9 39 9s16 -7 16 -16v-16c0 -8 -6 -16 -13 -16h-2c-23 0 -47 -14 -65 -32
c-22 -22 -33 -50 -33 -81v-120zM435 564h16c9 0 16 -7 16 -16v-59c0 -9 -7 -16 -16 -16h-16c-9 0 -16 7 -16 16v59c0 9 7 16 16 16z" />
    <glyph glyph-name="f_f_l" unicode="ffl" horiz-adv-x="525" 
d="M395 665h55c8 0 15 -7 15 -15v-634c0 -9 -7 -16 -15 -16h-17c-8 0 -15 7 -15 16v601h-22c-23 0 -47 -14 -65 -32c-22 -22 -33 -50 -33 -81v-120h78c9 0 16 -7 16 -16v-16c0 -9 -7 -16 -16 -16h-78v-500c0 -9 -7 -16 -16 -16h-16c-9 0 -16 7 -16 16v500h-119v-500
c0 -9 -7 -16 -16 -16h-16c-9 0 -16 7 -16 16v500h-42c-9 0 -16 7 -16 16c0 6 3 12 11 15l47 16v121c0 74 49 132 106 152c18 6 30 9 39 9s16 -7 16 -16v-16c0 -8 -6 -16 -13 -16h-2c-23 0 -47 -14 -65 -32c-22 -22 -33 -50 -33 -81v-120h119v120c0 74 49 132 106 152
c18 6 30 9 39 9z" />
    <glyph glyph-name=".notdef" horiz-adv-x="700" 
d="M352 359l302 302c6 6 15 6 21 0l5 -5c6 -6 6 -15 0 -21l-302 -303l302 -302c6 -6 7 -15 0 -21l-5 -5c-5 -6 -15 -6 -21 0l-303 302l-301 -301c-7 -7 -16 -7 -22 -1l-5 5c-6 6 -6 15 1 22l301 302l-301 301c-7 7 -7 17 -1 22l5 5c6 7 15 6 22 -1z" />
    <glyph glyph-name="A" unicode="A" horiz-adv-x="484" 
d="M258 670l207 -650c2 -10 -3 -20 -15 -20h-18c-6 0 -12 5 -14 11l-47 151h-257l-47 -151c-2 -6 -8 -11 -14 -11h-18c-10 0 -18 10 -15 20l207 650c2 7 8 12 15 12c8 0 14 -5 16 -12zM356 210l-114 357l-113 -357h227z" />
    <glyph glyph-name="A.ss04" horiz-adv-x="1080" 
d="M725 608h-652c-19 34 -25 57 -25 57h820c161 0 164 -158 164 -158c-214 0 -233 -193 -233 -240h174c23 0 28 -12 28 -12h9c11 0 22 -1 22 -15v-37s-2 25 -36 25c-38 0 -261 -49 -451 -164l-31 39l-76 -48l13 -34l-56 -44l-40 23l60 14l-31 18l-9 32l-29 -51l-11 43l59 40
l29 -22l73 52l-28 30l43 30s-136 -8 -273 -51l-113 132h484v26h-230c-30 22 -58 33 -86 56h317c0 7 0 17 2 26h-347c-22 16 -41 35 -57 52h412c1 7 4 18 5 25h-441c-17 18 -31 37 -44 54h506c5 9 7 16 13 24h-539c-14 18 -23 38 -36 52h613c12 12 20 22 28 26zM981 260h-25
c13 0 25 -7 25 -7v7z" />
    <glyph glyph-name="Aacute" unicode="&#xc1;" horiz-adv-x="484" 
d="M282 719l60 167c2 7 -7 15 -16 15h-34c-6 0 -12 -3 -14 -9l-38 -167c-1 -5 5 -16 16 -16h11c7 0 13 4 15 10zM258 670l207 -650c2 -10 -3 -20 -15 -20h-18c-6 0 -12 5 -14 11l-47 151h-257l-47 -151c-2 -6 -8 -11 -14 -11h-18c-10 0 -18 10 -15 20l207 650
c2 7 8 12 15 12c8 0 14 -5 16 -12zM356 210l-114 357l-113 -357h227z" />
    <glyph glyph-name="Abreve" unicode="&#x102;" horiz-adv-x="484" 
d="M316 829h-15c-11 0 -18 -6 -16 -19c2 -19 -7 -38 -25 -48c-5 -3 -11 -5 -18 -5s-13 2 -18 5c-18 10 -27 29 -25 48c2 13 -5 19 -16 19h-15c-12 0 -15 -8 -16 -15c-4 -37 14 -74 49 -93c15 -9 29 -12 41 -12s26 3 41 12c35 19 53 56 49 93c-1 7 -4 15 -16 15zM258 670
l207 -650c2 -10 -3 -20 -15 -20h-18c-6 0 -12 5 -14 11l-47 151h-257l-47 -151c-2 -6 -8 -11 -14 -11h-18c-10 0 -18 10 -15 20l207 650c2 7 8 12 15 12c8 0 14 -5 16 -12zM356 210l-114 357l-113 -357h227z" />
    <glyph glyph-name="Acircumflex" unicode="&#xc2;" horiz-adv-x="484" 
d="M311 730l1 -5c1 -5 -5 -16 -16 -16h-11c-7 0 -13 4 -15 10l-28 105l-28 -105c-2 -6 -8 -10 -15 -10h-11c-11 0 -17 11 -16 16l1 5l37 162c2 6 8 9 14 9h36c6 0 12 -3 14 -9zM258 670l207 -650c2 -10 -3 -20 -15 -20h-18c-6 0 -12 5 -14 11l-47 151h-257l-47 -151
c-2 -6 -8 -11 -14 -11h-18c-10 0 -18 10 -15 20l207 650c2 7 8 12 15 12c8 0 14 -5 16 -12zM356 210l-114 357l-113 -357h227z" />
    <glyph glyph-name="Adieresis" unicode="&#xc4;" horiz-adv-x="484" 
d="M258 670l207 -650c3 -10 -5 -20 -15 -20h-17c-7 0 -13 5 -15 11l-47 151h-257l-46 -151c-2 -6 -8 -11 -15 -11h-18c-10 0 -18 11 -15 20l207 650c2 7 8 12 16 12c7 0 13 -5 15 -12zM125 665h16c9 0 16 -7 16 -15v-37c0 -8 -7 -15 -16 -15h-16c-9 0 -16 7 -16 15v37
c0 8 7 15 16 15zM344 665h17c8 0 15 -7 15 -15v-37c0 -8 -7 -15 -15 -15h-17c-8 0 -15 7 -15 15v37c0 8 7 15 15 15zM356 210l-113 361l-114 -361h227z" />
    <glyph glyph-name="Adieresis.ss01" horiz-adv-x="484" 
d="M173 799h16c9 0 16 -7 16 -16v-59c0 -9 -7 -16 -16 -16h-16c-9 0 -16 7 -16 16v59c0 9 7 16 16 16zM298 799h16c9 0 16 -7 16 -16v-59c0 -9 -7 -16 -16 -16h-16c-9 0 -16 7 -16 16v59c0 9 7 16 16 16zM258 670l207 -650c3 -10 -5 -20 -15 -20h-17c-7 0 -13 5 -15 11
l-47 151h-257l-46 -151c-2 -6 -8 -11 -15 -11h-18c-10 0 -18 11 -15 20l207 650c2 7 8 12 16 12c7 0 13 -5 15 -12zM356 210l-113 361l-114 -361h227z" />
    <glyph glyph-name="Agrave" unicode="&#xc0;" horiz-adv-x="484" 
d="M142 886l60 -167c2 -6 8 -10 15 -10h11c11 0 17 11 16 16l-1 5l-37 162c-2 6 -8 9 -14 9h-34c-9 0 -18 -8 -16 -15zM258 670l207 -650c2 -10 -3 -20 -15 -20h-18c-6 0 -12 5 -14 11l-47 151h-257l-47 -151c-2 -6 -8 -11 -14 -11h-18c-10 0 -18 10 -15 20l207 650
c2 7 8 12 15 12c8 0 14 -5 16 -12zM356 210l-114 357l-113 -357h227z" />
    <glyph glyph-name="Amacron" unicode="&#x100;" horiz-adv-x="484" 
d="M154 756h175c9 0 16 -7 16 -15v-17c0 -8 -7 -15 -16 -15h-175c-8 0 -15 7 -15 15v17c0 8 7 15 15 15zM258 670l207 -650c2 -10 -3 -20 -15 -20h-18c-6 0 -12 5 -14 11l-47 151h-257l-47 -151c-2 -6 -8 -11 -14 -11h-18c-10 0 -18 10 -15 20l207 650c2 7 8 12 15 12
c8 0 14 -5 16 -12zM356 210l-114 357l-113 -357h227z" />
    <glyph glyph-name="Aogonek" unicode="&#x104;" horiz-adv-x="484" 
d="M258 670l207 -650c2 -10 -3 -20 -15 -20h-9c1 -4 0 -9 -3 -13s-29 -55 -29 -62c-1 -23 13 -37 28 -45c10 -6 14 -16 8 -25l-6 -12c-7 -9 -14 -9 -21 -6c-34 15 -57 49 -57 87c-1 19 33 79 45 89c3 2 7 3 10 3l-45 146h-257l-47 -151c-2 -6 -8 -11 -14 -11h-18
c-10 0 -18 10 -15 20l207 650c2 7 8 12 15 12c8 0 14 -5 16 -12zM242 567l-113 -357h227z" />
    <glyph glyph-name="Aring" unicode="&#xc5;" horiz-adv-x="484" 
d="M242 901c53 0 96 -43 96 -96s-43 -96 -96 -96s-96 43 -96 96s43 96 96 96zM242 854c-27 0 -49 -22 -49 -49s22 -49 49 -49s49 22 49 49s-22 49 -49 49zM258 670l207 -650c2 -10 -3 -20 -15 -20h-18c-6 0 -12 5 -14 11l-47 151h-257l-47 -151c-2 -6 -8 -11 -14 -11h-18
c-10 0 -18 10 -15 20l207 650c2 7 8 12 15 12c8 0 14 -5 16 -12zM356 210l-114 357l-113 -357h227z" />
    <glyph glyph-name="Atilde" unicode="&#xc3;" horiz-adv-x="484" 
d="M370 830h15c12 0 15 -8 16 -15c4 -37 -14 -74 -49 -93c-63 -36 -103 16 -130 37s-43 32 -67 19c-18 -10 -27 -29 -25 -48c1 -14 -5 -19 -15 -19h-16c-10 0 -15 6 -16 15c-3 37 15 74 49 93c61 34 94 -8 131 -37c36 -29 52 -27 66 -19c18 10 27 29 25 48c-2 13 5 19 16 19
zM258 670l207 -650c2 -10 -3 -20 -15 -20h-18c-6 0 -12 5 -14 11l-47 151h-257l-47 -151c-2 -6 -8 -11 -14 -11h-18c-10 0 -18 10 -15 20l207 650c2 7 8 12 15 12c8 0 14 -5 16 -12zM356 210l-114 357l-113 -357h227z" />
    <glyph glyph-name="AE" unicode="&#xc6;" horiz-adv-x="733" 
d="M412 384h235c9 0 16 -7 16 -16v-16c0 -8 -7 -16 -16 -16h-235v-288h235c9 0 16 -7 16 -16v-16c0 -9 -7 -16 -16 -16h-267c-9 0 -16 7 -16 16v146h-252l-95 -153c-5 -8 -10 -9 -18 -9h-20c-12 0 -16 12 -7 26l395 632c3 5 8 7 13 7h267c9 0 16 -7 16 -15v-17
c0 -8 -7 -15 -16 -15h-235v-234zM364 565l-222 -355h222v355z" />
    <glyph glyph-name="AE.ss01" horiz-adv-x="733" 
d="M412 445h235c9 0 16 -7 16 -16v-16c0 -8 -7 -16 -16 -16h-235v-349h235c9 0 16 -7 16 -16v-16c0 -9 -7 -16 -16 -16h-267c-9 0 -16 7 -16 16v146h-252l-95 -153c-5 -8 -10 -9 -18 -9h-20c-12 0 -16 12 -7 26l395 632c3 5 8 7 13 7h267c9 0 16 -7 16 -15v-17
c0 -8 -7 -15 -16 -15h-235v-173zM364 565l-222 -355h222v355z" />
    <glyph glyph-name="AEacute" unicode="&#x1fc;" horiz-adv-x="733" 
d="M433 721l60 167c2 7 -7 15 -16 15h-34c-6 0 -12 -3 -14 -9l-37 -162l-1 -5c-1 -5 5 -16 16 -16h11c7 0 13 4 15 10zM412 384h235c9 0 16 -7 16 -16v-16c0 -8 -7 -16 -16 -16h-235v-288h235c9 0 16 -7 16 -16v-16c0 -9 -7 -16 -16 -16h-267c-9 0 -16 7 -16 16v146h-252
l-95 -153c-5 -8 -10 -9 -18 -9h-20c-12 0 -16 12 -7 26l395 632c3 5 8 7 13 7h267c9 0 16 -7 16 -15v-17c0 -8 -7 -15 -16 -15h-235v-234zM364 565l-222 -355h222v355z" />
    <glyph glyph-name="AEacute.ss01" horiz-adv-x="733" 
d="M433 721l60 167c2 7 -7 15 -16 15h-34c-6 0 -12 -3 -14 -9l-37 -162l-1 -5c-1 -5 5 -16 16 -16h11c7 0 13 4 15 10zM412 445h235c9 0 16 -7 16 -16v-16c0 -8 -7 -16 -16 -16h-235v-349h235c9 0 16 -7 16 -16v-16c0 -9 -7 -16 -16 -16h-267c-9 0 -16 7 -16 16v146h-252
l-95 -153c-5 -8 -10 -9 -18 -9h-20c-12 0 -16 12 -7 26l395 632c3 5 8 7 13 7h267c9 0 16 -7 16 -15v-17c0 -8 -7 -15 -16 -15h-235v-173zM364 565l-222 -355h222v355z" />
    <glyph glyph-name="B" unicode="B" horiz-adv-x="462" 
d="M111 665h98c114 0 182 -66 182 -164c0 -61 -27 -113 -80 -142c59 -31 102 -91 102 -167c0 -106 -75 -192 -224 -192h-78c-9 0 -16 7 -16 16v634c0 8 7 15 16 15zM143 384h74c81 4 126 45 126 117c0 75 -53 117 -134 117h-66v-234zM143 48h46c109 0 176 51 176 144
c0 73 -55 141 -148 145l-74 -1v-288z" />
    <glyph glyph-name="C" unicode="C" horiz-adv-x="640" 
d="M577 87l10 -13c5 -7 6 -14 -5 -22c-55 -38 -122 -61 -194 -61c-188 0 -341 153 -341 342c0 188 153 341 341 341c72 0 138 -23 193 -60l3 -2c10 -8 6 -17 3 -21l-11 -14c-8 -10 -18 -4 -21 -2c-47 32 -99 52 -167 52c-136 0 -294 -110 -294 -294
c0 -187 160 -295 294 -295c67 0 127 24 166 51c9 5 17 6 23 -2z" />
    <glyph glyph-name="Cacute" unicode="&#x106;" horiz-adv-x="640" 
d="M403 719l60 167c2 7 -7 15 -16 15h-34c-6 0 -12 -3 -14 -9l-37 -162l-1 -5c-1 -5 5 -16 16 -16h11c7 0 13 4 15 10zM577 87l10 -13c5 -7 6 -14 -5 -22c-55 -38 -122 -61 -194 -61c-188 0 -341 153 -341 342c0 188 153 341 341 341c72 0 138 -23 193 -60l3 -2
c10 -8 6 -17 3 -21l-11 -14c-8 -10 -18 -4 -21 -2c-47 32 -99 52 -167 52c-136 0 -294 -110 -294 -294c0 -187 160 -295 294 -295c67 0 127 24 166 51c9 5 17 6 23 -2z" />
    <glyph glyph-name="Ccaron" unicode="&#x10c;" horiz-adv-x="640" 
d="M457 880l-37 -162c-2 -6 -8 -9 -14 -9h-36c-6 0 -12 3 -14 9l-37 162l-1 5c-1 5 5 16 16 16h11c7 0 13 -4 15 -10l28 -105l28 105c2 6 8 10 15 10h11c11 0 17 -11 16 -16zM577 87l10 -13c5 -7 6 -14 -5 -22c-55 -38 -122 -61 -194 -61c-188 0 -341 153 -341 342
c0 188 153 341 341 341c72 0 138 -23 193 -60l3 -2c10 -8 6 -17 3 -21l-11 -14c-8 -10 -18 -4 -21 -2c-47 32 -99 52 -167 52c-136 0 -294 -110 -294 -294c0 -187 160 -295 294 -295c67 0 127 24 166 51c9 5 17 6 23 -2z" />
    <glyph glyph-name="Ccedilla" unicode="&#xc7;" horiz-adv-x="640" 
d="M577 87l10 -13c5 -7 6 -14 -5 -22c-55 -38 -122 -61 -194 -61c-188 0 -341 153 -341 342c0 188 153 341 341 341c72 0 138 -23 193 -60l3 -2c10 -8 6 -17 3 -21l-11 -14c-8 -10 -18 -4 -21 -2c-47 32 -99 52 -167 52c-136 0 -294 -110 -294 -294
c0 -187 160 -295 294 -295c67 0 127 24 166 51c9 5 17 6 23 -2zM362 -47l-37 -104c-2 -7 7 -15 16 -15h25c6 0 12 3 14 9l23 99l1 5c1 5 -5 16 -16 16h-11c-7 0 -13 -4 -15 -10z" />
    <glyph glyph-name="Ccircumflex" unicode="&#x108;" horiz-adv-x="640" 
d="M457 729l1 -5c1 -5 -5 -16 -16 -16h-11c-7 0 -13 4 -15 10l-28 105l-28 -105c-2 -6 -8 -10 -15 -10h-11c-11 0 -17 11 -16 16l1 5l37 162c2 6 8 9 14 9h36c6 0 12 -3 14 -9zM577 87l10 -13c5 -7 6 -14 -5 -22c-55 -38 -122 -61 -194 -61c-188 0 -341 153 -341 342
c0 188 153 341 341 341c72 0 138 -23 193 -60l3 -2c10 -8 6 -17 3 -21l-11 -14c-8 -10 -18 -4 -21 -2c-47 32 -99 52 -167 52c-136 0 -294 -110 -294 -294c0 -187 160 -295 294 -295c67 0 127 24 166 51c9 5 17 6 23 -2z" />
    <glyph glyph-name="Cdotaccent" unicode="&#x10a;" horiz-adv-x="640" 
d="M380 800h16c9 0 16 -7 16 -16v-59c0 -9 -7 -16 -16 -16h-16c-9 0 -16 7 -16 16v59c0 9 7 16 16 16zM577 87l10 -13c5 -7 6 -14 -5 -22c-55 -38 -122 -61 -194 -61c-188 0 -341 153 -341 342c0 188 153 341 341 341c72 0 138 -23 193 -60l3 -2c10 -8 6 -17 3 -21l-11 -14
c-8 -10 -18 -4 -21 -2c-47 32 -99 52 -167 52c-136 0 -294 -110 -294 -294c0 -187 160 -295 294 -295c67 0 127 24 166 51c9 5 17 6 23 -2z" />
    <glyph glyph-name="D" unicode="D" horiz-adv-x="576" 
d="M111 665h68c179 0 348 -139 348 -333c0 -198 -171 -332 -348 -332h-68c-9 0 -16 7 -16 16v634c0 8 7 15 16 15zM143 618v-570h36c199 0 300 166 300 284c0 169 -151 286 -300 286h-36z" />
    <glyph glyph-name="Eth" unicode="&#xd0;" horiz-adv-x="576" 
d="M111 665h68c179 0 348 -139 348 -333c0 -198 -171 -332 -348 -332h-68c-9 0 -16 7 -16 16v321h-43c-8 0 -15 7 -15 15v17c0 8 7 15 15 15h43v266c0 8 7 15 16 15zM143 48h36c199 0 300 166 300 284c0 169 -151 286 -300 286h-36v-234h84c9 0 16 -7 16 -15v-17
c0 -8 -7 -15 -16 -15h-84v-289z" />
    <glyph glyph-name="Dcaron" unicode="&#x10e;" horiz-adv-x="576" 
d="M268 880l-37 -162c-2 -6 -8 -9 -14 -9h-36c-6 0 -12 3 -14 9l-37 162l-1 5c-1 5 5 16 16 16h11c7 0 13 -4 15 -10l28 -105l28 105c2 6 8 10 15 10h11c11 0 17 -11 16 -16zM111 665h68c179 0 348 -139 348 -333c0 -198 -171 -332 -348 -332h-68c-9 0 -16 7 -16 16v634
c0 8 7 15 16 15zM143 618v-570h36c199 0 300 166 300 284c0 169 -151 286 -300 286h-36z" />
    <glyph glyph-name="Dcroat" unicode="&#x110;" horiz-adv-x="576" 
d="M111 665h68c179 0 348 -139 348 -333c0 -198 -171 -332 -348 -332h-68c-9 0 -16 7 -16 16v321h-43c-8 0 -15 7 -15 15v17c0 8 7 15 15 15h43v266c0 8 7 15 16 15zM143 48h36c199 0 300 166 300 284c0 169 -151 286 -300 286h-36v-234h84c9 0 16 -7 16 -15v-17
c0 -8 -7 -15 -16 -15h-84v-289z" />
    <glyph glyph-name="E" unicode="E" 
d="M143 618v-234h235c9 0 16 -7 16 -16v-16c0 -8 -7 -16 -16 -16h-235v-288h235c9 0 16 -7 16 -16v-16c0 -9 -7 -16 -16 -16h-267c-9 0 -16 7 -16 16v634c0 8 7 15 16 15h267c9 0 16 -7 16 -15v-17c0 -8 -7 -15 -16 -15h-235z" />
    <glyph glyph-name="E.ss01" 
d="M143 618v-173h235c9 0 16 -7 16 -16v-16c0 -8 -7 -16 -16 -16h-235v-349h235c9 0 16 -7 16 -16v-16c0 -9 -7 -16 -16 -16h-267c-9 0 -16 7 -16 16v634c0 8 7 15 16 15h267c9 0 16 -7 16 -15v-17c0 -8 -7 -15 -16 -15h-235z" />
    <glyph glyph-name="Eacute" unicode="&#xc9;" 
d="M278 719l60 167c2 7 -7 15 -16 15h-34c-6 0 -12 -3 -14 -9l-37 -162l-1 -5c-1 -5 5 -16 16 -16h11c7 0 13 4 15 10zM143 618v-234h235c9 0 16 -7 16 -16v-16c0 -8 -7 -16 -16 -16h-235v-288h235c9 0 16 -7 16 -16v-16c0 -9 -7 -16 -16 -16h-267c-9 0 -16 7 -16 16v634
c0 8 7 15 16 15h267c9 0 16 -7 16 -15v-17c0 -8 -7 -15 -16 -15h-235z" />
    <glyph glyph-name="Eacute.ss01" 
d="M278 719l60 167c2 7 -7 15 -16 15h-34c-6 0 -12 -3 -14 -9l-37 -162l-1 -5c-1 -5 5 -16 16 -16h11c7 0 13 4 15 10zM143 618v-173h235c9 0 16 -7 16 -16v-16c0 -8 -7 -16 -16 -16h-235v-349h235c9 0 16 -7 16 -16v-16c0 -9 -7 -16 -16 -16h-267c-9 0 -16 7 -16 16v634
c0 8 7 15 16 15h267c9 0 16 -7 16 -15v-17c0 -8 -7 -15 -16 -15h-235z" />
    <glyph glyph-name="Ebreve" unicode="&#x114;" 
d="M319 828h-15c-11 0 -18 -6 -16 -19c2 -19 -7 -38 -25 -48c-5 -3 -11 -5 -18 -5s-13 2 -18 5c-18 10 -27 29 -25 48c2 13 -5 19 -16 19h-15c-12 0 -15 -8 -16 -15c-4 -37 14 -74 49 -93c15 -9 29 -12 41 -12s26 3 41 12c35 19 53 56 49 93c-1 7 -4 15 -16 15zM143 618
v-234h235c9 0 16 -7 16 -16v-16c0 -8 -7 -16 -16 -16h-235v-288h235c9 0 16 -7 16 -16v-16c0 -9 -7 -16 -16 -16h-267c-9 0 -16 7 -16 16v634c0 8 7 15 16 15h267c9 0 16 -7 16 -15v-17c0 -8 -7 -15 -16 -15h-235z" />
    <glyph glyph-name="Ebreve.ss01" 
d="M319 828h-15c-11 0 -18 -6 -16 -19c2 -19 -7 -38 -25 -48c-5 -3 -11 -5 -18 -5s-13 2 -18 5c-18 10 -27 29 -25 48c2 13 -5 19 -16 19h-15c-12 0 -15 -8 -16 -15c-4 -37 14 -74 49 -93c15 -9 29 -12 41 -12s26 3 41 12c35 19 53 56 49 93c-1 7 -4 15 -16 15zM143 618
v-173h235c9 0 16 -7 16 -16v-16c0 -8 -7 -16 -16 -16h-235v-349h235c9 0 16 -7 16 -16v-16c0 -9 -7 -16 -16 -16h-267c-9 0 -16 7 -16 16v634c0 8 7 15 16 15h267c9 0 16 -7 16 -15v-17c0 -8 -7 -15 -16 -15h-235z" />
    <glyph glyph-name="Ecaron" unicode="&#x11a;" 
d="M314 880l-37 -162c-2 -6 -8 -9 -14 -9h-36c-6 0 -12 3 -14 9l-37 162l-1 5c-1 5 5 16 16 16h11c7 0 13 -4 15 -10l28 -105l28 105c2 6 8 10 15 10h11c11 0 17 -11 16 -16zM143 618v-234h235c9 0 16 -7 16 -16v-16c0 -8 -7 -16 -16 -16h-235v-288h235c9 0 16 -7 16 -16
v-16c0 -9 -7 -16 -16 -16h-267c-9 0 -16 7 -16 16v634c0 8 7 15 16 15h267c9 0 16 -7 16 -15v-17c0 -8 -7 -15 -16 -15h-235z" />
    <glyph glyph-name="Ecaron.ss01" 
d="M314 880l-37 -162c-2 -6 -8 -9 -14 -9h-36c-6 0 -12 3 -14 9l-37 162l-1 5c-1 5 5 16 16 16h11c7 0 13 -4 15 -10l28 -105l28 105c2 6 8 10 15 10h11c11 0 17 -11 16 -16zM143 618v-173h235c9 0 16 -7 16 -16v-16c0 -8 -7 -16 -16 -16h-235v-349h235c9 0 16 -7 16 -16
v-16c0 -9 -7 -16 -16 -16h-267c-9 0 -16 7 -16 16v634c0 8 7 15 16 15h267c9 0 16 -7 16 -15v-17c0 -8 -7 -15 -16 -15h-235z" />
    <glyph glyph-name="Ecircumflex" unicode="&#xca;" 
d="M314 730l1 -5c1 -5 -5 -16 -16 -16h-11c-7 0 -13 4 -15 10l-28 105l-28 -105c-2 -6 -8 -10 -15 -10h-11c-11 0 -17 11 -16 16l1 5l37 162c2 6 8 9 14 9h36c6 0 12 -3 14 -9zM143 618v-234h235c9 0 16 -7 16 -16v-16c0 -8 -7 -16 -16 -16h-235v-288h235c9 0 16 -7 16 -16
v-16c0 -9 -7 -16 -16 -16h-267c-9 0 -16 7 -16 16v634c0 8 7 15 16 15h267c9 0 16 -7 16 -15v-17c0 -8 -7 -15 -16 -15h-235z" />
    <glyph glyph-name="Ecircumflex.ss01" 
d="M314 730l1 -5c1 -5 -5 -16 -16 -16h-11c-7 0 -13 4 -15 10l-28 105l-28 -105c-2 -6 -8 -10 -15 -10h-11c-11 0 -17 11 -16 16l1 5l37 162c2 6 8 9 14 9h36c6 0 12 -3 14 -9zM143 618v-173h235c9 0 16 -7 16 -16v-16c0 -8 -7 -16 -16 -16h-235v-349h235c9 0 16 -7 16 -16
v-16c0 -9 -7 -16 -16 -16h-267c-9 0 -16 7 -16 16v634c0 8 7 15 16 15h267c9 0 16 -7 16 -15v-17c0 -8 -7 -15 -16 -15h-235z" />
    <glyph glyph-name="Edieresis" unicode="&#xcb;" 
d="M176 800h16c9 0 16 -7 16 -16v-59c0 -9 -7 -16 -16 -16h-16c-9 0 -16 7 -16 16v59c0 9 7 16 16 16zM301 800h16c9 0 16 -7 16 -16v-59c0 -9 -7 -16 -16 -16h-16c-9 0 -16 7 -16 16v59c0 9 7 16 16 16zM143 618v-234h235c9 0 16 -7 16 -16v-16c0 -8 -7 -16 -16 -16h-235
v-288h235c9 0 16 -7 16 -16v-16c0 -9 -7 -16 -16 -16h-267c-9 0 -16 7 -16 16v634c0 8 7 15 16 15h267c9 0 16 -7 16 -15v-17c0 -8 -7 -15 -16 -15h-235z" />
    <glyph glyph-name="Edieresis.ss01" 
d="M176 800h16c9 0 16 -7 16 -16v-59c0 -9 -7 -16 -16 -16h-16c-9 0 -16 7 -16 16v59c0 9 7 16 16 16zM301 800h16c9 0 16 -7 16 -16v-59c0 -9 -7 -16 -16 -16h-16c-9 0 -16 7 -16 16v59c0 9 7 16 16 16zM143 618v-173h235c9 0 16 -7 16 -16v-16c0 -8 -7 -16 -16 -16h-235
v-349h235c9 0 16 -7 16 -16v-16c0 -9 -7 -16 -16 -16h-267c-9 0 -16 7 -16 16v634c0 8 7 15 16 15h267c9 0 16 -7 16 -15v-17c0 -8 -7 -15 -16 -15h-235z" />
    <glyph glyph-name="Edotaccent" unicode="&#x116;" 
d="M237 799h16c9 0 16 -7 16 -16v-59c0 -9 -7 -16 -16 -16h-16c-9 0 -16 7 -16 16v59c0 9 7 16 16 16zM143 618v-234h235c9 0 16 -7 16 -16v-16c0 -8 -7 -16 -16 -16h-235v-288h235c9 0 16 -7 16 -16v-16c0 -9 -7 -16 -16 -16h-267c-9 0 -16 7 -16 16v634c0 8 7 15 16 15
h267c9 0 16 -7 16 -15v-17c0 -8 -7 -15 -16 -15h-235z" />
    <glyph glyph-name="Edotaccent.ss01" 
d="M237 799h16c9 0 16 -7 16 -16v-59c0 -9 -7 -16 -16 -16h-16c-9 0 -16 7 -16 16v59c0 9 7 16 16 16zM143 618v-173h235c9 0 16 -7 16 -16v-16c0 -8 -7 -16 -16 -16h-235v-349h235c9 0 16 -7 16 -16v-16c0 -9 -7 -16 -16 -16h-267c-9 0 -16 7 -16 16v634c0 8 7 15 16 15
h267c9 0 16 -7 16 -15v-17c0 -8 -7 -15 -16 -15h-235z" />
    <glyph glyph-name="Egrave" unicode="&#xc8;" 
d="M163 886l60 -167c2 -6 8 -10 15 -10h11c11 0 17 11 16 16l-1 5l-37 162c-2 6 -8 9 -14 9h-34c-9 0 -18 -8 -16 -15zM143 618v-234h235c9 0 16 -7 16 -16v-16c0 -8 -7 -16 -16 -16h-235v-288h235c9 0 16 -7 16 -16v-16c0 -9 -7 -16 -16 -16h-267c-9 0 -16 7 -16 16v634
c0 8 7 15 16 15h267c9 0 16 -7 16 -15v-17c0 -8 -7 -15 -16 -15h-235z" />
    <glyph glyph-name="Egrave.ss01" 
d="M163 886l60 -167c2 -6 8 -10 15 -10h11c11 0 17 11 16 16l-1 5l-37 162c-2 6 -8 9 -14 9h-34c-9 0 -18 -8 -16 -15zM143 618v-173h235c9 0 16 -7 16 -16v-16c0 -8 -7 -16 -16 -16h-235v-349h235c9 0 16 -7 16 -16v-16c0 -9 -7 -16 -16 -16h-267c-9 0 -16 7 -16 16v634
c0 8 7 15 16 15h267c9 0 16 -7 16 -15v-17c0 -8 -7 -15 -16 -15h-235z" />
    <glyph glyph-name="Emacron" unicode="&#x112;" 
d="M157 756h175c9 0 16 -7 16 -15v-17c0 -8 -7 -15 -16 -15h-175c-8 0 -15 7 -15 15v17c0 8 7 15 15 15zM143 618v-234h235c9 0 16 -7 16 -16v-16c0 -8 -7 -16 -16 -16h-235v-288h235c9 0 16 -7 16 -16v-16c0 -9 -7 -16 -16 -16h-267c-9 0 -16 7 -16 16v634c0 8 7 15 16 15
h267c9 0 16 -7 16 -15v-17c0 -8 -7 -15 -16 -15h-235z" />
    <glyph glyph-name="Emacron.ss01" 
d="M157 756h175c9 0 16 -7 16 -15v-17c0 -8 -7 -15 -16 -15h-175c-8 0 -15 7 -15 15v17c0 8 7 15 15 15zM143 618v-173h235c9 0 16 -7 16 -16v-16c0 -8 -7 -16 -16 -16h-235v-349h235c9 0 16 -7 16 -16v-16c0 -9 -7 -16 -16 -16h-267c-9 0 -16 7 -16 16v634c0 8 7 15 16 15
h267c9 0 16 -7 16 -15v-17c0 -8 -7 -15 -16 -15h-235z" />
    <glyph glyph-name="Eogonek" unicode="&#x118;" 
d="M143 384h235c9 0 16 -7 16 -16v-16c0 -8 -7 -16 -16 -16h-235v-288h235c9 0 16 -7 16 -16v-16c0 -9 -7 -16 -16 -16h-7c1 -4 0 -9 -3 -13s-29 -55 -29 -62c-1 -23 13 -37 28 -45c10 -6 14 -16 8 -25l-6 -12c-7 -9 -14 -9 -21 -6c-34 15 -57 49 -57 87c-1 15 20 54 34 76
h-214c-9 0 -16 7 -16 16v634c0 8 7 15 16 15h267c9 0 16 -7 16 -15v-17c0 -8 -7 -15 -16 -15h-235v-234z" />
    <glyph glyph-name="Eogonek.ss01" 
d="M143 445h235c9 0 16 -7 16 -16v-16c0 -8 -7 -16 -16 -16h-235v-349h235c9 0 16 -7 16 -16v-16c0 -9 -7 -16 -16 -16h-7c1 -4 0 -9 -3 -13s-29 -55 -29 -62c-1 -23 13 -37 28 -45c10 -6 14 -16 8 -25l-6 -12c-7 -9 -14 -9 -21 -6c-34 15 -57 49 -57 87c-1 15 20 54 34 76
h-214c-9 0 -16 7 -16 16v634c0 8 7 15 16 15h267c9 0 16 -7 16 -15v-17c0 -8 -7 -15 -16 -15h-235v-173z" />
    <glyph glyph-name="F" unicode="F" horiz-adv-x="439" 
d="M143 618v-234h235c9 0 16 -7 16 -16v-16c0 -8 -7 -16 -16 -16h-235v-320c0 -9 -7 -16 -16 -16h-16c-9 0 -16 7 -16 16v634c0 8 7 15 16 15h267c9 0 16 -7 16 -15v-17c0 -8 -7 -15 -16 -15h-235z" />
    <glyph glyph-name="F.ss01" horiz-adv-x="439" 
d="M143 618v-173h235c9 0 16 -7 16 -16v-16c0 -8 -7 -16 -16 -16h-235v-381c0 -9 -7 -16 -16 -16h-16c-9 0 -16 7 -16 16v634c0 8 7 15 16 15h267c9 0 16 -7 16 -15v-17c0 -8 -7 -15 -16 -15h-235z" />
    <glyph glyph-name="G" unicode="G" horiz-adv-x="680" 
d="M581 614l3 -2c10 -8 6 -17 3 -21l-11 -14c-8 -10 -18 -4 -21 -2c-47 32 -99 52 -167 52c-186 0 -294 -162 -294 -294c0 -187 160 -295 294 -295c67 0 110 22 153 45c11 6 16 10 16 10v161h-191c-8 0 -15 7 -15 16v16c0 8 7 15 15 15h223c9 0 16 -7 16 -15v-208
c0 -9 -5 -13 -9 -16c-13 -10 -26 -18 -26 -18c-52 -33 -115 -53 -182 -53c-188 0 -341 153 -341 342c0 188 153 341 341 341c72 0 138 -23 193 -60z" />
    <glyph glyph-name="G.ss01" horiz-adv-x="760" 
d="M587 591l-11 -14c-8 -10 -19 -4 -22 -2c-47 32 -98 52 -166 52c-186 0 -294 -162 -294 -294c0 -187 161 -295 294 -295c173 0 265 138 284 219h-301c-9 0 -16 7 -16 16v16c0 9 7 16 16 16h340c13 0 16 -9 15 -19s-3 -19 -5 -29c-35 -152 -171 -266 -333 -266
c-188 0 -341 153 -341 342c0 188 153 341 341 341c72 0 138 -23 193 -60l3 -2c10 -8 6 -17 3 -21z" />
    <glyph glyph-name="Gbreve" unicode="&#x11e;" horiz-adv-x="680" 
d="M462 829h-15c-11 0 -18 -6 -16 -19c2 -19 -7 -38 -25 -48c-5 -3 -11 -5 -18 -5s-13 2 -18 5c-18 10 -27 29 -25 48c2 13 -5 19 -16 19h-15c-12 0 -15 -8 -16 -15c-4 -37 14 -74 49 -93c15 -9 29 -12 41 -12s26 3 41 12c35 19 53 56 49 93c-1 7 -4 15 -16 15zM581 614
l3 -2c10 -8 6 -17 3 -21l-11 -14c-8 -10 -18 -4 -21 -2c-47 32 -99 52 -167 52c-186 0 -294 -162 -294 -294c0 -187 160 -295 294 -295c67 0 110 22 153 45c11 6 16 10 16 10v161h-191c-8 0 -15 7 -15 16v16c0 8 7 15 15 15h223c9 0 16 -7 16 -15v-208c0 -9 -5 -13 -9 -16
c-13 -10 -26 -18 -26 -18c-52 -33 -115 -53 -182 -53c-188 0 -341 153 -341 342c0 188 153 341 341 341c72 0 138 -23 193 -60z" />
    <glyph glyph-name="Gbreve.ss01" horiz-adv-x="760" 
d="M462 829h-15c-11 0 -18 -6 -16 -19c2 -19 -7 -38 -25 -48c-5 -3 -11 -5 -18 -5s-13 2 -18 5c-18 10 -27 29 -25 48c2 13 -5 19 -16 19h-15c-12 0 -15 -8 -16 -15c-4 -37 14 -74 49 -93c15 -9 29 -12 41 -12s26 3 41 12c35 19 53 56 49 93c-1 7 -4 15 -16 15zM587 591
l-11 -14c-8 -10 -19 -4 -22 -2c-47 32 -98 52 -166 52c-186 0 -294 -162 -294 -294c0 -187 161 -295 294 -295c173 0 265 138 284 219h-301c-9 0 -16 7 -16 16v16c0 9 7 16 16 16h340c13 0 16 -9 15 -19s-3 -19 -5 -29c-35 -152 -171 -266 -333 -266
c-188 0 -341 153 -341 342c0 188 153 341 341 341c72 0 138 -23 193 -60l3 -2c10 -8 6 -17 3 -21z" />
    <glyph glyph-name="Gcircumflex" unicode="&#x11c;" horiz-adv-x="680" 
d="M460 729l1 -5c1 -5 -5 -16 -16 -16h-11c-7 0 -13 4 -15 10l-28 105l-28 -105c-2 -6 -8 -10 -15 -10h-11c-11 0 -17 11 -16 16l1 5l37 162c2 6 8 9 14 9h36c6 0 12 -3 14 -9zM581 614l3 -2c10 -8 6 -17 3 -21l-11 -14c-8 -10 -18 -4 -21 -2c-47 32 -99 52 -167 52
c-186 0 -294 -162 -294 -294c0 -187 160 -295 294 -295c67 0 110 22 153 45c11 6 16 10 16 10v161h-191c-8 0 -15 7 -15 16v16c0 8 7 15 15 15h223c9 0 16 -7 16 -15v-208c0 -9 -5 -13 -9 -16c-13 -10 -26 -18 -26 -18c-52 -33 -115 -53 -182 -53c-188 0 -341 153 -341 342
c0 188 153 341 341 341c72 0 138 -23 193 -60z" />
    <glyph glyph-name="Gcircumflex.ss01" horiz-adv-x="760" 
d="M457 729l1 -5c1 -5 -5 -16 -16 -16h-11c-7 0 -13 4 -15 10l-28 105l-28 -105c-2 -6 -8 -10 -15 -10h-11c-11 0 -17 11 -16 16l1 5l37 162c2 6 8 9 14 9h36c6 0 12 -3 14 -9zM587 591l-11 -14c-8 -10 -19 -4 -22 -2c-47 32 -98 52 -166 52c-186 0 -294 -162 -294 -294
c0 -187 161 -295 294 -295c173 0 265 138 284 219h-301c-9 0 -16 7 -16 16v16c0 9 7 16 16 16h340c13 0 16 -9 15 -19s-3 -19 -5 -29c-35 -152 -171 -266 -333 -266c-188 0 -341 153 -341 342c0 188 153 341 341 341c72 0 138 -23 193 -60l3 -2c10 -8 6 -17 3 -21z" />
    <glyph glyph-name="Gcommaaccent" unicode="&#x122;" horiz-adv-x="680" 
d="M581 614l3 -2c10 -8 6 -17 3 -21l-11 -14c-8 -10 -18 -4 -21 -2c-47 32 -99 52 -167 52c-186 0 -294 -162 -294 -294c0 -187 160 -295 294 -295c67 0 110 22 153 45c11 6 16 10 16 10v161h-191c-8 0 -15 7 -15 16v16c0 8 7 15 15 15h223c9 0 16 -7 16 -15v-208
c0 -9 -5 -13 -9 -16c-13 -10 -26 -18 -26 -18c-52 -33 -115 -53 -182 -53c-188 0 -341 153 -341 342c0 188 153 341 341 341c72 0 138 -23 193 -60zM367 -156l37 104c2 7 -7 15 -16 15h-25c-6 0 -12 -3 -14 -9l-23 -99l-1 -5c-1 -5 5 -16 16 -16h11c7 0 13 4 15 10z" />
    <glyph glyph-name="Gcommaaccent.ss01" horiz-adv-x="760" 
d="M587 591l-11 -14c-8 -10 -19 -4 -22 -2c-47 32 -98 52 -166 52c-186 0 -294 -162 -294 -294c0 -187 161 -295 294 -295c173 0 265 138 284 219h-301c-9 0 -16 7 -16 16v16c0 9 7 16 16 16h340c13 0 16 -9 15 -19s-3 -19 -5 -29c-35 -152 -171 -266 -333 -266
c-188 0 -341 153 -341 342c0 188 153 341 341 341c72 0 138 -23 193 -60l3 -2c10 -8 6 -17 3 -21zM367 -156l37 104c2 7 -7 15 -16 15h-25c-6 0 -12 -3 -14 -9l-23 -99l-1 -5c-1 -5 5 -16 16 -16h11c7 0 13 4 15 10z" />
    <glyph glyph-name="Gdotaccent" unicode="&#x120;" horiz-adv-x="680" 
d="M380 800h16c9 0 16 -7 16 -16v-59c0 -9 -7 -16 -16 -16h-16c-9 0 -16 7 -16 16v59c0 9 7 16 16 16zM581 614l3 -2c10 -8 6 -17 3 -21l-11 -14c-8 -10 -18 -4 -21 -2c-47 32 -99 52 -167 52c-186 0 -294 -162 -294 -294c0 -187 160 -295 294 -295c67 0 110 22 153 45
c11 6 16 10 16 10v161h-191c-8 0 -15 7 -15 16v16c0 8 7 15 15 15h223c9 0 16 -7 16 -15v-208c0 -9 -5 -13 -9 -16c-13 -10 -26 -18 -26 -18c-52 -33 -115 -53 -182 -53c-188 0 -341 153 -341 342c0 188 153 341 341 341c72 0 138 -23 193 -60z" />
    <glyph glyph-name="Gdotaccent.ss01" horiz-adv-x="760" 
d="M380 800h16c9 0 16 -7 16 -16v-59c0 -9 -7 -16 -16 -16h-16c-9 0 -16 7 -16 16v59c0 9 7 16 16 16zM587 591l-11 -14c-8 -10 -19 -4 -22 -2c-47 32 -98 52 -166 52c-186 0 -294 -162 -294 -294c0 -187 161 -295 294 -295c173 0 265 138 284 219h-301c-9 0 -16 7 -16 16
v16c0 9 7 16 16 16h340c13 0 16 -9 15 -19s-3 -19 -5 -29c-35 -152 -171 -266 -333 -266c-188 0 -341 153 -341 342c0 188 153 341 341 341c72 0 138 -23 193 -60l3 -2c10 -8 6 -17 3 -21z" />
    <glyph glyph-name="H" unicode="H" horiz-adv-x="622" 
d="M494 665h17c8 0 15 -7 15 -15v-634c0 -9 -7 -16 -15 -16h-17c-8 0 -15 7 -15 16v311h-337v-311c0 -9 -7 -16 -15 -16h-17c-8 0 -15 7 -15 16v634c0 8 7 15 15 15h17c8 0 15 -7 15 -15v-276h337v276c0 8 7 15 15 15z" />
    <glyph glyph-name="Hbar" unicode="&#x126;" horiz-adv-x="622" 
d="M494 665h17c8 0 15 -7 15 -15v-634c0 -9 -7 -16 -15 -16h-17c-8 0 -15 7 -15 16v311h-337v-311c0 -9 -7 -16 -15 -16h-17c-8 0 -15 7 -15 16v634c0 8 7 15 15 15h17c8 0 15 -7 15 -15v-103h337v103c0 8 7 15 15 15zM479 500h-337v-126h337v126z" />
    <glyph glyph-name="Hcircumflex" unicode="&#x124;" horiz-adv-x="622" 
d="M379 730l1 -5c1 -5 -5 -16 -16 -16h-11c-7 0 -13 4 -15 10l-28 105l-28 -105c-2 -6 -8 -10 -15 -10h-11c-11 0 -17 11 -16 16l1 5l37 162c2 6 8 9 14 9h36c6 0 12 -3 14 -9zM494 665h17c8 0 15 -7 15 -15v-634c0 -9 -7 -16 -15 -16h-17c-8 0 -15 7 -15 16v311h-337v-311
c0 -9 -7 -16 -15 -16h-17c-8 0 -15 7 -15 16v634c0 8 7 15 15 15h17c8 0 15 -7 15 -15v-276h337v276c0 8 7 15 15 15z" />
    <glyph glyph-name="I" unicode="I" horiz-adv-x="237" 
d="M110 665h17c8 0 15 -7 15 -15v-634c0 -9 -7 -16 -15 -16h-17c-8 0 -15 7 -15 16v634c0 8 7 15 15 15z" />
    <glyph glyph-name="IJ" unicode="&#x132;" horiz-adv-x="535" 
d="M110 665h17c8 0 15 -7 15 -15v-634c0 -9 -7 -16 -15 -16h-17c-8 0 -15 7 -15 16v634c0 8 7 15 15 15zM244 665h186c9 0 16 -7 16 -15v-453c0 -46 -17 -91 -48 -127c-41 -49 -107 -87 -187 -87h-2c-9 0 -16 7 -16 15v17c0 8 7 15 16 15c53 0 100 22 135 53
c33 29 54 71 54 114v421h-154c-9 0 -16 7 -16 15v17c0 8 7 15 16 15z" />
    <glyph glyph-name="Iacute" unicode="&#xcd;" horiz-adv-x="237" 
d="M142 719l60 167c2 7 -7 15 -16 15h-34c-6 0 -12 -3 -14 -9l-38 -167c-1 -5 5 -16 16 -16h11c7 0 13 4 15 10zM110 665h17c8 0 15 -7 15 -15v-634c0 -9 -7 -16 -15 -16h-17c-8 0 -15 7 -15 16v634c0 8 7 15 15 15z" />
    <glyph glyph-name="Ibreve" unicode="&#x12c;" horiz-adv-x="237" 
d="M193 828h-15c-11 0 -18 -6 -16 -19c2 -19 -7 -38 -25 -48c-5 -3 -11 -5 -18 -5s-13 2 -18 5c-18 10 -27 29 -25 48c2 13 -5 19 -16 19h-15c-12 0 -15 -8 -16 -15c-4 -37 14 -74 49 -93c15 -9 29 -12 41 -12s26 3 41 12c35 19 53 56 49 93c-1 7 -4 15 -16 15zM110 665h17
c8 0 15 -7 15 -15v-634c0 -9 -7 -16 -15 -16h-17c-8 0 -15 7 -15 16v634c0 8 7 15 15 15z" />
    <glyph glyph-name="Icircumflex" unicode="&#xce;" horiz-adv-x="237" 
d="M187 730l1 -5c1 -5 -5 -16 -16 -16h-11c-7 0 -13 4 -15 10l-28 105l-28 -105c-2 -6 -8 -10 -15 -10h-11c-11 0 -17 11 -16 16l1 5l37 162c2 6 8 9 14 9h36c6 0 12 -3 14 -9zM110 665h17c8 0 15 -7 15 -15v-634c0 -9 -7 -16 -15 -16h-17c-8 0 -15 7 -15 16v634
c0 8 7 15 15 15z" />
    <glyph glyph-name="Idieresis" unicode="&#xcf;" horiz-adv-x="237" 
d="M48 800h16c9 0 16 -7 16 -16v-59c0 -9 -7 -16 -16 -16h-16c-9 0 -16 7 -16 16v59c0 9 7 16 16 16zM173 800h16c9 0 16 -7 16 -16v-59c0 -9 -7 -16 -16 -16h-16c-9 0 -16 7 -16 16v59c0 9 7 16 16 16zM110 665h17c8 0 15 -7 15 -15v-634c0 -9 -7 -16 -15 -16h-17
c-8 0 -15 7 -15 16v634c0 8 7 15 15 15z" />
    <glyph glyph-name="Idotaccent" unicode="&#x130;" horiz-adv-x="237" 
d="M111 800h16c9 0 16 -7 16 -16v-59c0 -9 -7 -16 -16 -16h-16c-9 0 -16 7 -16 16v59c0 9 7 16 16 16zM110 665h17c8 0 15 -7 15 -15v-634c0 -9 -7 -16 -15 -16h-17c-8 0 -15 7 -15 16v634c0 8 7 15 15 15z" />
    <glyph glyph-name="Igrave" unicode="&#xcc;" horiz-adv-x="237" 
d="M35 886l60 -167c2 -6 8 -10 15 -10h11c11 0 17 11 16 16l-1 5l-37 162c-2 6 -8 9 -14 9h-34c-9 0 -18 -8 -16 -15zM110 665h17c8 0 15 -7 15 -15v-634c0 -9 -7 -16 -15 -16h-17c-8 0 -15 7 -15 16v634c0 8 7 15 15 15z" />
    <glyph glyph-name="Imacron" unicode="&#x12a;" horiz-adv-x="237" 
d="M30 756h175c9 0 16 -7 16 -15v-17c0 -8 -7 -15 -16 -15h-175c-8 0 -15 7 -15 15v17c0 8 7 15 15 15zM110 665h17c8 0 15 -7 15 -15v-634c0 -9 -7 -16 -15 -16h-17c-8 0 -15 7 -15 16v634c0 8 7 15 15 15z" />
    <glyph glyph-name="Iogonek" unicode="&#x12e;" horiz-adv-x="237" 
d="M142 650v-634c0 -6 -3 -11 -7 -14c2 -5 1 -10 -2 -15c-3 -4 -29 -55 -29 -62c-1 -23 13 -37 28 -45c10 -6 14 -16 8 -25l-6 -12c-7 -9 -14 -9 -21 -6c-34 15 -57 49 -57 87c-1 17 26 67 41 85c-1 2 -2 4 -2 7v634c0 8 7 15 15 15h17c8 0 15 -7 15 -15z" />
    <glyph glyph-name="Itilde" unicode="&#x128;" horiz-adv-x="237" 
d="M247 827h15c12 0 15 -8 16 -15c4 -37 -14 -74 -49 -93c-63 -36 -103 16 -130 37s-43 32 -67 19c-18 -10 -27 -29 -25 -48c1 -14 -5 -19 -16 -19h-16c-10 0 -15 6 -16 15c-3 37 15 74 50 93c61 34 94 -8 131 -37c36 -29 52 -27 66 -19c18 10 27 29 25 48c-2 13 5 19 16 19
zM110 665h17c8 0 15 -7 15 -15v-634c0 -9 -7 -16 -15 -16h-17c-8 0 -15 7 -15 16v634c0 8 7 15 15 15z" />
    <glyph glyph-name="J" unicode="J" horiz-adv-x="364" 
d="M73 665h186c9 0 16 -7 16 -15v-453c0 -46 -17 -91 -48 -127c-41 -49 -107 -87 -187 -87h-2c-9 0 -16 7 -16 15v17c0 8 7 15 16 15c53 0 100 22 135 53c33 29 54 71 54 114v421h-154c-9 0 -16 7 -16 15v17c0 8 7 15 16 15z" />
    <glyph glyph-name="J.ss01" horiz-adv-x="364" 
d="M73 665h186c9 0 16 -7 16 -15v-616c0 -46 -17 -91 -48 -127c-41 -49 -107 -87 -187 -87h-2c-9 0 -16 7 -16 15v17c0 8 7 15 16 15c53 0 100 22 135 53c33 29 54 71 54 114v584h-154c-9 0 -16 7 -16 15v17c0 8 7 15 16 15z" />
    <glyph glyph-name="Jcircumflex" unicode="&#x134;" horiz-adv-x="364" 
d="M233 730l1 -5c1 -5 -5 -16 -16 -16h-11c-7 0 -13 4 -15 10l-28 105l-28 -105c-2 -6 -8 -10 -15 -10h-11c-11 0 -17 11 -16 16l1 5l37 162c2 6 8 9 14 9h36c6 0 12 -3 14 -9zM73 665h186c9 0 16 -7 16 -15v-453c0 -46 -17 -91 -48 -127c-41 -49 -107 -87 -187 -87h-2
c-9 0 -16 7 -16 15v17c0 8 7 15 16 15c53 0 100 22 135 53c33 29 54 71 54 114v421h-154c-9 0 -16 7 -16 15v17c0 8 7 15 16 15z" />
    <glyph glyph-name="Jcircumflex.ss01" horiz-adv-x="364" 
d="M233 730l1 -5c1 -5 -5 -16 -16 -16h-11c-7 0 -13 4 -15 10l-28 105l-28 -105c-2 -6 -8 -10 -15 -10h-11c-11 0 -17 11 -16 16l1 5l37 162c2 6 8 9 14 9h36c6 0 12 -3 14 -9zM73 665h186c9 0 16 -7 16 -15v-616c0 -46 -17 -91 -48 -127c-41 -49 -107 -87 -187 -87h-2
c-9 0 -16 7 -16 15v17c0 8 7 15 16 15c53 0 100 22 135 53c33 29 54 71 54 114v584h-154c-9 0 -16 7 -16 15v17c0 8 7 15 16 15z" />
    <glyph glyph-name="K" unicode="K" horiz-adv-x="502" 
d="M482 28l2 -2c6 -6 5 -16 0 -21c-3 -3 -6 -5 -12 -5h-25c-2 0 -7 1 -10 4l-294 259v-247c0 -9 -7 -16 -16 -16h-16c-9 0 -16 7 -16 16v634c0 8 7 15 16 15h16c9 0 16 -7 16 -15v-366l285 375c3 4 7 6 12 6h21c9 0 16 -7 16 -15c0 -3 0 -6 -5 -12l-274 -360z" />
    <glyph glyph-name="Kcommaaccent" unicode="&#x136;" horiz-adv-x="502" 
d="M482 28l2 -2c6 -6 5 -16 0 -21c-3 -3 -6 -5 -12 -5h-25c-2 0 -7 1 -10 4l-294 259v-247c0 -9 -7 -16 -16 -16h-16c-9 0 -16 7 -16 16v634c0 8 7 15 16 15h16c9 0 16 -7 16 -15v-366l285 375c3 4 7 6 12 6h21c9 0 16 -7 16 -15c0 -3 0 -6 -5 -12l-274 -360zM238 -156
l37 104c2 7 -7 15 -16 15h-25c-6 0 -12 -3 -14 -9l-23 -99l-1 -5c-1 -5 5 -16 16 -16h11c7 0 13 4 15 10z" />
    <glyph glyph-name="L" unicode="L" horiz-adv-x="427" 
d="M143 48h251c9 0 16 -7 16 -16v-16c0 -9 -7 -16 -16 -16h-283c-9 0 -16 7 -16 16v634c0 8 7 15 16 15h16c9 0 16 -7 16 -15v-602z" />
    <glyph glyph-name="Lacute" unicode="&#x139;" horiz-adv-x="427" 
d="M147 719l60 167c2 7 -7 15 -16 15h-34c-6 0 -12 -3 -14 -9l-37 -162l-1 -5c-1 -5 5 -16 16 -16h11c7 0 13 4 15 10zM143 48h251c9 0 16 -7 16 -16v-16c0 -9 -7 -16 -16 -16h-283c-9 0 -16 7 -16 16v634c0 8 7 15 16 15h16c9 0 16 -7 16 -15v-602z" />
    <glyph glyph-name="Lcaron" unicode="&#x13d;" horiz-adv-x="427" 
d="M143 48h251c9 0 16 -7 16 -16v-16c0 -9 -7 -16 -16 -16h-283c-9 0 -16 7 -16 16v634c0 8 7 15 16 15h16c9 0 16 -7 16 -15v-602zM348 483l60 167c2 7 -7 15 -16 15h-34c-6 0 -12 -3 -14 -9l-37 -162l-1 -5c-1 -5 5 -16 16 -16h11c7 0 13 4 15 10z" />
    <glyph glyph-name="Lcommaaccent" unicode="&#x13b;" horiz-adv-x="427" 
d="M143 48h251c9 0 16 -7 16 -16v-16c0 -9 -7 -16 -16 -16h-283c-9 0 -16 7 -16 16v634c0 8 7 15 16 15h16c9 0 16 -7 16 -15v-602zM292 -156l37 104c2 7 -7 15 -16 15h-25c-6 0 -12 -3 -14 -9l-23 -99l-1 -5c-1 -5 5 -16 16 -16h11c7 0 13 4 15 10z" />
    <glyph glyph-name="Ldot" unicode="&#x13f;" horiz-adv-x="432" 
d="M143 48h251c9 0 16 -7 16 -16v-16c0 -9 -7 -16 -16 -16h-283c-9 0 -16 7 -16 16v634c0 8 7 15 16 15h16c9 0 16 -7 16 -15v-602zM317 384h19c9 0 16 -7 16 -15v-59c0 -9 -7 -16 -16 -16h-19c-9 0 -16 7 -16 16v59c0 8 7 15 16 15z" />
    <glyph glyph-name="Lslash" unicode="&#x141;" horiz-adv-x="419" 
d="M135 48h251c9 0 16 -7 16 -16v-16c0 -9 -7 -16 -16 -16h-283c-9 0 -16 7 -16 16v337l-43 -12c-8 -2 -15 3 -15 11v17c0 8 7 17 15 19l43 12v250c0 8 7 15 16 15h16c9 0 16 -7 16 -15v-238l84 23c9 3 16 -2 16 -10v-17c0 -8 -7 -17 -16 -20l-84 -23v-317z" />
    <glyph glyph-name="M" unicode="M" horiz-adv-x="799" 
d="M704 667v-651c0 -9 -7 -16 -16 -16h-17c-8 0 -15 7 -15 16v505l-242 -530c-2 -5 -8 -8 -14 -8s-12 3 -14 8l-243 530v-505c0 -9 -7 -16 -16 -16h-17c-8 0 -15 7 -15 16v651c0 8 7 15 15 15c10 0 13 -7 16 -13l274 -592l272 592c3 6 6 13 16 13c9 0 16 -7 16 -15z" />
    <glyph glyph-name="M.ss01" horiz-adv-x="647" 
d="M505 589l-170 -170c-3 -3 -6 -5 -11 -5s-8 2 -11 5l-171 170v-573c0 -9 -7 -16 -15 -16h-17c-8 0 -15 7 -15 16v651c0 8 7 15 15 15c5 0 10 -2 13 -6l201 -201l200 201c3 4 8 6 13 6c8 0 15 -7 15 -15v-651c0 -9 -7 -16 -15 -16h-17c-8 0 -15 7 -15 16v573z" />
    <glyph glyph-name="N" unicode="N" horiz-adv-x="647" 
d="M520 665h16c9 0 16 -7 16 -15v-652c0 -6 -3 -11 -9 -14c-7 -3 -15 -1 -19 5l-382 574v-547c0 -9 -7 -16 -15 -16h-17c-8 0 -15 7 -15 16v651c0 8 7 15 15 15c5 0 10 -2 13 -6l381 -577v551c0 8 7 15 16 15z" />
    <glyph glyph-name="N.ss01" horiz-adv-x="647" 
d="M520 665h17c8 0 15 -7 15 -15v-634c0 -9 -7 -16 -15 -16h-17c-8 0 -15 7 -15 16v211l-363 362v-573c0 -9 -7 -16 -15 -16h-17c-8 0 -15 7 -15 16v651c0 8 7 15 15 15c5 0 10 -2 13 -6l382 -383v357c0 8 7 15 15 15z" />
    <glyph glyph-name="Nacute" unicode="&#x143;" horiz-adv-x="647" 
d="M349 719l60 167c2 7 -7 15 -16 15h-34c-6 0 -12 -3 -14 -9l-37 -162l-1 -5c-1 -5 5 -16 16 -16h11c7 0 13 4 15 10zM520 665h16c9 0 16 -7 16 -15v-652c0 -6 -3 -11 -9 -14c-7 -3 -15 -1 -19 5l-382 574v-547c0 -9 -7 -16 -15 -16h-17c-8 0 -15 7 -15 16v651
c0 8 7 15 15 15c5 0 10 -2 13 -6l381 -577v551c0 8 7 15 16 15z" />
    <glyph glyph-name="Nacute.ss01" horiz-adv-x="647" 
d="M349 719l60 167c2 7 -7 15 -16 15h-34c-6 0 -12 -3 -14 -9l-37 -162l-1 -5c-1 -5 5 -16 16 -16h11c7 0 13 4 15 10zM520 665h17c8 0 15 -7 15 -15v-634c0 -9 -7 -16 -15 -16h-17c-8 0 -15 7 -15 16v211l-363 362v-573c0 -9 -7 -16 -15 -16h-17c-8 0 -15 7 -15 16v651
c0 8 7 15 15 15c5 0 10 -2 13 -6l382 -383v357c0 8 7 15 15 15z" />
    <glyph glyph-name="Ncaron" unicode="&#x147;" horiz-adv-x="647" 
d="M397 880l-37 -162c-2 -6 -8 -9 -14 -9h-36c-6 0 -12 3 -14 9l-37 162l-1 5c-1 5 5 16 16 16h11c7 0 13 -4 15 -10l28 -105l28 105c2 6 8 10 15 10h11c11 0 17 -11 16 -16zM520 665h16c9 0 16 -7 16 -15v-652c0 -6 -3 -11 -9 -14c-7 -3 -15 -1 -19 5l-382 574v-547
c0 -9 -7 -16 -15 -16h-17c-8 0 -15 7 -15 16v651c0 8 7 15 15 15c5 0 10 -2 13 -6l381 -577v551c0 8 7 15 16 15z" />
    <glyph glyph-name="Ncaron.ss01" horiz-adv-x="647" 
d="M397 880l-37 -162c-2 -6 -8 -9 -14 -9h-36c-6 0 -12 3 -14 9l-37 162l-1 5c-1 5 5 16 16 16h11c7 0 13 -4 15 -10l28 -105l28 105c2 6 8 10 15 10h11c11 0 17 -11 16 -16zM520 665h17c8 0 15 -7 15 -15v-634c0 -9 -7 -16 -15 -16h-17c-8 0 -15 7 -15 16v211l-363 362
v-573c0 -9 -7 -16 -15 -16h-17c-8 0 -15 7 -15 16v651c0 8 7 15 15 15c5 0 10 -2 13 -6l382 -383v357c0 8 7 15 15 15z" />
    <glyph glyph-name="Ncommaaccent" unicode="&#x145;" horiz-adv-x="647" 
d="M520 665h16c9 0 16 -7 16 -15v-652c0 -6 -3 -11 -9 -14c-7 -3 -15 -1 -19 5l-382 574v-547c0 -9 -7 -16 -15 -16h-17c-8 0 -15 7 -15 16v651c0 8 7 15 15 15c5 0 10 -2 13 -6l381 -577v551c0 8 7 15 16 15zM308 -156l37 104c2 7 -7 15 -16 15h-25c-6 0 -12 -3 -14 -9
l-23 -99l-1 -5c-1 -5 5 -16 16 -16h11c7 0 13 4 15 10z" />
    <glyph glyph-name="Ncommaaccent.ss01" horiz-adv-x="647" 
d="M520 665h17c8 0 15 -7 15 -15v-634c0 -9 -7 -16 -15 -16h-17c-8 0 -15 7 -15 16v211l-363 362v-573c0 -9 -7 -16 -15 -16h-17c-8 0 -15 7 -15 16v651c0 8 7 15 15 15c5 0 10 -2 13 -6l382 -383v357c0 8 7 15 15 15zM308 -156l37 104c2 7 -7 15 -16 15h-25
c-6 0 -12 -3 -14 -9l-23 -99l-1 -5c-1 -5 5 -16 16 -16h11c7 0 13 4 15 10z" />
    <glyph glyph-name="Eng" unicode="&#x14a;" horiz-adv-x="647" 
d="M520 665h16c9 0 16 -7 16 -15v-668c0 -83 -66 -155 -142 -161c-14 0 -19 5 -19 16v16c0 8 4 15 14 16c25 3 48 14 66 32c21 22 33 50 33 81v37l-362 544v-547c0 -9 -7 -16 -15 -16h-17c-8 0 -15 7 -15 16v651c0 8 7 15 15 15c5 0 10 -2 13 -6l381 -577v551
c0 8 7 15 16 15z" />
    <glyph glyph-name="Eng.ss01" horiz-adv-x="647" 
d="M520 665h17c8 0 15 -7 15 -15v-668c0 -83 -66 -155 -142 -161c-14 0 -19 5 -19 16v16c0 8 4 15 14 16c25 3 48 14 66 32c21 22 34 50 34 81v245l-363 362v-573c0 -9 -7 -16 -15 -16h-17c-8 0 -15 7 -15 16v651c0 8 7 15 15 15c5 0 10 -2 13 -6l382 -383v357
c0 8 7 15 15 15z" />
    <glyph glyph-name="Ntilde" unicode="&#xd1;" horiz-adv-x="647" 
d="M456 827h15c12 0 15 -8 16 -15c4 -37 -14 -74 -49 -93c-63 -36 -103 16 -130 37s-43 32 -67 19c-18 -10 -27 -29 -25 -48c1 -14 -5 -19 -15 -19h-16c-10 0 -15 6 -16 15c-3 37 15 74 49 93c61 34 94 -8 131 -37c36 -29 52 -27 66 -19c18 10 27 29 25 48c-2 13 5 19 16 19
zM520 665h16c9 0 16 -7 16 -15v-652c0 -6 -3 -11 -9 -14c-7 -3 -15 -1 -19 5l-382 574v-547c0 -9 -7 -16 -15 -16h-17c-8 0 -15 7 -15 16v651c0 8 7 15 15 15c5 0 10 -2 13 -6l381 -577v551c0 8 7 15 16 15z" />
    <glyph glyph-name="Ntilde.ss01" horiz-adv-x="647" 
d="M456 827h15c12 0 15 -8 16 -15c4 -37 -14 -74 -49 -93c-63 -36 -103 16 -130 37s-43 32 -67 19c-18 -10 -27 -29 -25 -48c1 -14 -5 -19 -15 -19h-16c-10 0 -15 6 -16 15c-3 37 15 74 49 93c61 34 94 -8 131 -37c36 -29 52 -27 66 -19c18 10 27 29 25 48c-2 13 5 19 16 19
zM520 665h16c9 0 16 -7 16 -15v-652c0 -6 -3 -11 -9 -14c-7 -3 -15 -1 -19 5l-382 574v-547c0 -9 -7 -16 -15 -16h-17c-8 0 -15 7 -15 16v651c0 8 7 15 15 15c5 0 10 -2 13 -6l381 -577v551c0 8 7 15 16 15z" />
    <glyph glyph-name="O" unicode="O" horiz-adv-x="776" 
d="M388 674c188 0 341 -153 341 -341c0 -189 -153 -342 -341 -342s-341 153 -341 342c0 188 153 341 341 341zM388 627c-186 0 -294 -162 -294 -294c0 -135 112 -295 294 -295c135 0 294 112 294 295c0 136 -110 294 -294 294z" />
    <glyph glyph-name="Oacute" unicode="&#xd3;" horiz-adv-x="776" 
d="M415 719l60 167c2 7 -7 15 -16 15h-34c-6 0 -12 -3 -14 -9l-37 -162l-1 -5c-1 -5 5 -16 16 -16h11c7 0 13 4 15 10zM388 674c188 0 341 -153 341 -341c0 -189 -153 -342 -341 -342s-341 153 -341 342c0 188 153 341 341 341zM388 627c-186 0 -294 -162 -294 -294
c0 -135 112 -295 294 -295c135 0 294 112 294 295c0 136 -110 294 -294 294z" />
    <glyph glyph-name="Obreve" unicode="&#x14e;" horiz-adv-x="776" 
d="M462 828h-15c-11 0 -18 -6 -16 -19c2 -19 -7 -38 -25 -48c-5 -3 -11 -5 -18 -5s-13 2 -18 5c-18 10 -27 29 -25 48c2 13 -5 19 -16 19h-15c-12 0 -15 -8 -16 -15c-4 -37 14 -74 49 -93c15 -9 29 -12 41 -12s26 3 41 12c35 19 53 56 49 93c-1 7 -4 15 -16 15zM388 674
c188 0 341 -153 341 -341c0 -189 -153 -342 -341 -342s-341 153 -341 342c0 188 153 341 341 341zM388 627c-186 0 -294 -162 -294 -294c0 -135 112 -295 294 -295c135 0 294 112 294 295c0 136 -110 294 -294 294z" />
    <glyph glyph-name="Ocircumflex" unicode="&#xd4;" horiz-adv-x="776" 
d="M460 730l1 -5c1 -5 -5 -16 -16 -16h-11c-7 0 -13 4 -15 10l-28 105l-28 -105c-2 -6 -8 -10 -15 -10h-11c-11 0 -17 11 -16 16l1 5l37 162c2 6 8 9 14 9h36c6 0 12 -3 14 -9zM388 674c188 0 341 -153 341 -341c0 -189 -153 -342 -341 -342s-341 153 -341 342
c0 188 153 341 341 341zM388 627c-186 0 -294 -162 -294 -294c0 -135 112 -295 294 -295c135 0 294 112 294 295c0 136 -110 294 -294 294z" />
    <glyph glyph-name="Odieresis" unicode="&#xd6;" horiz-adv-x="776" 
d="M388 674c188 0 341 -153 341 -341c0 -189 -153 -342 -341 -342c-189 0 -341 153 -341 342c0 188 152 341 341 341zM124 665h16c9 0 16 -7 16 -15v-37c0 -8 -7 -15 -16 -15h-16c-9 0 -16 7 -16 15v37c0 8 7 15 16 15zM635 665h17c8 0 15 -7 15 -15v-37
c0 -8 -7 -15 -15 -15h-17c-8 0 -15 7 -15 15v37c0 8 7 15 15 15zM388 627c-186 0 -294 -164 -294 -294c0 -190 165 -295 294 -295c189 0 294 164 294 295c0 186 -162 294 -294 294z" />
    <glyph glyph-name="Odieresis.ss01" horiz-adv-x="776" 
d="M325 800h16c9 0 16 -7 16 -16v-59c0 -9 -7 -16 -16 -16h-16c-9 0 -16 7 -16 16v59c0 9 7 16 16 16zM450 800h16c9 0 16 -7 16 -16v-59c0 -9 -7 -16 -16 -16h-16c-9 0 -16 7 -16 16v59c0 9 7 16 16 16zM388 674c188 0 341 -153 341 -341c0 -189 -153 -342 -341 -342
c-189 0 -341 153 -341 342c0 188 152 341 341 341zM388 627c-186 0 -294 -164 -294 -294c0 -190 165 -295 294 -295c189 0 294 164 294 295c0 186 -162 294 -294 294z" />
    <glyph glyph-name="Odieresis.ss02" horiz-adv-x="776" 
d="M388 674c188 0 341 -153 341 -341c0 -189 -153 -342 -341 -342s-341 153 -341 342c0 188 153 341 341 341zM388 627c-186 0 -294 -162 -294 -294c0 -135 112 -295 294 -295c135 0 294 112 294 295c0 136 -110 294 -294 294zM380 545v-40h44c8 0 14 -5 14 -12v-14
c0 -6 -6 -13 -14 -13h-44v-50h44c8 0 14 -5 14 -13v-13c0 -7 -6 -14 -14 -14h-70c-8 0 -14 7 -14 14v181c0 6 6 13 14 13h70c8 0 14 -7 14 -13v-14c0 -7 -6 -12 -14 -12h-44z" />
    <glyph glyph-name="Odieresis.ss03" horiz-adv-x="777" 
d="M389 674c188 0 341 -153 341 -341c0 -189 -153 -342 -341 -342c-189 0 -342 153 -342 342c0 188 153 341 342 341zM389 627c-135 0 -295 -113 -295 -294c0 -137 113 -295 295 -295c138 0 294 113 294 295c0 134 -110 294 -294 294zM380 579h17c8 0 15 -7 15 -15v-36
c0 -9 -7 -16 -15 -16h-17c-8 0 -15 7 -15 16v36c0 8 7 15 15 15zM380 465h17c8 0 15 -7 15 -16v-36c0 -9 -7 -16 -15 -16h-17c-8 0 -15 7 -15 16v36c0 9 7 16 15 16z" />
    <glyph glyph-name="Ograve" unicode="&#xd2;" horiz-adv-x="776" 
d="M305 886l60 -167c2 -6 8 -10 15 -10h11c11 0 17 11 16 16l-1 5l-37 162c-2 6 -8 9 -14 9h-34c-9 0 -18 -8 -16 -15zM388 674c188 0 341 -153 341 -341c0 -189 -153 -342 -341 -342s-341 153 -341 342c0 188 153 341 341 341zM388 627c-186 0 -294 -162 -294 -294
c0 -135 112 -295 294 -295c135 0 294 112 294 295c0 136 -110 294 -294 294z" />
    <glyph glyph-name="Ohungarumlaut" unicode="&#x150;" horiz-adv-x="776" 
d="M348 719l60 167c2 7 -7 15 -16 15h-34c-6 0 -12 -3 -14 -9l-37 -162l-1 -5c-1 -5 5 -16 16 -16h11c7 0 13 4 15 10zM467 719l60 167c2 7 -7 15 -16 15h-34c-6 0 -12 -3 -14 -9l-37 -162l-1 -5c-1 -5 5 -16 16 -16h11c7 0 13 4 15 10zM388 674c188 0 341 -153 341 -341
c0 -189 -153 -342 -341 -342s-341 153 -341 342c0 188 153 341 341 341zM388 627c-186 0 -294 -162 -294 -294c0 -135 112 -295 294 -295c135 0 294 112 294 295c0 136 -110 294 -294 294z" />
    <glyph glyph-name="Omacron" unicode="&#x14c;" horiz-adv-x="776" 
d="M305 756h175c9 0 16 -7 16 -15v-17c0 -8 -7 -15 -16 -15h-175c-8 0 -15 7 -15 15v17c0 8 7 15 15 15zM388 674c188 0 341 -153 341 -341c0 -189 -153 -342 -341 -342s-341 153 -341 342c0 188 153 341 341 341zM388 627c-186 0 -294 -162 -294 -294
c0 -135 112 -295 294 -295c135 0 294 112 294 295c0 136 -110 294 -294 294z" />
    <glyph glyph-name="Oslash" unicode="&#xd8;" horiz-adv-x="776" 
d="M600 657l-22 -38c93 -61 151 -166 151 -286c0 -189 -153 -342 -341 -342c-53 0 -105 14 -152 38l-17 -30c-3 -5 -8 -8 -14 -8h-28c-8 0 -13 7 -9 15l28 48c-88 62 -149 164 -149 279c0 188 153 341 341 341c54 0 104 -11 148 -32l14 25c3 5 8 8 13 8h31c8 0 11 -10 6 -18
zM218 93l293 507c-36 17 -77 27 -123 27c-186 0 -294 -162 -294 -294c0 -86 45 -181 124 -240zM553 576l-294 -508c38 -19 81 -30 129 -30c135 0 294 112 294 295c0 88 -46 186 -129 243z" />
    <glyph glyph-name="Oslashacute" unicode="&#x1fe;" horiz-adv-x="776" 
d="M415 719l60 167c2 7 -7 15 -16 15h-34c-6 0 -12 -3 -14 -9l-37 -162l-1 -5c-1 -5 5 -16 16 -16h11c7 0 13 4 15 10zM600 657l-22 -38c93 -61 151 -166 151 -286c0 -189 -153 -342 -341 -342c-53 0 -105 14 -152 38l-17 -30c-3 -5 -8 -8 -14 -8h-28c-8 0 -13 7 -9 15
l28 48c-88 62 -149 164 -149 279c0 188 153 341 341 341c54 0 104 -11 148 -32l14 25c3 5 8 8 13 8h31c8 0 11 -10 6 -18zM218 93l293 507c-36 17 -77 27 -123 27c-186 0 -294 -162 -294 -294c0 -86 45 -181 124 -240zM553 576l-294 -508c38 -19 81 -30 129 -30
c135 0 294 112 294 295c0 88 -46 186 -129 243z" />
    <glyph glyph-name="Otilde" unicode="&#xd5;" horiz-adv-x="776" 
d="M521 828h15c12 0 15 -8 16 -15c4 -37 -14 -74 -49 -93c-63 -36 -103 16 -130 37s-43 32 -67 19c-18 -10 -27 -29 -25 -48c1 -14 -5 -19 -15 -19h-16c-10 0 -15 6 -16 15c-3 37 15 74 49 93c61 34 94 -8 131 -37c36 -29 52 -27 66 -19c18 10 27 29 25 48c-2 13 5 19 16 19
zM388 674c188 0 341 -153 341 -341c0 -189 -153 -342 -341 -342s-341 153 -341 342c0 188 153 341 341 341zM388 627c-186 0 -294 -162 -294 -294c0 -135 112 -295 294 -295c135 0 294 112 294 295c0 136 -110 294 -294 294z" />
    <glyph glyph-name="OE" unicode="&#x152;" horiz-adv-x="1051" 
d="M730 384h235c9 0 16 -7 16 -16v-16c0 -8 -7 -16 -16 -16h-235v-288h235c9 0 16 -7 16 -16v-16c0 -9 -7 -16 -16 -16h-267c-9 0 -16 7 -16 16v144c-59 -101 -169 -169 -294 -169c-188 0 -341 153 -341 342c0 188 153 341 341 341c125 0 235 -68 294 -168v144
c0 8 7 15 16 15h267c9 0 16 -7 16 -15v-17c0 -8 -7 -15 -16 -15h-235v-234zM388 38c135 0 294 112 294 295c0 136 -110 294 -294 294c-186 0 -294 -162 -294 -294c0 -135 112 -295 294 -295z" />
    <glyph glyph-name="P" unicode="P" horiz-adv-x="462" 
d="M111 665h45c187 0 264 -60 264 -197c0 -131 -94 -214 -269 -214h-8v-238c0 -9 -7 -16 -16 -16h-16c-9 0 -16 7 -16 16v634c0 8 7 15 16 15zM143 299h8c130 0 224 50 224 169c0 123 -77 152 -232 152v-321z" />
    <glyph glyph-name="Thorn" unicode="&#xde;" horiz-adv-x="447" 
d="M143 539h13c187 0 264 -60 264 -197c0 -131 -94 -214 -269 -214h-7v-112c0 -9 -7 -16 -16 -16h-18c-8 0 -15 7 -15 16v634c0 8 7 15 15 15h18c8 0 15 -7 15 -15v-111zM143 173h8c130 0 224 50 224 169c0 123 -77 152 -232 152v-321z" />
    <glyph glyph-name="Q" unicode="Q" horiz-adv-x="792" 
d="M644 107l82 -82c5 -6 5 -15 -1 -20c-3 -3 -7 -5 -11 -5h-23c-4 0 -7 1 -10 3l-70 71c-60 -52 -138 -83 -222 -83c-189 0 -342 153 -342 342c0 188 153 341 342 341c188 0 341 -153 341 -341c0 -87 -33 -166 -86 -226zM389 38c138 0 294 113 294 295
c0 134 -110 294 -294 294c-135 0 -295 -113 -295 -294c0 -137 113 -295 295 -295z" />
    <glyph glyph-name="Q.ss01" horiz-adv-x="792" 
d="M644 107l82 -82c11 -13 -3 -25 -12 -25h-23c-4 0 -8 1 -12 5l-68 69c-60 -52 -138 -83 -223 -83c-188 0 -341 153 -341 342c0 188 153 341 341 341c189 0 342 -153 342 -341c0 -87 -33 -166 -86 -226zM545 206l66 -66c45 54 72 118 72 193c0 186 -164 294 -295 294
c-191 0 -294 -165 -294 -294c0 -187 160 -295 294 -295c70 0 142 28 189 69l-79 80c-11 13 3 25 12 25h23c5 0 8 -2 12 -6z" />
    <glyph glyph-name="R" unicode="R" horiz-adv-x="482" 
d="M439 26l1 -1c10 -10 1 -25 -12 -25h-23c-6 0 -10 3 -13 6l-245 269c-8 10 -1 27 13 27c118 0 213 50 213 166c0 128 -99 150 -185 150h-45v-602c0 -9 -7 -16 -16 -16h-16c-9 0 -16 7 -16 16v634c0 8 7 15 16 15h77c132 0 232 -54 232 -197c0 -111 -67 -187 -194 -208z
" />
    <glyph glyph-name="Racute" unicode="&#x154;" horiz-adv-x="482" 
d="M251 719l60 167c2 7 -7 15 -16 15h-34c-6 0 -12 -3 -14 -9l-37 -162l-1 -5c-1 -5 5 -16 16 -16h11c7 0 13 4 15 10zM439 26l1 -1c10 -10 1 -25 -12 -25h-23c-6 0 -10 3 -13 6l-245 269c-8 10 -1 27 13 27c118 0 213 50 213 166c0 128 -99 150 -185 150h-45v-602
c0 -9 -7 -16 -16 -16h-16c-9 0 -16 7 -16 16v634c0 8 7 15 16 15h77c132 0 232 -54 232 -197c0 -111 -67 -187 -194 -208z" />
    <glyph glyph-name="Rcaron" unicode="&#x158;" horiz-adv-x="482" 
d="M296 880l-37 -162c-2 -6 -8 -9 -14 -9h-36c-6 0 -12 3 -14 9l-37 162l-1 5c-1 5 5 16 16 16h11c7 0 13 -4 15 -10l28 -105l28 105c2 6 8 10 15 10h11c11 0 17 -11 16 -16zM439 26l1 -1c10 -10 1 -25 -12 -25h-23c-6 0 -10 3 -13 6l-245 269c-8 10 -1 27 13 27
c118 0 213 50 213 166c0 128 -99 150 -185 150h-45v-602c0 -9 -7 -16 -16 -16h-16c-9 0 -16 7 -16 16v634c0 8 7 15 16 15h77c132 0 232 -54 232 -197c0 -111 -67 -187 -194 -208z" />
    <glyph glyph-name="Rcommaaccent" unicode="&#x156;" horiz-adv-x="482" 
d="M439 26l1 -1c10 -10 1 -25 -12 -25h-23c-6 0 -10 3 -13 6l-245 269c-8 10 -1 27 13 27c118 0 213 50 213 166c0 128 -99 150 -185 150h-45v-602c0 -9 -7 -16 -16 -16h-16c-9 0 -16 7 -16 16v634c0 8 7 15 16 15h77c132 0 232 -54 232 -197c0 -111 -67 -187 -194 -208z
M234 -156l37 104c2 7 -7 15 -16 15h-25c-6 0 -12 -3 -14 -9l-23 -99l-1 -5c-1 -5 5 -16 16 -16h11c7 0 13 4 15 10z" />
    <glyph glyph-name="S" unicode="S" horiz-adv-x="466" 
d="M396 563l-16 -8c-8 -4 -15 -1 -19 4c-27 39 -64 67 -128 67c-103 0 -130 -80 -130 -127c0 -77 44 -108 134 -146c121 -51 184 -88 184 -193c0 -99 -85 -169 -187 -169c-82 0 -147 57 -172 82c-7 7 -9 18 -1 24l13 11c7 6 13 6 23 -3c20 -19 74 -66 137 -66
c80 0 139 52 139 121c0 62 -21 94 -154 149c-136 56 -164 115 -164 190c0 92 67 175 178 175c86 0 141 -49 167 -87l2 -4c4 -7 3 -15 -6 -20z" />
    <glyph glyph-name="Sacute" unicode="&#x15a;" horiz-adv-x="466" 
d="M258 719l60 167c2 7 -7 15 -16 15h-34c-6 0 -12 -3 -14 -9l-37 -162l-1 -5c-1 -5 5 -16 16 -16h11c7 0 13 4 15 10zM396 563l-16 -8c-8 -4 -15 -1 -19 4c-27 39 -64 67 -128 67c-103 0 -130 -80 -130 -127c0 -77 44 -108 134 -146c121 -51 184 -88 184 -193
c0 -99 -85 -169 -187 -169c-82 0 -147 57 -172 82c-7 7 -9 18 -1 24l13 11c7 6 13 6 23 -3c20 -19 74 -66 137 -66c80 0 139 52 139 121c0 62 -21 94 -154 149c-136 56 -164 115 -164 190c0 92 67 175 178 175c86 0 141 -49 167 -87l2 -4c4 -7 3 -15 -6 -20z" />
    <glyph glyph-name="Scaron" unicode="&#x160;" horiz-adv-x="466" 
d="M306 880l-37 -162c-2 -6 -8 -9 -14 -9h-36c-6 0 -12 3 -14 9l-37 162l-1 5c-1 5 5 16 16 16h11c7 0 13 -4 15 -10l28 -105l28 105c2 6 8 10 15 10h11c11 0 17 -11 16 -16zM396 563l-16 -8c-8 -4 -15 -1 -19 4c-27 39 -64 67 -128 67c-103 0 -130 -80 -130 -127
c0 -77 44 -108 134 -146c121 -51 184 -88 184 -193c0 -99 -85 -169 -187 -169c-82 0 -147 57 -172 82c-7 7 -9 18 -1 24l13 11c7 6 13 6 23 -3c20 -19 74 -66 137 -66c80 0 139 52 139 121c0 62 -21 94 -154 149c-136 56 -164 115 -164 190c0 92 67 175 178 175
c86 0 141 -49 167 -87l2 -4c4 -7 3 -15 -6 -20z" />
    <glyph glyph-name="Scedilla" unicode="&#x15e;" horiz-adv-x="466" 
d="M396 563l-16 -8c-8 -4 -15 -1 -19 4c-27 39 -64 67 -128 67c-103 0 -130 -80 -130 -127c0 -77 44 -108 134 -146c121 -51 184 -88 184 -193c0 -99 -85 -169 -187 -169c-82 0 -147 57 -172 82c-7 7 -9 18 -1 24l13 11c7 6 13 6 23 -3c20 -19 74 -66 137 -66
c80 0 139 52 139 121c0 62 -21 94 -154 149c-136 56 -164 115 -164 190c0 92 67 175 178 175c86 0 141 -49 167 -87l2 -4c4 -7 3 -15 -6 -20zM199 -47l-37 -104c-2 -7 7 -15 16 -15h25c6 0 12 3 14 9l23 99l1 5c1 5 -5 16 -16 16h-11c-7 0 -13 -4 -15 -10z" />
    <glyph glyph-name="Scircumflex" unicode="&#x15c;" horiz-adv-x="466" 
d="M302 729l1 -5c1 -5 -5 -16 -16 -16h-11c-7 0 -13 4 -15 10l-28 105l-28 -105c-2 -6 -8 -10 -15 -10h-11c-11 0 -17 11 -16 16l1 5l37 162c2 6 8 9 14 9h36c6 0 12 -3 14 -9zM396 563l-16 -8c-8 -4 -15 -1 -19 4c-27 39 -64 67 -128 67c-103 0 -130 -80 -130 -127
c0 -77 44 -108 134 -146c121 -51 184 -88 184 -193c0 -99 -85 -169 -187 -169c-82 0 -147 57 -172 82c-7 7 -9 18 -1 24l13 11c7 6 13 6 23 -3c20 -19 74 -66 137 -66c80 0 139 52 139 121c0 62 -21 94 -154 149c-136 56 -164 115 -164 190c0 92 67 175 178 175
c86 0 141 -49 167 -87l2 -4c4 -7 3 -15 -6 -20z" />
    <glyph glyph-name="Scommaaccent" unicode="&#x218;" horiz-adv-x="466" 
d="M396 563l-16 -8c-8 -4 -15 -1 -19 4c-27 39 -64 67 -128 67c-103 0 -130 -80 -130 -127c0 -77 44 -108 134 -146c121 -51 184 -88 184 -193c0 -99 -85 -169 -187 -169c-82 0 -147 57 -172 82c-7 7 -9 18 -1 24l13 11c7 6 13 6 23 -3c20 -19 74 -66 137 -66
c80 0 139 52 139 121c0 62 -21 94 -154 149c-136 56 -164 115 -164 190c0 92 67 175 178 175c86 0 141 -49 167 -87l2 -4c4 -7 3 -15 -6 -20zM204 -156l37 104c2 7 -7 15 -16 15h-25c-6 0 -12 -3 -14 -9l-23 -99l-1 -5c-1 -5 5 -16 16 -16h11c7 0 13 4 15 10z" />
    <glyph glyph-name="T" unicode="T" horiz-adv-x="405" 
d="M33 665h339c9 0 16 -7 16 -15v-17c0 -8 -7 -15 -16 -15h-146v-602c0 -9 -7 -16 -15 -16h-17c-8 0 -15 7 -15 16v602h-146c-9 0 -16 7 -16 15v17c0 8 7 15 16 15z" />
    <glyph glyph-name="Tbar" unicode="&#x166;" horiz-adv-x="415" 
d="M38 665h339c9 0 16 -7 16 -15v-17c0 -8 -7 -15 -16 -15h-146v-210h63c9 0 16 -7 16 -15v-17c0 -8 -7 -15 -16 -15h-63v-345c0 -9 -7 -16 -15 -16h-17c-8 0 -15 7 -15 16v345h-65c-8 0 -15 7 -15 15v17c0 8 7 15 15 15h65v210h-146c-9 0 -16 7 -16 15v17c0 8 7 15 16 15z
" />
    <glyph glyph-name="Tcaron" unicode="&#x164;" horiz-adv-x="405" 
d="M272 879l-37 -162c-2 -6 -8 -9 -14 -9h-36c-6 0 -12 3 -14 9l-37 162l-1 5c-1 5 5 16 16 16h11c7 0 13 -4 15 -10l28 -105l28 105c2 6 8 10 15 10h11c11 0 17 -11 16 -16zM33 665h339c9 0 16 -7 16 -15v-17c0 -8 -7 -15 -16 -15h-146v-602c0 -9 -7 -16 -15 -16h-17
c-8 0 -15 7 -15 16v602h-146c-9 0 -16 7 -16 15v17c0 8 7 15 16 15z" />
    <glyph glyph-name="Tcedilla" unicode="&#x162;" horiz-adv-x="405" 
d="M33 665h339c9 0 16 -7 16 -15v-17c0 -8 -7 -15 -16 -15h-146v-602c0 -9 -7 -16 -15 -16h-17c-8 0 -15 7 -15 16v602h-146c-9 0 -16 7 -16 15v17c0 8 7 15 16 15zM171 -47l-37 -104c-2 -7 7 -15 16 -15h25c6 0 12 3 14 9l23 99l1 5c1 5 -5 16 -16 16h-11
c-7 0 -13 -4 -15 -10z" />
    <glyph glyph-name="uni021A" unicode="&#x21a;" horiz-adv-x="405" 
d="M33 665h339c9 0 16 -7 16 -15v-17c0 -8 -7 -15 -16 -15h-146v-602c0 -9 -7 -16 -15 -16h-17c-8 0 -15 7 -15 16v602h-146c-9 0 -16 7 -16 15v17c0 8 7 15 16 15zM188 -156l37 104c2 7 -7 15 -16 15h-25c-6 0 -12 -3 -14 -9l-23 -99l-1 -5c-1 -5 5 -16 16 -16h11
c7 0 13 4 15 10z" />
    <glyph glyph-name="U" unicode="U" horiz-adv-x="618" 
d="M498 665h16c9 0 16 -7 16 -15v-437c0 -117 -94 -222 -221 -222c-131 0 -222 109 -222 222v437c0 8 7 15 16 15h16c9 0 16 -7 16 -15v-437c0 -95 79 -174 174 -174c110 0 173 90 173 174v437c0 8 8 15 16 15z" />
    <glyph glyph-name="Uacute" unicode="&#xda;" horiz-adv-x="618" 
d="M339 718l60 167c2 7 -7 15 -16 15h-34c-6 0 -12 -3 -14 -9l-37 -162l-1 -5c-1 -5 5 -16 16 -16h11c7 0 13 4 15 10zM498 665h16c9 0 16 -7 16 -15v-437c0 -117 -94 -222 -221 -222c-131 0 -222 109 -222 222v437c0 8 7 15 16 15h16c9 0 16 -7 16 -15v-437
c0 -95 79 -174 174 -174c110 0 173 90 173 174v437c0 8 8 15 16 15z" />
    <glyph glyph-name="Ubreve" unicode="&#x16c;" horiz-adv-x="618" 
d="M382 828h-15c-11 0 -18 -6 -16 -19c2 -19 -7 -38 -25 -48c-5 -3 -11 -5 -18 -5s-13 2 -18 5c-18 10 -27 29 -25 48c2 13 -5 19 -16 19h-15c-12 0 -15 -8 -16 -15c-4 -37 14 -74 49 -93c15 -9 29 -12 41 -12s26 3 41 12c35 19 53 56 49 93c-1 7 -4 15 -16 15zM498 665h16
c9 0 16 -7 16 -15v-437c0 -117 -94 -222 -221 -222c-131 0 -222 109 -222 222v437c0 8 7 15 16 15h16c9 0 16 -7 16 -15v-437c0 -95 79 -174 174 -174c110 0 173 90 173 174v437c0 8 8 15 16 15z" />
    <glyph glyph-name="Ucircumflex" unicode="&#xdb;" horiz-adv-x="618" 
d="M378 729l1 -5c1 -5 -5 -16 -16 -16h-11c-7 0 -13 4 -15 10l-28 105l-28 -105c-2 -6 -8 -10 -15 -10h-11c-11 0 -17 11 -16 16l1 5l37 162c2 6 8 9 14 9h36c6 0 12 -3 14 -9zM498 665h16c9 0 16 -7 16 -15v-437c0 -117 -94 -222 -221 -222c-131 0 -222 109 -222 222v437
c0 8 7 15 16 15h16c9 0 16 -7 16 -15v-437c0 -95 79 -174 174 -174c110 0 173 90 173 174v437c0 8 8 15 16 15z" />
    <glyph glyph-name="Udieresis" unicode="&#xdc;" horiz-adv-x="618" 
d="M498 665h16c9 0 16 -7 16 -15v-437c0 -115 -92 -222 -222 -222c-126 0 -221 107 -221 222v437c0 8 7 15 16 15h16c8 0 16 -7 16 -15v-437c0 -97 76 -174 173 -174c109 0 174 93 174 174v437c0 8 7 15 16 15zM234 665h16c9 0 16 -7 16 -15v-37c0 -8 -7 -15 -16 -15h-16
c-8 0 -16 7 -16 15v37c0 8 8 15 16 15zM366 665h16c9 0 16 -7 16 -15v-37c0 -8 -7 -15 -16 -15h-16c-9 0 -16 7 -16 15v37c0 8 7 15 16 15z" />
    <glyph glyph-name="Udieresis.ss01" horiz-adv-x="618" 
d="M237 799h16c9 0 16 -7 16 -16v-59c0 -9 -7 -16 -16 -16h-16c-9 0 -16 7 -16 16v59c0 9 7 16 16 16zM362 799h16c9 0 16 -7 16 -16v-59c0 -9 -7 -16 -16 -16h-16c-9 0 -16 7 -16 16v59c0 9 7 16 16 16zM498 665h16c9 0 16 -7 16 -15v-437c0 -115 -92 -222 -222 -222
c-126 0 -221 107 -221 222v437c0 8 7 15 16 15h16c8 0 16 -7 16 -15v-437c0 -97 76 -174 173 -174c109 0 174 93 174 174v437c0 8 7 15 16 15z" />
    <glyph glyph-name="Udieresis.ss02" horiz-adv-x="618" 
d="M498 665h16c9 0 16 -7 16 -15v-437c0 -117 -94 -222 -221 -222c-131 0 -222 109 -222 222v437c0 8 7 15 16 15h16c9 0 16 -7 16 -15v-437c0 -95 79 -174 174 -174c110 0 173 90 173 174v437c0 8 8 15 16 15zM305 626v-40h44c8 0 14 -5 14 -12v-14c0 -6 -6 -13 -14 -13
h-44v-50h44c8 0 14 -5 14 -13v-13c0 -7 -6 -14 -14 -14h-70c-8 0 -14 7 -14 14v181c0 6 6 13 14 13h70c8 0 14 -7 14 -13v-14c0 -7 -6 -12 -14 -12h-44z" />
    <glyph glyph-name="Udieresis.ss03" horiz-adv-x="618" 
d="M498 665h16c9 0 16 -7 16 -15v-437c0 -117 -94 -222 -221 -222c-131 0 -222 109 -222 222v437c0 8 7 15 16 15h16c9 0 16 -7 16 -15v-437c0 -95 79 -174 174 -174c110 0 173 90 173 174v437c0 8 8 15 16 15zM300 665h16c9 0 16 -7 16 -15v-37c0 -8 -7 -15 -16 -15h-16
c-9 0 -16 7 -16 15v37c0 8 7 15 16 15zM300 551h16c9 0 16 -7 16 -16v-36c0 -9 -7 -16 -16 -16h-16c-9 0 -16 7 -16 16v36c0 9 7 16 16 16z" />
    <glyph glyph-name="Ugrave" unicode="&#xd9;" horiz-adv-x="618" 
d="M237 885l60 -167c2 -6 8 -10 15 -10h11c11 0 17 11 16 16l-1 5l-37 162c-2 6 -8 9 -14 9h-34c-9 0 -18 -8 -16 -15zM498 665h16c9 0 16 -7 16 -15v-437c0 -117 -94 -222 -221 -222c-131 0 -222 109 -222 222v437c0 8 7 15 16 15h16c9 0 16 -7 16 -15v-437
c0 -95 79 -174 174 -174c110 0 173 90 173 174v437c0 8 8 15 16 15z" />
    <glyph glyph-name="Uhungarumlaut" unicode="&#x170;" horiz-adv-x="618" 
d="M268 718l60 167c2 7 -7 15 -16 15h-34c-6 0 -12 -3 -14 -9l-37 -162l-1 -5c-1 -5 5 -16 16 -16h11c7 0 13 4 15 10zM387 718l60 167c2 7 -7 15 -16 15h-34c-6 0 -12 -3 -14 -9l-37 -162l-1 -5c-1 -5 5 -16 16 -16h11c7 0 13 4 15 10zM498 665h16c9 0 16 -7 16 -15v-437
c0 -117 -94 -222 -221 -222c-131 0 -222 109 -222 222v437c0 8 7 15 16 15h16c9 0 16 -7 16 -15v-437c0 -95 79 -174 174 -174c110 0 173 90 173 174v437c0 8 8 15 16 15z" />
    <glyph glyph-name="Umacron" unicode="&#x16a;" horiz-adv-x="618" 
d="M221 755h175c9 0 16 -7 16 -15v-17c0 -8 -7 -15 -16 -15h-175c-8 0 -15 7 -15 15v17c0 8 7 15 15 15zM498 665h16c9 0 16 -7 16 -15v-437c0 -117 -94 -222 -221 -222c-131 0 -222 109 -222 222v437c0 8 7 15 16 15h16c9 0 16 -7 16 -15v-437c0 -95 79 -174 174 -174
c110 0 173 90 173 174v437c0 8 8 15 16 15z" />
    <glyph glyph-name="Uogonek" unicode="&#x172;" horiz-adv-x="618" 
d="M498 665h16c9 0 16 -7 16 -15v-437c0 -112 -86 -213 -205 -221l-2 -5c-3 -4 -29 -55 -29 -62c-1 -23 13 -37 28 -45c10 -6 14 -16 8 -25l-6 -12c-7 -9 -14 -9 -21 -6c-34 15 -57 49 -57 87c-1 13 16 47 30 69c-113 17 -189 117 -189 220v437c0 8 7 15 16 15h16
c9 0 16 -7 16 -15v-437c0 -95 79 -174 174 -174c110 0 173 90 173 174v437c0 8 8 15 16 15z" />
    <glyph glyph-name="Uring" unicode="&#x16e;" horiz-adv-x="618" 
d="M308 900c53 0 96 -43 96 -96s-43 -96 -96 -96s-96 43 -96 96s43 96 96 96zM308 853c-27 0 -49 -22 -49 -49s22 -49 49 -49s49 22 49 49s-22 49 -49 49zM498 665h16c9 0 16 -7 16 -15v-437c0 -117 -94 -222 -221 -222c-131 0 -222 109 -222 222v437c0 8 7 15 16 15h16
c9 0 16 -7 16 -15v-437c0 -95 79 -174 174 -174c110 0 173 90 173 174v437c0 8 8 15 16 15z" />
    <glyph glyph-name="Utilde" unicode="&#x168;" horiz-adv-x="618" 
d="M436 827h15c12 0 15 -8 16 -15c4 -37 -14 -74 -49 -93c-63 -36 -103 16 -130 37s-43 32 -67 19c-18 -10 -27 -29 -25 -48c1 -14 -5 -19 -15 -19h-16c-10 0 -15 6 -16 15c-3 37 15 74 49 93c61 34 94 -8 131 -37c36 -29 52 -27 66 -19c18 10 27 29 25 48c-2 13 5 19 16 19
zM498 665h16c9 0 16 -7 16 -15v-437c0 -117 -94 -222 -221 -222c-131 0 -222 109 -222 222v437c0 8 7 15 16 15h16c9 0 16 -7 16 -15v-437c0 -95 79 -174 174 -174c110 0 173 90 173 174v437c0 8 8 15 16 15z" />
    <glyph glyph-name="V" unicode="V" horiz-adv-x="483" 
d="M227 -7l-207 651c-4 12 4 20 13 20h19c7 0 13 -4 15 -11l175 -547l175 547c2 7 8 11 15 11h19c9 0 17 -8 13 -20l-207 -651c-2 -6 -8 -10 -15 -10s-13 4 -15 10z" />
    <glyph glyph-name="W" unicode="W" horiz-adv-x="783" 
d="M375 669l-161 -549s-142 534 -143 536c-2 5 -8 9 -14 9h-17c-9 0 -19 -7 -15 -20l172 -650c3 -9 10 -12 15 -12s12 3 15 12l165 555l163 -555c3 -9 11 -12 16 -12s13 3 16 12l171 650c4 13 -6 20 -15 20h-17c-6 0 -12 -4 -14 -9l-142 -536l-163 549c-3 9 -11 12 -16 12
s-13 -3 -16 -12z" />
    <glyph glyph-name="W.ss01" horiz-adv-x="717" 
d="M359 454l63 199c2 7 8 11 15 11h19c9 0 17 -8 13 -20l-85 -268l86 -270l175 547c2 7 8 11 15 11h19c9 0 17 -8 13 -20l-207 -651c-2 -6 -8 -10 -15 -10s-13 4 -15 10l-96 304l-97 -304c-2 -6 -8 -10 -15 -10s-13 4 -15 10l-207 651c-4 12 4 20 13 20h19c7 0 13 -4 15 -11
l175 -547l86 270l-85 268c-4 12 4 20 13 20h19c7 0 13 -4 15 -11z" />
    <glyph glyph-name="W.ss02" horiz-adv-x="717" 
d="M470 106l175 547c2 7 8 11 15 11h19c9 0 17 -8 13 -20l-207 -651c-2 -6 -8 -10 -15 -10s-13 4 -15 10l-96 304l-97 -304c-2 -6 -8 -10 -15 -10s-13 4 -15 10l-207 651c-4 12 4 20 13 20h19c7 0 13 -4 15 -11l175 -547l86 270l-85 268c-4 12 4 20 13 20h19
c7 0 13 -4 15 -11z" />
    <glyph glyph-name="W.ss03" horiz-adv-x="717" 
d="M247 106l175 547c2 7 8 11 15 11h19c9 0 17 -8 13 -20l-85 -268l86 -270l175 547c2 7 8 11 15 11h19c9 0 17 -8 13 -20l-207 -651c-2 -6 -8 -10 -15 -10s-13 4 -15 10l-96 304l-97 -304c-2 -6 -8 -10 -15 -10s-13 4 -15 10l-207 651c-4 12 4 20 13 20h19
c7 0 13 -4 15 -11z" />
    <glyph glyph-name="Wacute" unicode="&#x1e82;" horiz-adv-x="783" 
d="M431 718l60 167c2 7 -7 15 -16 15h-34c-6 0 -12 -3 -14 -9l-37 -162l-1 -5c-1 -5 5 -16 16 -16h11c7 0 13 4 15 10zM375 669l-161 -549s-142 534 -143 536c-2 5 -8 9 -14 9h-17c-9 0 -19 -7 -15 -20l172 -650c3 -9 10 -12 15 -12s12 3 15 12l165 555l163 -555
c3 -9 11 -12 16 -12s13 3 16 12l171 650c4 13 -6 20 -15 20h-17c-6 0 -12 -4 -14 -9l-142 -536l-163 549c-3 9 -11 12 -16 12s-13 -3 -16 -12z" />
    <glyph glyph-name="Wacute.ss01" horiz-adv-x="717" 
d="M379 718l60 167c2 7 -7 15 -16 15h-34c-6 0 -12 -3 -14 -9l-37 -162l-1 -5c-1 -5 5 -16 16 -16h11c7 0 13 4 15 10zM359 454l63 199c2 7 8 11 15 11h19c9 0 17 -8 13 -20l-85 -268l86 -270l175 547c2 7 8 11 15 11h19c9 0 17 -8 13 -20l-207 -651c-2 -6 -8 -10 -15 -10
s-13 4 -15 10l-96 304l-97 -304c-2 -6 -8 -10 -15 -10s-13 4 -15 10l-207 651c-4 12 4 20 13 20h19c7 0 13 -4 15 -11l175 -547l86 270l-85 268c-4 12 4 20 13 20h19c7 0 13 -4 15 -11z" />
    <glyph glyph-name="Wacute.ss02" horiz-adv-x="717" 
d="M379 718l60 167c2 7 -7 15 -16 15h-34c-6 0 -12 -3 -14 -9l-37 -162l-1 -5c-1 -5 5 -16 16 -16h11c7 0 13 4 15 10zM470 106l175 547c2 7 8 11 15 11h19c9 0 17 -8 13 -20l-207 -651c-2 -6 -8 -10 -15 -10s-13 4 -15 10l-96 304l-97 -304c-2 -6 -8 -10 -15 -10
s-13 4 -15 10l-207 651c-4 12 4 20 13 20h19c7 0 13 -4 15 -11l175 -547l86 270l-85 268c-4 12 4 20 13 20h19c7 0 13 -4 15 -11z" />
    <glyph glyph-name="Wacute.ss03" horiz-adv-x="717" 
d="M379 718l60 167c2 7 -7 15 -16 15h-34c-6 0 -12 -3 -14 -9l-37 -162l-1 -5c-1 -5 5 -16 16 -16h11c7 0 13 4 15 10zM247 106l175 547c2 7 8 11 15 11h19c9 0 17 -8 13 -20l-85 -268l86 -270l175 547c2 7 8 11 15 11h19c9 0 17 -8 13 -20l-207 -651c-2 -6 -8 -10 -15 -10
s-13 4 -15 10l-96 304l-97 -304c-2 -6 -8 -10 -15 -10s-13 4 -15 10l-207 651c-4 12 4 20 13 20h19c7 0 13 -4 15 -11z" />
    <glyph glyph-name="Wcircumflex" unicode="&#x174;" horiz-adv-x="783" 
d="M459 729l1 -5c1 -5 -5 -16 -16 -16h-11c-7 0 -13 4 -15 10l-28 105l-28 -105c-2 -6 -8 -10 -15 -10h-11c-11 0 -17 11 -16 16l1 5l37 162c2 6 8 9 14 9h36c6 0 12 -3 14 -9zM375 669l-161 -549s-142 534 -143 536c-2 5 -8 9 -14 9h-17c-9 0 -19 -7 -15 -20l172 -650
c3 -9 10 -12 15 -12s12 3 15 12l165 555l163 -555c3 -9 11 -12 16 -12s13 3 16 12l171 650c4 13 -6 20 -15 20h-17c-6 0 -12 -4 -14 -9l-142 -536l-163 549c-3 9 -11 12 -16 12s-13 -3 -16 -12z" />
    <glyph glyph-name="Wcircumflex.ss01" horiz-adv-x="717" 
d="M428 729l1 -5c1 -5 -5 -16 -16 -16h-11c-7 0 -13 4 -15 10l-28 105l-28 -105c-2 -6 -8 -10 -15 -10h-11c-11 0 -17 11 -16 16l1 5l37 162c2 6 8 9 14 9h36c6 0 12 -3 14 -9zM359 454l63 199c2 7 8 11 15 11h19c9 0 17 -8 13 -20l-85 -268l86 -270l175 547c2 7 8 11 15 11
h19c9 0 17 -8 13 -20l-207 -651c-2 -6 -8 -10 -15 -10s-13 4 -15 10l-96 304l-97 -304c-2 -6 -8 -10 -15 -10s-13 4 -15 10l-207 651c-4 12 4 20 13 20h19c7 0 13 -4 15 -11l175 -547l86 270l-85 268c-4 12 4 20 13 20h19c7 0 13 -4 15 -11z" />
    <glyph glyph-name="Wcircumflex.ss02" horiz-adv-x="717" 
d="M428 729l1 -5c1 -5 -5 -16 -16 -16h-11c-7 0 -13 4 -15 10l-28 105l-28 -105c-2 -6 -8 -10 -15 -10h-11c-11 0 -17 11 -16 16l1 5l37 162c2 6 8 9 14 9h36c6 0 12 -3 14 -9zM470 106l175 547c2 7 8 11 15 11h19c9 0 17 -8 13 -20l-207 -651c-2 -6 -8 -10 -15 -10
s-13 4 -15 10l-96 304l-97 -304c-2 -6 -8 -10 -15 -10s-13 4 -15 10l-207 651c-4 12 4 20 13 20h19c7 0 13 -4 15 -11l175 -547l86 270l-85 268c-4 12 4 20 13 20h19c7 0 13 -4 15 -11z" />
    <glyph glyph-name="Wcircumflex.ss03" horiz-adv-x="717" 
d="M428 729l1 -5c1 -5 -5 -16 -16 -16h-11c-7 0 -13 4 -15 10l-28 105l-28 -105c-2 -6 -8 -10 -15 -10h-11c-11 0 -17 11 -16 16l1 5l37 162c2 6 8 9 14 9h36c6 0 12 -3 14 -9zM247 106l175 547c2 7 8 11 15 11h19c9 0 17 -8 13 -20l-85 -268l86 -270l175 547
c2 7 8 11 15 11h19c9 0 17 -8 13 -20l-207 -651c-2 -6 -8 -10 -15 -10s-13 4 -15 10l-96 304l-97 -304c-2 -6 -8 -10 -15 -10s-13 4 -15 10l-207 651c-4 12 4 20 13 20h19c7 0 13 -4 15 -11z" />
    <glyph glyph-name="Wdieresis" unicode="&#x1e84;" horiz-adv-x="783" 
d="M322 799h16c9 0 16 -7 16 -16v-59c0 -9 -7 -16 -16 -16h-16c-9 0 -16 7 -16 16v59c0 9 7 16 16 16zM447 799h16c9 0 16 -7 16 -16v-59c0 -9 -7 -16 -16 -16h-16c-9 0 -16 7 -16 16v59c0 9 7 16 16 16zM375 669l-161 -549s-142 534 -143 536c-2 5 -8 9 -14 9h-17
c-9 0 -19 -7 -15 -20l172 -650c3 -9 10 -12 15 -12s12 3 15 12l165 555l163 -555c3 -9 11 -12 16 -12s13 3 16 12l171 650c4 13 -6 20 -15 20h-17c-6 0 -12 -4 -14 -9l-142 -536l-163 549c-3 9 -11 12 -16 12s-13 -3 -16 -12z" />
    <glyph glyph-name="Wdieresis.ss01" horiz-adv-x="717" 
d="M288 799h16c9 0 16 -7 16 -16v-59c0 -9 -7 -16 -16 -16h-16c-9 0 -16 7 -16 16v59c0 9 7 16 16 16zM413 799h16c9 0 16 -7 16 -16v-59c0 -9 -7 -16 -16 -16h-16c-9 0 -16 7 -16 16v59c0 9 7 16 16 16zM359 454l63 199c2 7 8 11 15 11h19c9 0 17 -8 13 -20l-85 -268
l86 -270l175 547c2 7 8 11 15 11h19c9 0 17 -8 13 -20l-207 -651c-2 -6 -8 -10 -15 -10s-13 4 -15 10l-96 304l-97 -304c-2 -6 -8 -10 -15 -10s-13 4 -15 10l-207 651c-4 12 4 20 13 20h19c7 0 13 -4 15 -11l175 -547l86 270l-85 268c-4 12 4 20 13 20h19c7 0 13 -4 15 -11z
" />
    <glyph glyph-name="Wdieresis.ss02" horiz-adv-x="717" 
d="M288 799h16c9 0 16 -7 16 -16v-59c0 -9 -7 -16 -16 -16h-16c-9 0 -16 7 -16 16v59c0 9 7 16 16 16zM413 799h16c9 0 16 -7 16 -16v-59c0 -9 -7 -16 -16 -16h-16c-9 0 -16 7 -16 16v59c0 9 7 16 16 16zM470 106l175 547c2 7 8 11 15 11h19c9 0 17 -8 13 -20l-207 -651
c-2 -6 -8 -10 -15 -10s-13 4 -15 10l-96 304l-97 -304c-2 -6 -8 -10 -15 -10s-13 4 -15 10l-207 651c-4 12 4 20 13 20h19c7 0 13 -4 15 -11l175 -547l86 270l-85 268c-4 12 4 20 13 20h19c7 0 13 -4 15 -11z" />
    <glyph glyph-name="Wdieresis.ss03" horiz-adv-x="717" 
d="M288 799h16c9 0 16 -7 16 -16v-59c0 -9 -7 -16 -16 -16h-16c-9 0 -16 7 -16 16v59c0 9 7 16 16 16zM413 799h16c9 0 16 -7 16 -16v-59c0 -9 -7 -16 -16 -16h-16c-9 0 -16 7 -16 16v59c0 9 7 16 16 16zM247 106l175 547c2 7 8 11 15 11h19c9 0 17 -8 13 -20l-85 -268
l86 -270l175 547c2 7 8 11 15 11h19c9 0 17 -8 13 -20l-207 -651c-2 -6 -8 -10 -15 -10s-13 4 -15 10l-96 304l-97 -304c-2 -6 -8 -10 -15 -10s-13 4 -15 10l-207 651c-4 12 4 20 13 20h19c7 0 13 -4 15 -11z" />
    <glyph glyph-name="Wgrave" unicode="&#x1e80;" horiz-adv-x="783" 
d="M293 885l60 -167c2 -6 8 -10 15 -10h11c11 0 17 11 16 16l-1 5l-37 162c-2 6 -8 9 -14 9h-34c-9 0 -18 -8 -16 -15zM375 669l-161 -549s-142 534 -143 536c-2 5 -8 9 -14 9h-17c-9 0 -19 -7 -15 -20l172 -650c3 -9 10 -12 15 -12s12 3 15 12l165 555l163 -555
c3 -9 11 -12 16 -12s13 3 16 12l171 650c4 13 -6 20 -15 20h-17c-6 0 -12 -4 -14 -9l-142 -536l-163 549c-3 9 -11 12 -16 12s-13 -3 -16 -12z" />
    <glyph glyph-name="Wgrave.ss01" horiz-adv-x="717" 
d="M283 885l60 -167c2 -6 8 -10 15 -10h11c11 0 17 11 16 16l-1 5l-37 162c-2 6 -8 9 -14 9h-34c-9 0 -18 -8 -16 -15zM359 454l63 199c2 7 8 11 15 11h19c9 0 17 -8 13 -20l-85 -268l86 -270l175 547c2 7 8 11 15 11h19c9 0 17 -8 13 -20l-207 -651c-2 -6 -8 -10 -15 -10
s-13 4 -15 10l-96 304l-97 -304c-2 -6 -8 -10 -15 -10s-13 4 -15 10l-207 651c-4 12 4 20 13 20h19c7 0 13 -4 15 -11l175 -547l86 270l-85 268c-4 12 4 20 13 20h19c7 0 13 -4 15 -11z" />
    <glyph glyph-name="Wgrave.ss02" horiz-adv-x="717" 
d="M283 885l60 -167c2 -6 8 -10 15 -10h11c11 0 17 11 16 16l-1 5l-37 162c-2 6 -8 9 -14 9h-34c-9 0 -18 -8 -16 -15zM470 106l175 547c2 7 8 11 15 11h19c9 0 17 -8 13 -20l-207 -651c-2 -6 -8 -10 -15 -10s-13 4 -15 10l-96 304l-97 -304c-2 -6 -8 -10 -15 -10
s-13 4 -15 10l-207 651c-4 12 4 20 13 20h19c7 0 13 -4 15 -11l175 -547l86 270l-85 268c-4 12 4 20 13 20h19c7 0 13 -4 15 -11z" />
    <glyph glyph-name="Wgrave.ss03" horiz-adv-x="717" 
d="M283 885l60 -167c2 -6 8 -10 15 -10h11c11 0 17 11 16 16l-1 5l-37 162c-2 6 -8 9 -14 9h-34c-9 0 -18 -8 -16 -15zM247 106l175 547c2 7 8 11 15 11h19c9 0 17 -8 13 -20l-85 -268l86 -270l175 547c2 7 8 11 15 11h19c9 0 17 -8 13 -20l-207 -651c-2 -6 -8 -10 -15 -10
s-13 4 -15 10l-96 304l-97 -304c-2 -6 -8 -10 -15 -10s-13 4 -15 10l-207 651c-4 12 4 20 13 20h19c7 0 13 -4 15 -11z" />
    <glyph glyph-name="X" unicode="X" horiz-adv-x="440" 
d="M248 333l178 -310c8 -16 -7 -23 -13 -23h-19c-9 0 -12 4 -14 8l-160 277l-159 -277c-2 -4 -5 -8 -14 -8h-19c-6 0 -21 7 -13 23l178 310l-178 309c-8 16 7 23 13 23h19c9 0 12 -4 14 -8l159 -277l160 277c2 4 5 8 14 8h19c6 0 21 -7 13 -23z" />
    <glyph glyph-name="Y" unicode="Y" horiz-adv-x="454" 
d="M252 329l179 312c8 14 -2 24 -13 24h-18c-6 0 -11 -3 -14 -8l-158 -274l-159 274c-3 5 -8 8 -14 8h-18c-11 0 -21 -10 -13 -24l180 -312v-313c0 -9 7 -16 16 -16h16c9 0 16 7 16 16v313z" />
    <glyph glyph-name="Yacute" unicode="&#xdd;" horiz-adv-x="454" 
d="M257 718l60 167c2 7 -7 15 -16 15h-34c-6 0 -12 -3 -14 -9l-37 -162l-1 -5c-1 -5 5 -16 16 -16h11c7 0 13 4 15 10zM252 329l179 312c8 14 -2 24 -13 24h-18c-6 0 -11 -3 -14 -8l-158 -274l-159 274c-3 5 -8 8 -14 8h-18c-11 0 -21 -10 -13 -24l180 -312v-313
c0 -9 7 -16 16 -16h16c9 0 16 7 16 16v313z" />
    <glyph glyph-name="Ycircumflex" unicode="&#x176;" horiz-adv-x="454" 
d="M297 729l1 -5c1 -5 -5 -16 -16 -16h-11c-7 0 -13 4 -15 10l-28 105l-28 -105c-2 -6 -8 -10 -15 -10h-11c-11 0 -17 11 -16 16l1 5l37 162c2 6 8 9 14 9h36c6 0 12 -3 14 -9zM252 329l179 312c8 14 -2 24 -13 24h-18c-6 0 -11 -3 -14 -8l-158 -274l-159 274
c-3 5 -8 8 -14 8h-18c-11 0 -21 -10 -13 -24l180 -312v-313c0 -9 7 -16 16 -16h16c9 0 16 7 16 16v313z" />
    <glyph glyph-name="Ydieresis" unicode="&#x178;" horiz-adv-x="454" 
d="M158 799h16c9 0 16 -7 16 -16v-59c0 -9 -7 -16 -16 -16h-16c-9 0 -16 7 -16 16v59c0 9 7 16 16 16zM283 799h16c9 0 16 -7 16 -16v-59c0 -9 -7 -16 -16 -16h-16c-9 0 -16 7 -16 16v59c0 9 7 16 16 16zM252 329l179 312c8 14 -2 24 -13 24h-18c-6 0 -11 -3 -14 -8
l-158 -274l-159 274c-3 5 -8 8 -14 8h-18c-11 0 -21 -10 -13 -24l180 -312v-313c0 -9 7 -16 16 -16h16c9 0 16 7 16 16v313z" />
    <glyph glyph-name="Ygrave" unicode="&#x1ef2;" horiz-adv-x="454" 
d="M138 885l60 -167c2 -6 8 -10 15 -10h11c11 0 17 11 16 16l-1 5l-37 162c-2 6 -8 9 -14 9h-34c-9 0 -18 -8 -16 -15zM252 329l179 312c8 14 -2 24 -13 24h-18c-6 0 -11 -3 -14 -8l-158 -274l-159 274c-3 5 -8 8 -14 8h-18c-11 0 -21 -10 -13 -24l180 -312v-313
c0 -9 7 -16 16 -16h16c9 0 16 7 16 16v313z" />
    <glyph glyph-name="Z" unicode="Z" horiz-adv-x="438" 
d="M101 48h282c9 0 16 -7 16 -16v-16c0 -9 -7 -16 -16 -16h-332c-13 0 -21 10 -13 25l283 593h-266c-8 0 -15 7 -15 15v17c0 8 7 15 15 15h317c9 0 20 -10 14 -23z" />
    <glyph glyph-name="Zacute" unicode="&#x179;" horiz-adv-x="438" 
d="M237 718l60 167c2 7 -7 15 -16 15h-34c-6 0 -12 -3 -14 -9l-37 -162l-1 -5c-1 -5 5 -16 16 -16h11c7 0 13 4 15 10zM101 48h282c9 0 16 -7 16 -16v-16c0 -9 -7 -16 -16 -16h-332c-13 0 -21 10 -13 25l283 593h-266c-8 0 -15 7 -15 15v17c0 8 7 15 15 15h317
c9 0 20 -10 14 -23z" />
    <glyph glyph-name="Zcaron" unicode="&#x17d;" horiz-adv-x="438" 
d="M283 879l-37 -162c-2 -6 -8 -9 -14 -9h-36c-6 0 -12 3 -14 9l-37 162l-1 5c-1 5 5 16 16 16h11c7 0 13 -4 15 -10l28 -105l28 105c2 6 8 10 15 10h11c11 0 17 -11 16 -16zM101 48h282c9 0 16 -7 16 -16v-16c0 -9 -7 -16 -16 -16h-332c-13 0 -21 10 -13 25l283 593h-266
c-8 0 -15 7 -15 15v17c0 8 7 15 15 15h317c9 0 20 -10 14 -23z" />
    <glyph glyph-name="Zdotaccent" unicode="&#x17b;" horiz-adv-x="438" 
d="M206 799h16c9 0 16 -7 16 -16v-59c0 -9 -7 -16 -16 -16h-16c-9 0 -16 7 -16 16v59c0 9 7 16 16 16zM101 48h282c9 0 16 -7 16 -16v-16c0 -9 -7 -16 -16 -16h-332c-13 0 -21 10 -13 25l283 593h-266c-8 0 -15 7 -15 15v17c0 8 7 15 15 15h317c9 0 20 -10 14 -23z" />
    <glyph glyph-name="a" unicode="a" horiz-adv-x="526" 
d="M402 325l16 48c2 6 8 11 15 11c9 0 16 -7 16 -16v-352c0 -9 -7 -16 -16 -16h-16c-9 0 -16 7 -16 16v48c-31 -40 -90 -73 -155 -73c-112 0 -203 91 -203 203c0 113 91 204 203 204c71 0 125 -37 156 -73zM401 194c0 79 -59 156 -155 156c-90 0 -155 -72 -155 -156
c0 -88 73 -155 155 -155c99 0 155 82 155 155z" />
    <glyph glyph-name="aacute" unicode="&#xe1;" horiz-adv-x="526" 
d="M267 483l60 167c2 7 -7 15 -16 15h-34c-6 0 -12 -3 -14 -9l-37 -162l-1 -5c-1 -5 5 -16 16 -16h11c7 0 13 4 15 10zM402 325l16 48c2 6 8 11 15 11c9 0 16 -7 16 -16v-352c0 -9 -7 -16 -16 -16h-16c-9 0 -16 7 -16 16v48c-31 -40 -90 -73 -155 -73
c-112 0 -203 91 -203 203c0 113 91 204 203 204c71 0 125 -37 156 -73zM401 194c0 79 -59 156 -155 156c-90 0 -155 -72 -155 -156c0 -88 73 -155 155 -155c99 0 155 82 155 155z" />
    <glyph glyph-name="abreve" unicode="&#x103;" horiz-adv-x="526" 
d="M314 597h-15c-11 0 -18 -6 -16 -19c2 -19 -7 -38 -25 -48c-5 -3 -11 -5 -18 -5s-13 2 -18 5c-18 10 -27 29 -25 48c2 13 -5 19 -16 19h-15c-12 0 -15 -8 -16 -15c-4 -37 14 -74 49 -93c15 -9 29 -12 41 -12s26 3 41 12c35 19 53 56 49 93c-1 7 -4 15 -16 15zM402 325
l16 48c2 6 8 11 15 11c9 0 16 -7 16 -16v-352c0 -9 -7 -16 -16 -16h-16c-9 0 -16 7 -16 16v48c-31 -40 -90 -73 -155 -73c-112 0 -203 91 -203 203c0 113 91 204 203 204c71 0 125 -37 156 -73zM401 194c0 79 -59 156 -155 156c-90 0 -155 -72 -155 -156
c0 -88 73 -155 155 -155c99 0 155 82 155 155z" />
    <glyph glyph-name="acircumflex" unicode="&#xe2;" horiz-adv-x="526" 
d="M315 494l1 -5c1 -5 -5 -16 -16 -16h-11c-7 0 -13 4 -15 10l-28 105l-28 -105c-2 -6 -8 -10 -15 -10h-11c-11 0 -17 11 -16 16l1 5l37 162c2 6 8 9 14 9h36c6 0 12 -3 14 -9zM402 325l16 48c2 6 8 11 15 11c9 0 16 -7 16 -16v-352c0 -9 -7 -16 -16 -16h-16
c-9 0 -16 7 -16 16v48c-31 -40 -90 -73 -155 -73c-112 0 -203 91 -203 203c0 113 91 204 203 204c71 0 125 -37 156 -73zM401 194c0 79 -59 156 -155 156c-90 0 -155 -72 -155 -156c0 -88 73 -155 155 -155c99 0 155 82 155 155z" />
    <glyph glyph-name="adieresis" unicode="&#xe4;" horiz-adv-x="526" 
d="M176 564h16c9 0 16 -7 16 -16v-59c0 -9 -7 -16 -16 -16h-16c-9 0 -16 7 -16 16v59c0 9 7 16 16 16zM301 564h16c9 0 16 -7 16 -16v-59c0 -9 -7 -16 -16 -16h-16c-9 0 -16 7 -16 16v59c0 9 7 16 16 16zM402 325l16 48c2 6 8 11 15 11c9 0 16 -7 16 -16v-352
c0 -9 -7 -16 -16 -16h-16c-9 0 -16 7 -16 16v48c-31 -40 -90 -73 -155 -73c-112 0 -203 91 -203 203c0 113 91 204 203 204c71 0 125 -37 156 -73zM401 194c0 93 -73 156 -155 156c-90 0 -155 -72 -155 -156c0 -88 73 -155 155 -155c99 0 155 82 155 155z" />
    <glyph glyph-name="agrave" unicode="&#xe0;" horiz-adv-x="526" 
d="M166 650l60 -167c2 -6 8 -10 15 -10h11c11 0 17 11 16 16l-1 5l-37 162c-2 6 -8 9 -14 9h-34c-9 0 -18 -8 -16 -15zM402 325l16 48c2 6 8 11 15 11c9 0 16 -7 16 -16v-352c0 -9 -7 -16 -16 -16h-16c-9 0 -16 7 -16 16v48c-31 -40 -90 -73 -155 -73
c-112 0 -203 91 -203 203c0 113 91 204 203 204c71 0 125 -37 156 -73zM401 194c0 79 -59 156 -155 156c-90 0 -155 -72 -155 -156c0 -88 73 -155 155 -155c99 0 155 82 155 155z" />
    <glyph glyph-name="amacron" unicode="&#x101;" horiz-adv-x="526" 
d="M158 520h175c9 0 16 -7 16 -15v-17c0 -8 -7 -15 -16 -15h-175c-8 0 -15 7 -15 15v17c0 8 7 15 15 15zM402 325l16 48c2 6 8 11 15 11c9 0 16 -7 16 -16v-352c0 -9 -7 -16 -16 -16h-16c-9 0 -16 7 -16 16v48c-31 -40 -90 -73 -155 -73c-112 0 -203 91 -203 203
c0 113 91 204 203 204c71 0 125 -37 156 -73zM401 194c0 79 -59 156 -155 156c-90 0 -155 -72 -155 -156c0 -88 73 -155 155 -155c99 0 155 82 155 155z" />
    <glyph glyph-name="aogonek" unicode="&#x105;" horiz-adv-x="526" 
d="M402 325l16 48c2 6 8 11 15 11c9 0 16 -7 16 -16v-352c0 -9 -7 -16 -16 -16h-2c1 -4 0 -9 -3 -13s-29 -55 -29 -62c-1 -23 13 -37 28 -45c10 -6 14 -16 8 -25l-6 -12c-7 -9 -14 -9 -21 -6c-34 15 -57 49 -57 87c-1 19 33 79 45 89l5 3v48c-31 -40 -90 -73 -155 -73
c-112 0 -203 91 -203 203c0 113 91 204 203 204c71 0 125 -37 156 -73zM246 39c99 0 155 82 155 155c0 79 -59 156 -155 156c-90 0 -155 -72 -155 -156c0 -88 73 -155 155 -155z" />
    <glyph glyph-name="aring" unicode="&#xe5;" horiz-adv-x="526" 
d="M247 665c53 0 96 -43 96 -96s-43 -96 -96 -96s-96 43 -96 96s43 96 96 96zM247 618c-27 0 -49 -22 -49 -49s22 -49 49 -49s49 22 49 49s-22 49 -49 49zM402 325l16 48c2 6 8 11 15 11c9 0 16 -7 16 -16v-352c0 -9 -7 -16 -16 -16h-16c-9 0 -16 7 -16 16v48
c-31 -40 -90 -73 -155 -73c-112 0 -203 91 -203 203c0 113 91 204 203 204c71 0 125 -37 156 -73zM401 194c0 79 -59 156 -155 156c-90 0 -155 -72 -155 -156c0 -88 73 -155 155 -155c99 0 155 82 155 155z" />
    <glyph glyph-name="atilde" unicode="&#xe3;" horiz-adv-x="526" 
d="M373 597h15c12 0 15 -8 16 -15c4 -37 -14 -74 -49 -93c-63 -36 -103 16 -130 37s-43 32 -67 19c-18 -10 -27 -29 -25 -48c1 -14 -5 -19 -15 -19h-16c-10 0 -15 6 -16 15c-3 37 15 74 49 93c61 34 94 -8 131 -37c36 -29 52 -27 66 -19c18 10 27 29 25 48c-2 13 5 19 16 19
zM402 325l16 48c2 6 8 11 15 11c9 0 16 -7 16 -16v-352c0 -9 -7 -16 -16 -16h-16c-9 0 -16 7 -16 16v48c-31 -40 -90 -73 -155 -73c-112 0 -203 91 -203 203c0 113 91 204 203 204c71 0 125 -37 156 -73zM401 194c0 79 -59 156 -155 156c-90 0 -155 -72 -155 -156
c0 -88 73 -155 155 -155c99 0 155 82 155 155z" />
    <glyph glyph-name="ae" unicode="&#xe6;" horiz-adv-x="830" 
d="M439 368v-42c37 44 93 72 155 72c96 0 179 -68 199 -159c2 -10 3 -19 4 -29c1 -17 -13 -19 -16 -19h-342c2 -83 71 -152 155 -152c57 0 102 30 129 68c6 8 14 12 22 6l15 -12c8 -7 6 -14 1 -22c-33 -48 -94 -88 -167 -88c-62 0 -118 28 -155 72v-47c0 -9 -7 -16 -16 -16
h-16c-9 0 -16 7 -16 16v48c-31 -40 -90 -73 -155 -73c-112 0 -203 91 -203 203c0 113 91 204 203 204c71 0 125 -37 156 -73l16 48c2 6 8 11 15 11c9 0 16 -7 16 -16zM236 39c99 0 155 82 155 155c0 79 -59 156 -155 156c-90 0 -155 -72 -155 -156c0 -88 73 -155 155 -155z
M445 239h298c-22 66 -78 111 -149 111c-77 0 -130 -53 -149 -111z" />
    <glyph glyph-name="aeacute" unicode="&#x1fd;" horiz-adv-x="830" 
d="M443 483l60 167c2 7 -7 15 -16 15h-34c-6 0 -12 -3 -14 -9l-37 -162l-1 -5c-1 -5 5 -16 16 -16h11c7 0 13 4 15 10zM439 368v-42c37 44 93 72 155 72c96 0 179 -68 199 -159c2 -10 3 -19 4 -29c1 -17 -13 -19 -16 -19h-342c2 -83 71 -152 155 -152c57 0 102 30 129 68
c6 8 14 12 22 6l15 -12c8 -7 6 -14 1 -22c-33 -48 -94 -88 -167 -88c-62 0 -118 28 -155 72v-47c0 -9 -7 -16 -16 -16h-16c-9 0 -16 7 -16 16v48c-31 -40 -90 -73 -155 -73c-112 0 -203 91 -203 203c0 113 91 204 203 204c71 0 125 -37 156 -73l16 48c2 6 8 11 15 11
c9 0 16 -7 16 -16zM236 39c99 0 155 82 155 155c0 79 -59 156 -155 156c-90 0 -155 -72 -155 -156c0 -88 73 -155 155 -155zM445 239h298c-22 66 -78 111 -149 111c-77 0 -130 -53 -149 -111z" />
    <glyph glyph-name="b" unicode="b" horiz-adv-x="524" 
d="M123 650v-325c31 40 90 73 155 73c112 0 203 -91 203 -204c0 -112 -91 -203 -203 -203c-67 0 -127 36 -155 73l-17 -52c-2 -7 -9 -12 -15 -12c-9 0 -16 7 -16 16v634c0 8 7 15 16 15h16c9 0 16 -7 16 -15zM434 194c0 88 -74 156 -156 156c-98 0 -155 -81 -155 -156
c0 -94 77 -155 155 -155c88 0 156 73 156 155z" />
    <glyph glyph-name="c" unicode="c" horiz-adv-x="410" 
d="M352 60l11 -15c6 -8 3 -17 -6 -22c-33 -21 -71 -34 -112 -34c-109 0 -203 86 -203 203c0 119 98 203 203 203c38 0 74 -11 105 -29c12 -7 11 -15 7 -22l-11 -16c-4 -6 -15 -7 -22 -2c-23 14 -51 22 -79 22c-98 0 -156 -83 -156 -156c0 -90 76 -155 156 -155
c30 0 59 9 84 25c9 5 17 6 23 -2z" />
    <glyph glyph-name="cacute" unicode="&#x107;" horiz-adv-x="410" 
d="M265 483l60 167c2 7 -7 15 -16 15h-34c-6 0 -12 -3 -14 -9l-37 -162l-1 -5c-1 -5 5 -16 16 -16h11c7 0 13 4 15 10zM352 60l11 -15c6 -8 3 -17 -6 -22c-33 -21 -71 -34 -112 -34c-109 0 -203 86 -203 203c0 119 98 203 203 203c38 0 74 -11 105 -29c12 -7 11 -15 7 -22
l-11 -16c-4 -6 -15 -7 -22 -2c-23 14 -51 22 -79 22c-98 0 -156 -83 -156 -156c0 -90 76 -155 156 -155c30 0 59 9 84 25c9 5 17 6 23 -2z" />
    <glyph glyph-name="ccaron" unicode="&#x10d;" horiz-adv-x="410" 
d="M319 644l-37 -162c-2 -6 -8 -9 -14 -9h-36c-6 0 -12 3 -14 9l-37 162l-1 5c-1 5 5 16 16 16h11c7 0 13 -4 15 -10l28 -105l28 105c2 6 8 10 15 10h11c11 0 17 -11 16 -16zM352 60l11 -15c6 -8 3 -17 -6 -22c-33 -21 -71 -34 -112 -34c-109 0 -203 86 -203 203
c0 119 98 203 203 203c38 0 74 -11 105 -29c12 -7 11 -15 7 -22l-11 -16c-4 -6 -15 -7 -22 -2c-23 14 -51 22 -79 22c-98 0 -156 -83 -156 -156c0 -90 76 -155 156 -155c30 0 59 9 84 25c9 5 17 6 23 -2z" />
    <glyph glyph-name="ccedilla" unicode="&#xe7;" horiz-adv-x="410" 
d="M352 60l11 -15c6 -8 3 -17 -6 -22c-33 -21 -71 -34 -112 -34c-109 0 -203 86 -203 203c0 119 98 203 203 203c38 0 74 -11 105 -29c12 -7 11 -15 7 -22l-11 -16c-4 -6 -15 -7 -22 -2c-23 14 -51 22 -79 22c-98 0 -156 -83 -156 -156c0 -90 76 -155 156 -155
c30 0 59 9 84 25c9 5 17 6 23 -2zM217 -47l-37 -104c-2 -7 7 -15 16 -15h25c6 0 12 3 14 9l23 99l1 5c1 5 -5 16 -16 16h-11c-7 0 -13 -4 -15 -10z" />
    <glyph glyph-name="ccircumflex" unicode="&#x109;" horiz-adv-x="410" 
d="M319 494l1 -5c1 -5 -5 -16 -16 -16h-11c-7 0 -13 4 -15 10l-28 105l-28 -105c-2 -6 -8 -10 -15 -10h-11c-11 0 -17 11 -16 16l1 5l37 162c2 6 8 9 14 9h36c6 0 12 -3 14 -9zM352 60l11 -15c6 -8 3 -17 -6 -22c-33 -21 -71 -34 -112 -34c-109 0 -203 86 -203 203
c0 119 98 203 203 203c38 0 74 -11 105 -29c12 -7 11 -15 7 -22l-11 -16c-4 -6 -15 -7 -22 -2c-23 14 -51 22 -79 22c-98 0 -156 -83 -156 -156c0 -90 76 -155 156 -155c30 0 59 9 84 25c9 5 17 6 23 -2z" />
    <glyph glyph-name="cdotaccent" unicode="&#x10b;" horiz-adv-x="410" 
d="M242 564h16c9 0 16 -7 16 -16v-59c0 -9 -7 -16 -16 -16h-16c-9 0 -16 7 -16 16v59c0 9 7 16 16 16zM352 60l11 -15c6 -8 3 -17 -6 -22c-33 -21 -71 -34 -112 -34c-109 0 -203 86 -203 203c0 119 98 203 203 203c38 0 74 -11 105 -29c12 -7 11 -15 7 -22l-11 -16
c-4 -6 -15 -7 -22 -2c-23 14 -51 22 -79 22c-98 0 -156 -83 -156 -156c0 -90 76 -155 156 -155c30 0 59 9 84 25c9 5 17 6 23 -2z" />
    <glyph glyph-name="d" unicode="d" horiz-adv-x="523" 
d="M416 665h16c9 0 16 -7 16 -15v-634c0 -9 -7 -16 -16 -16c-6 0 -13 5 -15 12l-17 52c-33 -39 -86 -73 -155 -73c-113 0 -203 91 -203 203c0 113 90 204 203 204c71 0 124 -37 155 -73v325c0 8 7 15 16 15zM245 350c-86 0 -156 -70 -156 -156c0 -88 74 -155 156 -155
c96 0 155 80 155 155c0 92 -75 156 -155 156z" />
    <glyph glyph-name="eth" unicode="&#xf0;" horiz-adv-x="485" 
d="M260 496l121 -225c15 -29 23 -60 23 -91v-2c-1 -103 -85 -187 -189 -187s-188 85 -188 189s84 189 188 189c24 0 46 -5 66 -12l-67 126l-79 -21c-8 -2 -15 3 -15 11v17c0 8 7 17 15 19l57 15l-63 117c-2 4 -2 7 -2 8c0 9 7 16 15 16h18c6 0 11 -3 14 -8l64 -120l72 19
c10 3 16 -2 16 -10v-17c0 -8 -5 -17 -16 -20zM215 38c72 0 142 70 142 142c0 78 -64 142 -142 142c-77 0 -141 -64 -141 -142s64 -142 141 -142z" />
    <glyph glyph-name="dcaron" unicode="&#x10f;" horiz-adv-x="523" 
d="M416 665h16c9 0 16 -7 16 -15v-634c0 -9 -7 -16 -16 -16c-6 0 -13 5 -15 12l-17 52c-33 -39 -86 -73 -155 -73c-113 0 -203 91 -203 203c0 113 90 204 203 204c71 0 124 -37 155 -73v325c0 8 7 15 16 15zM516 483l60 167c2 7 -7 15 -16 15h-34c-6 0 -12 -3 -14 -9
l-37 -162l-1 -5c-1 -5 5 -16 16 -16h11c7 0 13 4 15 10zM245 350c-86 0 -156 -70 -156 -156c0 -88 74 -155 156 -155c96 0 155 80 155 155c0 92 -75 156 -155 156z" />
    <glyph glyph-name="dcroat" unicode="&#x111;" horiz-adv-x="523" 
d="M448 520h42c9 0 16 -7 16 -15v-17c0 -8 -7 -15 -16 -15h-42v-457c0 -9 -7 -16 -16 -16c-6 0 -13 5 -15 12l-17 52c-33 -39 -86 -73 -155 -73c-113 0 -203 91 -203 203c0 113 90 204 203 204c71 0 124 -37 155 -73v148h-85c-8 0 -15 7 -15 15v17c0 8 7 15 15 15h85v130
c0 8 7 15 16 15h16c9 0 16 -7 16 -15v-130zM245 39c96 0 155 80 155 155c0 92 -75 156 -155 156c-86 0 -156 -70 -156 -156c0 -88 74 -155 156 -155z" />
    <glyph glyph-name="e" unicode="e" horiz-adv-x="481" 
d="M396 113l15 -12c8 -7 6 -14 1 -22c-33 -48 -94 -88 -167 -88c-112 0 -203 91 -203 204c0 112 91 203 203 203c96 0 179 -68 199 -159c2 -10 3 -19 4 -29c1 -17 -13 -19 -16 -19h-342c2 -83 71 -152 155 -152c57 0 102 30 129 68c6 8 14 12 22 6zM96 239h298
c-22 66 -78 111 -149 111c-77 0 -130 -53 -149 -111z" />
    <glyph glyph-name="eacute" unicode="&#xe9;" horiz-adv-x="481" 
d="M266 483l60 167c2 7 -7 15 -16 15h-34c-6 0 -12 -3 -14 -9l-37 -162l-1 -5c-1 -5 5 -16 16 -16h11c7 0 13 4 15 10zM396 113l15 -12c8 -7 6 -14 1 -22c-33 -48 -94 -88 -167 -88c-112 0 -203 91 -203 204c0 112 91 203 203 203c96 0 179 -68 199 -159c2 -10 3 -19 4 -29
c1 -17 -13 -19 -16 -19h-342c2 -83 71 -152 155 -152c57 0 102 30 129 68c6 8 14 12 22 6zM96 239h298c-22 66 -78 111 -149 111c-77 0 -130 -53 -149 -111z" />
    <glyph glyph-name="ebreve" unicode="&#x115;" horiz-adv-x="481" 
d="M319 597h-15c-11 0 -18 -6 -16 -19c2 -19 -7 -38 -25 -48c-5 -3 -11 -5 -18 -5s-13 2 -18 5c-18 10 -27 29 -25 48c2 13 -5 19 -16 19h-15c-12 0 -15 -8 -16 -15c-4 -37 14 -74 49 -93c15 -9 29 -12 41 -12s26 3 41 12c35 19 53 56 49 93c-1 7 -4 15 -16 15zM396 113
l15 -12c8 -7 6 -14 1 -22c-33 -48 -94 -88 -167 -88c-112 0 -203 91 -203 204c0 112 91 203 203 203c96 0 179 -68 199 -159c2 -10 3 -19 4 -29c1 -17 -13 -19 -16 -19h-342c2 -83 71 -152 155 -152c57 0 102 30 129 68c6 8 14 12 22 6zM96 239h298c-22 66 -78 111 -149 111
c-77 0 -130 -53 -149 -111z" />
    <glyph glyph-name="ecaron" unicode="&#x11b;" horiz-adv-x="481" 
d="M314 644l-37 -162c-2 -6 -8 -9 -14 -9h-36c-6 0 -12 3 -14 9l-37 162l-1 5c-1 5 5 16 16 16h11c7 0 13 -4 15 -10l28 -105l28 105c2 6 8 10 15 10h11c11 0 17 -11 16 -16zM396 113l15 -12c8 -7 6 -14 1 -22c-33 -48 -94 -88 -167 -88c-112 0 -203 91 -203 204
c0 112 91 203 203 203c96 0 179 -68 199 -159c2 -10 3 -19 4 -29c1 -17 -13 -19 -16 -19h-342c2 -83 71 -152 155 -152c57 0 102 30 129 68c6 8 14 12 22 6zM96 239h298c-22 66 -78 111 -149 111c-77 0 -130 -53 -149 -111z" />
    <glyph glyph-name="ecircumflex" unicode="&#xea;" horiz-adv-x="481" 
d="M314 494l1 -5c1 -5 -5 -16 -16 -16h-11c-7 0 -13 4 -15 10l-28 105l-28 -105c-2 -6 -8 -10 -15 -10h-11c-11 0 -17 11 -16 16l1 5l37 162c2 6 8 9 14 9h36c6 0 12 -3 14 -9zM396 113l15 -12c8 -7 6 -14 1 -22c-33 -48 -94 -88 -167 -88c-112 0 -203 91 -203 204
c0 112 91 203 203 203c96 0 179 -68 199 -159c2 -10 3 -19 4 -29c1 -17 -13 -19 -16 -19h-342c2 -83 71 -152 155 -152c57 0 102 30 129 68c6 8 14 12 22 6zM96 239h298c-22 66 -78 111 -149 111c-77 0 -130 -53 -149 -111z" />
    <glyph glyph-name="edieresis" unicode="&#xeb;" horiz-adv-x="481" 
d="M175 564h16c9 0 16 -7 16 -16v-59c0 -9 -7 -16 -16 -16h-16c-9 0 -16 7 -16 16v59c0 9 7 16 16 16zM300 564h16c9 0 16 -7 16 -16v-59c0 -9 -7 -16 -16 -16h-16c-9 0 -16 7 -16 16v59c0 9 7 16 16 16zM396 113l15 -12c8 -7 6 -14 1 -22c-33 -48 -94 -88 -167 -88
c-112 0 -203 91 -203 204c0 112 91 203 203 203c96 0 179 -68 199 -159c2 -10 3 -19 4 -29c1 -17 -13 -19 -16 -19h-342c2 -83 71 -152 155 -152c57 0 102 30 129 68c6 8 14 12 22 6zM96 239h298c-22 66 -78 111 -149 111c-77 0 -130 -53 -149 -111z" />
    <glyph glyph-name="edotaccent" unicode="&#x117;" horiz-adv-x="481" 
d="M237 564h16c9 0 16 -7 16 -16v-59c0 -9 -7 -16 -16 -16h-16c-9 0 -16 7 -16 16v59c0 9 7 16 16 16zM396 113l15 -12c8 -7 6 -14 1 -22c-33 -48 -94 -88 -167 -88c-112 0 -203 91 -203 204c0 112 91 203 203 203c96 0 179 -68 199 -159c2 -10 3 -19 4 -29
c1 -17 -13 -19 -16 -19h-342c2 -83 71 -152 155 -152c57 0 102 30 129 68c6 8 14 12 22 6zM96 239h298c-22 66 -78 111 -149 111c-77 0 -130 -53 -149 -111z" />
    <glyph glyph-name="egrave" unicode="&#xe8;" horiz-adv-x="481" 
d="M165 650l60 -167c2 -6 8 -10 15 -10h11c11 0 17 11 16 16l-1 5l-37 162c-2 6 -8 9 -14 9h-34c-9 0 -18 -8 -16 -15zM396 113l15 -12c8 -7 6 -14 1 -22c-33 -48 -94 -88 -167 -88c-112 0 -203 91 -203 204c0 112 91 203 203 203c96 0 179 -68 199 -159c2 -10 3 -19 4 -29
c1 -17 -13 -19 -16 -19h-342c2 -83 71 -152 155 -152c57 0 102 30 129 68c6 8 14 12 22 6zM96 239h298c-22 66 -78 111 -149 111c-77 0 -130 -53 -149 -111z" />
    <glyph glyph-name="emacron" unicode="&#x113;" horiz-adv-x="481" 
d="M157 520h175c9 0 16 -7 16 -15v-17c0 -8 -7 -15 -16 -15h-175c-8 0 -15 7 -15 15v17c0 8 7 15 15 15zM396 113l15 -12c8 -7 6 -14 1 -22c-33 -48 -94 -88 -167 -88c-112 0 -203 91 -203 204c0 112 91 203 203 203c96 0 179 -68 199 -159c2 -10 3 -19 4 -29
c1 -17 -13 -19 -16 -19h-342c2 -83 71 -152 155 -152c57 0 102 30 129 68c6 8 14 12 22 6zM96 239h298c-22 66 -78 111 -149 111c-77 0 -130 -53 -149 -111z" />
    <glyph glyph-name="eogonek" unicode="&#x119;" horiz-adv-x="481" 
d="M286 -145l-6 -12c-7 -9 -14 -9 -21 -6c-34 15 -57 49 -57 87c-1 13 15 45 29 67c-106 8 -189 96 -189 204c0 112 91 203 203 203c96 0 179 -68 199 -159c2 -10 3 -19 4 -29c1 -17 -13 -19 -16 -19h-342c2 -83 71 -152 155 -152c57 0 102 30 129 68c6 8 14 12 22 6l15 -12
c8 -7 6 -14 1 -22c-27 -40 -74 -74 -130 -85c0 -2 -1 -5 -3 -7c-3 -4 -29 -55 -29 -62c-1 -23 13 -37 28 -45c10 -6 14 -16 8 -25zM96 239h298c-22 66 -78 111 -149 111c-77 0 -130 -53 -149 -111z" />
    <glyph glyph-name="f" unicode="f" horiz-adv-x="250" 
d="M83 383v121c0 74 49 132 106 152c18 6 30 9 39 9s16 -7 16 -16v-16c0 -8 -6 -16 -13 -16h-2c-23 0 -47 -14 -65 -32c-22 -22 -33 -50 -33 -81v-120h93c9 0 16 -7 16 -16v-16c0 -9 -7 -16 -16 -16h-93v-500c0 -9 -7 -16 -16 -16h-16c-9 0 -16 7 -16 16v500h-42
c-9 0 -16 7 -16 16c0 6 3 12 11 15z" />
    <glyph glyph-name="f.ss01" horiz-adv-x="250" 
d="M83 383v121c0 74 49 132 106 152c18 6 30 9 39 9s16 -7 16 -16v-16c0 -8 -6 -16 -13 -16h-2c-23 0 -47 -14 -65 -32c-22 -22 -33 -50 -33 -81v-120h93c9 0 16 -7 16 -16v-16c0 -9 -7 -16 -16 -16h-93v-320c0 -9 -7 -16 -16 -16h-16c-9 0 -16 7 -16 16v320h-42
c-9 0 -16 7 -16 16c0 6 3 12 11 15z" />
    <glyph glyph-name="g" unicode="g" horiz-adv-x="526" 
d="M401 325l18 49c2 6 8 10 14 10c9 0 16 -7 16 -16v-372c0 -110 -116 -176 -221 -176c-41 0 -81 9 -114 26c-11 7 -12 16 -8 22l12 16c6 8 14 6 20 3c22 -11 54 -19 90 -19c83 0 173 49 173 128v67c-33 -40 -85 -72 -155 -72c-112 0 -203 91 -203 203s91 203 203 203
c70 0 122 -32 155 -72zM401 194c0 93 -75 155 -155 155c-90 0 -155 -71 -155 -155c0 -86 69 -155 155 -155c98 0 155 80 155 155z" />
    <glyph glyph-name="gbreve" unicode="&#x11f;" horiz-adv-x="526" 
d="M320 597h-15c-11 0 -18 -6 -16 -19c2 -19 -7 -38 -25 -48c-5 -3 -11 -5 -18 -5s-13 2 -18 5c-18 10 -27 29 -25 48c2 13 -5 19 -16 19h-15c-12 0 -15 -8 -16 -15c-4 -37 14 -74 49 -93c15 -9 29 -12 41 -12s26 3 41 12c35 19 53 56 49 93c-1 7 -4 15 -16 15zM401 325
l18 49c2 6 8 10 14 10c9 0 16 -7 16 -16v-372c0 -110 -116 -176 -221 -176c-41 0 -81 9 -114 26c-11 7 -12 16 -8 22l12 16c6 8 14 6 20 3c22 -11 54 -19 90 -19c83 0 173 49 173 128v67c-33 -40 -85 -72 -155 -72c-112 0 -203 91 -203 203s91 203 203 203
c70 0 122 -32 155 -72zM401 194c0 93 -75 155 -155 155c-90 0 -155 -71 -155 -155c0 -86 69 -155 155 -155c98 0 155 80 155 155z" />
    <glyph glyph-name="gcircumflex" unicode="&#x11d;" horiz-adv-x="526" 
d="M315 494l1 -5c1 -5 -5 -16 -16 -16h-11c-7 0 -13 4 -15 10l-28 105l-28 -105c-2 -6 -8 -10 -15 -10h-11c-11 0 -17 11 -16 16l1 5l37 162c2 6 8 9 14 9h36c6 0 12 -3 14 -9zM401 325l18 49c2 6 8 10 14 10c9 0 16 -7 16 -16v-372c0 -110 -116 -176 -221 -176
c-41 0 -81 9 -114 26c-11 7 -12 16 -8 22l12 16c6 8 14 6 20 3c22 -11 54 -19 90 -19c83 0 173 49 173 128v67c-33 -40 -85 -72 -155 -72c-112 0 -203 91 -203 203s91 203 203 203c70 0 122 -32 155 -72zM401 194c0 93 -75 155 -155 155c-90 0 -155 -71 -155 -155
c0 -86 69 -155 155 -155c98 0 155 80 155 155z" />
    <glyph glyph-name="gcommaaccent" unicode="&#x123;" horiz-adv-x="526" 
d="M269 483l37 104c2 7 -7 15 -16 15h-25c-6 0 -12 -3 -14 -9l-23 -99l-1 -5c-1 -5 5 -16 16 -16h11c7 0 13 4 15 10zM401 325l18 49c2 6 8 10 14 10c9 0 16 -7 16 -16v-372c0 -110 -116 -176 -221 -176c-41 0 -81 9 -114 26c-11 7 -12 16 -8 22l12 16c6 8 14 6 20 3
c22 -11 54 -19 90 -19c83 0 173 49 173 128v67c-33 -40 -85 -72 -155 -72c-112 0 -203 91 -203 203s91 203 203 203c70 0 122 -32 155 -72zM401 194c0 93 -75 155 -155 155c-90 0 -155 -71 -155 -155c0 -86 69 -155 155 -155c98 0 155 80 155 155z" />
    <glyph glyph-name="gdotaccent" unicode="&#x121;" horiz-adv-x="526" 
d="M238 564h16c9 0 16 -7 16 -16v-59c0 -9 -7 -16 -16 -16h-16c-9 0 -16 7 -16 16v59c0 9 7 16 16 16zM401 325l18 49c2 6 8 10 14 10c9 0 16 -7 16 -16v-372c0 -110 -116 -176 -221 -176c-41 0 -81 9 -114 26c-11 7 -12 16 -8 22l12 16c6 8 14 6 20 3c22 -11 54 -19 90 -19
c83 0 173 49 173 128v67c-33 -40 -85 -72 -155 -72c-112 0 -203 91 -203 203s91 203 203 203c70 0 122 -32 155 -72zM401 194c0 93 -75 155 -155 155c-90 0 -155 -71 -155 -155c0 -86 69 -155 155 -155c98 0 155 80 155 155z" />
    <glyph glyph-name="h" unicode="h" horiz-adv-x="462" 
d="M123 650v-305c26 35 71 53 116 53c88 0 153 -69 153 -153v-229c0 -9 -7 -16 -16 -16h-16c-9 0 -16 7 -16 16v229c0 58 -49 105 -110 105c-60 0 -111 -45 -111 -105v-229c0 -9 -7 -16 -16 -16h-16c-8 0 -16 7 -16 16v634c0 8 8 15 16 15h16c9 0 16 -7 16 -15z" />
    <glyph glyph-name="hbar" unicode="&#x127;" horiz-adv-x="462" 
d="M123 473v-128c26 35 71 53 116 53c88 0 153 -69 153 -153v-229c0 -9 -7 -16 -16 -16h-16c-9 0 -16 7 -16 16v229c0 58 -49 105 -110 105c-60 0 -111 -45 -111 -105v-229c0 -9 -7 -16 -16 -16h-16c-8 0 -16 7 -16 16v457h-42c-9 0 -16 7 -16 15v17c0 8 7 15 16 15h42v130
c0 8 8 15 16 15h16c9 0 16 -7 16 -15v-130h85c8 0 15 -7 15 -15v-17c0 -8 -7 -15 -15 -15h-85z" />
    <glyph glyph-name="hcircumflex" unicode="&#x125;" horiz-adv-x="462" 
d="M319 729l1 -5c1 -5 -5 -16 -16 -16h-11c-7 0 -13 4 -15 10l-28 105l-28 -105c-2 -6 -8 -10 -15 -10h-11c-11 0 -17 11 -16 16l1 5l37 162c2 6 8 9 14 9h36c6 0 12 -3 14 -9zM123 650v-305c26 35 71 53 116 53c88 0 153 -69 153 -153v-229c0 -9 -7 -16 -16 -16h-16
c-9 0 -16 7 -16 16v229c0 58 -49 105 -110 105c-60 0 -111 -45 -111 -105v-229c0 -9 -7 -16 -16 -16h-16c-8 0 -16 7 -16 16v634c0 8 8 15 16 15h16c9 0 16 -7 16 -15z" />
    <glyph glyph-name="i" unicode="i" horiz-adv-x="170" 
d="M77 564h16c9 0 16 -7 16 -16v-59c0 -9 -7 -16 -16 -16h-16c-9 0 -16 7 -16 16v59c0 9 7 16 16 16zM77 384h16c9 0 16 -7 16 -16v-352c0 -9 -7 -16 -16 -16h-16c-9 0 -16 7 -16 16v352c0 9 7 16 16 16z" />
    <glyph glyph-name="dotlessi" unicode="&#x131;" horiz-adv-x="198" 
d="M91 384h16c9 0 16 -7 16 -16v-352c0 -9 -7 -16 -16 -16h-16c-9 0 -16 7 -16 16v352c0 9 7 16 16 16z" />
    <glyph glyph-name="iacute" unicode="&#xed;" horiz-adv-x="198" 
d="M119 483l60 167c2 7 -7 15 -16 15h-34c-6 0 -12 -3 -14 -9l-37 -162l-1 -5c-1 -5 5 -16 16 -16h11c7 0 13 4 15 10zM91 384h16c9 0 16 -7 16 -16v-352c0 -9 -7 -16 -16 -16h-16c-9 0 -16 7 -16 16v352c0 9 7 16 16 16z" />
    <glyph glyph-name="ibreve" unicode="&#x12d;" horiz-adv-x="198" 
d="M173 597h-15c-11 0 -18 -6 -16 -19c2 -19 -7 -38 -25 -48c-5 -3 -11 -5 -18 -5s-13 2 -18 5c-18 10 -27 29 -25 48c2 13 -5 19 -16 19h-15c-12 0 -15 -8 -16 -15c-4 -37 14 -74 49 -93c15 -9 29 -12 41 -12s26 3 41 12c35 19 53 56 49 93c-1 7 -4 15 -16 15zM91 384h16
c9 0 16 -7 16 -16v-352c0 -9 -7 -16 -16 -16h-16c-9 0 -16 7 -16 16v352c0 9 7 16 16 16z" />
    <glyph glyph-name="icircumflex" unicode="&#xee;" horiz-adv-x="198" 
d="M168 494l1 -5c1 -5 -5 -16 -16 -16h-11c-7 0 -13 4 -15 10l-28 105l-28 -105c-2 -6 -8 -10 -15 -10h-11c-11 0 -17 11 -16 16l1 5l37 162c2 6 8 9 14 9h36c6 0 12 -3 14 -9zM91 384h16c9 0 16 -7 16 -16v-352c0 -9 -7 -16 -16 -16h-16c-9 0 -16 7 -16 16v352
c0 9 7 16 16 16z" />
    <glyph glyph-name="idieresis" unicode="&#xef;" horiz-adv-x="198" 
d="M29 564h16c9 0 16 -7 16 -16v-59c0 -9 -7 -16 -16 -16h-16c-9 0 -16 7 -16 16v59c0 9 7 16 16 16zM154 564h16c9 0 16 -7 16 -16v-59c0 -9 -7 -16 -16 -16h-16c-9 0 -16 7 -16 16v59c0 9 7 16 16 16zM91 384h16c9 0 16 -7 16 -16v-352c0 -9 -7 -16 -16 -16h-16
c-9 0 -16 7 -16 16v352c0 9 7 16 16 16z" />
    <glyph glyph-name="igrave" unicode="&#xec;" horiz-adv-x="198" 
d="M22 650l60 -167c2 -6 8 -10 15 -10h11c11 0 17 11 16 16l-1 5l-37 162c-2 6 -8 9 -14 9h-34c-9 0 -18 -8 -16 -15zM91 384h16c9 0 16 -7 16 -16v-352c0 -9 -7 -16 -16 -16h-16c-9 0 -16 7 -16 16v352c0 9 7 16 16 16z" />
    <glyph glyph-name="ij" unicode="&#x133;" horiz-adv-x="337" 
d="M77 564h16c9 0 16 -7 16 -16v-59c0 -9 -7 -16 -16 -16h-16c-9 0 -16 7 -16 16v59c0 9 7 16 16 16zM245 564h16c9 0 16 -7 16 -15v-59c0 -9 -7 -16 -16 -16h-16c-9 0 -16 7 -16 16v59c0 8 7 15 16 15zM116 -163v16c0 8 4 15 14 16c25 3 48 14 66 32c21 22 33 50 33 81v387
c0 9 7 16 16 16h16c9 0 16 -7 16 -16v-387c0 -83 -66 -155 -142 -161c-14 0 -19 5 -19 16zM77 384h16c9 0 16 -7 16 -16v-352c0 -9 -7 -16 -16 -16h-16c-9 0 -16 7 -16 16v352c0 9 7 16 16 16z" />
    <glyph glyph-name="imacron" unicode="&#x12b;" horiz-adv-x="198" 
d="M11 520h175c9 0 16 -7 16 -15v-17c0 -8 -7 -15 -16 -15h-175c-8 0 -15 7 -15 15v17c0 8 7 15 15 15zM91 384h16c9 0 16 -7 16 -16v-352c0 -9 -7 -16 -16 -16h-16c-9 0 -16 7 -16 16v352c0 9 7 16 16 16z" />
    <glyph glyph-name="iogonek" unicode="&#x12f;" horiz-adv-x="198" 
d="M91 564h16c9 0 16 -7 16 -16v-59c0 -9 -7 -16 -16 -16h-16c-9 0 -16 7 -16 16v59c0 9 7 16 16 16zM91 384h16c9 0 16 -7 16 -16v-352c0 -9 -7 -16 -16 -16h-2c1 -4 0 -9 -3 -13s-29 -55 -29 -62c-1 -23 13 -37 28 -45c10 -6 14 -16 8 -25l-6 -12c-7 -9 -14 -9 -21 -6
c-34 15 -57 49 -57 87c-1 19 33 79 45 89l5 3v352c0 9 7 16 16 16z" />
    <glyph glyph-name="itilde" unicode="&#x129;" horiz-adv-x="198" 
d="M227 597h15c12 0 15 -8 16 -15c4 -37 -14 -74 -49 -93c-63 -36 -103 16 -130 37s-43 32 -67 19c-18 -10 -27 -29 -25 -48c1 -14 -5 -19 -15 -19h-16c-10 0 -15 6 -16 15c-3 37 15 74 49 93c61 34 94 -8 131 -37c36 -29 52 -27 66 -19c18 10 27 29 25 48c-2 13 5 19 16 19
zM91 384h16c9 0 16 -7 16 -16v-352c0 -9 -7 -16 -16 -16h-16c-9 0 -16 7 -16 16v352c0 9 7 16 16 16z" />
    <glyph glyph-name="j" unicode="j" horiz-adv-x="195" 
d="M102 564h16c9 0 16 -7 16 -15v-59c0 -9 -7 -16 -16 -16h-16c-9 0 -16 7 -16 16v59c0 8 7 15 16 15zM-27 -163v16c0 8 4 15 14 16c25 3 48 14 66 32c21 22 33 50 33 81v387c0 9 7 16 16 16h16c9 0 16 -7 16 -16v-387c0 -83 -66 -155 -142 -161c-14 0 -19 5 -19 16z" />
    <glyph glyph-name="dotlessj" unicode="&#x237;" horiz-adv-x="195" 
d="M-27 -163v16c0 8 4 15 14 16c25 3 48 14 66 32c21 22 33 50 33 81v387c0 9 7 16 16 16h16c9 0 16 -7 16 -16v-387c0 -83 -66 -155 -142 -161c-14 0 -19 5 -19 16z" />
    <glyph glyph-name="jcircumflex" unicode="&#x135;" horiz-adv-x="195" 
d="M179 494l1 -5c1 -5 -5 -16 -16 -16h-11c-7 0 -13 4 -15 10l-28 105l-28 -105c-2 -6 -8 -10 -15 -10h-11c-11 0 -17 11 -16 16l1 5l37 162c2 6 8 9 14 9h36c6 0 12 -3 14 -9zM-27 -163v16c0 8 4 15 14 16c25 3 48 14 66 32c21 22 33 50 33 81v387c0 9 7 16 16 16h16
c9 0 16 -7 16 -16v-387c0 -83 -66 -155 -142 -161c-14 0 -19 5 -19 16z" />
    <glyph glyph-name="k" unicode="k" horiz-adv-x="380" 
d="M184 182l179 -156c9 -8 4 -26 -11 -26h-23c-4 0 -10 2 -14 5l-192 167v-156c0 -9 -7 -16 -16 -16h-16c-9 0 -16 7 -16 16v634c0 8 7 15 16 15h16c9 0 16 -7 16 -15v-462l188 192c3 3 8 4 12 4h22c14 0 21 -15 10 -26z" />
    <glyph glyph-name="kcommaaccent" unicode="&#x137;" horiz-adv-x="380" 
d="M184 182l179 -156c9 -8 4 -26 -11 -26h-23c-4 0 -10 2 -14 5l-192 167v-156c0 -9 -7 -16 -16 -16h-16c-9 0 -16 7 -16 16v634c0 8 7 15 16 15h16c9 0 16 -7 16 -15v-462l188 192c3 3 8 4 12 4h22c14 0 21 -15 10 -26zM193 -156l37 104c2 7 -7 15 -16 15h-25
c-6 0 -12 -3 -14 -9l-23 -99l-1 -5c-1 -5 5 -16 16 -16h11c7 0 13 4 15 10z" />
    <glyph glyph-name="kgreenlandic" unicode="&#x138;" horiz-adv-x="380" 
d="M184 182l179 -156c9 -8 4 -26 -11 -26h-23c-4 0 -10 2 -14 5l-192 167v-156c0 -9 -7 -16 -16 -16h-16c-9 0 -16 7 -16 16v360c0 8 7 15 16 15h16c9 0 16 -7 16 -15v-188l188 192c3 3 8 4 12 4h22c14 0 21 -15 10 -26z" />
    <glyph glyph-name="l" unicode="l" horiz-adv-x="201" 
d="M92 665h17c8 0 15 -7 15 -15v-634c0 -9 -7 -16 -15 -16h-17c-8 0 -15 7 -15 16v634c0 8 7 15 15 15z" />
    <glyph glyph-name="lacute" unicode="&#x13a;" horiz-adv-x="201" 
d="M124 718l60 167c2 7 -7 15 -16 15h-34c-6 0 -12 -3 -14 -9l-37 -162l-1 -5c-1 -5 5 -16 16 -16h11c7 0 13 4 15 10zM92 665h17c8 0 15 -7 15 -15v-634c0 -9 -7 -16 -15 -16h-17c-8 0 -15 7 -15 16v634c0 8 7 15 15 15z" />
    <glyph glyph-name="lcaron" unicode="&#x13e;" horiz-adv-x="201" 
d="M92 665h17c8 0 15 -7 15 -15v-634c0 -9 -7 -16 -15 -16h-17c-8 0 -15 7 -15 16v634c0 8 7 15 15 15zM191 483l60 167c2 7 -7 15 -16 15h-34c-6 0 -12 -3 -14 -9l-37 -162l-1 -5c-1 -5 5 -16 16 -16h11c7 0 13 4 15 10z" />
    <glyph glyph-name="lcommaaccent" unicode="&#x13c;" horiz-adv-x="201" 
d="M92 665h17c8 0 15 -7 15 -15v-634c0 -9 -7 -16 -15 -16h-17c-8 0 -15 7 -15 16v634c0 8 7 15 15 15zM87 -156l37 104c2 7 -7 15 -16 15h-25c-6 0 -12 -3 -14 -9l-23 -99l-1 -5c-1 -5 5 -16 16 -16h11c7 0 13 4 15 10z" />
    <glyph glyph-name="ldot" unicode="&#x140;" horiz-adv-x="269" 
d="M92 665h17c8 0 15 -7 15 -15v-634c0 -9 -7 -16 -15 -16h-17c-8 0 -15 7 -15 16v634c0 8 7 15 15 15zM225 384h19c9 0 16 -7 16 -15v-59c0 -9 -7 -16 -16 -16h-19c-9 0 -16 7 -16 16v59c0 8 7 15 16 15z" />
    <glyph glyph-name="lslash" unicode="&#x142;" horiz-adv-x="201" 
d="M124 416l71 19c9 3 16 -2 16 -10v-17c0 -8 -7 -17 -16 -20l-71 -19v-353c0 -9 -7 -16 -15 -16h-17c-8 0 -15 7 -15 16v340l-57 -15c-8 -2 -15 3 -15 11v17c0 8 7 17 15 19l57 15v247c0 8 7 15 15 15h17c8 0 15 -7 15 -15v-234z" />
    <glyph glyph-name="m" unicode="m" horiz-adv-x="673" 
d="M604 245v-229c0 -9 -7 -16 -16 -16h-16c-9 0 -16 7 -16 16v229c0 33 -10 61 -29 79c-17 17 -40 26 -68 26c-53 0 -96 -59 -96 -128v-206c0 -9 -7 -16 -16 -16h-16c-9 0 -16 7 -16 16v229c0 33 -10 61 -29 79c-17 17 -40 26 -68 26c-51 0 -91 -54 -96 -116v-218
c0 -9 -7 -16 -15 -16h-17c-8 0 -15 7 -15 16v352c0 9 7 16 15 16c7 0 12 -4 15 -11l10 -29c24 28 54 54 103 54c54 0 101 -25 126 -72c20 36 63 72 115 72c80 0 144 -55 145 -153z" />
    <glyph glyph-name="n" unicode="n" horiz-adv-x="468" 
d="M105 373l12 -34c23 29 66 59 120 59c89 0 162 -55 162 -153v-229c0 -9 -7 -16 -16 -16h-16c-9 0 -16 7 -16 16v229c0 67 -47 105 -114 105c-63 0 -115 -58 -115 -131v-203c0 -9 -7 -16 -15 -16h-17c-8 0 -15 7 -15 16v352c0 9 7 16 15 16c7 0 12 -4 15 -11z" />
    <glyph glyph-name="nacute" unicode="&#x144;" horiz-adv-x="468" 
d="M265 483l60 167c2 7 -7 15 -16 15h-34c-6 0 -12 -3 -14 -9l-37 -162l-1 -5c-1 -5 5 -16 16 -16h11c7 0 13 4 15 10zM105 373l12 -34c23 29 66 59 120 59c89 0 162 -55 162 -153v-229c0 -9 -7 -16 -16 -16h-16c-9 0 -16 7 -16 16v229c0 67 -47 105 -114 105
c-63 0 -115 -58 -115 -131v-203c0 -9 -7 -16 -15 -16h-17c-8 0 -15 7 -15 16v352c0 9 7 16 15 16c7 0 12 -4 15 -11z" />
    <glyph glyph-name="napostrophe" unicode="&#x149;" horiz-adv-x="468" 
d="M68 483l60 167c2 7 -7 15 -16 15h-34c-6 0 -12 -3 -14 -9l-37 -162l-1 -5c-1 -5 5 -16 16 -16h11c7 0 13 4 15 10zM105 373l12 -34c23 29 66 59 120 59c89 0 162 -55 162 -153v-229c0 -9 -7 -16 -16 -16h-16c-9 0 -16 7 -16 16v229c0 67 -47 105 -114 105
c-63 0 -115 -58 -115 -131v-203c0 -9 -7 -16 -15 -16h-17c-8 0 -15 7 -15 16v352c0 9 7 16 15 16c7 0 12 -4 15 -11z" />
    <glyph glyph-name="ncaron" unicode="&#x148;" horiz-adv-x="468" 
d="M319 644l-37 -162c-2 -6 -8 -9 -14 -9h-36c-6 0 -12 3 -14 9l-37 162l-1 5c-1 5 5 16 16 16h11c7 0 13 -4 15 -10l28 -105l28 105c2 6 8 10 15 10h11c11 0 17 -11 16 -16zM105 373l12 -34c23 29 66 59 120 59c89 0 162 -55 162 -153v-229c0 -9 -7 -16 -16 -16h-16
c-9 0 -16 7 -16 16v229c0 67 -47 105 -114 105c-63 0 -115 -58 -115 -131v-203c0 -9 -7 -16 -15 -16h-17c-8 0 -15 7 -15 16v352c0 9 7 16 15 16c7 0 12 -4 15 -11z" />
    <glyph glyph-name="ncommaaccent" unicode="&#x146;" horiz-adv-x="468" 
d="M105 373l12 -34c23 29 66 59 120 59c89 0 162 -55 162 -153v-229c0 -9 -7 -16 -16 -16h-16c-9 0 -16 7 -16 16v229c0 67 -47 105 -114 105c-63 0 -115 -58 -115 -131v-203c0 -9 -7 -16 -15 -16h-17c-8 0 -15 7 -15 16v352c0 9 7 16 15 16c7 0 12 -4 15 -11zM226 -156
l37 104c2 7 -7 15 -16 15h-25c-6 0 -12 -3 -14 -9l-23 -99l-1 -5c-1 -5 5 -16 16 -16h11c7 0 13 4 15 10z" />
    <glyph glyph-name="eng" unicode="&#x14b;" horiz-adv-x="468" 
d="M351 -18v263c0 67 -47 105 -114 105c-63 0 -115 -58 -115 -131v-203c0 -9 -7 -16 -15 -16h-17c-8 0 -15 7 -15 16v352c0 9 7 16 15 16c7 0 12 -4 15 -11l12 -34c23 29 66 59 120 59c89 0 162 -55 162 -153v-263c0 -83 -66 -155 -142 -161c-14 0 -19 5 -19 16v16
c0 8 4 15 14 16c25 3 48 14 66 32c21 22 33 50 33 81z" />
    <glyph glyph-name="ntilde" unicode="&#xf1;" horiz-adv-x="469" 
d="M365 597h15c12 0 15 -8 16 -15c4 -37 -14 -74 -49 -93c-63 -36 -103 16 -130 37s-43 32 -67 19c-18 -10 -27 -29 -25 -48c1 -14 -5 -19 -15 -19h-16c-10 0 -15 6 -16 15c-3 37 15 74 49 93c61 34 94 -8 131 -37c36 -29 52 -27 66 -19c18 10 27 29 25 48c-2 13 5 19 16 19
zM105 373l12 -34c23 29 66 59 120 59c89 0 162 -55 162 -153v-229c0 -9 -7 -16 -16 -16h-16c-9 0 -16 7 -16 16v229c0 67 -47 105 -114 105c-63 0 -115 -58 -115 -131v-203c0 -9 -7 -16 -15 -16h-17c-8 0 -15 7 -15 16v352c0 9 7 16 15 16c7 0 12 -4 15 -11z" />
    <glyph glyph-name="o" unicode="o" horiz-adv-x="490" 
d="M245 393c112 0 203 -91 203 -203c0 -105 -84 -203 -203 -203s-203 98 -203 203c0 112 91 203 203 203zM245 348c-86 0 -158 -72 -158 -158c0 -84 70 -158 158 -158c81 0 158 61 158 158c0 86 -71 158 -158 158z" />
    <glyph glyph-name="oacute" unicode="&#xf3;" horiz-adv-x="490" 
d="M266 483l60 167c2 7 -7 15 -16 15h-34c-6 0 -12 -3 -14 -9l-37 -162l-1 -5c-1 -5 5 -16 16 -16h11c7 0 13 4 15 10zM245 393c112 0 203 -91 203 -203c0 -105 -84 -203 -203 -203s-203 98 -203 203c0 112 91 203 203 203zM245 348c-86 0 -158 -72 -158 -158
c0 -84 70 -158 158 -158c81 0 158 61 158 158c0 86 -71 158 -158 158z" />
    <glyph glyph-name="obreve" unicode="&#x14f;" horiz-adv-x="490" 
d="M319 597h-15c-11 0 -18 -6 -16 -19c2 -19 -7 -38 -25 -48c-5 -3 -11 -5 -18 -5s-13 2 -18 5c-18 10 -27 29 -25 48c2 13 -5 19 -16 19h-15c-12 0 -15 -8 -16 -15c-4 -37 14 -74 49 -93c15 -9 29 -12 41 -12s26 3 41 12c35 19 53 56 49 93c-1 7 -4 15 -16 15zM245 393
c112 0 203 -91 203 -203c0 -105 -84 -203 -203 -203s-203 98 -203 203c0 112 91 203 203 203zM245 348c-86 0 -158 -72 -158 -158c0 -84 70 -158 158 -158c81 0 158 61 158 158c0 86 -71 158 -158 158z" />
    <glyph glyph-name="ocircumflex" unicode="&#xf4;" horiz-adv-x="490" 
d="M310 494l1 -5c1 -5 -5 -16 -16 -16h-11c-7 0 -13 4 -15 10l-28 105l-28 -105c-2 -6 -8 -10 -15 -10h-11c-11 0 -17 11 -16 16l1 5l37 162c2 6 8 9 14 9h36c6 0 12 -3 14 -9zM245 393c112 0 203 -91 203 -203c0 -105 -84 -203 -203 -203s-203 98 -203 203
c0 112 91 203 203 203zM245 348c-86 0 -158 -72 -158 -158c0 -84 70 -158 158 -158c81 0 158 61 158 158c0 86 -71 158 -158 158z" />
    <glyph glyph-name="odieresis" unicode="&#xf6;" horiz-adv-x="490" 
d="M175 564h16c9 0 16 -7 16 -16v-59c0 -9 -7 -16 -16 -16h-16c-9 0 -16 7 -16 16v59c0 9 7 16 16 16zM300 564h16c9 0 16 -7 16 -16v-59c0 -9 -7 -16 -16 -16h-16c-9 0 -16 7 -16 16v59c0 9 7 16 16 16zM245 393c112 0 203 -91 203 -203c0 -105 -84 -203 -203 -203
s-203 98 -203 203c0 112 91 203 203 203zM245 348c-86 0 -158 -72 -158 -158c0 -84 70 -158 158 -158c81 0 158 61 158 158c0 86 -71 158 -158 158z" />
    <glyph glyph-name="ograve" unicode="&#xf2;" horiz-adv-x="490" 
d="M165 650l60 -167c2 -6 8 -10 15 -10h11c11 0 17 11 16 16l-1 5l-37 162c-2 6 -8 9 -14 9h-34c-9 0 -18 -8 -16 -15zM245 393c112 0 203 -91 203 -203c0 -105 -84 -203 -203 -203s-203 98 -203 203c0 112 91 203 203 203zM245 348c-86 0 -158 -72 -158 -158
c0 -84 70 -158 158 -158c81 0 158 61 158 158c0 86 -71 158 -158 158z" />
    <glyph glyph-name="ohungarumlaut" unicode="&#x151;" horiz-adv-x="490" 
d="M209 483l60 167c2 7 -7 15 -16 15h-34c-6 0 -12 -3 -14 -9l-37 -162l-1 -5c-1 -5 5 -16 16 -16h11c7 0 13 4 15 10zM328 483l60 167c2 7 -7 15 -16 15h-34c-6 0 -12 -3 -14 -9l-37 -162l-1 -5c-1 -5 5 -16 16 -16h11c7 0 13 4 15 10zM245 393c112 0 203 -91 203 -203
c0 -105 -84 -203 -203 -203s-203 98 -203 203c0 112 91 203 203 203zM245 348c-86 0 -158 -72 -158 -158c0 -84 70 -158 158 -158c81 0 158 61 158 158c0 86 -71 158 -158 158z" />
    <glyph glyph-name="omacron" unicode="&#x14d;" horiz-adv-x="490" 
d="M157 520h175c9 0 16 -7 16 -15v-17c0 -8 -7 -15 -16 -15h-175c-8 0 -15 7 -15 15v17c0 8 7 15 15 15zM245 393c112 0 203 -91 203 -203c0 -105 -84 -203 -203 -203s-203 98 -203 203c0 112 91 203 203 203zM245 348c-86 0 -158 -72 -158 -158c0 -84 70 -158 158 -158
c81 0 158 61 158 158c0 86 -71 158 -158 158z" />
    <glyph glyph-name="oslash" unicode="&#xf8;" horiz-adv-x="490" 
d="M381 373l-13 -22c49 -37 80 -95 80 -161c0 -105 -84 -203 -203 -203c-28 0 -54 5 -78 15l-4 -7c-3 -5 -8 -8 -14 -8h-28c-8 0 -13 7 -9 15l14 24c-52 38 -84 100 -84 164c0 112 91 203 203 203c29 0 57 -6 82 -17l4 7c3 5 8 8 13 8h31c8 0 11 -10 6 -18zM149 65l155 271
c-18 8 -38 12 -59 12c-86 0 -158 -72 -158 -158c0 -49 24 -95 62 -125zM345 311l-155 -269c17 -6 36 -10 55 -10c81 0 158 61 158 158c0 48 -22 92 -58 121z" />
    <glyph glyph-name="oslashacute" unicode="&#x1ff;" horiz-adv-x="490" 
d="M265 483l60 167c2 7 -7 15 -16 15h-34c-6 0 -12 -3 -14 -9l-37 -162l-1 -5c-1 -5 5 -16 16 -16h11c7 0 13 4 15 10zM381 373l-13 -22c49 -37 80 -95 80 -161c0 -105 -84 -203 -203 -203c-28 0 -54 5 -78 15l-4 -7c-3 -5 -8 -8 -14 -8h-28c-8 0 -13 7 -9 15l14 24
c-52 38 -84 100 -84 164c0 112 91 203 203 203c29 0 57 -6 82 -17l4 7c3 5 8 8 13 8h31c8 0 11 -10 6 -18zM149 65l155 271c-18 8 -38 12 -59 12c-86 0 -158 -72 -158 -158c0 -49 24 -95 62 -125zM345 311l-155 -269c17 -6 36 -10 55 -10c81 0 158 61 158 158
c0 48 -22 92 -58 121z" />
    <glyph glyph-name="otilde" unicode="&#xf5;" horiz-adv-x="490" 
d="M372 597h15c12 0 15 -8 16 -15c4 -37 -14 -74 -49 -93c-63 -36 -103 16 -130 37s-43 32 -67 19c-18 -10 -27 -29 -25 -48c1 -14 -5 -19 -15 -19h-16c-10 0 -15 6 -16 15c-3 37 15 74 49 93c61 34 94 -8 131 -37c36 -29 52 -27 66 -19c18 10 27 29 25 48c-2 13 5 19 16 19
zM245 393c112 0 203 -91 203 -203c0 -105 -84 -203 -203 -203s-203 98 -203 203c0 112 91 203 203 203zM245 348c-86 0 -158 -72 -158 -158c0 -84 70 -158 158 -158c81 0 158 61 158 158c0 86 -71 158 -158 158z" />
    <glyph glyph-name="oe" unicode="&#x153;" horiz-adv-x="842" 
d="M757 113l15 -12c8 -7 6 -14 1 -22c-33 -48 -94 -88 -167 -88c-78 0 -145 44 -180 109c-32 -65 -98 -113 -181 -113c-119 0 -203 98 -203 203c0 112 91 203 203 203c78 0 145 -44 179 -108c33 67 102 113 182 113c96 0 179 -68 199 -159c2 -10 3 -19 4 -29
c1 -17 -13 -19 -16 -19h-342c2 -83 71 -152 155 -152c57 0 102 30 129 68c6 8 14 12 22 6zM457 239h298c-22 66 -78 111 -149 111c-77 0 -130 -53 -149 -111zM245 32c81 0 158 61 158 158c0 86 -71 158 -158 158c-86 0 -158 -72 -158 -158c0 -84 70 -158 158 -158z" />
    <glyph glyph-name="p" unicode="p" horiz-adv-x="525" 
d="M105 373l18 -48c36 40 84 72 155 72c113 0 204 -91 204 -203s-91 -203 -204 -203c-68 0 -120 34 -155 72v-227c0 -9 -7 -16 -16 -16h-16c-9 0 -16 7 -16 16v532c0 9 7 16 15 16c7 0 13 -4 15 -11zM434 194c0 88 -74 155 -156 155c-84 0 -155 -67 -155 -155
c0 -77 63 -155 155 -155c90 0 156 71 156 155z" />
    <glyph glyph-name="thorn" unicode="&#xfe;" horiz-adv-x="600" 
d="M123 650v-325c36 40 84 72 155 72c113 0 204 -91 204 -203s-91 -203 -204 -203c-68 0 -120 34 -155 72v-227c0 -9 -7 -16 -16 -16h-16c-9 0 -16 7 -16 16v814c0 8 7 15 15 15h18c8 0 15 -7 15 -15zM278 39c90 0 156 71 156 155c0 88 -74 155 -156 155
c-84 0 -155 -67 -155 -155c0 -77 63 -155 155 -155z" />
    <glyph glyph-name="q" unicode="q" horiz-adv-x="525" 
d="M401 -164v227c-35 -38 -87 -72 -155 -72c-113 0 -204 91 -204 203s91 203 204 203c71 0 119 -32 155 -72l18 48c2 7 8 11 15 11c8 0 15 -7 15 -16v-532c0 -9 -7 -16 -16 -16h-16c-9 0 -16 7 -16 16zM246 349c-82 0 -156 -67 -156 -155c0 -84 66 -155 156 -155
c92 0 155 78 155 155c0 88 -71 155 -155 155z" />
    <glyph glyph-name="r" unicode="r" horiz-adv-x="280" 
d="M263 385v-22c0 -7 -5 -13 -13 -13h-13c-75 0 -114 -72 -114 -131v-203c0 -9 -8 -16 -16 -16h-16c-9 0 -16 7 -16 16v352c0 9 7 16 15 16c7 0 12 -4 15 -11l12 -34c27 30 65 59 120 59h13c8 0 13 -6 13 -13z" />
    <glyph glyph-name="racute" unicode="&#x155;" horiz-adv-x="280" 
d="M180 483l60 167c2 7 -7 15 -16 15h-34c-6 0 -12 -3 -14 -9l-37 -162l-1 -5c-1 -5 5 -16 16 -16h11c7 0 13 4 15 10zM263 385v-22c0 -7 -5 -13 -13 -13h-13c-75 0 -114 -72 -114 -131v-203c0 -9 -8 -16 -16 -16h-16c-9 0 -16 7 -16 16v352c0 9 7 16 15 16
c7 0 12 -4 15 -11l12 -34c27 30 65 59 120 59h13c8 0 13 -6 13 -13z" />
    <glyph glyph-name="rcaron" unicode="&#x159;" horiz-adv-x="280" 
d="M237 644l-37 -162c-2 -6 -8 -9 -14 -9h-36c-6 0 -12 3 -14 9l-37 162l-1 5c-1 5 5 16 16 16h11c7 0 13 -4 15 -10l28 -105l28 105c2 6 8 10 15 10h11c11 0 17 -11 16 -16zM263 385v-22c0 -7 -5 -13 -13 -13h-13c-75 0 -114 -72 -114 -131v-203c0 -9 -8 -16 -16 -16h-16
c-9 0 -16 7 -16 16v352c0 9 7 16 15 16c7 0 12 -4 15 -11l12 -34c27 30 65 59 120 59h13c8 0 13 -6 13 -13z" />
    <glyph glyph-name="rcommaaccent" unicode="&#x157;" horiz-adv-x="280" 
d="M263 385v-22c0 -7 -5 -13 -13 -13h-13c-75 0 -114 -72 -114 -131v-203c0 -9 -8 -16 -16 -16h-16c-9 0 -16 7 -16 16v352c0 9 7 16 15 16c7 0 12 -4 15 -11l12 -34c27 30 65 59 120 59h13c8 0 13 -6 13 -13zM85 -156l37 104c2 7 -7 15 -16 15h-25c-6 0 -12 -3 -14 -9
l-23 -99l-1 -5c-1 -5 5 -16 16 -16h11c7 0 13 4 15 10z" />
    <glyph glyph-name="s" unicode="s" horiz-adv-x="356" 
d="M296 342l-13 -19c-6 -8 -16 -4 -21 -1c-17 11 -42 23 -72 23c-69 0 -72 -40 -72 -58c0 -47 54 -60 82 -72c54 -21 113 -48 113 -115c0 -72 -50 -113 -121 -113c-50 0 -101 30 -135 60l-3 3c-6 6 -5 14 0 19l14 14c6 6 15 6 20 1l2 -2c27 -25 68 -48 102 -48
c35 0 73 17 73 66c0 46 -61 62 -85 72c-65 26 -110 43 -110 115c0 67 45 106 120 106c44 0 78 -18 99 -32l3 -2c6 -4 8 -10 4 -17z" />
    <glyph glyph-name="sacute" unicode="&#x15b;" horiz-adv-x="356" 
d="M214 483l60 167c2 7 -7 15 -16 15h-34c-6 0 -12 -3 -14 -9l-37 -162l-1 -5c-1 -5 5 -16 16 -16h11c7 0 13 4 15 10zM296 342l-13 -19c-6 -8 -16 -4 -21 -1c-17 11 -42 23 -72 23c-69 0 -72 -40 -72 -58c0 -47 54 -60 82 -72c54 -21 113 -48 113 -115
c0 -72 -50 -113 -121 -113c-50 0 -101 30 -135 60l-3 3c-6 6 -5 14 0 19l14 14c6 6 15 6 20 1l2 -2c27 -25 68 -48 102 -48c35 0 73 17 73 66c0 46 -61 62 -85 72c-65 26 -110 43 -110 115c0 67 45 106 120 106c44 0 78 -18 99 -32l3 -2c6 -4 8 -10 4 -17z" />
    <glyph glyph-name="scaron" unicode="&#x161;" horiz-adv-x="356" 
d="M260 644l-37 -162c-2 -6 -8 -9 -14 -9h-36c-6 0 -12 3 -14 9l-37 162l-1 5c-1 5 5 16 16 16h11c7 0 13 -4 15 -10l28 -105l28 105c2 6 8 10 15 10h11c11 0 17 -11 16 -16zM296 342l-13 -19c-6 -8 -16 -4 -21 -1c-17 11 -42 23 -72 23c-69 0 -72 -40 -72 -58
c0 -47 54 -60 82 -72c54 -21 113 -48 113 -115c0 -72 -50 -113 -121 -113c-50 0 -101 30 -135 60l-3 3c-6 6 -5 14 0 19l14 14c6 6 15 6 20 1l2 -2c27 -25 68 -48 102 -48c35 0 73 17 73 66c0 46 -61 62 -85 72c-65 26 -110 43 -110 115c0 67 45 106 120 106
c44 0 78 -18 99 -32l3 -2c6 -4 8 -10 4 -17z" />
    <glyph glyph-name="scedilla" unicode="&#x15f;" horiz-adv-x="356" 
d="M296 342l-13 -19c-6 -8 -16 -4 -21 -1c-17 11 -42 23 -72 23c-69 0 -72 -40 -72 -58c0 -47 54 -60 82 -72c54 -21 113 -48 113 -115c0 -72 -50 -113 -121 -113c-50 0 -101 30 -135 60l-3 3c-6 6 -5 14 0 19l14 14c6 6 15 6 20 1l2 -2c27 -25 68 -48 102 -48
c35 0 73 17 73 66c0 46 -61 62 -85 72c-65 26 -110 43 -110 115c0 67 45 106 120 106c44 0 78 -18 99 -32l3 -2c6 -4 8 -10 4 -17zM166 -47l-37 -104c-2 -7 7 -15 16 -15h25c6 0 12 3 14 9l23 99l1 5c1 5 -5 16 -16 16h-11c-7 0 -13 -4 -15 -10z" />
    <glyph glyph-name="scircumflex" unicode="&#x15d;" horiz-adv-x="356" 
d="M259 494l1 -5c1 -5 -5 -16 -16 -16h-11c-7 0 -13 4 -15 10l-28 105l-28 -105c-2 -6 -8 -10 -15 -10h-11c-11 0 -17 11 -16 16l1 5l37 162c2 6 8 9 14 9h36c6 0 12 -3 14 -9zM296 342l-13 -19c-6 -8 -16 -4 -21 -1c-17 11 -42 23 -72 23c-69 0 -72 -40 -72 -58
c0 -47 54 -60 82 -72c54 -21 113 -48 113 -115c0 -72 -50 -113 -121 -113c-50 0 -101 30 -135 60l-3 3c-6 6 -5 14 0 19l14 14c6 6 15 6 20 1l2 -2c27 -25 68 -48 102 -48c35 0 73 17 73 66c0 46 -61 62 -85 72c-65 26 -110 43 -110 115c0 67 45 106 120 106
c44 0 78 -18 99 -32l3 -2c6 -4 8 -10 4 -17z" />
    <glyph glyph-name="scommaaccent" unicode="&#x219;" horiz-adv-x="356" 
d="M296 342l-13 -19c-6 -8 -16 -4 -21 -1c-17 11 -42 23 -72 23c-69 0 -72 -40 -72 -58c0 -47 54 -60 82 -72c54 -21 113 -48 113 -115c0 -72 -50 -113 -121 -113c-50 0 -101 30 -135 60l-3 3c-6 6 -5 14 0 19l14 14c6 6 15 6 20 1l2 -2c27 -25 68 -48 102 -48
c35 0 73 17 73 66c0 46 -61 62 -85 72c-65 26 -110 43 -110 115c0 67 45 106 120 106c44 0 78 -18 99 -32l3 -2c6 -4 8 -10 4 -17zM177 -156l37 104c2 7 -7 15 -16 15h-25c-6 0 -12 -3 -14 -9l-23 -99l-1 -5c-1 -5 5 -16 16 -16h11c7 0 13 4 15 10z" />
    <glyph glyph-name="germandbls" unicode="&#xdf;" horiz-adv-x="409" 
d="M83 336h-42c-9 0 -16 7 -16 16c0 6 3 12 11 15l47 16v121c0 74 49 132 106 152c18 6 30 9 39 9s16 -7 16 -16v-16c0 -8 -6 -16 -13 -16h-2c-23 0 -47 -14 -65 -32c-22 -22 -33 -50 -33 -81v-120h252c6 0 12 -1 15 -6s2 -12 -3 -19l-106 -152c65 -32 110 -96 114 -172
c2 -42 -8 -85 -32 -123c-39 -57 -99 -91 -184 -91c-35 3 -64 7 -101 25c-10 5 -13 17 -6 26l8 10c5 8 15 10 22 6c48 -23 95 -27 135 -16c74 24 117 92 114 158s-49 131 -121 147c-14 3 -18 15 -11 24l95 136h-191v-321c0 -9 -7 -16 -16 -16h-16c-9 0 -16 7 -16 16v320z" />
    <glyph glyph-name="germandbls.ss01" horiz-adv-x="432" 
d="M155 22l8 17c3 6 11 7 18 5c14 -4 28 -5 42 -5c86 0 156 64 156 149c0 83 -72 149 -156 149h-43c-14 0 -20 13 -11 25l167 226c-25 28 -49 38 -88 38c-57 0 -117 -52 -117 -114v-676c0 -9 -7 -16 -16 -16h-16c-9 0 -16 7 -16 16v500h-42c-9 0 -16 7 -16 16
c0 6 3 12 11 15l47 16v129c0 109 93 161 164 161c53 0 93 -21 118 -46c9 -9 17 -19 25 -32c2 -4 2 -11 -1 -15l-145 -197c102 -10 182 -93 182 -195c0 -109 -91 -196 -203 -196c-20 0 -38 2 -56 7c-17 5 -15 16 -12 23z" />
    <glyph glyph-name="longs" unicode="&#x17f;" horiz-adv-x="250" 
d="M83 383v121c0 74 49 132 106 152c18 6 30 9 39 9s16 -7 16 -16v-16c0 -8 -6 -16 -13 -16h-2c-23 0 -47 -14 -65 -32c-22 -22 -33 -50 -33 -81v-668c0 -9 -7 -16 -16 -16h-16c-9 0 -16 7 -16 16v500h-42c-9 0 -16 7 -16 16c0 6 3 12 11 15z" />
    <glyph glyph-name="longs.ss01" horiz-adv-x="250" 
d="M83 383v121c0 74 49 132 106 152c18 6 30 9 39 9s16 -7 16 -16v-16c0 -8 -6 -16 -13 -16h-2c-23 0 -47 -14 -65 -32c-22 -22 -33 -50 -33 -81v-488c0 -9 -7 -16 -16 -16h-16c-9 0 -16 7 -16 16v320h-42c-9 0 -16 7 -16 16c0 6 3 12 11 15z" />
    <glyph glyph-name="t" unicode="t" horiz-adv-x="247" 
d="M83 336h-42c-9 0 -16 7 -16 16c0 6 3 12 11 15l47 16v165c0 9 7 16 15 16h18c8 0 15 -7 15 -16v-164h94c9 0 16 -7 16 -16v-16c0 -8 -7 -16 -16 -16h-94v-320c0 -9 -7 -16 -15 -16h-18c-8 0 -15 7 -15 16v320z" />
    <glyph glyph-name="t.ss01" horiz-adv-x="266" 
d="M131 336v-188c0 -31 12 -59 33 -81c18 -18 38 -29 63 -32c10 -1 14 -8 14 -16v-16c0 -11 -5 -16 -19 -16c-76 6 -139 78 -139 161v188h-42c-9 0 -16 7 -16 16c0 6 3 12 11 15l47 16v165c0 9 7 16 15 16h18c8 0 15 -7 15 -16v-164h94c9 0 16 -7 16 -16v-16
c0 -8 -7 -16 -16 -16h-94z" />
    <glyph glyph-name="tbar" unicode="&#x167;" horiz-adv-x="247" 
d="M131 214h94c9 0 16 -7 16 -16v-16c0 -8 -7 -16 -16 -16h-94v-150c0 -9 -7 -16 -15 -16h-18c-8 0 -15 7 -15 16v150h-42c-9 0 -16 7 -16 16c0 6 3 12 11 15l47 16v123h-42c-9 0 -16 7 -16 16c0 6 3 12 11 15l47 16v165c0 9 7 16 15 16h18c8 0 15 -7 15 -16v-164h94
c9 0 16 -7 16 -16v-16c0 -8 -7 -16 -16 -16h-94v-122z" />
    <glyph glyph-name="tcaron" unicode="&#x165;" horiz-adv-x="247" 
d="M225 483l60 167c2 7 -7 15 -16 15h-34c-6 0 -12 -3 -14 -9l-37 -162l-1 -5c-1 -5 5 -16 16 -16h11c7 0 13 4 15 10zM83 336h-42c-9 0 -16 7 -16 16c0 6 3 12 11 15l47 16v165c0 9 7 16 15 16h18c8 0 15 -7 15 -16v-164h94c9 0 16 -7 16 -16v-16c0 -8 -7 -16 -16 -16h-94
v-320c0 -9 -7 -16 -15 -16h-18c-8 0 -15 7 -15 16v320z" />
    <glyph glyph-name="tcaron.ss01" horiz-adv-x="266" 
d="M225 483l60 167c2 7 -7 15 -16 15h-34c-6 0 -12 -3 -14 -9l-37 -162l-1 -5c-1 -5 5 -16 16 -16h11c7 0 13 4 15 10zM131 336v-188c0 -31 12 -59 33 -81c18 -18 38 -29 63 -32c10 -1 14 -8 14 -16v-16c0 -11 -5 -16 -19 -16c-76 6 -139 78 -139 161v188h-42
c-9 0 -16 7 -16 16c0 6 3 12 11 15l47 16v165c0 9 7 16 15 16h18c8 0 15 -7 15 -16v-164h94c9 0 16 -7 16 -16v-16c0 -8 -7 -16 -16 -16h-94z" />
    <glyph glyph-name="tcedilla" unicode="&#x163;" horiz-adv-x="247" 
d="M83 336h-42c-9 0 -16 7 -16 16c0 6 3 12 11 15l47 16v165c0 9 7 16 15 16h18c8 0 15 -7 15 -16v-164h94c9 0 16 -7 16 -16v-16c0 -8 -7 -16 -16 -16h-94v-320c0 -9 -7 -16 -15 -16h-18c-8 0 -15 7 -15 16v320zM83 -47l-37 -104c-2 -7 7 -15 16 -15h25c6 0 12 3 14 9
l23 99l1 5c1 5 -5 16 -16 16h-11c-7 0 -13 -4 -15 -10z" />
    <glyph glyph-name="tcedilla.ss01" horiz-adv-x="266" 
d="M131 336v-188c0 -31 12 -59 33 -81c18 -18 38 -29 63 -32c10 -1 14 -8 14 -16v-16c0 -11 -5 -16 -19 -16c-76 6 -139 78 -139 161v188h-42c-9 0 -16 7 -16 16c0 6 3 12 11 15l47 16v165c0 9 7 16 15 16h18c8 0 15 -7 15 -16v-164h94c9 0 16 -7 16 -16v-16
c0 -8 -7 -16 -16 -16h-94zM83 -47l-37 -104c-2 -7 7 -15 16 -15h25c6 0 12 3 14 9l23 99l1 5c1 5 -5 16 -16 16h-11c-7 0 -13 -4 -15 -10z" />
    <glyph glyph-name="uni021B" unicode="&#x21b;" horiz-adv-x="247" 
d="M83 336h-42c-9 0 -16 7 -16 16c0 6 3 12 11 15l47 16v165c0 9 7 16 15 16h18c8 0 15 -7 15 -16v-164h94c9 0 16 -7 16 -16v-16c0 -8 -7 -16 -16 -16h-94v-320c0 -9 -7 -16 -15 -16h-18c-8 0 -15 7 -15 16v320zM93 -156l37 104c2 7 -7 15 -16 15h-25c-6 0 -12 -3 -14 -9
l-23 -99l-1 -5c-1 -5 5 -16 16 -16h11c7 0 13 4 15 10z" />
    <glyph glyph-name="uni021B.ss01" horiz-adv-x="266" 
d="M131 336v-188c0 -31 12 -59 33 -81c18 -18 38 -29 63 -32c10 -1 14 -8 14 -16v-16c0 -11 -5 -16 -19 -16c-76 6 -139 78 -139 161v188h-42c-9 0 -16 7 -16 16c0 6 3 12 11 15l47 16v165c0 9 7 16 15 16h18c8 0 15 -7 15 -16v-164h94c9 0 16 -7 16 -16v-16
c0 -8 -7 -16 -16 -16h-94zM93 -156l37 104c2 7 -7 15 -16 15h-25c-6 0 -12 -3 -14 -9l-23 -99l-1 -5c-1 -5 5 -16 16 -16h11c7 0 13 4 15 10z" />
    <glyph glyph-name="u" unicode="u" horiz-adv-x="472" 
d="M363 384h16c9 0 16 -7 16 -16v-352c0 -9 -7 -16 -16 -16c-8 0 -13 6 -15 12l-13 36c-24 -28 -64 -57 -118 -57c-90 0 -162 55 -162 153v224c0 9 7 16 15 16h17c8 0 15 -7 15 -16v-224c0 -67 47 -105 115 -105c76 0 114 69 114 131v198c0 9 7 16 16 16z" />
    <glyph glyph-name="uacute" unicode="&#xfa;" horiz-adv-x="472" 
d="M262 483l60 167c2 7 -7 15 -16 15h-34c-6 0 -12 -3 -14 -9l-37 -162l-1 -5c-1 -5 5 -16 16 -16h11c7 0 13 4 15 10zM363 384h16c9 0 16 -7 16 -16v-352c0 -9 -7 -16 -16 -16c-8 0 -13 6 -15 12l-13 36c-24 -28 -64 -57 -118 -57c-90 0 -162 55 -162 153v224
c0 9 7 16 15 16h17c8 0 15 -7 15 -16v-224c0 -67 47 -105 115 -105c76 0 114 69 114 131v198c0 9 7 16 16 16z" />
    <glyph glyph-name="ubreve" unicode="&#x16d;" horiz-adv-x="472" 
d="M307 597h-15c-11 0 -18 -6 -16 -19c2 -19 -7 -38 -25 -48c-5 -3 -11 -5 -18 -5s-13 2 -18 5c-18 10 -27 29 -25 48c2 13 -5 19 -16 19h-15c-12 0 -15 -8 -16 -15c-4 -37 14 -74 49 -93c15 -9 29 -12 41 -12s26 3 41 12c35 19 53 56 49 93c-1 7 -4 15 -16 15zM363 384h16
c9 0 16 -7 16 -16v-352c0 -9 -7 -16 -16 -16c-8 0 -13 6 -15 12l-13 36c-24 -28 -64 -57 -118 -57c-90 0 -162 55 -162 153v224c0 9 7 16 15 16h17c8 0 15 -7 15 -16v-224c0 -67 47 -105 115 -105c76 0 114 69 114 131v198c0 9 7 16 16 16z" />
    <glyph glyph-name="ucircumflex" unicode="&#xfb;" horiz-adv-x="472" 
d="M302 494l1 -5c1 -5 -5 -16 -16 -16h-11c-7 0 -13 4 -15 10l-28 105l-28 -105c-2 -6 -8 -10 -15 -10h-11c-11 0 -17 11 -16 16l1 5l37 162c2 6 8 9 14 9h36c6 0 12 -3 14 -9zM363 384h16c9 0 16 -7 16 -16v-352c0 -9 -7 -16 -16 -16c-8 0 -13 6 -15 12l-13 36
c-24 -28 -64 -57 -118 -57c-90 0 -162 55 -162 153v224c0 9 7 16 15 16h17c8 0 15 -7 15 -16v-224c0 -67 47 -105 115 -105c76 0 114 69 114 131v198c0 9 7 16 16 16z" />
    <glyph glyph-name="udieresis" unicode="&#xfc;" horiz-adv-x="472" 
d="M163 564h16c9 0 16 -7 16 -16v-59c0 -9 -7 -16 -16 -16h-16c-9 0 -16 7 -16 16v59c0 9 7 16 16 16zM288 564h16c9 0 16 -7 16 -16v-59c0 -9 -7 -16 -16 -16h-16c-9 0 -16 7 -16 16v59c0 9 7 16 16 16zM363 384h16c9 0 16 -7 16 -16v-352c0 -9 -7 -16 -16 -16
c-8 0 -13 6 -15 12l-13 36c-24 -28 -64 -57 -118 -57c-90 0 -162 55 -162 153v224c0 9 7 16 15 16h17c8 0 15 -7 15 -16v-224c0 -67 47 -105 115 -105c76 0 114 69 114 131v198c0 9 7 16 16 16z" />
    <glyph glyph-name="ugrave" unicode="&#xf9;" horiz-adv-x="472" 
d="M164 650l60 -167c2 -6 8 -10 15 -10h11c11 0 17 11 16 16l-1 5l-37 162c-2 6 -8 9 -14 9h-34c-9 0 -18 -8 -16 -15zM363 384h16c9 0 16 -7 16 -16v-352c0 -9 -7 -16 -16 -16c-8 0 -13 6 -15 12l-13 36c-24 -28 -64 -57 -118 -57c-90 0 -162 55 -162 153v224
c0 9 7 16 15 16h17c8 0 15 -7 15 -16v-224c0 -67 47 -105 115 -105c76 0 114 69 114 131v198c0 9 7 16 16 16z" />
    <glyph glyph-name="uhungarumlaut" unicode="&#x171;" horiz-adv-x="472" 
d="M197 483l60 167c2 7 -7 15 -16 15h-34c-6 0 -12 -3 -14 -9l-37 -162l-1 -5c-1 -5 5 -16 16 -16h11c7 0 13 4 15 10zM316 483l60 167c2 7 -7 15 -16 15h-34c-6 0 -12 -3 -14 -9l-37 -162l-1 -5c-1 -5 5 -16 16 -16h11c7 0 13 4 15 10zM363 384h16c9 0 16 -7 16 -16v-352
c0 -9 -7 -16 -16 -16c-8 0 -13 6 -15 12l-13 36c-24 -28 -64 -57 -118 -57c-90 0 -162 55 -162 153v224c0 9 7 16 15 16h17c8 0 15 -7 15 -16v-224c0 -67 47 -105 115 -105c76 0 114 69 114 131v198c0 9 7 16 16 16z" />
    <glyph glyph-name="umacron" unicode="&#x16b;" horiz-adv-x="472" 
d="M145 520h175c9 0 16 -7 16 -15v-17c0 -8 -7 -15 -16 -15h-175c-8 0 -15 7 -15 15v17c0 8 7 15 15 15zM363 384h16c9 0 16 -7 16 -16v-352c0 -9 -7 -16 -16 -16c-8 0 -13 6 -15 12l-13 36c-24 -28 -64 -57 -118 -57c-90 0 -162 55 -162 153v224c0 9 7 16 15 16h17
c8 0 15 -7 15 -16v-224c0 -67 47 -105 115 -105c76 0 114 69 114 131v198c0 9 7 16 16 16z" />
    <glyph glyph-name="uogonek" unicode="&#x173;" horiz-adv-x="472" 
d="M395 368v-352c0 -6 -3 -11 -8 -14c2 -5 1 -10 -2 -15c-3 -4 -29 -55 -29 -62c-1 -23 13 -37 28 -45c10 -6 14 -16 8 -25l-6 -12c-7 -9 -14 -9 -21 -6c-34 15 -57 49 -57 87c-1 19 33 79 45 89c3 2 6 3 10 3l-12 32c-24 -28 -64 -57 -118 -57c-90 0 -162 55 -162 153v224
c0 9 7 16 15 16h17c8 0 15 -7 15 -16v-224c0 -67 47 -105 115 -105c76 0 114 69 114 131v198c0 9 7 16 16 16h16c9 0 16 -7 16 -16z" />
    <glyph glyph-name="uring" unicode="&#x16f;" horiz-adv-x="472" 
d="M233 665c53 0 96 -43 96 -96s-43 -96 -96 -96s-96 43 -96 96s43 96 96 96zM233 618c-27 0 -49 -22 -49 -49s22 -49 49 -49s49 22 49 49s-22 49 -49 49zM363 384h16c9 0 16 -7 16 -16v-352c0 -9 -7 -16 -16 -16c-8 0 -13 6 -15 12l-13 36c-24 -28 -64 -57 -118 -57
c-90 0 -162 55 -162 153v224c0 9 7 16 15 16h17c8 0 15 -7 15 -16v-224c0 -67 47 -105 115 -105c76 0 114 69 114 131v198c0 9 7 16 16 16z" />
    <glyph glyph-name="utilde" unicode="&#x169;" horiz-adv-x="472" 
d="M362 597h15c12 0 15 -8 16 -15c4 -37 -14 -74 -49 -93c-63 -36 -103 16 -130 37s-43 32 -67 19c-18 -10 -27 -29 -25 -48c1 -14 -5 -19 -15 -19h-16c-10 0 -15 6 -16 15c-3 37 15 74 49 93c61 34 94 -8 131 -37c36 -29 52 -27 66 -19c18 10 27 29 25 48c-2 13 5 19 16 19
zM363 384h16c9 0 16 -7 16 -16v-352c0 -9 -7 -16 -16 -16c-8 0 -13 6 -15 12l-13 36c-24 -28 -64 -57 -118 -57c-90 0 -162 55 -162 153v224c0 9 7 16 15 16h17c8 0 15 -7 15 -16v-224c0 -67 47 -105 115 -105c76 0 114 69 114 131v198c0 9 7 16 16 16z" />
    <glyph glyph-name="v" unicode="v" horiz-adv-x="373" 
d="M351 362l-150 -369c-2 -6 -8 -10 -15 -10s-13 4 -15 10l-149 369c-5 13 3 22 14 22h18c11 0 13 -7 15 -12l117 -289l118 289c2 5 4 12 15 12h18c11 0 19 -9 14 -22z" />
    <glyph glyph-name="w" unicode="w" horiz-adv-x="660" 
d="M633 362l-150 -369c-2 -6 -8 -10 -15 -10s-13 4 -15 10l-123 304l-123 -304c-2 -6 -8 -10 -15 -10s-13 4 -15 10l-150 369c-5 13 3 22 14 22h18c11 0 14 -7 16 -12l117 -288l123 303c2 6 8 11 15 11s13 -5 15 -11l123 -303l118 288c2 5 4 12 15 12h18c11 0 19 -9 14 -22z
" />
    <glyph glyph-name="wacute" unicode="&#x1e83;" horiz-adv-x="660" 
d="M379 483l60 167c2 7 -7 15 -16 15h-34c-6 0 -12 -3 -14 -9l-37 -162l-1 -5c-1 -5 5 -16 16 -16h11c7 0 13 4 15 10zM633 362l-150 -369c-2 -6 -8 -10 -15 -10s-13 4 -15 10l-123 304l-123 -304c-2 -6 -8 -10 -15 -10s-13 4 -15 10l-150 369c-5 13 3 22 14 22h18
c11 0 14 -7 16 -12l117 -288l123 303c2 6 8 11 15 11s13 -5 15 -11l123 -303l118 288c2 5 4 12 15 12h18c11 0 19 -9 14 -22z" />
    <glyph glyph-name="wcircumflex" unicode="&#x175;" horiz-adv-x="660" 
d="M399 494l1 -5c1 -5 -5 -16 -16 -16h-11c-7 0 -13 4 -15 10l-28 105l-28 -105c-2 -6 -8 -10 -15 -10h-11c-11 0 -17 11 -16 16l1 5l37 162c2 6 8 9 14 9h36c6 0 12 -3 14 -9zM633 362l-150 -369c-2 -6 -8 -10 -15 -10s-13 4 -15 10l-123 304l-123 -304
c-2 -6 -8 -10 -15 -10s-13 4 -15 10l-150 369c-5 13 3 22 14 22h18c11 0 14 -7 16 -12l117 -288l123 303c2 6 8 11 15 11s13 -5 15 -11l123 -303l118 288c2 5 4 12 15 12h18c11 0 19 -9 14 -22z" />
    <glyph glyph-name="wdieresis" unicode="&#x1e85;" horiz-adv-x="660" 
d="M260 564h16c9 0 16 -7 16 -16v-59c0 -9 -7 -16 -16 -16h-16c-9 0 -16 7 -16 16v59c0 9 7 16 16 16zM385 564h16c9 0 16 -7 16 -16v-59c0 -9 -7 -16 -16 -16h-16c-9 0 -16 7 -16 16v59c0 9 7 16 16 16zM633 362l-150 -369c-2 -6 -8 -10 -15 -10s-13 4 -15 10l-123 304
l-123 -304c-2 -6 -8 -10 -15 -10s-13 4 -15 10l-150 369c-5 13 3 22 14 22h18c11 0 14 -7 16 -12l117 -288l123 303c2 6 8 11 15 11s13 -5 15 -11l123 -303l118 288c2 5 4 12 15 12h18c11 0 19 -9 14 -22z" />
    <glyph glyph-name="wgrave" unicode="&#x1e81;" horiz-adv-x="660" 
d="M215 650l60 -167c2 -6 8 -10 15 -10h11c11 0 17 11 16 16l-1 5l-37 162c-2 6 -8 9 -14 9h-34c-9 0 -18 -8 -16 -15zM633 362l-150 -369c-2 -6 -8 -10 -15 -10s-13 4 -15 10l-123 304l-123 -304c-2 -6 -8 -10 -15 -10s-13 4 -15 10l-150 369c-5 13 3 22 14 22h18
c11 0 14 -7 16 -12l117 -288l123 303c2 6 8 11 15 11s13 -5 15 -11l123 -303l118 288c2 5 4 12 15 12h18c11 0 19 -9 14 -22z" />
    <glyph glyph-name="x" unicode="x" horiz-adv-x="339" 
d="M198 197l115 162c5 8 3 17 -4 22c-3 2 -6 3 -9 3h-20c-8 0 -11 -4 -13 -7l-98 -138l-97 138c-2 3 -5 7 -13 7h-20c-3 0 -6 -1 -9 -3c-7 -5 -9 -14 -4 -22l114 -162l-121 -172c-5 -8 -3 -17 4 -22c3 -2 6 -3 9 -3h20c8 0 11 4 13 7l104 148l104 -148c2 -3 5 -7 13 -7h20
c3 0 6 1 9 3c7 5 9 14 4 22z" />
    <glyph glyph-name="y" unicode="y" horiz-adv-x="372" 
d="M135 -170l217 532c7 18 -4 22 -14 22h-18c-9 0 -11 -3 -15 -12l-118 -288l-117 288c-4 9 -6 12 -15 12h-18c-10 0 -21 -4 -14 -22l139 -342l-74 -179c-5 -10 3 -21 15 -21h18c6 0 12 5 14 10z" />
    <glyph glyph-name="y.ss01" horiz-adv-x="372" 
d="M187 84l-117 288c-4 9 -6 12 -15 12h-18c-10 0 -21 -4 -14 -22l141 -344v-181c0 -9 7 -16 15 -16h17c8 0 15 7 15 16v180l141 345c7 18 -4 22 -14 22h-18c-9 0 -11 -3 -15 -12z" />
    <glyph glyph-name="yacute" unicode="&#xfd;" horiz-adv-x="372" 
d="M212 483l60 167c2 7 -7 15 -16 15h-34c-6 0 -12 -3 -14 -9l-37 -162l-1 -5c-1 -5 5 -16 16 -16h11c7 0 13 4 15 10zM135 -170l217 532c7 18 -4 22 -14 22h-18c-9 0 -11 -3 -15 -12l-118 -288l-117 288c-4 9 -6 12 -15 12h-18c-10 0 -21 -4 -14 -22l139 -342l-74 -179
c-5 -10 3 -21 15 -21h18c6 0 12 5 14 10z" />
    <glyph glyph-name="yacute.ss01" horiz-adv-x="372" 
d="M212 483l60 167c2 7 -7 15 -16 15h-34c-6 0 -12 -3 -14 -9l-37 -162l-1 -5c-1 -5 5 -16 16 -16h11c7 0 13 4 15 10zM187 84l-117 288c-4 9 -6 12 -15 12h-18c-10 0 -21 -4 -14 -22l141 -344v-181c0 -9 7 -16 15 -16h17c8 0 15 7 15 16v180l141 345c7 18 -4 22 -14 22h-18
c-9 0 -11 -3 -15 -12z" />
    <glyph glyph-name="ycircumflex" unicode="&#x177;" horiz-adv-x="372" 
d="M256 494l1 -5c1 -5 -5 -16 -16 -16h-11c-7 0 -13 4 -15 10l-28 105l-28 -105c-2 -6 -8 -10 -15 -10h-11c-11 0 -17 11 -16 16l1 5l37 162c2 6 8 9 14 9h36c6 0 12 -3 14 -9zM135 -170l217 532c7 18 -4 22 -14 22h-18c-9 0 -11 -3 -15 -12l-118 -288l-117 288
c-4 9 -6 12 -15 12h-18c-10 0 -21 -4 -14 -22l139 -342l-74 -179c-5 -10 3 -21 15 -21h18c6 0 12 5 14 10z" />
    <glyph glyph-name="ycircumflex.ss01" horiz-adv-x="372" 
d="M256 494l1 -5c1 -5 -5 -16 -16 -16h-11c-7 0 -13 4 -15 10l-28 105l-28 -105c-2 -6 -8 -10 -15 -10h-11c-11 0 -17 11 -16 16l1 5l37 162c2 6 8 9 14 9h36c6 0 12 -3 14 -9zM187 84l-117 288c-4 9 -6 12 -15 12h-18c-10 0 -21 -4 -14 -22l141 -344v-181
c0 -9 7 -16 15 -16h17c8 0 15 7 15 16v180l141 345c7 18 -4 22 -14 22h-18c-9 0 -11 -3 -15 -12z" />
    <glyph glyph-name="ydieresis" unicode="&#xff;" horiz-adv-x="372" 
d="M117 564h16c9 0 16 -7 16 -16v-59c0 -9 -7 -16 -16 -16h-16c-9 0 -16 7 -16 16v59c0 9 7 16 16 16zM242 564h16c9 0 16 -7 16 -16v-59c0 -9 -7 -16 -16 -16h-16c-9 0 -16 7 -16 16v59c0 9 7 16 16 16zM135 -170l217 532c7 18 -4 22 -14 22h-18c-9 0 -11 -3 -15 -12
l-118 -288l-117 288c-4 9 -6 12 -15 12h-18c-10 0 -21 -4 -14 -22l139 -342l-74 -179c-5 -10 3 -21 15 -21h18c6 0 12 5 14 10z" />
    <glyph glyph-name="ydieresis.ss01" horiz-adv-x="372" 
d="M117 564h16c9 0 16 -7 16 -16v-59c0 -9 -7 -16 -16 -16h-16c-9 0 -16 7 -16 16v59c0 9 7 16 16 16zM242 564h16c9 0 16 -7 16 -16v-59c0 -9 -7 -16 -16 -16h-16c-9 0 -16 7 -16 16v59c0 9 7 16 16 16zM187 84l-117 288c-4 9 -6 12 -15 12h-18c-10 0 -21 -4 -14 -22
l141 -344v-181c0 -9 7 -16 15 -16h17c8 0 15 7 15 16v180l141 345c7 18 -4 22 -14 22h-18c-9 0 -11 -3 -15 -12z" />
    <glyph glyph-name="ygrave" unicode="&#x1ef3;" horiz-adv-x="372" 
d="M109 650l60 -167c2 -6 8 -10 15 -10h11c11 0 17 11 16 16l-1 5l-37 162c-2 6 -8 9 -14 9h-34c-9 0 -18 -8 -16 -15zM135 -170l217 532c7 18 -4 22 -14 22h-18c-9 0 -11 -3 -15 -12l-118 -288l-117 288c-4 9 -6 12 -15 12h-18c-10 0 -21 -4 -14 -22l139 -342l-74 -179
c-5 -10 3 -21 15 -21h18c6 0 12 5 14 10z" />
    <glyph glyph-name="ygrave.ss01" horiz-adv-x="372" 
d="M109 650l60 -167c2 -6 8 -10 15 -10h11c11 0 17 11 16 16l-1 5l-37 162c-2 6 -8 9 -14 9h-34c-9 0 -18 -8 -16 -15zM187 84l-117 288c-4 9 -6 12 -15 12h-18c-10 0 -21 -4 -14 -22l141 -344v-181c0 -9 7 -16 15 -16h17c8 0 15 7 15 16v180l141 345c7 18 -4 22 -14 22h-18
c-9 0 -11 -3 -15 -12z" />
    <glyph glyph-name="z" unicode="z" horiz-adv-x="380" 
d="M258 337h-190c-9 0 -16 7 -16 15v17c0 8 7 15 16 15h251c15 0 22 -12 12 -26l-217 -310h210c9 0 16 -7 16 -16v-16c0 -9 -7 -16 -16 -16h-272c-15 0 -22 12 -12 26z" />
    <glyph glyph-name="zacute" unicode="&#x17a;" horiz-adv-x="380" 
d="M215 483l60 167c2 7 -7 15 -16 15h-34c-6 0 -12 -3 -14 -9l-37 -162l-1 -5c-1 -5 5 -16 16 -16h11c7 0 13 4 15 10zM258 337h-190c-9 0 -16 7 -16 15v17c0 8 7 15 16 15h251c15 0 22 -12 12 -26l-217 -310h210c9 0 16 -7 16 -16v-16c0 -9 -7 -16 -16 -16h-272
c-15 0 -22 12 -12 26z" />
    <glyph glyph-name="zcaron" unicode="&#x17e;" horiz-adv-x="380" 
d="M261 644l-37 -162c-2 -6 -8 -9 -14 -9h-36c-6 0 -12 3 -14 9l-37 162l-1 5c-1 5 5 16 16 16h11c7 0 13 -4 15 -10l28 -105l28 105c2 6 8 10 15 10h11c11 0 17 -11 16 -16zM258 337h-190c-9 0 -16 7 -16 15v17c0 8 7 15 16 15h251c15 0 22 -12 12 -26l-217 -310h210
c9 0 16 -7 16 -16v-16c0 -9 -7 -16 -16 -16h-272c-15 0 -22 12 -12 26z" />
    <glyph glyph-name="zdotaccent" unicode="&#x17c;" horiz-adv-x="380" 
d="M188 564h16c9 0 16 -7 16 -16v-59c0 -9 -7 -16 -16 -16h-16c-9 0 -16 7 -16 16v59c0 9 7 16 16 16zM258 337h-190c-9 0 -16 7 -16 15v17c0 8 7 15 16 15h251c15 0 22 -12 12 -26l-217 -310h210c9 0 16 -7 16 -16v-16c0 -9 -7 -16 -16 -16h-272c-15 0 -22 12 -12 26z" />
    <glyph glyph-name="uni00430041" horiz-adv-x="957" 
d="M731 670l207 -650c2 -10 -3 -20 -15 -20h-18c-6 0 -12 5 -14 11l-47 151h-257l-35 -109c-6 -19 -23 -32 -38 -38c-40 -16 -81 -24 -126 -24c-188 0 -341 153 -341 342c0 188 153 341 341 341c72 0 138 -23 193 -60l3 -2c10 -8 6 -17 3 -21l-11 -14c-8 -10 -18 -4 -21 -2
c-47 32 -99 52 -167 52c-136 0 -294 -110 -294 -294c0 -187 160 -295 294 -295c44 0 85 10 119 25l193 607c2 7 8 12 15 12c8 0 14 -5 16 -12zM715 567l-113 -357h227z" />
    <glyph glyph-name="uni004C0049.sc" horiz-adv-x="385" 
d="M142 46h132c10 0 16 -6 16 -16v-14c0 -10 -6 -16 -16 -16h-163c-10 0 -16 6 -16 16v352c0 10 6 16 16 16h15c10 0 16 -6 16 -16v-322zM258 384h17c8 0 15 -7 15 -15v-247c0 -9 -7 -16 -15 -16h-17c-8 0 -15 7 -15 16v247c0 8 7 15 15 15z" />
    <glyph glyph-name="uni004C0049" horiz-adv-x="505" 
d="M143 48h251c9 0 16 -7 16 -16v-16c0 -9 -7 -16 -16 -16h-283c-9 0 -16 7 -16 16v634c0 8 7 15 16 15h16c9 0 16 -7 16 -15v-602zM378 665h17c8 0 15 -7 15 -15v-495c0 -9 -7 -16 -15 -16h-17c-8 0 -15 7 -15 16v495c0 8 7 15 15 15z" />
    <glyph glyph-name="uni004F0047.ss01" horiz-adv-x="1118" 
d="M762 276v10c0 4 2 9 6 12c3 2 7 3 11 3h288c8 0 17 -4 17 -14c0 -16 -6 -37 -8 -43c-32 -95 -131 -255 -321 -261c-69 -3 -143 13 -201 52c-49 -28 -106 -44 -166 -44c-189 0 -341 153 -341 342c0 188 152 341 341 341c60 0 117 -16 166 -44c71 45 146 56 214 51
c96 -8 175 -60 206 -91c5 -4 6 -8 6 -12c0 -3 -1 -6 -3 -9l-11 -14c-4 -5 -9 -5 -12 -5c-4 0 -7 1 -10 3s-4 3 -6 5c-27 27 -75 56 -138 70c-83 15 -155 -2 -201 -27c79 -63 130 -160 130 -268c0 -109 -51 -206 -131 -269c49 -26 110 -37 164 -33c120 13 230 107 267 223
h-250c-6 0 -11 2 -14 6c-3 5 -3 10 -3 16zM388 38c50 0 104 15 123 28c-58 48 -123 139 -123 267c0 76 33 201 124 266c-19 12 -73 28 -124 28c-137 0 -294 -111 -294 -294c0 -187 161 -295 294 -295zM556 574c-61 -46 -121 -134 -121 -241c0 -126 73 -202 121 -242
c65 47 126 130 126 242s-61 194 -126 241z" />
    <glyph glyph-name="uni004F0043" horiz-adv-x="981" 
d="M928 591l-11 -14c-4 -5 -9 -5 -12 -5c-5 0 -9 3 -9 3c-47 32 -98 52 -166 52c-57 0 -101 -16 -127 -29c77 -63 127 -158 127 -265c0 -108 -50 -203 -127 -266c31 -15 76 -29 127 -29c63 0 125 23 165 51c5 3 8 4 11 4c4 0 9 -2 12 -6l10 -13c2 -3 3 -6 3 -9s-1 -8 -8 -13
c-55 -38 -121 -61 -193 -61c-63 0 -121 17 -171 46c-50 -29 -108 -46 -171 -46c-188 0 -341 153 -341 342c0 188 153 341 341 341c63 0 121 -17 171 -46c50 29 108 46 171 46c71 0 138 -23 192 -60l4 -3c3 -2 5 -7 5 -11c0 -3 -1 -6 -3 -9zM515 67c-77 63 -127 158 -127 266
c0 107 50 202 127 265c-31 15 -76 29 -127 29c-136 0 -294 -113 -294 -294c0 -189 163 -295 294 -295c53 0 100 15 127 29zM559 572c-63 -43 -124 -132 -124 -239c0 -109 63 -198 124 -240c64 45 124 133 124 240c0 91 -48 187 -124 239z" />
    <glyph glyph-name="uni004F0047" horiz-adv-x="1021" 
d="M928 591l-11 -14c-4 -5 -9 -5 -12 -5c-4 0 -7 1 -10 3c-47 32 -98 52 -166 52c-57 0 -101 -16 -127 -29c77 -63 127 -158 127 -265c0 -11 -1 -21 -2 -32h203c7 0 13 -4 15 -11c0 -2 1 -3 1 -5v-206c0 -1 0 -3 -1 -4c0 -3 -1 -6 -3 -8c-1 -1 -8 -6 -15 -12
c-8 -5 -16 -11 -16 -11c-53 -33 -115 -53 -182 -53c-62 0 -120 17 -171 46c-50 -29 -108 -46 -170 -46c-189 0 -341 153 -341 342c0 188 152 341 341 341c62 0 120 -17 170 -46c51 29 109 46 171 46c71 0 138 -23 193 -60l3 -2c5 -4 6 -8 6 -12c0 -3 -1 -6 -3 -9zM515 67
c-78 63 -127 158 -127 266c0 107 49 202 127 265c-31 15 -76 29 -127 29c-193 0 -294 -165 -294 -294c0 -187 161 -295 294 -295c53 0 100 15 127 29zM558 572c-80 -55 -123 -150 -123 -239c0 -113 63 -199 123 -240c65 42 124 133 124 240c0 91 -46 190 -124 239zM898 94
v160h-178c-18 -75 -60 -140 -118 -187c26 -13 74 -29 127 -29c62 0 112 20 152 43c0 0 1 0 1 1c7 3 16 11 16 12z" />
    <glyph glyph-name="uni004F004F" horiz-adv-x="1117" 
d="M729 674c189 0 341 -153 341 -341c0 -189 -152 -342 -341 -342c-62 0 -120 17 -170 46c-51 -29 -109 -46 -171 -46c-188 0 -341 153 -341 342c0 188 153 341 341 341c62 0 120 -17 171 -46c50 29 108 46 170 46zM515 67c-77 63 -127 158 -127 266c0 107 50 202 127 265
c-31 15 -76 29 -127 29c-186 0 -294 -162 -294 -294c0 -187 161 -295 294 -295c53 0 100 15 127 29zM1023 333c0 136 -111 294 -294 294c-53 0 -100 -15 -127 -29c78 -63 127 -158 127 -265c0 -108 -49 -203 -127 -266c26 -13 74 -29 127 -29c137 0 294 110 294 295z
M559 572c-65 -42 -124 -132 -124 -239c0 -113 64 -202 124 -240c64 45 123 133 123 240c0 95 -48 188 -123 239z" />
    <glyph glyph-name="uni00660068.ss01" horiz-adv-x="638" 
d="M299 650v-305c26 35 71 53 116 53c88 0 153 -69 153 -153v-229c0 -9 -7 -16 -16 -16h-16c-9 0 -16 7 -16 16v229c0 58 -49 105 -110 105c-60 0 -111 -45 -111 -105v-229c0 -9 -7 -16 -16 -16h-16c-8 0 -16 7 -16 16v601h-22c-23 0 -47 -14 -65 -32
c-22 -22 -33 -50 -33 -81v-120h78c9 0 16 -7 16 -16v-16c0 -9 -7 -16 -16 -16h-78v-320c0 -9 -7 -16 -16 -16h-16c-9 0 -16 7 -16 16v320h-42c-9 0 -16 7 -16 16c0 6 3 12 11 15l47 16v121c0 74 49 132 106 152c18 6 30 9 39 9h56c8 0 15 -7 15 -15z" />
    <glyph glyph-name="uni0066006B.ss01" horiz-adv-x="556" 
d="M360 182l179 -156c9 -8 4 -26 -11 -26h-23c-4 0 -10 2 -14 5l-192 167v-156c0 -9 -7 -16 -16 -16h-16c-9 0 -16 7 -16 16v601h-22c-23 0 -47 -14 -65 -32c-22 -22 -33 -50 -33 -81v-120h78c9 0 16 -7 16 -16v-16c0 -9 -7 -16 -16 -16h-78v-320c0 -9 -7 -16 -16 -16h-16
c-9 0 -16 7 -16 16v320h-42c-9 0 -16 7 -16 16c0 6 3 12 11 15l47 16v121c0 74 49 132 106 152c18 6 30 9 39 9h56c8 0 15 -7 15 -15v-462l188 192c3 3 8 4 12 4h22c14 0 21 -15 10 -26z" />
    <glyph glyph-name="uni00660066.ss01" horiz-adv-x="407" 
d="M399 617h-2c-23 0 -47 -14 -65 -32c-22 -22 -33 -50 -33 -81v-120h93c9 0 16 -7 16 -16v-16c0 -9 -7 -16 -16 -16h-93v-320c0 -9 -7 -16 -16 -16h-16c-9 0 -16 7 -16 16v320h-120v-320c0 -9 -7 -16 -16 -16h-16c-9 0 -16 7 -16 16v320h-42c-9 0 -16 7 -16 16
c0 6 3 12 11 15l47 16v121c0 74 49 132 106 152c18 6 30 9 39 9s16 -7 16 -16v-16c0 -8 -6 -16 -13 -16h-2c-23 0 -47 -14 -65 -32c-22 -22 -33 -50 -33 -81v-120h120v120c0 74 49 132 106 152c18 6 30 9 39 9s16 -7 16 -16v-16c0 -8 -6 -16 -13 -16z" />
    <glyph glyph-name="uni006600660066.ss01" horiz-adv-x="575" 
d="M567 617h-2c-23 0 -47 -14 -65 -32c-22 -22 -33 -50 -33 -81v-120h93c9 0 16 -7 16 -16v-16c0 -9 -7 -16 -16 -16h-93v-320c0 -9 -7 -16 -16 -16h-16c-9 0 -16 7 -16 16v320h-120v-320c0 -9 -7 -16 -16 -16h-16c-9 0 -16 7 -16 16v320h-120v-320c0 -9 -7 -16 -16 -16h-16
c-9 0 -16 7 -16 16v320h-42c-9 0 -16 7 -16 16c0 6 3 12 11 15l47 16v121c0 74 49 132 106 152c18 6 30 9 39 9s16 -7 16 -16v-16c0 -8 -6 -16 -13 -16h-2c-23 0 -47 -14 -65 -32c-22 -22 -33 -50 -33 -81v-120h120v120c0 74 49 132 106 152c18 6 30 9 39 9s16 -7 16 -16
v-16c0 -8 -6 -16 -13 -16h-2c-23 0 -47 -14 -65 -32c-22 -22 -33 -50 -33 -81v-120h120v120c0 74 49 132 106 152c18 6 30 9 39 9s16 -7 16 -16v-16c0 -8 -6 -16 -13 -16z" />
    <glyph glyph-name="uni006600660069.ss01" horiz-adv-x="517" 
d="M299 384h152c9 0 16 -7 16 -16v-352c0 -9 -7 -16 -16 -16h-16c-9 0 -16 7 -16 16v320h-120v-320c0 -9 -7 -16 -16 -16h-16c-9 0 -16 7 -16 16v320h-120v-320c0 -9 -7 -16 -16 -16h-16c-9 0 -16 7 -16 16v320h-42c-9 0 -16 7 -16 16c0 6 3 12 11 15l47 16v121
c0 74 49 132 106 152c18 6 30 9 39 9s16 -7 16 -16v-16c0 -8 -6 -16 -13 -16h-2c-23 0 -47 -14 -65 -32c-22 -22 -33 -50 -33 -81v-120h120v120c0 74 49 132 106 152c18 6 30 9 39 9s16 -7 16 -16v-16c0 -8 -6 -16 -13 -16h-2c-23 0 -47 -14 -65 -32
c-22 -22 -33 -50 -33 -81v-120zM435 564h16c9 0 16 -7 16 -16v-59c0 -9 -7 -16 -16 -16h-16c-9 0 -16 7 -16 16v59c0 9 7 16 16 16z" />
    <glyph glyph-name="uni00660066006C.ss01" horiz-adv-x="535" 
d="M395 665h55c8 0 15 -7 15 -15v-634c0 -9 -7 -16 -15 -16h-17c-8 0 -15 7 -15 16v601h-22c-23 0 -47 -14 -65 -32c-22 -22 -33 -50 -33 -81v-120h78c9 0 16 -7 16 -16v-16c0 -9 -7 -16 -16 -16h-78v-320c0 -9 -7 -16 -16 -16h-16c-9 0 -16 7 -16 16v320h-119v-320
c0 -9 -7 -16 -16 -16h-16c-9 0 -16 7 -16 16v320h-42c-9 0 -16 7 -16 16c0 6 3 12 11 15l47 16v121c0 74 49 132 106 152c18 6 30 9 39 9s16 -7 16 -16v-16c0 -8 -6 -16 -13 -16h-2c-23 0 -47 -14 -65 -32c-22 -22 -33 -50 -33 -81v-120h119v120c0 74 49 132 106 152
c18 6 30 9 39 9z" />
    <glyph glyph-name="uni006600660074.ss01" horiz-adv-x="602" 
d="M467 336v-188c0 -31 12 -59 33 -81c18 -18 38 -29 63 -32c10 -1 14 -8 14 -16v-16c0 -11 -5 -16 -19 -16c-76 6 -139 78 -139 161v188h-120v-500c0 -9 -7 -16 -16 -16h-16c-9 0 -16 7 -16 16v500h-120v-500c0 -9 -7 -16 -16 -16h-16c-9 0 -16 7 -16 16v500h-42
c-9 0 -16 7 -16 16c0 6 3 12 11 15l47 16v121c0 74 49 132 106 152c18 6 30 9 39 9s16 -7 16 -16v-16c0 -8 -6 -16 -13 -16h-2c-23 0 -47 -14 -65 -32c-22 -22 -33 -50 -33 -81v-120h120v120c0 74 49 132 106 152c18 6 30 9 39 9s16 -7 16 -16v-16c0 -8 -6 -16 -13 -16h-2
c-23 0 -47 -14 -65 -32c-22 -22 -33 -50 -33 -81v-120h120v164c0 9 7 16 15 16h18c8 0 15 -7 15 -16v-164h94c9 0 16 -7 16 -16v-16c0 -8 -7 -16 -16 -16h-94z" />
    <glyph glyph-name="uni00660069.ss01" horiz-adv-x="349" 
d="M131 384h152c9 0 16 -7 16 -16v-352c0 -9 -7 -16 -16 -16h-16c-9 0 -16 7 -16 16v320h-120v-320c0 -9 -7 -16 -16 -16h-16c-9 0 -16 7 -16 16v320h-42c-9 0 -16 7 -16 16c0 6 3 12 11 15l47 16v121c0 74 49 132 106 152c18 6 30 9 39 9s16 -7 16 -16v-16
c0 -8 -6 -16 -13 -16h-2c-23 0 -47 -14 -65 -32c-22 -22 -33 -50 -33 -81v-120zM267 564h16c9 0 16 -7 16 -16v-59c0 -9 -7 -16 -16 -16h-16c-9 0 -16 7 -16 16v59c0 9 7 16 16 16z" />
    <glyph glyph-name="uni0066006C.ss01" horiz-adv-x="368" 
d="M228 665h55c8 0 15 -7 15 -15v-634c0 -9 -7 -16 -15 -16h-17c-8 0 -15 7 -15 16v601h-22c-23 0 -47 -14 -65 -32c-22 -22 -33 -50 -33 -81v-120h78c9 0 16 -7 16 -16v-16c0 -9 -7 -16 -16 -16h-78v-320c0 -9 -7 -16 -16 -16h-16c-9 0 -16 7 -16 16v320h-42
c-9 0 -16 7 -16 16c0 6 3 12 11 15l47 16v121c0 74 49 132 106 152c18 6 30 9 39 9z" />
    <glyph glyph-name="uni00660074.ss01" horiz-adv-x="434" 
d="M299 336v-188c0 -31 12 -59 33 -81c18 -18 38 -29 63 -32c10 -1 14 -8 14 -16v-16c0 -11 -5 -16 -19 -16c-76 6 -139 78 -139 161v188h-120v-320c0 -9 -7 -16 -16 -16h-16c-9 0 -16 7 -16 16v320h-42c-9 0 -16 7 -16 16c0 6 3 12 11 15l47 16v121c0 74 49 132 106 152
c18 6 30 9 39 9s16 -7 16 -16v-16c0 -8 -6 -16 -13 -16h-2c-23 0 -47 -14 -65 -32c-22 -22 -33 -50 -33 -81v-120h120v164c0 9 7 16 15 16h18c8 0 15 -7 15 -16v-164h94c9 0 16 -7 16 -16v-16c0 -8 -7 -16 -16 -16h-94z" />
    <glyph glyph-name="uni00660062.ss01" horiz-adv-x="700" 
d="M299 650v-325c31 40 90 73 155 73c112 0 203 -91 203 -204c0 -112 -91 -203 -203 -203c-67 0 -127 36 -155 73l-17 -52c-2 -7 -9 -12 -15 -12c-9 0 -16 7 -16 16v601h-22c-23 0 -47 -14 -65 -32c-22 -22 -33 -50 -33 -81v-120h78c9 0 16 -7 16 -16v-16
c0 -9 -7 -16 -16 -16h-78v-320c0 -9 -7 -16 -16 -16h-16c-9 0 -16 7 -16 16v320h-42c-9 0 -16 7 -16 16c0 6 3 12 11 15l47 16v121c0 74 49 132 106 152c18 6 30 9 39 9h56c8 0 15 -7 15 -15zM454 39c88 0 156 73 156 155c0 88 -74 156 -156 156c-98 0 -155 -81 -155 -156
c0 -94 77 -155 155 -155z" />
    <glyph glyph-name="uni006600660074.ss02" horiz-adv-x="602" 
d="M467 336v-188c0 -31 12 -59 33 -81c18 -18 38 -29 63 -32c10 -1 14 -8 14 -16v-16c0 -11 -5 -16 -19 -16c-76 6 -139 78 -139 161v188h-120v-320c0 -9 -7 -16 -16 -16h-16c-9 0 -16 7 -16 16v320h-120v-320c0 -9 -7 -16 -16 -16h-16c-9 0 -16 7 -16 16v320h-42
c-9 0 -16 7 -16 16c0 6 3 12 11 15l47 16v121c0 74 49 132 106 152c18 6 30 9 39 9s16 -7 16 -16v-16c0 -8 -6 -16 -13 -16h-2c-23 0 -47 -14 -65 -32c-22 -22 -33 -50 -33 -81v-120h120v120c0 74 49 132 106 152c18 6 30 9 39 9s16 -7 16 -16v-16c0 -8 -6 -16 -13 -16h-2
c-23 0 -47 -14 -65 -32c-22 -22 -33 -50 -33 -81v-120h120v164c0 9 7 16 15 16h18c8 0 15 -7 15 -16v-164h94c9 0 16 -7 16 -16v-16c0 -8 -7 -16 -16 -16h-94z" />
    <glyph glyph-name="uni00660074.ss02" horiz-adv-x="434" 
d="M299 336v-188c0 -31 12 -59 33 -81c18 -18 38 -29 63 -32c10 -1 14 -8 14 -16v-16c0 -11 -5 -16 -19 -16c-76 6 -139 78 -139 161v188h-120v-500c0 -9 -7 -16 -16 -16h-16c-9 0 -16 7 -16 16v500h-42c-9 0 -16 7 -16 16c0 6 3 12 11 15l47 16v121c0 74 49 132 106 152
c18 6 30 9 39 9s16 -7 16 -16v-16c0 -8 -6 -16 -13 -16h-2c-23 0 -47 -14 -65 -32c-22 -22 -33 -50 -33 -81v-120h120v164c0 9 7 16 15 16h18c8 0 15 -7 15 -16v-164h94c9 0 16 -7 16 -16v-16c0 -8 -7 -16 -16 -16h-94z" />
    <glyph glyph-name="uni006600660074.ss03" horiz-adv-x="572" 
d="M467 384h94c9 0 16 -7 16 -16v-16c0 -8 -7 -16 -16 -16h-94v-320c0 -9 -7 -16 -15 -16h-18c-8 0 -15 7 -15 16v320h-120v-320c0 -9 -7 -16 -16 -16h-16c-9 0 -16 7 -16 16v320h-120v-320c0 -9 -7 -16 -16 -16h-16c-9 0 -16 7 -16 16v320h-42c-9 0 -16 7 -16 16
c0 6 3 12 11 15l47 16v121c0 74 49 132 106 152c18 6 30 9 39 9s16 -7 16 -16v-16c0 -8 -6 -16 -13 -16h-2c-23 0 -47 -14 -65 -32c-22 -22 -33 -50 -33 -81v-120h120v120c0 74 49 132 106 152c18 6 30 9 39 9s16 -7 16 -16v-16c0 -8 -6 -16 -13 -16h-2
c-23 0 -47 -14 -65 -32c-22 -22 -33 -50 -33 -81v-120h120v164c0 9 7 16 15 16h18c8 0 15 -7 15 -16v-164z" />
    <glyph glyph-name="uni00660074.ss03" horiz-adv-x="404" 
d="M299 384h94c9 0 16 -7 16 -16v-16c0 -8 -7 -16 -16 -16h-94v-320c0 -9 -7 -16 -15 -16h-18c-8 0 -15 7 -15 16v320h-120v-320c0 -9 -7 -16 -16 -16h-16c-9 0 -16 7 -16 16v320h-42c-9 0 -16 7 -16 16c0 6 3 12 11 15l47 16v121c0 74 49 132 106 152c18 6 30 9 39 9
s16 -7 16 -16v-16c0 -8 -6 -16 -13 -16h-2c-23 0 -47 -14 -65 -32c-22 -22 -33 -50 -33 -81v-120h120v164c0 9 7 16 15 16h18c8 0 15 -7 15 -16v-164z" />
    <glyph glyph-name="uni00660062" horiz-adv-x="700" 
d="M299 650v-325c31 40 90 73 155 73c112 0 203 -91 203 -204c0 -112 -91 -203 -203 -203c-67 0 -127 36 -155 73l-17 -52c-2 -7 -9 -12 -15 -12c-9 0 -16 7 -16 16v601h-22c-23 0 -47 -14 -65 -32c-22 -22 -33 -50 -33 -81v-120h78c9 0 16 -7 16 -16v-16
c0 -9 -7 -16 -16 -16h-78v-500c0 -9 -7 -16 -16 -16h-16c-9 0 -16 7 -16 16v500h-42c-9 0 -16 7 -16 16c0 6 3 12 11 15l47 16v121c0 74 49 132 106 152c18 6 30 9 39 9h56c8 0 15 -7 15 -15zM454 39c88 0 156 73 156 155c0 88 -74 156 -156 156c-98 0 -155 -81 -155 -156
c0 -94 77 -155 155 -155z" />
    <glyph glyph-name="uni006600660066" horiz-adv-x="575" 
d="M567 617h-2c-23 0 -47 -14 -65 -32c-22 -22 -33 -50 -33 -81v-120h93c9 0 16 -7 16 -16v-16c0 -9 -7 -16 -16 -16h-93v-500c0 -9 -7 -16 -16 -16h-16c-9 0 -16 7 -16 16v500h-120v-500c0 -9 -7 -16 -16 -16h-16c-9 0 -16 7 -16 16v500h-120v-500c0 -9 -7 -16 -16 -16h-16
c-9 0 -16 7 -16 16v500h-42c-9 0 -16 7 -16 16c0 6 3 12 11 15l47 16v121c0 74 49 132 106 152c18 6 30 9 39 9s16 -7 16 -16v-16c0 -8 -6 -16 -13 -16h-2c-23 0 -47 -14 -65 -32c-22 -22 -33 -50 -33 -81v-120h120v120c0 74 49 132 106 152c18 6 30 9 39 9s16 -7 16 -16
v-16c0 -8 -6 -16 -13 -16h-2c-23 0 -47 -14 -65 -32c-22 -22 -33 -50 -33 -81v-120h120v120c0 74 49 132 106 152c18 6 30 9 39 9s16 -7 16 -16v-16c0 -8 -6 -16 -13 -16z" />
    <glyph glyph-name="uni00660066006A" horiz-adv-x="517" 
d="M299 384h152c9 0 16 -7 16 -16v-386c0 -83 -66 -155 -142 -161c-14 0 -19 5 -19 16v16c0 8 4 15 14 16c25 3 48 14 66 32c21 22 33 50 33 81v354h-120v-320c0 -9 -7 -16 -16 -16h-16c-9 0 -16 7 -16 16v320h-120v-320c0 -9 -7 -16 -16 -16h-16c-9 0 -16 7 -16 16v320h-42
c-9 0 -16 7 -16 16c0 6 3 12 11 15l47 16v121c0 74 49 132 106 152c18 6 30 9 39 9s16 -7 16 -16v-16c0 -8 -6 -16 -13 -16h-2c-23 0 -47 -14 -65 -32c-22 -22 -33 -50 -33 -81v-120h120v120c0 74 49 132 106 152c18 6 30 9 39 9s16 -7 16 -16v-16c0 -8 -6 -16 -13 -16h-2
c-23 0 -47 -14 -65 -32c-22 -22 -33 -50 -33 -81v-120zM435 564h16c9 0 16 -7 16 -16v-59c0 -9 -7 -16 -16 -16h-16c-9 0 -16 7 -16 16v59c0 9 7 16 16 16z" />
    <glyph glyph-name="uni006600660074" horiz-adv-x="572" 
d="M467 384h94c9 0 16 -7 16 -16v-16c0 -8 -7 -16 -16 -16h-94v-320c0 -9 -7 -16 -15 -16h-18c-8 0 -15 7 -15 16v320h-120v-500c0 -9 -7 -16 -16 -16h-16c-9 0 -16 7 -16 16v500h-120v-500c0 -9 -7 -16 -16 -16h-16c-9 0 -16 7 -16 16v500h-42c-9 0 -16 7 -16 16
c0 6 3 12 11 15l47 16v121c0 74 49 132 106 152c18 6 30 9 39 9s16 -7 16 -16v-16c0 -8 -6 -16 -13 -16h-2c-23 0 -47 -14 -65 -32c-22 -22 -33 -50 -33 -81v-120h120v120c0 74 49 132 106 152c18 6 30 9 39 9s16 -7 16 -16v-16c0 -8 -6 -16 -13 -16h-2
c-23 0 -47 -14 -65 -32c-22 -22 -33 -50 -33 -81v-120h120v164c0 9 7 16 15 16h18c8 0 15 -7 15 -16v-164z" />
    <glyph glyph-name="uni00660068" horiz-adv-x="638" 
d="M299 650v-305c26 35 71 53 116 53c88 0 153 -69 153 -153v-229c0 -9 -7 -16 -16 -16h-16c-9 0 -16 7 -16 16v229c0 58 -49 105 -110 105c-60 0 -111 -45 -111 -105v-229c0 -9 -7 -16 -16 -16h-16c-8 0 -16 7 -16 16v601h-22c-23 0 -47 -14 -65 -32
c-22 -22 -33 -50 -33 -81v-120h78c9 0 16 -7 16 -16v-16c0 -9 -7 -16 -16 -16h-78v-500c0 -9 -7 -16 -16 -16h-16c-9 0 -16 7 -16 16v500h-42c-9 0 -16 7 -16 16c0 6 3 12 11 15l47 16v121c0 74 49 132 106 152c18 6 30 9 39 9h56c8 0 15 -7 15 -15z" />
    <glyph glyph-name="uni00660069" horiz-adv-x="349" 
d="M131 384h152c9 0 16 -7 16 -16v-352c0 -9 -7 -16 -16 -16h-16c-9 0 -16 7 -16 16v320h-120v-500c0 -9 -7 -16 -16 -16h-16c-9 0 -16 7 -16 16v500h-42c-9 0 -16 7 -16 16c0 6 3 12 11 15l47 16v121c0 74 49 132 106 152c18 6 30 9 39 9s16 -7 16 -16v-16
c0 -8 -6 -16 -13 -16h-2c-23 0 -47 -14 -65 -32c-22 -22 -33 -50 -33 -81v-120zM267 564h16c9 0 16 -7 16 -16v-59c0 -9 -7 -16 -16 -16h-16c-9 0 -16 7 -16 16v59c0 9 7 16 16 16z" />
    <glyph glyph-name="uni0066006A" horiz-adv-x="349" 
d="M131 384h152c9 0 16 -7 16 -16v-387c0 -83 -66 -155 -142 -161c-14 0 -19 5 -19 16v16c0 8 4 15 14 16c25 3 48 14 66 32c21 22 33 50 33 81v355h-120v-320c0 -9 -7 -16 -16 -16h-16c-9 0 -16 7 -16 16v320h-42c-9 0 -16 7 -16 16c0 6 3 12 11 15l47 16v121
c0 74 49 132 106 152c18 6 30 9 39 9s16 -7 16 -16v-16c0 -8 -6 -16 -13 -16h-2c-23 0 -47 -14 -65 -32c-22 -22 -33 -50 -33 -81v-120zM267 564h16c9 0 16 -7 16 -16v-59c0 -9 -7 -16 -16 -16h-16c-9 0 -16 7 -16 16v59c0 9 7 16 16 16z" />
    <glyph glyph-name="uni0066006B" horiz-adv-x="556" 
d="M360 182l179 -156c9 -8 4 -26 -11 -26h-23c-4 0 -10 2 -14 5l-192 167v-156c0 -9 -7 -16 -16 -16h-16c-9 0 -16 7 -16 16v601h-22c-23 0 -47 -14 -65 -32c-22 -22 -33 -50 -33 -81v-120h78c9 0 16 -7 16 -16v-16c0 -9 -7 -16 -16 -16h-78v-500c0 -9 -7 -16 -16 -16h-16
c-9 0 -16 7 -16 16v500h-42c-9 0 -16 7 -16 16c0 6 3 12 11 15l47 16v121c0 74 49 132 106 152c18 6 30 9 39 9h56c8 0 15 -7 15 -15v-462l188 192c3 3 8 4 12 4h22c14 0 21 -15 10 -26z" />
    <glyph glyph-name="uni0066006C" horiz-adv-x="368" 
d="M228 665h55c8 0 15 -7 15 -15v-634c0 -9 -7 -16 -15 -16h-17c-8 0 -15 7 -15 16v601h-22c-23 0 -47 -14 -65 -32c-22 -22 -33 -50 -33 -81v-120h78c9 0 16 -7 16 -16v-16c0 -9 -7 -16 -16 -16h-78v-500c0 -9 -7 -16 -16 -16h-16c-9 0 -16 7 -16 16v500h-42
c-9 0 -16 7 -16 16c0 6 3 12 11 15l47 16v121c0 74 49 132 106 152c18 6 30 9 39 9z" />
    <glyph glyph-name="uni00660074" horiz-adv-x="404" 
d="M299 384h94c9 0 16 -7 16 -16v-16c0 -8 -7 -16 -16 -16h-94v-320c0 -9 -7 -16 -15 -16h-18c-8 0 -15 7 -15 16v320h-120v-500c0 -9 -7 -16 -16 -16h-16c-9 0 -16 7 -16 16v500h-42c-9 0 -16 7 -16 16c0 6 3 12 11 15l47 16v121c0 74 49 132 106 152c18 6 30 9 39 9
s16 -7 16 -16v-16c0 -8 -6 -16 -13 -16h-2c-23 0 -47 -14 -65 -32c-22 -22 -33 -50 -33 -81v-120h120v164c0 9 7 16 15 16h18c8 0 15 -7 15 -16v-164z" />
    <glyph glyph-name="uni00740074" horiz-adv-x="404" 
d="M83 383v165c0 9 7 16 15 16h18c8 0 15 -7 15 -16v-164h120v164c0 9 7 16 15 16h18c8 0 15 -7 15 -16v-164h94c9 0 16 -7 16 -16v-16c0 -8 -7 -16 -16 -16h-94v-320c0 -9 -7 -16 -15 -16h-18c-8 0 -15 7 -15 16v320h-120v-320c0 -9 -7 -16 -16 -16h-16c-9 0 -16 7 -16 16
v320h-42c-9 0 -16 7 -16 16c0 6 3 12 11 15z" />
    <glyph glyph-name="A.sc" horiz-adv-x="310" 
d="M173 385l118 -365c3 -10 -3 -20 -15 -20h-18c-6 0 -12 5 -14 11l-24 79h-129l-24 -79c-2 -6 -8 -11 -14 -11h-18c-10 0 -19 10 -15 20l117 364c2 8 11 14 18 14c8 0 17 -6 18 -13zM205 136l-50 156l-50 -156h100z" />
    <glyph glyph-name="Aacute.sc" horiz-adv-x="310" 
d="M181 483l60 167c2 7 -7 15 -16 15h-34c-6 0 -12 -3 -14 -9l-37 -162l-1 -5c-1 -5 5 -16 16 -16h11c7 0 13 4 15 10zM173 385l118 -365c3 -10 -3 -20 -15 -20h-18c-6 0 -12 5 -14 11l-24 79h-129l-24 -79c-2 -6 -8 -11 -14 -11h-18c-10 0 -19 10 -15 20l117 364
c2 8 11 14 18 14c8 0 17 -6 18 -13zM205 136l-50 156l-50 -156h100z" />
    <glyph glyph-name="B.sc" horiz-adv-x="340" 
d="M168 389h-57c-9 0 -16 -7 -16 -15v-358c0 -9 7 -16 16 -16h46c88 0 134 54 134 116c0 40 -20 73 -48 93c23 19 36 48 36 79c0 59 -44 101 -111 101zM141 343h27c39 0 64 -20 64 -55c0 -34 -21 -53 -60 -55h-31v110zM141 187h31c45 -2 73 -36 73 -71
c0 -44 -33 -70 -88 -70h-16v141z" />
    <glyph glyph-name="C.sc" horiz-adv-x="419" 
d="M366 340l-11 -14c-8 -10 -18 -3 -21 -1c-25 18 -51 28 -88 28c-70 0 -153 -58 -153 -153c0 -97 84 -154 153 -154c35 0 66 12 87 27c9 6 16 6 22 -2l10 -13c5 -7 6 -14 -5 -22c-32 -22 -72 -36 -114 -36c-108 0 -199 91 -199 200c0 108 91 199 199 199
c42 0 82 -14 114 -36l3 -2c10 -8 6 -17 3 -21z" />
    <glyph glyph-name="D.sc" horiz-adv-x="404" 
d="M152 0h-48c-5 0 -9 4 -9 9v372c0 4 4 8 9 8h48c103 0 203 -82 203 -195c0 -115 -101 -194 -203 -194zM142 343v-297h10c103 0 156 88 156 148c0 87 -79 149 -156 149h-10z" />
    <glyph glyph-name="E.sc" horiz-adv-x="351" 
d="M142 233h131c5 0 9 -4 9 -9v-29c0 -4 -4 -9 -9 -9h-131v-140h131c5 0 9 -3 9 -8v-29c0 -5 -4 -9 -9 -9h-169c-5 0 -9 4 -9 9v372c0 4 4 8 9 8h169c5 0 9 -4 9 -8v-30c0 -4 -4 -8 -9 -8h-131v-110z" />
    <glyph glyph-name="F.sc" horiz-adv-x="327" 
d="M104 0h29c5 0 9 4 9 9v177h131c5 0 9 5 9 9v29c0 5 -4 9 -9 9h-131v110h131c5 0 9 4 9 8v30c0 4 -4 8 -9 8h-169c-5 0 -9 -4 -9 -8v-372c0 -5 4 -9 9 -9z" />
    <glyph glyph-name="G.sc" horiz-adv-x="519" 
d="M366 338l-9 -11c-7 -7 -14 -8 -22 -3c-27 18 -52 29 -89 29c-96 0 -153 -85 -153 -153c0 -97 84 -154 153 -154c82 0 129 59 144 102h-156c-10 0 -16 6 -16 16v14c0 10 6 16 16 16h195c11 0 16 -7 15 -18c-2 -12 -3 -17 -4 -20c-19 -89 -101 -156 -194 -156
c-109 0 -199 91 -199 200c0 108 90 199 199 199c42 0 82 -14 114 -35l4 -3c8 -6 9 -14 2 -23z" />
    <glyph glyph-name="H.sc" horiz-adv-x="450" 
d="M308 227v141c0 9 7 16 15 16h16c8 0 15 -7 15 -16v-352c0 -9 -7 -16 -15 -16h-16c-8 0 -15 7 -15 16v164h-167v-164c0 -9 -7 -16 -15 -16h-16c-8 0 -15 7 -15 16v352c0 9 7 16 15 16h16c8 0 15 -7 15 -16v-141h167z" />
    <glyph glyph-name="I.sc" horiz-adv-x="237" 
d="M110 384h17c8 0 15 -7 15 -15v-353c0 -9 -7 -16 -15 -16h-17c-8 0 -15 7 -15 16v353c0 8 7 15 15 15z" />
    <glyph glyph-name="J.sc" horiz-adv-x="272" 
d="M42 -14h-4c-9 0 -16 7 -16 15v17c0 8 7 15 15 15c28 0 54 10 72 26c17 14 27 34 27 55v224h-78c-9 0 -16 7 -16 15v16c0 8 7 15 16 15h109c10 0 16 -6 16 -16v-254c0 -27 -12 -55 -30 -76c-24 -29 -64 -52 -111 -52z" />
    <glyph glyph-name="K.sc" horiz-adv-x="361" 
d="M177 165l164 -145c11 -10 7 -20 -8 -20h-27c-8 0 -13 2 -20 7l-144 127v-118c0 -10 -6 -16 -16 -16h-15c-10 0 -16 6 -16 16v352c0 10 6 16 16 16h15c10 0 16 -6 16 -16v-170l136 176c5 7 11 10 19 10h22c13 0 17 -9 9 -20z" />
    <glyph glyph-name="L.sc" horiz-adv-x="307" 
d="M142 46h132c10 0 16 -6 16 -16v-14c0 -10 -6 -16 -16 -16h-163c-10 0 -16 6 -16 16v352c0 10 6 16 16 16h15c10 0 16 -6 16 -16v-322z" />
    <glyph glyph-name="M.sc" horiz-adv-x="549" 
d="M275 77l160 312c7 14 19 11 19 -5v-368c0 -10 -6 -16 -16 -16h-15c-10 0 -16 6 -16 16v218l-121 -234c-6 -12 -16 -12 -22 0l-122 234v-218c0 -10 -6 -16 -16 -16h-15c-10 0 -16 6 -16 16v368c0 16 12 19 19 5z" />
    <glyph glyph-name="N.sc" 
d="M338 384h14c10 0 16 -6 16 -16v-368c0 -15 -11 -19 -20 -6l-207 282v-260c0 -10 -6 -16 -16 -16h-14c-10 0 -16 6 -16 16v372c0 16 11 19 20 7l207 -289v262c0 10 6 16 16 16z" />
    <glyph glyph-name="O.sc" horiz-adv-x="492" 
d="M246 399c108 0 199 -91 199 -199c0 -109 -91 -200 -199 -200s-199 91 -199 200c0 108 91 199 199 199zM246 353c-95 0 -153 -85 -153 -153c0 -70 60 -154 153 -154c70 0 153 59 153 154c0 70 -58 153 -153 153z" />
    <glyph glyph-name="P.sc" horiz-adv-x="338" 
d="M111 384h28c108 0 157 -38 157 -119c0 -78 -58 -129 -160 -129h6v-120c0 -10 -6 -16 -16 -16h-15c-10 0 -16 6 -16 16v352c0 10 6 16 16 16zM142 339v-158c66 2 109 28 109 84c0 57 -34 73 -109 74z" />
    <glyph glyph-name="Q.sc" horiz-adv-x="520" 
d="M402 70l50 -50c10 -10 6 -20 -8 -20h-26c-9 0 -14 2 -20 8l-29 29c-33 -26 -78 -42 -122 -42c-109 0 -200 91 -200 200c0 108 91 199 200 199c108 0 199 -91 199 -199c0 -47 -17 -91 -44 -125zM247 41c71 0 153 60 153 154c0 69 -58 153 -153 153
c-70 0 -154 -60 -154 -153c0 -71 60 -154 154 -154z" />
    <glyph glyph-name="R.sc" horiz-adv-x="357" 
d="M196 146l118 -126c9 -11 5 -20 -9 -20h-24c-9 0 -14 3 -20 9l-120 130v-123c0 -10 -6 -16 -16 -16h-14c-10 0 -16 6 -16 16v352c0 10 6 16 16 16h45c77 0 139 -33 139 -117c0 -60 -35 -104 -99 -121zM141 339v-153c61 0 108 24 108 81c0 62 -46 72 -93 72h-15z" />
    <glyph glyph-name="S.sc" horiz-adv-x="326" 
d="M265 320l-14 -8c-10 -6 -16 -3 -21 5c-14 22 -30 36 -64 36c-50 0 -62 -37 -62 -61c0 -38 19 -51 68 -72c69 -28 109 -52 109 -116c0 -60 -54 -104 -114 -104c-49 0 -89 34 -103 48l-4 4c-8 8 -6 16 2 22l11 9c8 6 15 7 22 0l3 -3c11 -10 38 -34 69 -34c38 0 67 26 67 58
c0 29 -10 45 -80 73c-78 33 -97 71 -97 115c0 55 44 107 109 107c52 0 88 -31 102 -53c9 -14 6 -21 -3 -26z" />
    <glyph glyph-name="T.sc" horiz-adv-x="261" 
d="M33 384h195c10 0 16 -6 16 -16v-14c0 -10 -6 -16 -16 -16h-74v-322c0 -10 -6 -16 -16 -16h-15c-10 0 -16 6 -16 16v322h-74c-10 0 -16 6 -16 16v14c0 10 6 16 16 16z" />
    <glyph glyph-name="U.sc" horiz-adv-x="442" 
d="M323 384h15c10 0 16 -6 16 -16v-235c0 -69 -59 -133 -133 -133c-78 0 -134 66 -134 133v235c0 10 6 16 16 16h15c10 0 16 -6 16 -16v-235c0 -47 40 -87 87 -87c53 0 86 45 86 87v235c0 10 6 16 16 16z" />
    <glyph glyph-name="V.sc" horiz-adv-x="308" 
d="M144 -13l-124 379c-4 11 1 18 13 18h16c10 0 15 -4 18 -13l87 -273l88 273c3 9 8 13 18 13h16c12 0 17 -7 13 -18l-125 -379c-4 -14 -16 -14 -20 0z" />
    <glyph glyph-name="W.sc" horiz-adv-x="479" 
d="M141 118l88 268c5 14 15 14 20 0l89 -268l69 252c3 10 9 14 18 14h15c12 0 17 -7 14 -18l-105 -373c-5 -15 -16 -16 -21 -1l-88 281l-89 -281c-5 -15 -16 -14 -20 1l-106 373c-3 11 2 18 14 18h16c9 0 15 -4 18 -14z" />
    <glyph glyph-name="X.sc" horiz-adv-x="286" 
d="M239 384h19c13 0 17 -8 11 -19l-98 -170l101 -176c6 -11 2 -19 -11 -19h-20c-9 0 -15 3 -19 11l-79 137l-79 -137c-4 -8 -10 -11 -19 -11h-19c-13 0 -17 8 -11 19l101 176l-98 170c-6 11 -2 19 11 19h20c9 0 15 -3 19 -11l75 -132l77 132c4 8 10 11 19 11z" />
    <glyph glyph-name="Y.sc" horiz-adv-x="300" 
d="M248 384h18c13 0 17 -8 11 -19l-104 -180v-169c0 -10 -6 -16 -16 -16h-15c-10 0 -16 6 -16 16v169l-102 180c-6 11 -2 19 11 19h17c9 0 15 -3 19 -11l79 -135l79 135c4 8 10 11 19 11z" />
    <glyph glyph-name="Z.sc" horiz-adv-x="300" 
d="M102 46h143c10 0 16 -6 16 -16v-14c0 -10 -6 -16 -16 -16h-196c-12 0 -17 8 -12 19l155 319h-134c-10 0 -16 6 -16 16v14c0 10 6 16 16 16h187c12 0 17 -8 12 -19z" />
    <glyph glyph-name="Delta" unicode="&#x394;" horiz-adv-x="706" 
d="M373 664l305 -639c8 -15 0 -25 -13 -25h-623c-13 0 -21 10 -13 25l305 640c3 6 9 17 20 17s15 -10 19 -18zM354 593l-262 -545h523z" />
    <glyph glyph-name="mu" unicode="&#x3bc;" horiz-adv-x="487" 
d="M371 384h16c9 0 16 -7 16 -16v-352c0 -9 -7 -16 -16 -16c-8 0 -13 6 -15 12l-13 36c-24 -28 -64 -57 -118 -57c-45 0 -86 14 -115 40v-195c0 -9 -7 -16 -15 -16h-17c-8 0 -15 7 -15 16v532c0 9 7 16 15 16h17c8 0 15 -7 15 -16v-224c0 -67 47 -105 115 -105
c76 0 114 69 114 131v198c0 9 7 16 16 16z" />
    <glyph glyph-name="pi" unicode="&#x3c0;" horiz-adv-x="499" 
d="M32 384h438c9 0 16 -7 16 -15v-17c0 -8 -7 -15 -16 -15h-55v-321c0 -9 -7 -16 -16 -16h-16c-9 0 -16 7 -16 16v321h-229v-321c0 -9 -7 -16 -15 -16h-17c-8 0 -15 7 -15 16v321h-59c-9 0 -16 7 -16 15v17c0 8 7 15 16 15z" />
    <glyph glyph-name="omega" unicode="&#x3c9;" horiz-adv-x="789" 
d="M566 47h107c9 0 16 -7 16 -15v-17c0 -8 -7 -15 -16 -15h-240c-8 0 -15 7 -15 15v17c0 8 7 15 15 15c125 19 256 120 256 286c0 136 -110 294 -294 294c-186 0 -294 -162 -294 -294c0 -125 97 -265 255 -286c9 0 16 -7 16 -15v-17c0 -8 -7 -15 -16 -15h-240
c-8 0 -15 7 -15 15v17c0 8 7 15 15 15h108c-102 55 -170 160 -170 286c0 188 153 341 341 341s341 -153 341 -341c0 -127 -68 -231 -170 -286z" />
    <glyph glyph-name="zero" unicode="0" horiz-adv-x="516" 
d="M70 180v273c0 104 84 189 188 189s189 -85 189 -189v-273c0 -104 -85 -189 -189 -189s-188 85 -188 189zM400 180v273c0 78 -64 142 -142 142s-141 -64 -141 -142v-273c0 -78 63 -142 141 -142s142 64 142 142z" />
    <glyph glyph-name="one" unicode="1" horiz-adv-x="316" 
d="M40 503l152 126c11 9 24 1 24 -12v-601c0 -8 -7 -15 -16 -15h-16c-9 0 -16 7 -16 15v531l-98 -81c-7 -5 -17 -4 -22 3l-11 12c-5 7 -4 17 3 22z" />
    <glyph glyph-name="two" unicode="2" horiz-adv-x="478" 
d="M130 48h278c9 0 16 -7 16 -16v-16c0 -9 -7 -16 -16 -16h-349c-14 0 -19 16 -10 26l19 22s214 252 275 329c4 5 7 10 10 14c23 36 24 69 20 92c-7 36 -29 68 -61 87c-62 38 -143 29 -181 -20c-30 -37 -39 -82 -39 -107c0 -8 -7 -14 -16 -14h-16c-8 0 -15 7 -15 16
c0 29 11 87 49 134c53 68 160 82 243 31c43 -26 73 -70 82 -119c7 -39 1 -87 -32 -133l-7 -10c-59 -79 -250 -300 -250 -300z" />
    <glyph glyph-name="three" unicode="3" horiz-adv-x="503" 
d="M101 488v2c0 99 87 152 153 152c99 0 152 -85 152 -152c0 -63 -37 -108 -66 -126c65 -32 110 -99 110 -176c0 -109 -88 -197 -196 -197s-196 87 -197 196c0 9 7 16 16 16h15c9 0 16 -7 16 -15c0 -83 67 -150 150 -150c82 0 149 67 149 150s-66 149 -149 149h-25
c-8 0 -15 7 -15 16v16c0 8 7 15 15 15h25c60 0 105 51 105 106c0 58 -47 105 -105 105c-59 0 -106 -47 -106 -105v-2c0 -8 -7 -15 -16 -15h-15c-9 0 -16 7 -16 15z" />
    <glyph glyph-name="four" unicode="4" horiz-adv-x="424" 
d="M329 179h46c9 0 16 -7 16 -16v-16c0 -9 -7 -16 -16 -16h-46v-115c0 -9 -7 -16 -16 -16h-16c-9 0 -16 7 -16 16v115h-241c-13 0 -19 14 -13 24l14 24l258 455c10 16 30 8 30 -9v-446zM281 179v326l-186 -326h186z" />
    <glyph glyph-name="five" unicode="5" horiz-adv-x="476" 
d="M221 586l-71 -220c24 10 50 16 78 16c107 0 194 -87 194 -194s-87 -194 -194 -194c-71 0 -130 38 -163 96c-13 21 -18 46 -22 71c-2 11 4 20 15 20h16c11 0 16 -5 16 -12c0 -37 40 -128 138 -128c85 0 147 68 147 147c0 85 -68 147 -147 147c-38 0 -74 -14 -101 -41
c-18 -18 -25 -32 -33 -47c-3 -4 -8 -7 -13 -7c-15 0 -18 15 -15 22l117 360c3 9 9 11 17 11h207c9 0 16 -7 16 -16v-16c0 -8 -7 -15 -16 -15h-186z" />
    <glyph glyph-name="six" unicode="6" horiz-adv-x="458" 
d="M303 609l-135 -252c20 7 42 12 66 12c104 0 188 -85 188 -189s-84 -189 -188 -189s-188 84 -189 187v2c0 31 8 62 23 91l190 354c3 5 8 8 14 8h18c8 0 15 -7 15 -16c0 -1 0 -4 -2 -8zM375 180c0 78 -64 142 -141 142c-78 0 -142 -64 -142 -142c0 -72 70 -142 142 -142
c77 0 141 64 141 142z" />
    <glyph glyph-name="seven" unicode="7" horiz-adv-x="351" 
d="M329 611l-241 -599s-4 -12 -18 -12h-19c-12 0 -14 10 -11 18l2 5l225 563h-236c-9 0 -16 7 -16 15v16c0 9 7 16 16 16h287c8 0 14 -4 14 -11c0 -3 -1 -6 -3 -11z" />
    <glyph glyph-name="eight" unicode="8" horiz-adv-x="497" 
d="M335 364c65 -32 110 -99 110 -176c0 -109 -88 -197 -197 -197c-108 0 -196 88 -196 197c0 77 45 144 110 176c-32 20 -66 65 -66 126c0 73 59 152 152 152c100 0 153 -85 153 -152c0 -65 -36 -104 -66 -126zM143 490c0 -59 47 -106 105 -106c59 0 106 47 106 106
c0 58 -47 105 -106 105c-58 0 -105 -47 -105 -105zM398 188c0 83 -67 149 -150 149s-149 -66 -149 -149s66 -150 149 -150s150 67 150 150z" />
    <glyph glyph-name="nine" unicode="9" horiz-adv-x="458" 
d="M155 24l135 252c-20 -7 -42 -12 -66 -12c-104 0 -188 85 -188 189s84 189 188 189s188 -84 189 -187v-2c0 -31 -8 -62 -23 -91l-190 -354c-3 -5 -8 -8 -14 -8h-18c-8 0 -15 7 -15 16c0 1 0 4 2 8zM83 453c0 -78 64 -142 141 -142c78 0 142 64 142 142
c0 72 -70 142 -142 142c-77 0 -141 -64 -141 -142z" />
    <glyph glyph-name="zero.lf" horiz-adv-x="516" 
d="M70 180v273c0 104 84 189 188 189s189 -85 189 -189v-273c0 -104 -85 -189 -189 -189s-188 85 -188 189zM400 180v273c0 78 -64 142 -142 142s-141 -64 -141 -142v-273c0 -78 63 -142 141 -142s142 64 142 142z" />
    <glyph glyph-name="one.lf" horiz-adv-x="316" 
d="M40 503l152 126c11 9 24 1 24 -12v-601c0 -8 -7 -15 -16 -15h-16c-9 0 -16 7 -16 15v531l-98 -81c-7 -5 -17 -4 -22 3l-11 12c-5 7 -4 17 3 22z" />
    <glyph glyph-name="two.lf" horiz-adv-x="478" 
d="M130 48h278c9 0 16 -7 16 -16v-16c0 -9 -7 -16 -16 -16h-349c-14 0 -19 16 -10 26l19 22s214 252 275 329c4 5 7 10 10 14c23 36 24 69 20 92c-7 36 -29 68 -61 87c-62 38 -143 29 -181 -20c-30 -37 -39 -82 -39 -107c0 -8 -7 -14 -16 -14h-16c-8 0 -15 7 -15 16
c0 29 11 87 49 134c53 68 160 82 243 31c43 -26 73 -70 82 -119c7 -39 1 -87 -32 -133l-7 -10c-59 -79 -250 -300 -250 -300z" />
    <glyph glyph-name="three.lf" horiz-adv-x="503" 
d="M101 488v2c0 99 87 152 153 152c99 0 152 -85 152 -152c0 -63 -37 -108 -66 -126c65 -32 110 -99 110 -176c0 -109 -88 -197 -196 -197s-196 87 -197 196c0 9 7 16 16 16h15c9 0 16 -7 16 -15c0 -83 67 -150 150 -150c82 0 149 67 149 150s-66 149 -149 149h-25
c-8 0 -15 7 -15 16v16c0 8 7 15 15 15h25c60 0 105 51 105 106c0 58 -47 105 -105 105c-59 0 -106 -47 -106 -105v-2c0 -8 -7 -15 -16 -15h-15c-9 0 -16 7 -16 15z" />
    <glyph glyph-name="four.lf" horiz-adv-x="424" 
d="M329 179h46c9 0 16 -7 16 -16v-16c0 -9 -7 -16 -16 -16h-46v-115c0 -9 -7 -16 -16 -16h-16c-9 0 -16 7 -16 16v115h-241c-13 0 -19 14 -13 24l14 24l240 423l7 11l11 21c2 2 3 4 6 5c1 2 3 2 5 3c4 0 7 0 11 -2l6 -6c1 -3 2 -6 2 -9v-446zM281 179v326l-186 -326h186z
" />
    <glyph glyph-name="five.lf" horiz-adv-x="476" 
d="M221 586l-71 -220c24 10 50 16 78 16c107 0 194 -87 194 -194s-87 -194 -194 -194c-71 0 -130 38 -163 96c-13 21 -18 46 -22 71c-2 11 4 20 15 20h16c11 0 16 -5 16 -12c0 -37 40 -128 138 -128c85 0 147 68 147 147c0 85 -68 147 -147 147c-38 0 -74 -14 -101 -41
c-18 -18 -25 -32 -33 -47c-3 -4 -8 -7 -13 -7c-15 0 -18 15 -15 22l117 360c3 9 9 11 17 11h207c9 0 16 -7 16 -16v-16c0 -8 -7 -15 -16 -15h-186z" />
    <glyph glyph-name="six.lf" horiz-adv-x="458" 
d="M303 609l-135 -252c20 7 42 12 66 12c104 0 188 -85 188 -189s-84 -189 -188 -189s-188 84 -189 187v2c0 31 8 62 23 91l190 354c3 5 8 8 14 8h18c8 0 15 -7 15 -16c0 -1 0 -4 -2 -8zM375 180c0 78 -64 142 -141 142c-78 0 -142 -64 -142 -142c0 -72 70 -142 142 -142
c77 0 141 64 141 142z" />
    <glyph glyph-name="seven.lf" horiz-adv-x="351" 
d="M329 611l-241 -599s-4 -12 -18 -12h-19c-12 0 -14 10 -11 18l2 5l225 563h-236c-9 0 -16 7 -16 15v16c0 9 7 16 16 16h287c8 0 14 -4 14 -11c0 -3 -1 -6 -3 -11z" />
    <glyph glyph-name="eight.lf" horiz-adv-x="497" 
d="M335 364c65 -32 110 -99 110 -176c0 -109 -88 -197 -197 -197c-108 0 -196 88 -196 197c0 77 45 144 110 176c-32 20 -66 65 -66 126c0 73 59 152 152 152c100 0 153 -85 153 -152c0 -65 -36 -104 -66 -126zM143 490c0 -59 47 -106 105 -106c59 0 106 47 106 106
c0 58 -47 105 -106 105c-58 0 -105 -47 -105 -105zM398 188c0 83 -67 149 -150 149s-149 -66 -149 -149s66 -150 149 -150s150 67 150 150z" />
    <glyph glyph-name="nine.lf" horiz-adv-x="458" 
d="M155 24l135 252c-20 -7 -42 -12 -66 -12c-104 0 -188 85 -188 189s84 189 188 189s188 -84 189 -187v-2c0 -31 -8 -62 -23 -91l-190 -354c-3 -5 -8 -8 -14 -8h-18c-8 0 -15 7 -15 16c0 1 0 4 2 8zM83 453c0 -78 64 -142 141 -142c78 0 142 64 142 142
c0 72 -70 142 -142 142c-77 0 -141 -64 -141 -142z" />
    <glyph glyph-name="zero.osf" horiz-adv-x="497" 
d="M248 397c112 0 203 -91 203 -203c0 -104 -84 -203 -203 -203c-121 0 -203 103 -203 203c0 112 91 203 203 203zM248 352c-88 0 -158 -69 -158 -158c0 -82 66 -158 158 -158c79 0 158 61 158 158c0 89 -70 158 -158 158z" />
    <glyph glyph-name="one.osf" horiz-adv-x="316" 
d="M40 267l152 126c5 4 11 4 17 2c4 -3 7 -8 7 -14v-366c0 -8 -7 -15 -16 -15h-16c-9 0 -16 7 -16 15v296l-98 -81c-7 -5 -17 -4 -22 3l-11 12c-5 7 -4 17 3 22z" />
    <glyph glyph-name="two.osf" horiz-adv-x="344" 
d="M127 47h148c8 0 15 -7 15 -16v-16c0 -8 -7 -15 -15 -15h-215c-9 0 -16 7 -16 16c0 3 1 6 3 9l184 220c12 16 12 36 10 48c-8 37 -39 57 -75 57c-23 0 -41 -9 -53 -24c-11 -14 -19 -37 -19 -55v-2c0 -9 -7 -16 -15 -16h-15c-9 0 -16 7 -16 16v5c0 15 7 53 30 83
c20 25 52 40 88 40c23 0 47 -7 68 -19c28 -17 46 -43 53 -77c5 -25 5 -55 -20 -86z" />
    <glyph glyph-name="three.osf" horiz-adv-x="448" 
d="M83 259v2c0 66 49 136 137 136s136 -75 136 -136c0 -54 -24 -89 -55 -110c58 -30 94 -88 94 -155c0 -97 -79 -176 -175 -176c-99 0 -174 81 -176 175c0 9 8 17 17 17h14c8 0 15 -6 16 -13v-3c0 -71 57 -128 129 -128c71 0 128 57 128 128c0 73 -61 128 -128 128h-22
c-8 0 -16 7 -16 16v14c0 10 7 17 16 17h22c49 0 89 40 89 90c0 49 -40 89 -89 89c-50 0 -90 -40 -90 -88v-3c0 -9 -7 -16 -16 -16h-15c-9 0 -16 7 -16 16z" />
    <glyph glyph-name="four.osf" horiz-adv-x="424" 
d="M329 179h46c9 0 16 -7 16 -16v-16c0 -9 -7 -16 -16 -16h-46v-115c0 -9 -7 -16 -16 -16h-16c-9 0 -16 7 -16 16v115h-241c-13 0 -19 14 -13 24l14 24l258 455c10 16 30 8 30 -9v-446zM281 179v326l-186 -326h186z" />
    <glyph glyph-name="five.osf" horiz-adv-x="475" 
d="M201 349l-52 -157c24 11 51 17 79 17c107 0 193 -87 193 -194c0 -108 -86 -195 -193 -195c-72 0 -130 39 -163 97c-13 21 -18 45 -22 71v4v3s0 2 1 4c2 5 8 9 14 9h16c8 0 14 -5 15 -13c1 0 1 -1 1 -2s0 -3 1 -5c5 -29 16 -56 37 -77c28 -28 61 -44 100 -44s76 16 103 44
c28 27 43 64 43 104c0 39 -15 76 -43 104c-27 28 -64 43 -103 43c-38 0 -74 -14 -102 -41c0 -1 -1 -1 -2 -2c-12 -12 -22 -26 -29 -41l-1 -4c-3 -4 -8 -7 -14 -7c-5 0 -10 3 -13 7c-2 3 -2 6 -2 8v4c0 1 1 2 1 3l18 56l79 241c3 8 9 12 17 11h207c9 0 16 -7 16 -16v-16
c0 -9 -7 -16 -16 -16h-186z" />
    <glyph glyph-name="six.osf" horiz-adv-x="458" 
d="M303 609l-135 -252c20 7 42 12 66 12c104 0 188 -85 188 -189s-84 -189 -188 -189s-188 84 -189 187v2c0 31 8 62 23 91l190 354c3 5 8 8 14 8h18c8 0 15 -7 15 -16c0 -1 0 -4 -2 -8zM375 180c0 78 -64 142 -141 142c-78 0 -142 -64 -142 -142c0 -72 70 -142 142 -142
c77 0 141 64 141 142z" />
    <glyph glyph-name="seven.osf" horiz-adv-x="302" 
d="M268 397h3c7 -2 12 -8 12 -15v-1v-1s0 -3 -1 -5l-218 -543s-1 -1 -1 -2c0 0 0 -1 -1 -2c-2 -4 -6 -7 -11 -7c0 0 -2 -1 -3 -1h-17c-2 0 -4 1 -6 2c-7 3 -11 11 -9 18v2c1 0 1 1 1 1l203 507h-189c-9 0 -16 7 -16 15v16c0 9 7 16 16 16h237z" />
    <glyph glyph-name="eight.osf" horiz-adv-x="497" 
d="M335 364c65 -32 110 -99 110 -176c0 -109 -88 -197 -197 -197c-108 0 -196 88 -196 197c0 77 45 144 110 176c-32 20 -66 65 -66 126c0 73 59 152 152 152c100 0 153 -85 153 -152c0 -65 -36 -104 -66 -126zM143 490c0 -59 47 -106 105 -106c59 0 106 47 106 106
c0 58 -47 105 -106 105c-58 0 -105 -47 -105 -105zM398 188c0 83 -67 149 -150 149s-149 -66 -149 -149s66 -150 149 -150s150 67 150 150z" />
    <glyph glyph-name="nine.osf" horiz-adv-x="458" 
d="M221 -180h-18c-8 0 -15 7 -15 16c0 2 0 6 2 9l101 187c-21 -8 -43 -12 -66 -12c-104 0 -189 84 -189 189c0 104 85 188 189 188c103 0 187 -83 188 -188c0 -32 -8 -62 -21 -88l-157 -293c-3 -4 -8 -8 -14 -8zM83 209c0 -78 64 -142 142 -142c80 0 141 62 141 142
c0 77 -63 141 -141 141s-142 -64 -142 -141z" />
    <glyph glyph-name="zero.ss01" horiz-adv-x="773" 
d="M386 674c188 0 341 -153 341 -341c0 -189 -153 -342 -341 -342s-341 153 -341 342c0 188 153 341 341 341zM386 627c-186 0 -294 -162 -294 -294c0 -135 112 -295 294 -295c135 0 294 112 294 295c0 136 -110 294 -294 294z" />
    <glyph glyph-name="one.ss01" horiz-adv-x="439" 
d="M248 47h141c9 0 16 -7 16 -15v-17c0 -8 -7 -15 -16 -15h-330c-8 0 -15 7 -15 15v17c0 8 7 15 15 15h141v500l-98 -81c-7 -5 -17 -4 -22 3l-11 12c-5 7 -4 17 3 22l152 126c11 9 24 1 24 -12v-570z" />
    <glyph glyph-name="zero.tf" horiz-adv-x="520" 
d="M72 180v273c0 104 84 189 188 189s189 -85 189 -189v-273c0 -104 -85 -189 -189 -189s-188 85 -188 189zM402 180v273c0 78 -64 142 -142 142s-141 -64 -141 -142v-273c0 -78 63 -142 141 -142s142 64 142 142z" />
    <glyph glyph-name="one.tf" horiz-adv-x="520" 
d="M284 47h141c9 0 16 -7 16 -15v-17c0 -8 -7 -15 -16 -15h-330c-8 0 -15 7 -15 15v17c0 8 7 15 15 15h141v500l-98 -81c-7 -5 -17 -4 -22 3l-11 12c-5 7 -4 17 3 22l152 126c11 9 24 1 24 -12v-570z" />
    <glyph glyph-name="two.tf" horiz-adv-x="520" 
d="M157 48h278c9 0 16 -7 16 -16v-16c0 -9 -7 -16 -16 -16h-349c-14 0 -19 16 -10 26l19 22s214 252 275 329c4 5 7 10 10 14c23 36 24 69 20 92c-7 36 -29 68 -61 87c-62 38 -143 29 -181 -20c-30 -37 -39 -82 -39 -107c0 -8 -7 -14 -16 -14h-16c-8 0 -15 7 -15 16
c0 29 11 87 49 134c53 68 160 82 243 31c43 -26 73 -70 82 -119c7 -39 1 -87 -32 -133l-7 -10c-59 -79 -250 -300 -250 -300z" />
    <glyph glyph-name="three.tf" horiz-adv-x="520" 
d="M108 488v2c0 99 87 152 153 152c99 0 152 -85 152 -152c0 -63 -37 -108 -66 -126c65 -32 110 -99 110 -176c0 -109 -88 -197 -196 -197s-196 87 -197 196c0 9 7 16 16 16h15c9 0 16 -7 16 -15c0 -83 67 -150 150 -150c82 0 149 67 149 150s-66 149 -149 149h-25
c-8 0 -15 7 -15 16v16c0 8 7 15 15 15h25c60 0 105 51 105 106c0 58 -47 105 -105 105c-59 0 -106 -47 -106 -105v-2c0 -8 -7 -15 -16 -15h-15c-9 0 -16 7 -16 15z" />
    <glyph glyph-name="four.tf" horiz-adv-x="520" 
d="M383 179h46c9 0 16 -7 16 -16v-16c0 -9 -7 -16 -16 -16h-46v-115c0 -9 -7 -16 -16 -16h-16c-9 0 -16 7 -16 16v115h-241c-13 0 -19 14 -13 24l14 24l258 455c10 16 30 8 30 -9v-446zM335 179v326l-186 -326h186z" />
    <glyph glyph-name="five.tf" horiz-adv-x="520" 
d="M250 586l-71 -220c24 10 50 16 78 16c107 0 194 -87 194 -194s-87 -194 -194 -194c-71 0 -130 38 -163 96c-13 21 -18 46 -22 71c-2 11 4 20 15 20h16c11 0 16 -5 16 -12c0 -37 40 -128 138 -128c85 0 147 68 147 147c0 85 -68 147 -147 147c-38 0 -74 -14 -101 -41
c-18 -18 -25 -32 -33 -47c-3 -4 -8 -7 -13 -7c-15 0 -18 15 -15 22l117 360c3 9 9 11 17 11h207c9 0 16 -7 16 -16v-16c0 -8 -7 -15 -16 -15h-186z" />
    <glyph glyph-name="six.tf" horiz-adv-x="520" 
d="M330 609l-135 -252c20 7 42 12 66 12c104 0 188 -85 188 -189s-84 -189 -188 -189s-188 84 -189 187v2c0 31 8 62 23 91l190 354c3 5 8 8 14 8h18c8 0 15 -7 15 -16c0 -1 0 -4 -2 -8zM402 180c0 78 -64 142 -141 142c-78 0 -142 -64 -142 -142c0 -72 70 -142 142 -142
c77 0 141 64 141 142z" />
    <glyph glyph-name="seven.tf" horiz-adv-x="520" 
d="M416 611l-241 -599s-4 -12 -18 -12h-19c-12 0 -14 10 -11 18l2 5l225 563h-236c-9 0 -16 7 -16 15v16c0 9 7 16 16 16h287c8 0 14 -4 14 -11c0 -3 -1 -6 -3 -11z" />
    <glyph glyph-name="eight.tf" horiz-adv-x="520" 
d="M347 364c65 -32 110 -99 110 -176c0 -109 -88 -197 -197 -197c-108 0 -196 88 -196 197c0 77 45 144 110 176c-32 20 -66 65 -66 126c0 73 59 152 152 152c100 0 153 -85 153 -152c0 -65 -36 -104 -66 -126zM155 490c0 -59 47 -106 105 -106c59 0 106 47 106 106
c0 58 -47 105 -106 105c-58 0 -105 -47 -105 -105zM410 188c0 83 -67 149 -150 149s-149 -66 -149 -149s66 -150 149 -150s150 67 150 150z" />
    <glyph glyph-name="nine.tf" horiz-adv-x="520" 
d="M191 24l135 252c-20 -7 -42 -12 -66 -12c-104 0 -188 85 -188 189s84 189 188 189s188 -84 189 -187v-2c0 -31 -8 -62 -23 -91l-190 -354c-3 -5 -8 -8 -14 -8h-18c-8 0 -15 7 -15 16c0 1 0 4 2 8zM119 453c0 -78 64 -142 141 -142c78 0 142 64 142 142
c0 72 -70 142 -142 142c-77 0 -141 -64 -141 -142z" />
    <glyph glyph-name="zero.tosf" horiz-adv-x="520" 
d="M260 397c112 0 203 -91 203 -203c0 -104 -84 -203 -203 -203c-121 0 -203 103 -203 203c0 112 91 203 203 203zM260 352c-88 0 -158 -69 -158 -158c0 -82 66 -158 158 -158c79 0 158 61 158 158c0 89 -70 158 -158 158z" />
    <glyph glyph-name="one.tosf" horiz-adv-x="520" 
d="M315 47h59c8 0 15 -7 15 -16v-16c0 -8 -7 -15 -15 -15h-215c-8 0 -15 7 -15 16v16c0 8 7 15 15 15h108v264l-98 -81c-7 -5 -17 -4 -22 3l-11 12c-5 7 -4 17 3 22l152 126c5 4 11 4 17 2c4 -3 7 -8 7 -14v-334z" />
    <glyph glyph-name="two.tosf" horiz-adv-x="520" 
d="M219 47h148c8 0 15 -7 15 -16v-16c0 -8 -7 -15 -15 -15h-215c-9 0 -16 7 -16 16c0 3 1 6 3 9l184 220c12 16 12 36 10 48c-8 37 -39 57 -75 57c-23 0 -41 -9 -53 -24c-11 -14 -19 -37 -19 -55v-2c0 -9 -7 -16 -15 -16h-15c-9 0 -16 7 -16 16v5c0 15 7 53 30 83
c20 25 52 40 88 40c23 0 47 -7 68 -19c28 -17 46 -43 53 -77c5 -25 5 -55 -20 -86z" />
    <glyph glyph-name="three.tosf" horiz-adv-x="520" 
d="M124 259v2c0 66 49 136 137 136s136 -75 136 -136c0 -54 -24 -89 -55 -110c58 -30 94 -88 94 -155c0 -97 -79 -176 -175 -176c-99 0 -174 81 -176 175c0 9 8 17 17 17h14c8 0 15 -6 16 -13v-3c0 -71 57 -128 129 -128c71 0 128 57 128 128c0 73 -61 128 -128 128h-22
c-8 0 -16 7 -16 16v14c0 10 7 17 16 17h22c49 0 89 40 89 90c0 49 -40 89 -89 89c-50 0 -90 -40 -90 -88v-3c0 -9 -7 -16 -16 -16h-15c-9 0 -16 7 -16 16z" />
    <glyph glyph-name="four.tosf" horiz-adv-x="520" 
d="M383 179h46c9 0 16 -7 16 -16v-16c0 -9 -7 -16 -16 -16h-46v-115c0 -9 -7 -16 -16 -16h-16c-9 0 -16 7 -16 16v115h-241c-13 0 -19 14 -13 24l14 24l258 455c10 16 30 8 30 -9v-446zM335 179v326l-186 -326h186z" />
    <glyph glyph-name="five.tosf" horiz-adv-x="520" 
d="M201 349l-52 -157c24 11 51 17 79 17c107 0 193 -87 193 -194c0 -108 -86 -195 -193 -195c-72 0 -130 39 -163 97c-13 21 -18 45 -22 71v7c0 1 0 2 1 4c2 5 8 9 14 9h16c8 0 14 -5 15 -13c1 0 1 -1 1 -2s0 -3 1 -5c5 -29 16 -56 37 -77c28 -28 61 -44 100 -44
s76 16 103 44c28 27 43 64 43 104c0 39 -15 76 -43 104c-27 28 -64 43 -103 43c-38 0 -74 -14 -102 -41c0 -1 -1 -1 -2 -2c-12 -12 -22 -26 -29 -41l-1 -4c-3 -4 -8 -7 -14 -7c-5 0 -10 3 -13 7c-2 3 -2 6 -2 8v4c0 1 1 2 1 3l18 56l79 241c3 8 9 12 17 11h207
c9 0 16 -7 16 -16v-16c0 -9 -7 -16 -16 -16h-186z" />
    <glyph glyph-name="six.tosf" horiz-adv-x="520" 
d="M330 609l-135 -252c20 7 42 12 66 12c104 0 188 -85 188 -189s-84 -189 -188 -189s-188 84 -189 187v2c0 31 8 62 23 91l190 354c3 5 8 8 14 8h18c8 0 15 -7 15 -16c0 -1 0 -4 -2 -8zM402 180c0 78 -64 142 -141 142c-78 0 -142 -64 -142 -142c0 -72 70 -142 142 -142
c77 0 141 64 141 142z" />
    <glyph glyph-name="seven.tosf" horiz-adv-x="520" 
d="M395 381v-1c0 -1 0 -3 -1 -5l-218 -543s-1 -1 -1 -2c0 0 0 -1 -1 -2c-2 -4 -6 -7 -11 -7c0 0 -2 -1 -3 -1h-17c-2 0 -4 1 -6 2c-7 3 -11 11 -9 18v2c1 0 1 1 1 1l203 507h-189c-9 0 -16 7 -16 15v16c0 9 7 16 16 16h240c7 -2 12 -8 12 -15v-1z" />
    <glyph glyph-name="eight.tosf" horiz-adv-x="520" 
d="M347 364c65 -32 110 -99 110 -176c0 -109 -88 -197 -197 -197c-108 0 -196 88 -196 197c0 77 45 144 110 176c-32 20 -66 65 -66 126c0 73 59 152 152 152c100 0 153 -85 153 -152c0 -65 -36 -104 -66 -126zM155 490c0 -59 47 -106 105 -106c59 0 106 47 106 106
c0 58 -47 105 -106 105c-58 0 -105 -47 -105 -105zM410 188c0 83 -67 149 -150 149s-149 -66 -149 -149s66 -150 149 -150s150 67 150 150z" />
    <glyph glyph-name="nine.tosf" horiz-adv-x="520" 
d="M257 -180h-18c-8 0 -15 7 -15 16c0 2 0 6 2 9l101 187c-21 -8 -43 -12 -66 -12c-104 0 -189 84 -189 189c0 104 85 188 189 188c103 0 187 -83 188 -188c0 -32 -8 -62 -21 -88l-157 -293c-3 -4 -8 -8 -14 -8zM119 209c0 -78 64 -142 142 -142c80 0 141 62 141 142
c0 77 -63 141 -141 141s-142 -64 -142 -141z" />
    <glyph glyph-name="fraction" unicode="&#x2044;" horiz-adv-x="107" 
d="M-139 15l340 635c4 8 11 15 23 15h17c8 0 11 -7 7 -15l-340 -635c-4 -8 -11 -15 -23 -15h-17c-8 0 -11 7 -7 15z" />
    <glyph glyph-name="onehalf" unicode="&#xbd;" horiz-adv-x="717" 
d="M166 299h55c7 0 15 -7 15 -15v-10c0 -7 -8 -15 -15 -15h-179c-7 0 -14 9 -14 15v10c0 7 7 15 14 15h84v297l-54 -43h1c-6 -6 -17 -4 -21 1l-7 8c-4 6 -4 17 4 22l-1 -1l95 78c10 10 23 2 23 -11v-351zM147 15l340 635c4 8 11 15 23 15h17c8 0 11 -7 7 -15l-340 -635
c-4 -8 -11 -15 -23 -15h-17c-8 0 -11 7 -7 15zM489 40h163c7 0 15 -7 15 -15v-10c0 -7 -8 -15 -15 -15h-218c-13 0 -17 16 -11 25l12 13s134 158 172 207c3 2 3 4 6 8c14 21 14 40 12 53c-5 22 -17 40 -36 52c-37 22 -84 17 -106 -12c-18 -22 -24 -49 -24 -64
c0 -7 -7 -14 -15 -14h-10c-7 0 -14 8 -14 15c0 19 7 57 31 87c35 45 105 53 159 21c28 -17 48 -46 54 -78c4 -25 0 -57 -21 -87l-5 -6c-32 -43 -123 -149 -149 -180z" />
    <glyph glyph-name="uni2153" unicode="&#x2153;" horiz-adv-x="710" 
d="M166 299h55c7 0 15 -7 15 -15v-10c0 -7 -8 -15 -15 -15h-179c-7 0 -14 9 -14 15v10c0 7 7 15 14 15h84v297l-54 -43h1c-6 -6 -17 -4 -21 1l-7 8c-4 6 -4 17 4 22l-1 -1l95 78c10 10 23 2 23 -11v-351zM147 15l340 635c4 8 11 15 23 15h17c8 0 11 -7 7 -15l-340 -635
c-4 -8 -11 -15 -23 -15h-17c-8 0 -11 7 -7 15zM438 316v1c0 65 57 100 100 100c64 0 100 -56 100 -100c0 -36 -20 -63 -37 -78c38 -22 65 -64 65 -111c0 -70 -58 -128 -128 -128s-127 58 -128 128c0 7 6 15 15 15h9c8 0 15 -8 15 -15c0 -49 39 -88 89 -88c48 0 88 39 88 88
c0 50 -39 88 -88 88h-15c-8 0 -15 8 -15 15v10c0 8 7 15 15 15h15c35 0 61 29 61 61c0 34 -28 61 -61 61c-35 0 -61 -27 -61 -61v-1c0 -6 -7 -15 -15 -15h-9c-9 0 -15 9 -15 15z" />
    <glyph glyph-name="onequarter" unicode="&#xbc;" horiz-adv-x="625" 
d="M166 299h55c7 0 15 -7 15 -15v-10c0 -7 -8 -15 -15 -15h-179c-7 0 -14 9 -14 15v10c0 7 7 15 14 15h84v297l-54 -43h1c-6 -6 -17 -4 -21 1l-7 8c-4 6 -4 17 4 22l-1 -1l95 78c10 10 23 2 23 -11v-351zM147 15l340 635c4 8 11 15 23 15h17c8 0 11 -7 7 -15l-340 -635
c-4 -8 -11 -15 -23 -15h-17c-8 0 -11 7 -7 15zM536 122h24c7 0 15 -8 15 -15v-10c0 -8 -8 -15 -15 -15h-24v-67c0 -8 -8 -15 -15 -15h-10c-8 0 -15 7 -15 15v67h-146c-11 0 -18 14 -12 23l9 14l161 285c9 15 28 7 28 -8v-274zM496 122v180l-102 -180h102z" />
    <glyph glyph-name="threequarters" unicode="&#xbe;" horiz-adv-x="636" 
d="M55 564v1c0 65 57 100 100 100c64 0 100 -56 100 -100c0 -36 -20 -63 -37 -78c38 -22 65 -64 65 -111c0 -70 -58 -128 -128 -128s-127 58 -128 128c0 7 6 15 15 15h9c8 0 15 -8 15 -15c0 -49 39 -88 89 -88c48 0 88 39 88 88c0 50 -39 88 -88 88h-15c-8 0 -15 8 -15 15
v10c0 8 7 15 15 15h15c35 0 61 29 61 61c0 34 -28 61 -61 61c-35 0 -61 -27 -61 -61v-1c0 -6 -7 -15 -15 -15h-9c-9 0 -15 9 -15 15zM178 15l340 635c4 8 11 15 23 15h17c8 0 11 -7 7 -15l-340 -635c-4 -8 -11 -15 -23 -15h-17c-8 0 -11 7 -7 15zM563 122h24
c7 0 15 -8 15 -15v-10c0 -8 -8 -15 -15 -15h-24v-67c0 -8 -8 -15 -15 -15h-10c-8 0 -15 7 -15 15v67h-146c-11 0 -18 14 -12 23l9 14l161 285c9 15 28 7 28 -8v-274zM523 122v180l-102 -180h102z" />
    <glyph glyph-name="oneeighth" unicode="&#x215b;" horiz-adv-x="710" 
d="M166 299h55c7 0 15 -7 15 -15v-10c0 -7 -8 -15 -15 -15h-179c-7 0 -14 9 -14 15v10c0 7 7 15 14 15h84v297l-54 -43h1c-6 -6 -17 -4 -21 1l-7 8c-4 6 -4 17 4 22l-1 -1l95 78c10 10 23 2 23 -11v-351zM147 15l340 635c4 8 11 15 23 15h17c8 0 11 -7 7 -15l-340 -635
c-4 -8 -11 -15 -23 -15h-17c-8 0 -11 7 -7 15zM595 239c39 -22 65 -64 65 -111c0 -70 -58 -128 -128 -128s-128 58 -128 128c0 47 26 89 65 111c-19 15 -37 43 -37 78c0 48 38 100 100 100c65 0 100 -57 100 -100c0 -38 -19 -63 -37 -78zM471 317c0 -35 26 -61 61 -61
c34 0 61 26 61 61c0 34 -27 61 -61 61c-35 0 -61 -27 -61 -61zM620 128c0 50 -39 88 -88 88c-50 0 -89 -38 -89 -88s39 -88 89 -88c49 0 88 38 88 88z" />
    <glyph glyph-name="threeeighths" unicode="&#x215c;" horiz-adv-x="724" 
d="M55 564v1c0 65 57 100 100 100c64 0 100 -56 100 -100c0 -36 -20 -63 -37 -78c38 -22 65 -64 65 -111c0 -70 -58 -128 -128 -128s-127 58 -128 128c0 7 6 15 15 15h9c8 0 15 -8 15 -15c0 -49 39 -88 89 -88c48 0 88 39 88 88c0 50 -39 88 -88 88h-15c-8 0 -15 8 -15 15
v10c0 8 7 15 15 15h15c35 0 61 29 61 61c0 34 -28 61 -61 61c-35 0 -61 -27 -61 -61v-1c0 -6 -7 -15 -15 -15h-9c-9 0 -15 9 -15 15zM178 15l340 635c4 8 11 15 23 15h17c8 0 11 -7 7 -15l-340 -635c-4 -8 -11 -15 -23 -15h-17c-8 0 -11 7 -7 15zM625 239
c39 -22 65 -64 65 -111c0 -70 -58 -128 -128 -128s-128 58 -128 128c0 47 26 89 65 111c-19 15 -37 43 -37 78c0 48 38 100 100 100c65 0 100 -57 100 -100c0 -38 -19 -63 -37 -78zM501 317c0 -35 26 -61 61 -61c34 0 61 26 61 61c0 34 -27 61 -61 61c-35 0 -61 -27 -61 -61
zM650 128c0 50 -39 88 -88 88c-50 0 -89 -38 -89 -88s39 -88 89 -88c49 0 88 38 88 88z" />
    <glyph glyph-name="fiveeighths" unicode="&#x215d;" horiz-adv-x="724" 
d="M148 626l-39 -125c12 4 26 7 40 7c69 0 127 -57 127 -126s-58 -126 -127 -126c-46 0 -85 24 -105 62c-10 14 -13 30 -15 46c-1 9 4 19 14 19h10c9 0 15 -7 15 -13c0 -22 23 -75 81 -75c51 0 87 40 87 87c0 51 -39 87 -87 87c-22 0 -43 -8 -60 -25
c-10 -10 -14 -18 -19 -28c-3 -4 -8 -7 -12 -7c-14 0 -18 16 -15 21l73 225c3 8 10 10 16 10h129c8 0 15 -7 15 -15v-10c0 -7 -7 -14 -15 -14h-113zM171 15l340 635c4 8 11 15 23 15h17c8 0 11 -7 7 -15l-340 -635c-4 -8 -11 -15 -23 -15h-17c-8 0 -11 7 -7 15zM625 239
c39 -22 65 -64 65 -111c0 -70 -58 -128 -128 -128s-128 58 -128 128c0 47 26 89 65 111c-19 15 -37 43 -37 78c0 48 38 100 100 100c65 0 100 -57 100 -100c0 -38 -19 -63 -37 -78zM501 317c0 -35 26 -61 61 -61c34 0 61 26 61 61c0 34 -27 61 -61 61c-35 0 -61 -27 -61 -61
zM650 128c0 50 -39 88 -88 88c-50 0 -89 -38 -89 -88s39 -88 89 -88c49 0 88 38 88 88z" />
    <glyph glyph-name="seveneighths" unicode="&#x215e;" horiz-adv-x="592" 
d="M231 649l-152 -379s-4 -11 -17 -11h-11c-12 0 -14 13 -12 19c0 0 1 3 2 3l138 345h-141c-8 0 -15 7 -15 14v10c0 8 7 15 15 15h179c6 0 14 -4 14 -12v-4zM49 15l340 635c4 8 11 15 23 15h17c8 0 11 -7 7 -15l-340 -635c-4 -8 -11 -15 -23 -15h-17c-8 0 -11 7 -7 15z
M513 239c39 -22 65 -64 65 -111c0 -70 -58 -128 -128 -128s-128 58 -128 128c0 47 26 89 65 111c-19 15 -37 43 -37 78c0 48 38 100 100 100c65 0 100 -57 100 -100c0 -38 -19 -63 -37 -78zM389 317c0 -35 26 -61 61 -61c34 0 61 26 61 61c0 34 -27 61 -61 61
c-35 0 -61 -27 -61 -61zM538 128c0 50 -39 88 -88 88c-50 0 -89 -38 -89 -88s39 -88 89 -88c49 0 88 38 88 88z" />
    <glyph glyph-name="zero.dnom" horiz-adv-x="337" 
d="M45 123v171c0 67 56 123 123 123s123 -56 123 -123v-171c0 -67 -56 -123 -123 -123s-123 56 -123 123zM251 123v171c0 47 -37 84 -83 84c-47 0 -84 -37 -84 -84v-171c0 -46 37 -83 84 -83c46 0 83 37 83 83z" />
    <glyph glyph-name="one.dnom" horiz-adv-x="286" 
d="M166 40h55c7 0 15 -7 15 -15v-10c0 -7 -8 -15 -15 -15h-179c-7 0 -14 9 -14 15v10c0 7 7 15 14 15h84v297l-54 -43h1c-6 -6 -17 -4 -21 1l-7 8c-4 6 -4 17 4 22l-1 -1l95 78c10 10 23 2 23 -11v-351z" />
    <glyph glyph-name="two.dnom" horiz-adv-x="310" 
d="M96 40h163c7 0 15 -7 15 -15v-10c0 -7 -8 -15 -15 -15h-218c-13 0 -17 16 -11 25l12 13s134 158 172 207c3 2 3 4 6 8c14 21 14 40 12 53c-5 22 -17 40 -36 52c-37 22 -84 17 -106 -12c-18 -22 -24 -49 -24 -64c0 -7 -7 -14 -15 -14h-10c-7 0 -14 8 -14 15
c0 19 7 57 31 87c35 45 105 53 159 21c28 -17 48 -46 54 -78c4 -25 0 -57 -21 -87l-5 -6c-32 -43 -123 -149 -149 -180z" />
    <glyph glyph-name="three.dnom" horiz-adv-x="317" 
d="M55 316v1c0 65 57 100 100 100c64 0 100 -56 100 -100c0 -36 -20 -63 -37 -78c38 -22 65 -64 65 -111c0 -70 -58 -128 -128 -128s-127 58 -128 128c0 7 6 15 15 15h9c8 0 15 -8 15 -15c0 -49 39 -88 89 -88c48 0 88 39 88 88c0 50 -39 88 -88 88h-15c-8 0 -15 8 -15 15
v10c0 8 7 15 15 15h15c35 0 61 29 61 61c0 34 -28 61 -61 61c-35 0 -61 -27 -61 -61v-1c0 -6 -7 -15 -15 -15h-9c-9 0 -15 9 -15 15z" />
    <glyph glyph-name="four.dnom" horiz-adv-x="263" 
d="M200 122h24c7 0 15 -8 15 -15v-10c0 -8 -8 -15 -15 -15h-24v-67c0 -8 -8 -15 -15 -15h-10c-8 0 -15 7 -15 15v67h-146c-11 0 -18 14 -12 23l9 14l161 285c9 15 28 7 28 -8v-274zM160 122v180l-102 -180h102z" />
    <glyph glyph-name="five.dnom" horiz-adv-x="311" 
d="M148 370l-39 -125c12 4 26 7 40 7c69 0 127 -57 127 -126s-58 -126 -127 -126c-46 0 -85 24 -105 62c-10 14 -13 30 -15 46c-1 9 4 19 14 19h10c9 0 15 -7 15 -13c0 -22 23 -75 81 -75c51 0 87 40 87 87c0 51 -39 87 -87 87c-22 0 -43 -8 -60 -25
c-10 -10 -14 -18 -19 -28c-3 -4 -8 -7 -12 -7c-14 0 -18 16 -15 21l73 225c3 8 10 10 16 10h129c8 0 15 -7 15 -15v-10c0 -7 -7 -14 -15 -14h-113z" />
    <glyph glyph-name="six.dnom" horiz-adv-x="299" 
d="M200 389l-78 -147c10 2 20 4 31 4c67 0 123 -56 123 -123s-56 -123 -123 -123s-122 55 -123 122v1c0 20 5 41 15 59l119 222c2 4 7 7 13 7h11c7 0 15 -7 15 -15c0 -1 0 -4 -3 -7zM236 123c0 47 -37 84 -83 84c-47 0 -84 -37 -84 -84c0 -43 41 -84 84 -84
c46 0 83 37 83 84z" />
    <glyph glyph-name="seven.dnom" horiz-adv-x="245" 
d="M231 390l-152 -379s-4 -11 -17 -11h-11c-12 0 -14 13 -12 19c0 0 1 3 2 3l138 345h-141c-8 0 -15 7 -15 14v10c0 8 7 15 15 15h179c6 0 14 -4 14 -12v-4z" />
    <glyph glyph-name="eight.dnom" horiz-adv-x="316" 
d="M218 239c39 -22 65 -64 65 -111c0 -70 -58 -128 -128 -128s-128 58 -128 128c0 47 26 89 65 111c-19 15 -37 43 -37 78c0 48 38 100 100 100c65 0 100 -57 100 -100c0 -38 -19 -63 -37 -78zM94 317c0 -35 26 -61 61 -61c34 0 61 26 61 61c0 34 -27 61 -61 61
c-35 0 -61 -27 -61 -61zM243 128c0 50 -39 88 -88 88c-50 0 -89 -38 -89 -88s39 -88 89 -88c49 0 88 38 88 88z" />
    <glyph glyph-name="nine.dnom" horiz-adv-x="300" 
d="M99 22l79 147c-9 -2 -20 -4 -31 -4c-67 0 -123 56 -123 123s56 123 123 123s122 -55 123 -122v-1c0 -20 -5 -41 -15 -59l-119 -222c-2 -4 -7 -7 -13 -7h-11c-6 0 -15 7 -15 15c0 0 0 3 2 7zM63 288c0 -47 37 -84 84 -84c46 0 83 37 83 84c0 43 -40 84 -83 84
c-47 0 -84 -37 -84 -84z" />
    <glyph glyph-name="zero.numr" horiz-adv-x="337" 
d="M45 371v171c0 67 56 123 123 123s123 -56 123 -123v-171c0 -67 -56 -123 -123 -123s-123 56 -123 123zM251 371v171c0 47 -37 84 -83 84c-47 0 -84 -37 -84 -84v-171c0 -46 37 -83 84 -83c46 0 83 37 83 83z" />
    <glyph glyph-name="one.numr" horiz-adv-x="286" 
d="M166 299h55c7 0 15 -7 15 -15v-10c0 -7 -8 -15 -15 -15h-179c-7 0 -14 9 -14 15v10c0 7 7 15 14 15h84v297l-54 -43h1c-6 -6 -17 -4 -21 1l-7 8c-4 6 -4 17 4 22l-1 -1l95 78c10 10 23 2 23 -11v-351z" />
    <glyph glyph-name="two.numr" horiz-adv-x="310" 
d="M96 295h163c7 0 15 -7 15 -15v-10c0 -7 -8 -15 -15 -15h-218c-13 0 -17 16 -11 25l12 13s134 158 172 207c3 2 3 4 6 8c14 21 14 40 12 53c-5 22 -17 40 -36 52c-37 22 -84 17 -106 -12c-18 -22 -24 -49 -24 -64c0 -7 -7 -14 -15 -14h-10c-7 0 -14 8 -14 15
c0 19 7 57 31 87c35 45 105 53 159 21c28 -17 48 -46 54 -78c4 -25 0 -57 -21 -87l-5 -6c-32 -43 -123 -149 -149 -180z" />
    <glyph glyph-name="three.numr" horiz-adv-x="317" 
d="M55 564v1c0 65 57 100 100 100c64 0 100 -56 100 -100c0 -36 -20 -63 -37 -78c38 -22 65 -64 65 -111c0 -70 -58 -128 -128 -128s-127 58 -128 128c0 7 6 15 15 15h9c8 0 15 -8 15 -15c0 -49 39 -88 89 -88c48 0 88 39 88 88c0 50 -39 88 -88 88h-15c-8 0 -15 8 -15 15
v10c0 8 7 15 15 15h15c35 0 61 29 61 61c0 34 -28 61 -61 61c-35 0 -61 -27 -61 -61v-1c0 -6 -7 -15 -15 -15h-9c-9 0 -15 9 -15 15z" />
    <glyph glyph-name="four.numr" horiz-adv-x="281" 
d="M218 375h24c7 0 15 -8 15 -15v-10c0 -8 -8 -15 -15 -15h-24v-67c0 -8 -8 -15 -15 -15h-10c-8 0 -15 7 -15 15v67h-146c-11 0 -18 14 -12 23l9 14l161 285c9 15 28 7 28 -8v-274zM178 375v180l-102 -180h102z" />
    <glyph glyph-name="five.numr" horiz-adv-x="310" 
d="M148 626l-39 -125c12 4 26 7 40 7c69 0 127 -57 127 -126s-58 -126 -127 -126c-46 0 -85 24 -105 62c-10 14 -13 30 -15 46c-1 9 4 19 14 19h10c9 0 15 -7 15 -13c0 -22 23 -75 81 -75c51 0 87 40 87 87c0 51 -39 87 -87 87c-22 0 -43 -8 -60 -25
c-10 -10 -14 -18 -19 -28c-3 -4 -8 -7 -12 -7c-14 0 -18 16 -15 21l73 225c3 8 10 10 16 10h129c8 0 15 -7 15 -15v-10c0 -7 -7 -14 -15 -14h-113z" />
    <glyph glyph-name="six.numr" horiz-adv-x="299" 
d="M200 643l-78 -147c10 2 20 4 31 4c67 0 123 -56 123 -123s-56 -123 -123 -123s-122 55 -123 122v1c0 20 5 41 15 59l119 222c2 4 7 7 13 7h11c7 0 15 -7 15 -15c0 -1 0 -4 -3 -7zM236 377c0 47 -37 84 -83 84c-47 0 -84 -37 -84 -84c0 -43 41 -84 84 -84
c46 0 83 37 83 84z" />
    <glyph glyph-name="seven.numr" horiz-adv-x="245" 
d="M231 649l-152 -379s-4 -11 -17 -11h-11c-12 0 -14 13 -12 19c0 0 1 3 2 3l138 345h-141c-8 0 -15 7 -15 14v10c0 8 7 15 15 15h179c6 0 14 -4 14 -12v-4z" />
    <glyph glyph-name="eight.numr" horiz-adv-x="322" 
d="M224 487c39 -22 65 -64 65 -111c0 -70 -58 -128 -128 -128s-128 58 -128 128c0 47 26 89 65 111c-19 15 -37 43 -37 78c0 48 38 100 100 100c65 0 100 -57 100 -100c0 -38 -19 -63 -37 -78zM100 565c0 -35 26 -61 61 -61c34 0 61 26 61 61c0 34 -27 61 -61 61
c-35 0 -61 -27 -61 -61zM249 376c0 50 -39 88 -88 88c-50 0 -89 -38 -89 -88s39 -88 89 -88c49 0 88 38 88 88z" />
    <glyph glyph-name="nine.numr" horiz-adv-x="300" 
d="M99 276l79 147c-9 -2 -20 -4 -31 -4c-67 0 -123 56 -123 123s56 123 123 123s122 -55 123 -122v-1c0 -20 -5 -41 -15 -59l-119 -222c-2 -4 -7 -7 -13 -7h-11c-6 0 -15 7 -15 15c0 0 0 3 2 7zM63 542c0 -47 37 -84 84 -84c46 0 83 37 83 84c0 43 -40 84 -83 84
c-47 0 -84 -37 -84 -84z" />
    <glyph glyph-name="zero.sc" horiz-adv-x="368" 
d="M70 105v177c0 62 52 115 114 115s115 -53 115 -115v-177c0 -62 -53 -115 -115 -115s-114 53 -114 115zM253 105v177c0 38 -31 69 -69 69c-37 0 -68 -31 -68 -69v-177c0 -38 31 -69 68 -69c38 0 69 31 69 69z" />
    <glyph glyph-name="one.sc" horiz-adv-x="258" 
d="M158 368v-352c0 -10 -6 -16 -16 -16h-15c-10 0 -16 6 -16 16v280l-42 -36c-8 -7 -16 -6 -22 2l-8 11c-7 8 -6 16 2 22l97 82c11 9 20 5 20 -9z" />
    <glyph glyph-name="two.sc" horiz-adv-x="343" 
d="M133 47h136c10 0 16 -6 16 -16v-15c0 -10 -6 -16 -16 -16h-211c-14 0 -18 9 -9 20l182 228c13 18 13 33 11 45c-4 18 -14 32 -30 41c-29 19 -70 14 -87 -8c-15 -19 -20 -41 -20 -55c0 -10 -6 -16 -16 -16h-14c-10 0 -16 6 -16 16v3c0 17 7 52 30 80c32 41 99 50 147 20
c26 -16 46 -44 51 -73c5 -24 0 -54 -19 -82z" />
    <glyph glyph-name="three.sc" horiz-adv-x="349" 
d="M82 283v4c0 60 55 94 95 94c60 0 94 -54 94 -94c0 -30 -14 -54 -29 -69c32 -21 54 -59 54 -99c0 -64 -55 -119 -119 -119s-119 54 -120 119v2c0 10 6 16 16 16h14c10 0 16 -6 16 -16v-2c0 -40 34 -73 74 -73c39 0 73 33 73 73s-33 73 -73 73h-16c-10 0 -16 6 -16 16v14
c0 10 6 16 16 16h16c26 0 48 24 48 49c0 26 -22 48 -48 48c-27 0 -49 -22 -49 -48v-4c0 -10 -6 -16 -16 -16h-14c-10 0 -16 6 -16 16z" />
    <glyph glyph-name="four.sc" horiz-adv-x="287" 
d="M219 119l19 1c10 0 16 -6 16 -16v-15c0 -10 -6 -16 -16 -16h-19v-57c0 -10 -6 -16 -16 -16h-15c-10 0 -16 6 -16 16v58h-134c-13 0 -17 8 -11 19l173 298c8 14 19 11 19 -5v-267zM172 119v133l-76 -133h76z" />
    <glyph glyph-name="five.sc" horiz-adv-x="325" 
d="M157 319l-31 -97c9 3 19 4 28 4c64 0 118 -55 118 -118c0 -64 -54 -118 -118 -118c-42 0 -80 24 -98 57c-10 19 -13 38 -13 51c-1 10 6 16 16 16h12c10 0 16 -6 16 -16v-1c0 -18 19 -61 67 -61c40 0 72 34 72 72c0 40 -34 71 -72 71c-19 0 -36 -6 -49 -19
c-4 -4 -7 -8 -10 -12c-5 -8 -10 -12 -19 -11l-8 1c-11 1 -16 8 -12 19l68 208h132c10 0 16 -6 16 -16v-14c0 -10 -6 -16 -16 -16h-99z" />
    <glyph glyph-name="six.sc" horiz-adv-x="310" 
d="M222 365l-80 -146c6 1 12 1 18 1c62 0 114 -54 114 -115c0 -62 -52 -115 -114 -115c-58 0 -107 45 -114 101c-3 23 1 46 13 69l115 213c4 8 10 11 19 11h17c13 0 18 -8 12 -19zM228 105c0 37 -32 69 -68 69c-38 0 -69 -32 -69 -69c0 -33 35 -69 69 -69c36 0 68 32 68 69z
" />
    <glyph glyph-name="seven.sc" horiz-adv-x="232" 
d="M212 365l-142 -353c-3 -8 -9 -12 -18 -12h-16c-12 0 -17 7 -13 19l127 319h-119c-10 0 -16 6 -16 16v14c0 10 6 16 16 16h168c12 0 17 -7 13 -19z" />
    <glyph glyph-name="eight.sc" horiz-adv-x="343" 
d="M237 209c32 -22 54 -59 54 -100c0 -64 -55 -119 -120 -119c-64 0 -119 55 -119 119c0 41 22 78 54 99c-15 15 -29 40 -29 69c0 43 38 94 94 94c62 0 95 -54 95 -94c0 -32 -15 -54 -29 -68zM123 277c0 -27 22 -49 48 -49c27 0 49 22 49 49c0 26 -22 48 -49 48
c-26 0 -48 -22 -48 -48zM245 109c0 40 -34 73 -74 73s-73 -33 -73 -73s33 -73 73 -73s74 33 74 73z" />
    <glyph glyph-name="nine.sc" horiz-adv-x="310" 
d="M88 19l79 149c-5 0 -11 -1 -17 -1c-62 0 -114 54 -114 115c0 62 52 115 114 115s115 -52 115 -114c0 -18 -5 -39 -14 -56l-114 -216c-4 -7 -10 -11 -19 -11h-18c-13 0 -18 8 -12 19zM82 282c0 -37 31 -69 68 -69c38 0 69 32 69 69c0 34 -35 69 -69 69
c-37 0 -68 -31 -68 -69z" />
    <glyph glyph-name="asterisk" unicode="*" horiz-adv-x="539" 
d="M310 553h90c9 0 16 -7 16 -15v-17c0 -8 -7 -15 -16 -15h-90l45 -79c4 -7 2 -17 -5 -21l-15 -8c-7 -4 -16 -1 -20 5l-46 80l-45 -79c-5 -7 -14 -10 -21 -6l-15 8c-7 4 -9 14 -5 22l45 78h-91c-8 0 -15 7 -15 15v17c0 8 7 15 15 15h91l-45 78c-4 8 -2 18 5 22l15 8
c7 4 16 1 21 -6l45 -78l46 79c4 6 13 9 20 5l15 -8c7 -4 9 -14 5 -21z" />
    <glyph glyph-name="backslash" unicode="\" horiz-adv-x="600" 
d="M3 681h17c8 0 17 -7 19 -15l178 -667c2 -9 -3 -16 -11 -16h-17c-8 0 -17 7 -19 16l-178 667c-2 8 3 15 11 15z" />
    <glyph glyph-name="bullet" unicode="&#x2022;" horiz-adv-x="559" 
d="M279 90c-46 0 -83 37 -83 83s37 83 83 83s83 -37 83 -83s-37 -83 -83 -83z" />
    <glyph glyph-name="colon" unicode=":" horiz-adv-x="177" 
d="M78 384h19c9 0 16 -7 16 -15v-59c0 -9 -7 -16 -16 -16h-19c-9 0 -16 7 -16 16v59c0 8 7 15 16 15zM78 91h19c9 0 16 -7 16 -16v-59c0 -9 -7 -16 -16 -16h-19c-9 0 -16 7 -16 16v59c0 9 7 16 16 16z" />
    <glyph glyph-name="comma" unicode="," horiz-adv-x="207" 
d="M116 97h16c9 0 16 -7 16 -15c0 -2 0 -4 -1 -6l-72 -196c-2 -6 -8 -10 -14 -10h-17c-8 0 -15 7 -15 15v6l73 197c2 5 7 9 14 9z" />
    <glyph glyph-name="ellipsis" unicode="&#x2026;" horiz-adv-x="435" 
d="M86 91h19c8 0 16 -7 16 -16v-59c0 -9 -8 -16 -16 -16h-19c-9 0 -16 7 -16 16v59c0 9 7 16 16 16zM208 91h19c8 0 16 -7 16 -16v-59c0 -9 -8 -16 -16 -16h-19c-9 0 -16 7 -16 16v59c0 9 7 16 16 16zM330 91h19c8 0 16 -7 16 -16v-59c0 -9 -8 -16 -16 -16h-19
c-9 0 -16 7 -16 16v59c0 9 7 16 16 16z" />
    <glyph glyph-name="exclam" unicode="!" horiz-adv-x="229" 
d="M106 633h18c9 0 16 -7 15 -16v-431c0 -9 -7 -16 -16 -16h-16c-9 0 -16 7 -17 16v431c0 9 7 16 16 16zM106 91h18c9 0 16 -7 16 -16v-59c0 -9 -7 -16 -16 -16h-18c-9 0 -16 7 -16 16v59c0 9 7 16 16 16z" />
    <glyph glyph-name="exclamdown" unicode="&#xa1;" horiz-adv-x="600" 
d="M120 370l-18 -1c-8 0 -16 8 -15 16v61c0 7 5 15 16 16l19 -2c10 2 15 -7 15 -14v-61c-1 -9 -7 -16 -17 -15zM121 -173h-19c-10 0 -15 9 -13 16v433c-2 7 6 14 17 16l15 -1c7 1 14 -7 16 -15v-433c0 -7 -5 -16 -16 -16z" />
    <glyph glyph-name="numbersign" unicode="#" horiz-adv-x="568" 
d="M423 442h87c9 0 16 -7 16 -16v-18c0 -9 -7 -16 -16 -16h-100l-32 -119h87c9 0 16 -7 16 -16v-18c0 -9 -7 -16 -16 -16h-101l-56 -207c-2 -9 -11 -16 -20 -16h-16c-9 0 -14 7 -12 16l56 208h-118l-56 -208c-2 -9 -11 -16 -20 -16h-16c-9 0 -14 7 -12 16l56 208h-88
c-9 0 -16 7 -16 16v16c0 9 7 16 16 16h101l32 121h-88c-9 0 -16 7 -16 16v16c0 9 7 16 16 16h101l47 176c2 9 11 16 20 16h18c9 0 14 -7 12 -16l-48 -175h117l47 175c2 9 11 16 20 16h18c9 0 14 -7 12 -16zM361 393h-117l-32 -120h117z" />
    <glyph glyph-name="period" unicode="." horiz-adv-x="178" 
d="M79 91h19c8 0 16 -7 16 -16v-59c0 -9 -8 -16 -16 -16h-19c-9 0 -16 7 -16 16v59c0 9 7 16 16 16z" />
    <glyph glyph-name="periodcentered" unicode="&#xb7;" horiz-adv-x="178" 
d="M79 218h19c9 0 16 -7 16 -15v-59c0 -9 -7 -16 -16 -16h-19c-9 0 -16 7 -16 16v59c0 8 7 15 16 15z" />
    <glyph glyph-name="question" unicode="?" horiz-adv-x="373" 
d="M75 571l-16 15c-5 6 -4 14 2 20c28 24 65 36 100 36c40 0 80 -16 110 -46c62 -61 62 -161 0 -222c-24 -24 -55 -39 -86 -44v-144c0 -9 -8 -16 -16 -16h-16c-9 0 -16 7 -16 16v176c0 7 7 14 14 14c70 0 119 44 119 109c0 64 -53 110 -109 110c-20 0 -47 -7 -66 -23
c-4 -3 -12 -9 -20 -1zM152 91h18c8 0 16 -7 16 -16v-59c0 -9 -8 -16 -16 -16h-18c-9 0 -16 7 -16 16v59c0 9 7 16 16 16z" />
    <glyph glyph-name="questiondown" unicode="&#xbf;" horiz-adv-x="500" 
d="M201 371l-18 -1c-8 0 -16 8 -17 16v59c0 8 7 16 15 15h20c9 1 14 -5 14 -15v-59c2 -9 -6 -15 -14 -15zM278 -110l15 -15c6 -6 4 -15 -1 -20c-29 -24 -67 -36 -101 -35c-40 -2 -79 15 -109 45c-62 60 -61 161 0 222c24 24 54 38 84 45v143c2 9 9 17 18 16h16
c9 0 16 -6 16 -16v-177c-2 -5 -7 -13 -14 -14c-72 2 -119 -43 -121 -107c1 -65 55 -111 111 -111c20 0 47 7 64 23c5 4 12 10 22 1z" />
    </font>
</defs>
</svg>
