<?xml version="1.0" standalone="no"?>
<!DOCTYPE svg PUBLIC "-//W3C//DTD SVG 1.1//EN" "http://www.w3.org/Graphics/SVG/1.1/DTD/svg11.dtd" >
<svg xmlns="http://www.w3.org/2000/svg" xmlns:xlink="http://www.w3.org/1999/xlink" version="1.1">
<metadata>
Created by FontForge 20150102 at Thu Feb 26 02:36:32 2015
 By uniteet7
Copyright (c) 2012 by . All rights reserved.
</metadata>
<defs>
<font id="Facunda" horiz-adv-x="203" >
  <font-face 
    font-family="Facunda"
    font-weight="400"
    font-stretch="condensed"
    units-per-em="1000"
    panose-1="2 0 5 8 2 0 0 2 0 4"
    ascent="750"
    descent="-250"
    x-height="750"
    cap-height="750"
    bbox="-6 -83 332.018 941"
    underline-thickness="50"
    underline-position="-50"
    stemh="50"
    stemv="46"
    unicode-range="U+000D-2212"
  />
<missing-glyph horiz-adv-x="100" 
 />
    <glyph glyph-name=".notdef" horiz-adv-x="100" 
 />
    <glyph glyph-name="NULL" horiz-adv-x="0" 
 />
    <glyph glyph-name="NULL" horiz-adv-x="0" 
 />
    <glyph glyph-name="CR" unicode="&#xd;" horiz-adv-x="100" 
 />
    <glyph glyph-name="space" unicode=" " horiz-adv-x="150" 
 />
    <glyph glyph-name="E" unicode="E" 
d="M173 750v0v0zM30 750h143v-50h-96v-302h50v-46h-50v0v-302h96v-50h-143v750z" />
    <glyph glyph-name="F" unicode="F" 
d="M173 750v-50h-96v-302h50v-46h-50v0v-352h-47v750h143z" />
    <glyph glyph-name="G" unicode="G" 
d="M173 398v-349s0 -52 -71 -52c-72 0 -72 52 -72 52v56v0v127v364v0v105s0 52 71 52c72 0 72 -52 72 -52v-43h-46v25c0 13 -13 20 -26 20s-25 -7 -25 -20v-616c0 -14 15 -20 27 -20s24 6 24 20v285h-26v46h72z" />
    <glyph glyph-name="H" unicode="H" horiz-adv-x="202" 
d="M126 750h46v-352v-46v-352h-46v352h-50v-352h-46v750h46v-352h50v352z" />
    <glyph glyph-name="I" unicode="I" horiz-adv-x="106" 
d="M76 0h-46v750h46v-750z" />
    <glyph glyph-name="J" unicode="J" horiz-adv-x="202" 
d="M126 750h46v-518v-127v0v-56s0 -52 -72 -52c-70 0 -70 52 -70 52v42h46v-24s0 -20 24 -20c26 0 26 20 26 20v683z" />
    <glyph glyph-name="K" unicode="K" 
d="M127 374v0l46 -374h-47l-43 353h-7v-302v-51h-46v0v403v0v347h46v0v-347h8l42 347h47z" />
    <glyph glyph-name="L" unicode="L" 
d="M173 0h-143v750h47v-700h96v-50z" />
    <glyph glyph-name="M" unicode="M" horiz-adv-x="299" 
d="M222 0v683c0 18 -23 17 -23 17h-26v-14v-4v-682h-47v683c0 18 -23 17 -23 17h-27v-302v-347v-51h-46v750h96h1h1h74s67 3 67 -68v-682h-47z" />
    <glyph glyph-name="N" unicode="N" 
d="M173 0h-47v683c0 18 -23 17 -23 17h-26v-302v-347v-51h-47v750h76s67 3 67 -68v-682z" />
    <glyph glyph-name="O" unicode="O" 
d="M173 644v0v-595s0 -52 -70 -52c-73 0 -72 52 -72 52v56v0v127v361v0v108s0 52 70 52c72 0 72 -52 72 -52v-57zM103 47c24 0 24 20 24 20v87v0v529s0 20 -26 20c-24 0 -24 -20 -24 -20v-90v0v-526s0 -20 26 -20z" />
    <glyph glyph-name="P" unicode="P" horiz-adv-x="204" 
d="M77 0v0h-47v347v0v403v0h47h26c74 0 70 -61 70 -61v-1v0v-280s4 -61 -70 -61h-26v-347zM127 686c0 0 0 14 -25 14h-25v-302h26s24 1 24 17v271z" />
    <glyph glyph-name="Q" unicode="Q" horiz-adv-x="202" 
d="M172 644v0v-597s0 -40 -48 -50v-8s0 -20 26 -20v-52c-72 0 -72 52 -72 52v28c-48 10 -48 50 -48 50v58v0v127v364v0v105s0 52 70 52c72 0 72 -52 72 -52v-57zM126 67v87v0v529s0 20 -26 20c-24 0 -24 -20 -24 -20v-87v0v-529s0 -20 26 -20c24 0 24 20 24 20z" />
    <glyph glyph-name="R" unicode="R" horiz-adv-x="204" 
d="M173 0h-47v337s1 15 -24 15h-26v-302v0v-50h-46v750h73c73 0 70 -61 70 -61v-280c0 -33 -20 -34 -23 -33c27 -1 23 -36 23 -36v-340zM126 686c0 0 1 14 -24 14h-26v-302h27s23 1 23 17v271z" />
    <glyph glyph-name="S" unicode="S" 
d="M173 349v-42v0v-115v-87v0v-56s0 -52 -72 -52c-70 0 -70 52 -70 52v117h46v-99s0 -20 24 -20c26 0 26 20 26 20v260v0v2s0 20 -24 20h-2v0c-71 0 -70 52 -70 52v35v0v160v0v105s0 52 70 52c72 0 72 -52 72 -52v-122h-46v104s0 20 -26 20c-24 0 -24 -20 -24 -20v-239v0
v-23s0 -20 24 -20v0h3v0c69 0 69 -52 69 -52z" />
    <glyph glyph-name="T" unicode="T" 
d="M173 750v-50h-49v-700h-46v700h-48v50h143z" />
    <glyph glyph-name="U" unicode="U" horiz-adv-x="202" 
d="M76 67c0 0 0 -20 26 -20c24 0 24 20 24 20v683h46v-701s0 -52 -70 -52c-72 0 -72 52 -72 52v303v46v352h46v-683z" />
    <glyph glyph-name="V" unicode="V" 
d="M173 750v-682c0 -71 -67 -68 -67 -68h-76v750h46v-51v-347v-302h26s24 -1 24 17v683h47z" />
    <glyph glyph-name="W" unicode="W" horiz-adv-x="299" 
d="M202 0h-172v750h46v-51v-347v-302h26s24 -2 24 17v683h47v-683v-3v-14h26s23 -2 23 17v683h47v-682c0 -71 -67 -68 -67 -68z" />
    <glyph glyph-name="X" unicode="X" 
d="M173 337v0v-337h-46v318l-25 26l-26 -26v-318h-46v337l39 39l-39 39v336h46v-317l26 -25l25 25v317h46v-336l-39 -39z" />
    <glyph glyph-name="Y" unicode="Y" 
d="M127 750h46v-352s0 -41 -49 -51v-347h-46v348c-48 10 -48 50 -48 50v315v37h46v-332s0 -20 26 -20c25 0 25 20 25 20v332z" />
    <glyph glyph-name="Z" unicode="Z" horiz-adv-x="206" 
d="M176 50v-50h-96v0h-23h-23l6 51v0l80 649v0h-90v50h96v0h24h23l-7 -51v0l-79 -649v0h89z" />
    <glyph glyph-name="Ccedilla" unicode="&#xc7;" 
d="M127 91h46v-42s-1 -37 -42 -49v-81h-51v80c-50 9 -49 50 -49 50v652s0 52 70 52c72 0 72 -52 72 -52v-43h-46v26c0 13 -13 19 -25 19c-13 0 -25 -6 -25 -19v-616c0 -14 12 -21 25 -21c12 0 25 7 25 21v23z" />
    <glyph glyph-name="a" unicode="a" horiz-adv-x="202" 
d="M100 753c72 0 72 -52 72 -52v-701h-46v352h-50v-352h-46v701s0 52 70 52zM76 398h50v286c0 13 -13 19 -25 19c-13 0 -25 -6 -25 -19v-286z" />
    <glyph glyph-name="b" unicode="b" horiz-adv-x="204" 
d="M150 376c26 -1 23 -36 23 -36v-250c0 -93 -67 -90 -67 -90h-76v750h72c74 0 71 -61 71 -61v-280c0 -33 -20 -34 -23 -33zM126 337c0 0 1 15 -24 15h-26v-302h27s23 -2 23 17v270zM126 686c0 0 0 14 -24 14h-26v-302h27s23 -1 23 17v271z" />
    <glyph glyph-name="c" unicode="c" 
d="M127 91h46v-42s0 -52 -70 -52c-73 0 -72 52 -72 52v56v0v127v364v0v105s0 52 70 52c72 0 72 -52 72 -52v-43h-46v26c0 13 -13 19 -25 19c-13 0 -25 -6 -25 -19v-616c0 -14 12 -21 25 -21c12 0 25 7 25 21v23z" />
    <glyph glyph-name="d" unicode="d" horiz-adv-x="204" 
d="M173 689v-621c0 -71 -67 -68 -67 -68h-76v750h72c74 0 71 -61 71 -61zM126 67v619s0 14 -24 14h-26v-348v-302h27s23 0 23 17z" />
    <glyph glyph-name="e" unicode="e" 
d="M30 750h143v0v-50h-96v-302h50v-46h-50v0v-302h96v-50h-143v750z" />
    <glyph glyph-name="f" unicode="f" 
d="M30 750h143v-50h-96v-302h50v-46h-50v0v-352h-47v750z" />
    <glyph glyph-name="g" unicode="g" 
d="M173 398v-349s0 -52 -71 -52c-72 0 -72 52 -72 52v56v0v127v364v0v105s0 52 71 52c72 0 72 -52 72 -52v-43h-46v25c0 13 -13 20 -26 20s-25 -7 -25 -20v-616c0 -14 15 -20 27 -20s24 6 24 20v285h-26v46h72z" />
    <glyph glyph-name="h" unicode="h" horiz-adv-x="202" 
d="M126 750h46v-352v-46v-352h-46v352h-50v-352h-46v750h46v-352h50v352z" />
    <glyph glyph-name="i" unicode="i" horiz-adv-x="106" 
d="M76 750v-750h-46v750h46z" />
    <glyph glyph-name="j" unicode="j" horiz-adv-x="202" 
d="M126 750h46v-518v-127v0v-56s0 -52 -72 -52c-70 0 -70 52 -70 52v42h46v-24s0 -20 24 -20c26 0 26 20 26 20v683z" />
    <glyph glyph-name="k" unicode="k" 
d="M127 374l46 -374h-47l-43 353h-7v-302v-51h-46v0v403v0v347h46v0v-347h8l42 347h47z" />
    <glyph glyph-name="l" unicode="l" 
d="M173 0h-143v750h47v-700h96v-50z" />
    <glyph glyph-name="m" unicode="m" horiz-adv-x="299" 
d="M269 0h-47v683c0 18 -23 17 -23 17h-26v-14v-4v-682h-47v683c0 18 -23 17 -23 17h-27v-302v-347v-51h-46v750h96h1h1h74s67 3 67 -68v-682z" />
    <glyph glyph-name="n" unicode="n" 
d="M173 0h-47v683c0 18 -23 17 -23 17h-26v-302v-347v-51h-47v750h76s67 3 67 -68v-682z" />
    <glyph glyph-name="o" unicode="o" 
d="M173 644v-595s0 -52 -70 -52c-73 0 -72 52 -72 52v56v0v127v361v0v108s0 52 70 52c72 0 72 -52 72 -52v-57zM103 47c24 0 24 20 24 20v87v0v529s0 20 -26 20c-24 0 -24 -20 -24 -20v-90v0v-526s0 -20 26 -20z" />
    <glyph glyph-name="p" unicode="p" horiz-adv-x="204" 
d="M77 0h-47v347v0v403v0h47h26c74 0 70 -61 70 -61v-1v0v-280s4 -61 -70 -61h-26v-347zM127 686c0 0 0 14 -25 14h-25v-302h26s24 1 24 17v271z" />
    <glyph glyph-name="q" unicode="q" horiz-adv-x="202" 
d="M172 644v-597s0 -40 -48 -50v-8s0 -20 26 -20v-52c-72 0 -72 52 -72 52v28c-48 10 -48 50 -48 50v58v0v127v364v0v105s0 52 70 52c72 0 72 -52 72 -52v-57zM126 67v87v0v529s0 20 -26 20c-24 0 -24 -20 -24 -20v-87v0v-529s0 -20 26 -20c24 0 24 20 24 20z" />
    <glyph glyph-name="r" unicode="r" horiz-adv-x="204" 
d="M173 0h-47v337s1 15 -24 15h-26v-302v0v-50h-46v750h73c73 0 70 -61 70 -61v-280c0 -33 -20 -34 -23 -33c27 -1 23 -36 23 -36v-340zM126 686c0 0 1 14 -24 14h-26v-302h27s23 1 23 17v271z" />
    <glyph glyph-name="s" unicode="s" 
d="M173 349v-42v0v-115v-87v0v-56s0 -52 -72 -52c-70 0 -70 52 -70 52v117h46v-99s0 -20 24 -20c26 0 26 20 26 20v260v0v2s0 20 -24 20h-2v0c-71 0 -70 52 -70 52v35v0v160v0v105s0 52 70 52c72 0 72 -52 72 -52v-122h-46v104s0 20 -26 20c-24 0 -24 -20 -24 -20v-239v0
v-23s0 -20 24 -20v0h3v0c69 0 69 -52 69 -52z" />
    <glyph glyph-name="t" unicode="t" 
d="M173 750v-50h-49v-700h-46v700h-48v50h143z" />
    <glyph glyph-name="u" unicode="u" horiz-adv-x="202" 
d="M76 67c0 0 0 -20 26 -20c24 0 24 20 24 20v683h46v-701s0 -52 -70 -52c-72 0 -72 52 -72 52v303v46v352h46v-683z" />
    <glyph glyph-name="v" unicode="v" 
d="M126 750h47v-682c0 -71 -67 -68 -67 -68h-76v750h46v-51v-347v-302h26s24 -1 24 17v683z" />
    <glyph glyph-name="w" unicode="w" horiz-adv-x="299" 
d="M202 0h-172v750h46v-51v-347v-302h26s24 -2 24 17v683h47v-683v-3v-14h26s23 -2 23 17v683h47v-682c0 -71 -67 -68 -67 -68z" />
    <glyph glyph-name="x" unicode="x" 
d="M173 337v-337h-46v318l-25 26l-26 -26v-318h-46v337l39 39l-39 39v336h46v-317l26 -25l25 25v317h46v-336l-39 -39z" />
    <glyph glyph-name="y" unicode="y" 
d="M127 750h46v-352s0 -41 -49 -51v-347h-46v348c-48 10 -48 50 -48 50v315v37h46v-332s0 -20 26 -20c25 0 25 20 25 20v332z" />
    <glyph glyph-name="z" unicode="z" horiz-adv-x="206" 
d="M176 50v-50h-96v0h-23h-23l6 51v0l80 649v0h-90v50h96v0h24h23l-7 -51v0l-79 -649v0h89z" />
    <glyph glyph-name="D" unicode="D" horiz-adv-x="204" 
d="M173 689v-621c0 -71 -67 -68 -67 -68h-76v750h72c74 0 71 -61 71 -61zM126 67v619s0 14 -24 14h-26v-348v-302h27s23 0 23 17z" />
    <glyph glyph-name="zero" unicode="0" 
d="M173 644v0v-595s0 -52 -70 -52c-73 0 -72 52 -72 52v56v0v127v364v0v105s0 52 70 52c72 0 72 -52 72 -52v-57zM77 683v-87v0v-268l49 361c-3 6 -9 14 -25 14c-24 0 -24 -20 -24 -20zM127 67v90v0v250l-47 -351c4 -5 10 -9 23 -9c24 0 24 20 24 20z" />
    <glyph glyph-name="one" unicode="1" 
d="M173 0h-143v50h49v650h-48v50h94v-700h48v-50z" />
    <glyph glyph-name="two" unicode="2" horiz-adv-x="204" 
d="M174 50v-50h-144v349s0 52 70 52c27 0 27 20 27 20v262c0 13 -12 20 -25 20c-12 0 -25 -7 -25 -20v-104h-47v122s0 52 73 52c70 0 70 -52 70 -52v-300s1 -52 -69 -52c-27 0 -27 -21 -27 -22v-277h97z" />
    <glyph glyph-name="three" unicode="3" horiz-adv-x="202" 
d="M172 701v-300s0 -13 -9 -26c9 -13 9 -27 9 -27v-299s0 -52 -70 -52c-72 0 -72 52 -72 52v114h46v-95s0 -21 26 -21c24 0 24 21 24 21v263s0 20 -23 20v47c23 1 23 20 23 20v265s0 20 -24 20c-26 0 -26 -20 -26 -20v-104h-46v122s0 52 72 52c70 0 70 -52 70 -52z" />
    <glyph glyph-name="four" unicode="4" horiz-adv-x="202" 
d="M126 398v352h46v-750h-46v352h-96v398h46v-352h50z" />
    <glyph glyph-name="five" unicode="5" 
d="M126 68v260s0 20 -27 20c-69 1 -69 53 -69 53v349h143v-95h-46v45h-51v-279s0 -20 26 -20c71 0 70 -53 70 -53v-299s0 -52 -70 -52c-72 0 -72 52 -72 52v122h46v-103s0 -21 26 -21c24 0 24 21 24 21z" />
    <glyph glyph-name="six" unicode="6" 
d="M173 348v-299s0 -52 -72 -52c-71 0 -71 52 -71 52v299s0 13 9 26c-9 13 -9 26 -9 26v301s0 52 71 52c72 0 72 -52 72 -52v-123h-46v105s0 20 -26 20c-25 0 -25 -20 -24 -20v-262c0 -15 12 -20 26 -20c62 0 69 -41 70 -51v-2zM127 328c0 13 -13 19 -25 19
c-13 0 -25 -6 -26 -19v-260s0 -21 25 -21c26 0 26 21 26 21v260z" />
    <glyph glyph-name="seven" unicode="7" 
d="M173 751v-51l-94 -699h-48l96 699h-97v51h143z" />
    <glyph glyph-name="eight" unicode="8" horiz-adv-x="202" 
d="M172 701v-300s0 -13 -9 -26c9 -13 9 -27 9 -27v-299s0 -52 -70 -52c-72 0 -72 52 -72 52v300s0 13 8 26c-8 13 -8 26 -8 26v300s0 52 72 52c70 0 70 -52 70 -52zM76 683v-262c0 -13 12 -20 25 -20c12 0 25 7 25 20v262c0 13 -13 20 -25 20c-13 0 -25 -7 -25 -20zM76 68
c0 -14 13 -21 25 -21c13 0 25 7 25 21v260c0 13 -13 20 -26 20c-12 0 -24 -6 -24 -20v-260z" />
    <glyph glyph-name="nine" unicode="9" 
d="M30 402v299s0 52 72 52c71 0 71 -52 71 -52v-299s0 -13 -9 -26c9 -13 9 -26 9 -26v-301s0 -52 -71 -52c-72 0 -72 52 -72 52v123h46v-105s0 -20 26 -20c25 0 25 20 24 20v262c0 15 -12 20 -26 20c-62 0 -69 41 -70 51v2zM76 422c0 -13 13 -19 25 -19c13 0 25 6 26 19v260
s0 21 -25 21c-26 0 -26 -21 -26 -21v-260z" />
    <glyph glyph-name="question" unicode="?" horiz-adv-x="243" 
d="M51 0v50h46v-50h-46zM193 698v-415s0 -53 -68 -53c-24 0 -28 -20 -28 -20v-129h-46v149s-1 53 72 53c24 0 24 20 24 22v374s0 21 -26 21c-24 0 -24 -21 -24 -21v-95h-46v114s0 52 70 52c72 0 72 -52 72 -52z" />
    <glyph glyph-name="questiondown" unicode="&#xbf;" horiz-adv-x="243" 
d="M192 750v-50h-46v50h46zM50 52v415s0 53 68 53c24 0 28 20 28 20v129h46v-149s1 -53 -72 -53c-24 0 -24 -20 -24 -22v-374s0 -21 26 -21c24 0 24 21 24 21v95h46v-114s0 -52 -70 -52c-72 0 -72 52 -72 52z" />
    <glyph glyph-name="exclam" unicode="!" horiz-adv-x="147" 
d="M50 750h47v-669h-47v669zM50 50h47v-50h-47v50z" />
    <glyph glyph-name="exclamdown" unicode="&#xa1;" horiz-adv-x="147" 
d="M97 0h-47v669h47v-669zM97 700h-47v50h47v-50z" />
    <glyph glyph-name="bracketleft" unicode="[" horiz-adv-x="155" 
d="M125 0h-95v750h94v-50h-48v-650h49v-50z" />
    <glyph glyph-name="bracketright" unicode="]" horiz-adv-x="155" 
d="M30 750h95v-750h-94v50h48v650h-49v50z" />
    <glyph glyph-name="parenleft" unicode="(" horiz-adv-x="155" 
d="M100 50h25v-50h-25c-70 1 -70 52 -70 52v646s0 52 70 52h24v-50h-26c-22 -1 -22 -20 -22 -20v-610s0 -19 24 -20z" />
    <glyph glyph-name="parenright" unicode=")" horiz-adv-x="155" 
d="M55 700h-25v50h25c70 -1 70 -52 70 -52v-646s0 -52 -70 -52h-24v50h26c22 1 22 20 22 20v610s0 19 -24 20z" />
    <glyph glyph-name="period" unicode="." horiz-adv-x="146" 
d="M50 0v50h46v-50h-46z" />
    <glyph glyph-name="comma" unicode="," horiz-adv-x="146" 
d="M50 50h46v-102h-46v102z" />
    <glyph glyph-name="colon" unicode=":" horiz-adv-x="106" 
d="M30 0v50h46v-50h-46zM30 352v50h46v-50h-46z" />
    <glyph glyph-name="semicolon" unicode=";" horiz-adv-x="106" 
d="M30 352v50h46v-50h-46zM30 50h46v-102h-46v102z" />
    <glyph glyph-name="quotesingle" unicode="'" horiz-adv-x="106" 
d="M30 802h46v-102h-46v102z" />
    <glyph glyph-name="quotedbl" unicode="&#x22;" horiz-adv-x="182" 
d="M30 802h46v-102h-46v102zM106 802h46v-102h-46v102z" />
    <glyph glyph-name="asterisk" unicode="*" horiz-adv-x="162" 
d="M132 464v-31h-13l9 -10l-22 -22l-9 10v-14h-31v14l-10 -10l-22 22l10 10h-14v31h14l-10 9l22 22l10 -9v13h31v-13l9 9l22 -22l-9 -9h13z" />
    <glyph glyph-name="minus" unicode="&#x2212;" 
d="M173 397v-46h-143v46h143z" />
    <glyph glyph-name="hyphen" unicode="-" 
d="M173 397v-46h-143v46h143z" />
    <glyph glyph-name="plus" unicode="+" 
d="M173 398v-46h-48v-49h-46v49h-49v46h49v48h46v-48h48z" />
    <glyph glyph-name="equal" unicode="=" 
d="M30 444h143v-46h-143v46zM30 306v46h143v-46h-143z" />
    <glyph glyph-name="multiply" unicode="&#xd7;" horiz-adv-x="194" 
d="M164 340l-33 -32l-34 33l-34 -34l-33 32l35 35l-35 35l33 32l34 -34l34 33l33 -32l-34 -34z" />
    <glyph glyph-name="divide" unicode="&#xf7;" horiz-adv-x="202" 
d="M172 398v-46h-142v46h142zM124 436c0 -13 -10 -23 -23 -23s-23 10 -23 23c0 12 10 23 23 23s23 -11 23 -23zM124 314c0 -13 -10 -23 -23 -23s-23 10 -23 23c0 12 10 23 23 23s23 -11 23 -23z" />
    <glyph glyph-name="numbersign" unicode="#" horiz-adv-x="260" 
d="M230 225h-29v-52h29v-46h-29v-127h-46v127h-51v-127h-46v127h-28v46h28v52h-28v46h28v127h46v-127h51v127h46v-127h29v-46zM155 173v52h-51v-52h51z" />
    <glyph glyph-name="ampersand" unicode="&#x26;" horiz-adv-x="230" 
d="M200 465v-51h-27v-2v-412v0h-70c-73 0 -73 52 -73 52v361s0 13 9 26c-9 13 -9 26 -9 26v233s0 52 73 52v-51c-26 0 -26 -20 -26 -20v-192c0 -3 -1 -22 20 -22h3h27v49h46v-49h27zM127 50v20v344h-30c-23 0 -20 -20 -20 -22v-322s0 -20 26 -20h24z" />
    <glyph glyph-name="percent" unicode="%" 
d="M79 1h-47l92 750h47zM96 38c0 21 17 38 38 38s39 -17 39 -38s-18 -39 -39 -39s-38 18 -38 39zM30 713c0 22 17 39 38 39c22 0 39 -17 39 -39c0 -21 -17 -38 -39 -38c-21 0 -38 17 -38 38z" />
    <glyph glyph-name="slash" unicode="/" horiz-adv-x="200" 
d="M77 0h-47l93 755h47z" />
    <glyph glyph-name="backslash" unicode="\" horiz-adv-x="200" 
d="M123 0l-93 755h47l93 -755h-47z" />
    <glyph glyph-name="A" unicode="A" horiz-adv-x="202" 
d="M100 753c72 0 72 -52 72 -52v-701h-46v352h-50v-352h-46v701s0 52 70 52zM76 398h50v286c0 13 -13 19 -25 19c-13 0 -25 -6 -25 -19v-286z" />
    <glyph glyph-name="B" unicode="B" horiz-adv-x="204" 
d="M150 376c26 -1 23 -36 23 -36v-250c0 -93 -67 -90 -67 -90h-76v750h72c74 0 71 -61 71 -61v-280c0 -33 -20 -34 -23 -33zM126 337c0 0 1 15 -24 15h-26v-302h27s23 -2 23 17v270zM126 686c0 0 0 14 -24 14h-26v-302h27s23 -1 23 17v271z" />
    <glyph glyph-name="C" unicode="C" 
d="M127 91h46v-42s0 -52 -70 -52c-73 0 -72 52 -72 52v56v0v127v364v0v105s0 52 70 52c72 0 72 -52 72 -52v-43h-46v26c0 13 -13 19 -25 19c-13 0 -25 -6 -25 -19v-616c0 -14 12 -21 25 -21c12 0 25 7 25 21v23z" />
    <glyph glyph-name="caron" unicode="&#x2c7;" horiz-adv-x="192" 
d="M30 737h51l15 -101l14 101h52l-26 -142h-40h-39z" />
    <glyph glyph-name="Scaron" unicode="&#x160;" 
d="M173 349v-42v0v-115v-87v0v-56s0 -52 -72 -52c-70 0 -70 52 -70 52v117h46v-99s0 -20 24 -20c26 0 26 20 26 20v260v0v2s0 20 -24 20h-2v0c-71 0 -70 52 -70 52v35v0v160v0v105s0 52 70 52c72 0 72 -52 72 -52v-122h-46v104s0 20 -26 20c-24 0 -24 -20 -24 -20v-239v0
v-23s0 -20 24 -20v0h3v0c69 0 69 -52 69 -52zM34 937h51l15 -101l14 101h52l-26 -142h-40h-39z" />
    <glyph glyph-name="scaron" unicode="&#x161;" 
d="M173 349v-42v0v-115v-87v0v-56s0 -52 -72 -52c-70 0 -70 52 -70 52v117h46v-99s0 -20 24 -20c26 0 26 20 26 20v260v0v2s0 20 -24 20h-2v0c-71 0 -70 52 -70 52v35v0v160v0v105s0 52 70 52c72 0 72 -52 72 -52v-122h-46v104s0 20 -26 20c-24 0 -24 -20 -24 -20v-239v0
v-23s0 -20 24 -20v0h3v0c69 0 69 -52 69 -52zM37 937h51l15 -101l14 101h52l-26 -142h-40h-39z" />
    <glyph glyph-name="circumflex" unicode="&#x2c6;" horiz-adv-x="192" 
d="M162 596h-51l-15 101l-14 -101h-52l26 142h40h39z" />
    <glyph glyph-name="Acircumflex" unicode="&#xc2;" horiz-adv-x="202" 
d="M100 753c72 0 72 -52 72 -52v-701h-46v352h-50v-352h-46v701s0 52 70 52zM76 398h50v286c0 13 -13 19 -25 19c-13 0 -25 -6 -25 -19v-286zM167 799h-51l-15 101l-14 -101h-52l26 142h40h39z" />
    <glyph glyph-name="acute" unicode="&#xb4;" horiz-adv-x="119" 
d="M30 595l18 142l41 -1l-17 -141h-42z" />
    <glyph glyph-name="Yacute" unicode="&#xdd;" 
d="M127 750h46v-352s0 -41 -49 -51v-347h-46v348c-48 10 -48 50 -48 50v315v37h46v-332s0 -20 26 -20c25 0 25 20 25 20v332zM80 796l18 142l41 -1l-17 -141h-42z" />
    <glyph glyph-name="yacute" unicode="&#xfd;" 
d="M127 751h46v-352s0 -41 -49 -51v-347h-46v348c-48 10 -48 50 -48 50v315v37h46v-332s0 -20 26 -20c25 0 25 20 25 20v332zM81 795l18 142l41 -1l-17 -141h-42z" />
    <glyph glyph-name="Zcaron" unicode="&#x17d;" horiz-adv-x="206" 
d="M176 50v-50h-96v0h-23h-23l6 51v0l80 649v0h-90v50h96v0h24h23l-7 -51v0l-79 -649v0h89zM37 938h51l15 -101l14 101h52l-26 -142h-40h-39z" />
    <glyph glyph-name="zcaron" unicode="&#x17e;" horiz-adv-x="206" 
d="M176 50v-50h-96v0h-23h-23l6 51v0l80 649v0h-90v50h96v0h24h23l-7 -51v0l-79 -649v0h89zM35 937h51l15 -101l14 101h52l-26 -142h-40h-39z" />
    <glyph glyph-name="dollar" unicode="$" 
d="M127 793v-46c46 -11 46 -49 46 -49v-122h-46v104s0 20 -26 20c-24 0 -24 -20 -24 -20v-236v0v-23s0 -20 24 -20v0h3v0c69 0 69 -52 69 -52v-42v0v-115v-84v0v-56s-1 -38 -46 -49v-81h-52v35v46c-43 11 -44 49 -44 49v114h46v-96s0 -20 24 -20c26 0 26 20 26 20v257v0v2
s0 20 -24 20h-2v0c-71 0 -70 52 -70 52v35v0v157v0v105s0 38 44 49v81h52v-35z" />
    <glyph glyph-name="at" unicode="@" horiz-adv-x="363" 
d="M332 52c0 0 3 -51 -69 -52c-16 0 -27 4 -36 11c-10 -7 -25 -11 -45 -11c-73 0 -73 52 -73 52v293s0 52 71 52c72 0 72 -52 72 -52v-270c0 -18 6 -24 17 -24c18 0 17 21 17 21v343s1 21 -24 21h-161c-26 -1 -25 -21 -25 -21v-411c-46 10 -46 49 -46 49v382s0 52 71 52h161
c70 0 70 -52 70 -52v-383zM206 71v255s0 20 -26 20c-25 0 -25 -20 -25 -20v-255s0 -20 27 -20c24 0 24 20 24 20z" />
    <glyph glyph-name="dieresis" unicode="&#xa8;" horiz-adv-x="178" 
d="M53 641c12 0 23 -10 23 -23s-11 -23 -23 -23c-13 0 -23 10 -23 23s10 23 23 23zM125 641c13 0 23 -10 23 -23s-10 -23 -23 -23s-23 10 -23 23s10 23 23 23z" />
    <glyph glyph-name="Adieresis" unicode="&#xc4;" horiz-adv-x="202" 
d="M100 753c72 0 72 -52 72 -52v-701h-46v352h-50v-352h-46v701s0 52 70 52zM76 398h50v286c0 13 -13 19 -25 19c-13 0 -25 -6 -25 -19v-286zM65 842c12 0 23 -10 23 -23s-11 -23 -23 -23c-13 0 -23 10 -23 23s10 23 23 23zM137 842c13 0 23 -10 23 -23s-10 -23 -23 -23
s-23 10 -23 23s10 23 23 23z" />
    <glyph glyph-name="grave" unicode="`" horiz-adv-x="119" 
d="M71 737l18 -142h-42l-17 141z" />
    <glyph glyph-name="tilde" unicode="&#x2dc;" 
d="M173 647v-52h-143v52h143z" />
    <glyph glyph-name="Eacute" unicode="&#xc9;" 
d="M173 750v0v0zM30 750h143v-50h-96v-302h50v-46h-50v0v-302h96v-50h-143v750zM77 796l18 142l41 -1l-17 -141h-42z" />
    <glyph glyph-name="Ntilde" unicode="&#xd1;" 
d="M173 0h-47v683c0 18 -23 17 -23 17h-26v-302v-347v-51h-47v750h76s67 3 67 -68v-682zM173 848v-52h-143v52h143z" />
    <glyph glyph-name="Odieresis" unicode="&#xd6;" 
d="M173 644v0v-595s0 -52 -70 -52c-73 0 -72 52 -72 52v56v0v127v361v0v108s0 52 70 52c72 0 72 -52 72 -52v-57zM103 47c24 0 24 20 24 20v87v0v529s0 20 -26 20c-24 0 -24 -20 -24 -20v-90v0v-526s0 -20 26 -20zM66 842c12 0 23 -10 23 -23s-11 -23 -23 -23
c-13 0 -23 10 -23 23s10 23 23 23zM138 842c13 0 23 -10 23 -23s-10 -23 -23 -23s-23 10 -23 23s10 23 23 23z" />
    <glyph glyph-name="Udieresis" unicode="&#xdc;" horiz-adv-x="202" 
d="M76 67c0 0 0 -20 26 -20c24 0 24 20 24 20v683h46v-701s0 -52 -70 -52c-72 0 -72 52 -72 52v303v46v352h46v-683zM65 842c12 0 23 -10 23 -23s-11 -23 -23 -23c-13 0 -23 10 -23 23s10 23 23 23zM137 842c13 0 23 -10 23 -23s-10 -23 -23 -23s-23 10 -23 23s10 23 23 23z
" />
    <glyph glyph-name="aacute" unicode="&#xe1;" horiz-adv-x="202" 
d="M100 753c72 0 72 -52 72 -52v-701h-46v352h-50v-352h-46v701s0 52 70 52zM76 398h50v286c0 13 -13 19 -25 19c-13 0 -25 -6 -25 -19v-286zM77 795l18 142l41 -1l-17 -141h-42z" />
    <glyph glyph-name="agrave" unicode="&#xe0;" horiz-adv-x="202" 
d="M100 753c72 0 72 -52 72 -52v-701h-46v352h-50v-352h-46v701s0 52 70 52zM76 398h50v286c0 13 -13 19 -25 19c-13 0 -25 -6 -25 -19v-286zM102 937l18 -142h-42l-17 141z" />
    <glyph glyph-name="acircumflex" unicode="&#xe2;" horiz-adv-x="202" 
d="M100 753c72 0 72 -52 72 -52v-701h-46v352h-50v-352h-46v701s0 52 70 52zM76 398h50v286c0 13 -13 19 -25 19c-13 0 -25 -6 -25 -19v-286zM167 796h-51l-15 101l-14 -101h-52l26 142h40h39z" />
    <glyph glyph-name="adieresis" unicode="&#xe4;" horiz-adv-x="202" 
d="M100 753c72 0 72 -52 72 -52v-701h-46v352h-50v-352h-46v701s0 52 70 52zM76 398h50v286c0 13 -13 19 -25 19c-13 0 -25 -6 -25 -19v-286zM65 842c12 0 23 -10 23 -23s-11 -23 -23 -23c-13 0 -23 10 -23 23s10 23 23 23zM137 842c13 0 23 -10 23 -23s-10 -23 -23 -23
s-23 10 -23 23s10 23 23 23z" />
    <glyph glyph-name="atilde" unicode="&#xe3;" 
d="M100 753c72 0 72 -52 72 -52v-701h-46v352h-50v-352h-46v701s0 52 70 52zM76 398h50v286c0 13 -13 19 -25 19c-13 0 -25 -6 -25 -19v-286zM173 847v-52h-143v52h143z" />
    <glyph glyph-name="ccedilla" unicode="&#xe7;" 
d="M127 93h46v-42s-1 -37 -42 -49v-81h-51v80c-50 9 -49 50 -49 50v650s0 52 70 52c72 0 72 -52 72 -52v-43h-46v26c0 13 -13 19 -25 19c-13 0 -25 -6 -25 -19v-614c0 -14 12 -21 25 -21c12 0 25 7 25 21v23z" />
    <glyph glyph-name="eacute" unicode="&#xe9;" 
d="M30 750h143v0v-50h-96v-302h50v-46h-50v0v-302h96v-50h-143v750zM77 796l18 142l41 -1l-17 -141h-42z" />
    <glyph glyph-name="egrave" unicode="&#xe8;" 
d="M30 750h143v0v-50h-96v-302h50v-46h-50v0v-302h96v-50h-143v750zM111 937l18 -142h-42l-17 141z" />
    <glyph glyph-name="ecircumflex" unicode="&#xea;" 
d="M30 750h143v0v-50h-96v-302h50v-46h-50v0v-302h96v-50h-143v750zM168 795h-51l-15 101l-14 -101h-52l26 142h40h39z" />
    <glyph glyph-name="edieresis" unicode="&#xeb;" 
d="M30 750h143v0v-50h-96v-302h50v-46h-50v0v-302h96v-50h-143v750zM66 842c12 0 23 -10 23 -23s-11 -23 -23 -23c-13 0 -23 10 -23 23s10 23 23 23zM138 842c13 0 23 -10 23 -23s-10 -23 -23 -23s-23 10 -23 23s10 23 23 23z" />
    <glyph glyph-name="iacute" unicode="&#xed;" horiz-adv-x="102" 
d="M76 750v-750h-46v750h46zM33 796l18 142l41 -1l-17 -141h-42z" />
    <glyph glyph-name="igrave" unicode="&#xec;" horiz-adv-x="112" 
d="M82 750v-750h-46v750h46zM61 938l18 -142h-42l-17 141z" />
    <glyph glyph-name="icircumflex" unicode="&#xee;" horiz-adv-x="120" 
d="M83 750v-750h-46v750h46zM126 795h-51l-15 101l-14 -101h-52l26 142h40h39z" />
    <glyph glyph-name="idieresis" unicode="&#xef;" horiz-adv-x="106" 
d="M76 750v-750h-46v750h46zM17 842c12 0 23 -10 23 -23s-11 -23 -23 -23c-13 0 -23 10 -23 23s10 23 23 23zM89 842c13 0 23 -10 23 -23s-10 -23 -23 -23s-23 10 -23 23s10 23 23 23z" />
    <glyph glyph-name="ntilde" unicode="&#xf1;" 
d="M173 0h-47v683c0 18 -23 17 -23 17h-26v-302v-347v-51h-47v750h76s67 3 67 -68v-682zM173 848v-52h-143v52h143z" />
    <glyph glyph-name="oacute" unicode="&#xf3;" 
d="M173 644v-595s0 -52 -70 -52c-73 0 -72 52 -72 52v56v0v127v361v0v108s0 52 70 52c72 0 72 -52 72 -52v-57zM103 47c24 0 24 20 24 20v87v0v529s0 20 -26 20c-24 0 -24 -20 -24 -20v-90v0v-526s0 -20 26 -20zM83 796l18 142l41 -1l-17 -141h-42z" />
    <glyph glyph-name="ograve" unicode="&#xf2;" 
d="M173 644v-595s0 -52 -70 -52c-73 0 -72 52 -72 52v56v0v127v361v0v108s0 52 70 52c72 0 72 -52 72 -52v-57zM103 47c24 0 24 20 24 20v87v0v529s0 20 -26 20c-24 0 -24 -20 -24 -20v-90v0v-526s0 -20 26 -20zM105 938l18 -142h-42l-17 141z" />
    <glyph glyph-name="ocircumflex" unicode="&#xf4;" 
d="M173 644v-595s0 -52 -70 -52c-73 0 -72 52 -72 52v56v0v127v361v0v108s0 52 70 52c72 0 72 -52 72 -52v-57zM103 47c24 0 24 20 24 20v87v0v529s0 20 -26 20c-24 0 -24 -20 -24 -20v-90v0v-526s0 -20 26 -20zM168 795h-51l-15 101l-14 -101h-52l26 142h40h39z" />
    <glyph glyph-name="odieresis" unicode="&#xf6;" 
d="M173 644v-595s0 -52 -70 -52c-73 0 -72 52 -72 52v56v0v127v361v0v108s0 52 70 52c72 0 72 -52 72 -52v-57zM103 47c24 0 24 20 24 20v87v0v529s0 20 -26 20c-24 0 -24 -20 -24 -20v-90v0v-526s0 -20 26 -20zM66 842c12 0 23 -10 23 -23s-11 -23 -23 -23
c-13 0 -23 10 -23 23s10 23 23 23zM138 842c13 0 23 -10 23 -23s-10 -23 -23 -23s-23 10 -23 23s10 23 23 23z" />
    <glyph glyph-name="otilde" unicode="&#xf5;" 
d="M173 644v-595s0 -52 -70 -52c-73 0 -72 52 -72 52v56v0v127v361v0v108s0 52 70 52c72 0 72 -52 72 -52v-57zM103 47c24 0 24 20 24 20v87v0v529s0 20 -26 20c-24 0 -24 -20 -24 -20v-90v0v-526s0 -20 26 -20zM173 848v-52h-143v52h143z" />
    <glyph glyph-name="uacute" unicode="&#xfa;" horiz-adv-x="202" 
d="M76 67c0 0 0 -20 26 -20c24 0 24 20 24 20v683h46v-701s0 -52 -70 -52c-72 0 -72 52 -72 52v303v46v352h46v-683zM82 796l18 142l41 -1l-17 -141h-42z" />
    <glyph glyph-name="ugrave" unicode="&#xf9;" horiz-adv-x="202" 
d="M76 67c0 0 0 -20 26 -20c24 0 24 20 24 20v683h46v-701s0 -52 -70 -52c-72 0 -72 52 -72 52v303v46v352h46v-683zM105 938l18 -142h-42l-17 141z" />
    <glyph glyph-name="ucircumflex" unicode="&#xfb;" horiz-adv-x="202" 
d="M76 67c0 0 0 -20 26 -20c24 0 24 20 24 20v683h46v-701s0 -52 -70 -52c-72 0 -72 52 -72 52v303v46v352h46v-683zM167 795h-51l-15 101l-14 -101h-52l26 142h40h39z" />
    <glyph glyph-name="udieresis" unicode="&#xfc;" horiz-adv-x="202" 
d="M76 67c0 0 0 -20 26 -20c24 0 24 20 24 20v683h46v-701s0 -52 -70 -52c-72 0 -72 52 -72 52v303v46v352h46v-683zM65 841c12 0 23 -10 23 -23s-11 -23 -23 -23c-13 0 -23 10 -23 23s10 23 23 23zM137 841c13 0 23 -10 23 -23s-10 -23 -23 -23s-23 10 -23 23s10 23 23 23z
" />
    <glyph glyph-name="ae" unicode="&#xe6;" horiz-adv-x="299" 
d="M269 0h-143v352h-50v-352h-46v698s0 52 70 52h169v-50h-97v-302h51v-46h-51v-302h97v-50zM76 398h50v283c0 13 -13 19 -25 19c-13 0 -25 -6 -25 -19v-283z" />
    <glyph glyph-name="ellipsis" unicode="&#x2026;" horiz-adv-x="358" 
d="M50 0v50h46v-50h-46zM156 0v50h46v-50h-46zM262 0v50h46v-50h-46z" />
    <glyph glyph-name="Agrave" unicode="&#xc0;" horiz-adv-x="202" 
d="M100 753c72 0 72 -52 72 -52v-701h-46v352h-50v-352h-46v701s0 52 70 52zM76 398h50v286c0 13 -13 19 -25 19c-13 0 -25 -6 -25 -19v-286zM107 938l18 -142h-42l-17 141z" />
    <glyph glyph-name="Atilde" unicode="&#xc3;" horiz-adv-x="202" 
d="M100 753c72 0 72 -52 72 -52v-701h-46v352h-50v-352h-46v701s0 52 70 52zM76 398h50v286c0 13 -13 19 -25 19c-13 0 -25 -6 -25 -19v-286zM173 848v-52h-143v52h143z" />
    <glyph glyph-name="Otilde" unicode="&#xd5;" 
d="M173 644v0v-595s0 -52 -70 -52c-73 0 -72 52 -72 52v56v0v127v361v0v108s0 52 70 52c72 0 72 -52 72 -52v-57zM103 47c24 0 24 20 24 20v87v0v529s0 20 -26 20c-24 0 -24 -20 -24 -20v-90v0v-526s0 -20 26 -20zM173 848v-52h-143v52h143z" />
    <glyph glyph-name="AE" unicode="&#xc6;" horiz-adv-x="299" 
d="M269 0h-143v352h-50v-352h-46v698s0 52 70 52h169v-50h-97v-302h51v-46h-51v-302h97v-50zM76 398h50v283c0 13 -13 19 -25 19c-13 0 -25 -6 -25 -19v-283z" />
    <glyph glyph-name="OE" unicode="&#x152;" horiz-adv-x="300" 
d="M270 0h-167c-73 0 -72 52 -72 52v646s0 52 70 52h169v-50h-96v-302h50v-46h-50v-302h96v-50zM103 50c24 0 24 20 24 20v610s0 20 -26 20c-24 0 -24 -20 -24 -20v-610s0 -20 26 -20z" />
    <glyph glyph-name="oe" unicode="&#x153;" horiz-adv-x="300" 
d="M270 0h-167c-73 0 -72 52 -72 52v646s0 52 70 52h169v-50h-96v-302h50v-46h-50v-302h96v-50zM103 50c24 0 24 20 24 20v610s0 20 -26 20c-24 0 -24 -20 -24 -20v-610s0 -20 26 -20z" />
    <glyph glyph-name="ydieresis" unicode="&#xff;" 
d="M127 750h46v-352s0 -41 -49 -51v-347h-46v348c-48 10 -48 50 -48 50v315v37h46v-332s0 -20 26 -20c25 0 25 20 25 20v332zM66 842c12 0 23 -10 23 -23s-11 -23 -23 -23c-13 0 -23 10 -23 23s10 23 23 23zM138 842c13 0 23 -10 23 -23s-10 -23 -23 -23s-23 10 -23 23
s10 23 23 23z" />
    <glyph glyph-name="Ydieresis" unicode="&#x178;" 
d="M127 750h46v-352s0 -41 -49 -51v-347h-46v348c-48 10 -48 50 -48 50v315v37h46v-332s0 -20 26 -20c25 0 25 20 25 20v332zM66 842c12 0 23 -10 23 -23s-11 -23 -23 -23c-13 0 -23 10 -23 23s10 23 23 23zM138 842c13 0 23 -10 23 -23s-10 -23 -23 -23s-23 10 -23 23
s10 23 23 23z" />
    <glyph glyph-name="fraction" unicode="&#x2044;" horiz-adv-x="200" 
d="M77 -2h-47l93 755h47z" />
    <glyph glyph-name="Euro" unicode="&#x20ac;" horiz-adv-x="234" 
d="M30 306v46h32v46h-32v46h32v254s0 52 70 52c72 0 72 -52 72 -52v-43h-46v26c0 13 -13 19 -25 19c-13 0 -25 -6 -25 -19v-237h65v-46h-65v-46h65v-46h-65v-235c0 -14 12 -21 25 -21c12 0 25 7 25 21v23h46v-42s0 -52 -70 -52c-73 0 -72 52 -72 52v254h-32z" />
    <glyph glyph-name="Ecircumflex" unicode="&#xca;" 
d="M173 750v0v0zM30 750h143v-50h-96v-302h50v-46h-50v0v-302h96v-50h-143v750zM168 797h-51l-15 101l-14 -101h-52l26 142h40h39z" />
    <glyph glyph-name="Aacute" unicode="&#xc1;" horiz-adv-x="202" 
d="M100 753c72 0 72 -52 72 -52v-701h-46v352h-50v-352h-46v701s0 52 70 52zM76 398h50v286c0 13 -13 19 -25 19c-13 0 -25 -6 -25 -19v-286zM77 796l18 142l41 -1l-17 -141h-42z" />
    <glyph glyph-name="Edieresis" unicode="&#xcb;" 
d="M173 750v0v0zM30 750h143v-50h-96v-302h50v-46h-50v0v-302h96v-50h-143v750zM66 842c12 0 23 -10 23 -23s-11 -23 -23 -23c-13 0 -23 10 -23 23s10 23 23 23zM138 842c13 0 23 -10 23 -23s-10 -23 -23 -23s-23 10 -23 23s10 23 23 23z" />
    <glyph glyph-name="Egrave" unicode="&#xc8;" 
d="M173 750v0v0zM30 750h143v-50h-96v-302h50v-46h-50v0v-302h96v-50h-143v750zM109 938l18 -142h-42l-17 141z" />
    <glyph glyph-name="Iacute" unicode="&#xcd;" horiz-adv-x="101" 
d="M76 0h-46v750h46v-750zM32 795l18 142l41 -1l-17 -141h-42z" />
    <glyph glyph-name="Icircumflex" unicode="&#xce;" horiz-adv-x="120" 
d="M83 0h-46v750h46v-750zM126 797h-51l-15 101l-14 -101h-52l26 142h40h39z" />
    <glyph glyph-name="Idieresis" unicode="&#xcf;" horiz-adv-x="106" 
d="M76 0h-46v750h46v-750zM17 842c12 0 23 -10 23 -23s-11 -23 -23 -23c-13 0 -23 10 -23 23s10 23 23 23zM89 842c13 0 23 -10 23 -23s-10 -23 -23 -23s-23 10 -23 23s10 23 23 23z" />
    <glyph glyph-name="Igrave" unicode="&#xcc;" horiz-adv-x="112" 
d="M82 0h-46v750h46v-750zM61 938l18 -142h-42l-17 141z" />
    <glyph glyph-name="Oacute" unicode="&#xd3;" 
d="M173 644v0v-595s0 -52 -70 -52c-73 0 -72 52 -72 52v56v0v127v361v0v108s0 52 70 52c72 0 72 -52 72 -52v-57zM103 47c24 0 24 20 24 20v87v0v529s0 20 -26 20c-24 0 -24 -20 -24 -20v-90v0v-526s0 -20 26 -20zM77 796l18 142l41 -1l-17 -141h-42z" />
    <glyph glyph-name="Ocircumflex" unicode="&#xd4;" 
d="M173 644v0v-595s0 -52 -70 -52c-73 0 -72 52 -72 52v56v0v127v361v0v108s0 52 70 52c72 0 72 -52 72 -52v-57zM103 47c24 0 24 20 24 20v87v0v529s0 20 -26 20c-24 0 -24 -20 -24 -20v-90v0v-526s0 -20 26 -20zM168 797h-51l-15 101l-14 -101h-52l26 142h40h39z" />
    <glyph glyph-name="Ograve" unicode="&#xd2;" 
d="M173 644v0v-595s0 -52 -70 -52c-73 0 -72 52 -72 52v56v0v127v361v0v108s0 52 70 52c72 0 72 -52 72 -52v-57zM103 47c24 0 24 20 24 20v87v0v529s0 20 -26 20c-24 0 -24 -20 -24 -20v-90v0v-526s0 -20 26 -20zM106 938l18 -142h-42l-17 141z" />
    <glyph glyph-name="Uacute" unicode="&#xda;" horiz-adv-x="202" 
d="M76 67c0 0 0 -20 26 -20c24 0 24 20 24 20v683h46v-701s0 -52 -70 -52c-72 0 -72 52 -72 52v303v46v352h46v-683zM74 796l18 142l41 -1l-17 -141h-42z" />
    <glyph glyph-name="Ucircumflex" unicode="&#xdb;" horiz-adv-x="202" 
d="M76 67c0 0 0 -20 26 -20c24 0 24 20 24 20v683h46v-701s0 -52 -70 -52c-72 0 -72 52 -72 52v303v46v352h46v-683zM167 797h-51l-15 101l-14 -101h-52l26 142h40h39z" />
    <glyph glyph-name="Ugrave" unicode="&#xd9;" horiz-adv-x="202" 
d="M76 67c0 0 0 -20 26 -20c24 0 24 20 24 20v683h46v-701s0 -52 -70 -52c-72 0 -72 52 -72 52v303v46v352h46v-683zM104 938l18 -142h-42l-17 141z" />
    </font>
</defs>
</svg>
