<?xml version="1.0" standalone="no"?>
<!DOCTYPE svg PUBLIC "-//W3C//DTD SVG 1.1//EN" "http://www.w3.org/Graphics/SVG/1.1/DTD/svg11.dtd" >
<svg xmlns="http://www.w3.org/2000/svg" xmlns:xlink="http://www.w3.org/1999/xlink" version="1.1">
<metadata>
Created by FontForge 20150504 at Fri Jul 24 10:54:07 2015
 By Jimmy Wärting
Copyright (c) Graham Meade &#38; Apostrophic Labs, 2001. All rights reserved. Email info@apostrophiclab.com or visit www.apostrophiclab.com for more information.
</metadata>
<defs>
<font id="LabtopUnicase-Bold" horiz-adv-x="285" >
  <font-face 
    font-family="Labtop Unicase"
    font-weight="700"
    font-stretch="normal"
    units-per-em="1000"
    panose-1="2 11 3 6 4 0 2 2 2 4"
    ascent="800"
    descent="-200"
    x-height="834"
    cap-height="832"
    bbox="-103 -264 902 1048"
    underline-thickness="31"
    underline-position="-105"
    unicode-range="U+0020-F000"
  />
<missing-glyph horiz-adv-x="175" 
 />
    <glyph glyph-name=".notdef" horiz-adv-x="175" 
 />
    <glyph glyph-name=".null" horiz-adv-x="0" 
 />
    <glyph glyph-name="nonmarkingreturn" horiz-adv-x="175" 
 />
    <glyph glyph-name="space" unicode=" " horiz-adv-x="175" 
 />
    <glyph glyph-name="space" unicode="&#xa0;" horiz-adv-x="175" 
 />
    <glyph glyph-name="caron" unicode="&#x2c7;" 
d="M227 826h-63l-22 -63l-20 63h-63l54 -185h59z" />
    <glyph glyph-name="dotlessi" unicode="&#x131;" horiz-adv-x="116" 
d="M90 0v711h-64v-711h64z" />
    <glyph glyph-name="Lslash" unicode="&#x141;" horiz-adv-x="246" 
d="M189 437l-26 54l-73 -37v380h-64v-413l-100 -50l26 -55l74 38v-354h235v56h-171v330z" />
    <glyph glyph-name="lslash" unicode="&#x142;" horiz-adv-x="116" 
d="M90 0v383l98 49l-26 55l-72 -37v404l-64 -62v-374l-101 -52l26 -54l75 38v-350h64z" />
    <glyph glyph-name="Zcaron" unicode="&#x17d;" horiz-adv-x="270" 
d="M266 834h-255v-58h175l-183 -776h256v56h-176zM229 1037h-63l-22 -63l-20 63h-63l54 -185h59z" />
    <glyph glyph-name="zcaron" unicode="&#x17e;" horiz-adv-x="270" 
d="M266 834h-255v-58h175l-183 -776h256v56h-176zM229 1037h-63l-22 -63l-20 63h-63l54 -185h59z" />
    <glyph glyph-name="exclam" unicode="!" horiz-adv-x="142" 
d="M104 121v713h-64v-713h64zM102 -1v67h-61v-67h61z" />
    <glyph glyph-name="quotedbl" unicode="&#x22;" horiz-adv-x="245" 
d="M207 591v223h-68v-223h68zM109 591v223h-68v-223h68z" />
    <glyph glyph-name="numbersign" unicode="#" horiz-adv-x="399" 
d="M398 467l-100 -1l12 129h-64l-11 -129l-47 -1l12 129h-63l-12 -129h-99l-8 -64l101 1l-7 -73h-99l-8 -64l102 1l-11 -129h63l11 129h45l-10 -127h64l11 127l101 1l5 63h-100l7 74h101zM183 402h45l-6 -72l-46 -1z" />
    <glyph glyph-name="dollar" unicode="$" 
d="M261 412h-3q-14 75 -83 87v279q24 -17 24 -71v-80h62v78q0 117 -86 134v47h-60v-47q-91 -15 -91 -134v-121q0 -121 91 -136v-393q-26 14 -26 72v74h-65v-72q0 -119 91 -135v-44h60v44q86 17 86 135v283zM199 127q0 -55 -24 -71v383q24 -14 24 -53v-259zM89 581v126
q0 59 26 73v-273q-26 16 -26 74z" />
    <glyph glyph-name="percent" unicode="%" horiz-adv-x="577" 
d="M250 540v160q0 136 -120 136q-118 0 -118 -136v-160q0 -138 118 -138q120 0 120 138zM565 131v160q0 138 -119 138q-117 0 -117 -138v-160q0 -71 32 -110q5 -5 7 -6.5t5 -4.5l4 -4q10 -6 22 -8.5t26 -2.5q39 0 66 7t43.5 23t23.5 42t7 64zM487 841h-65l-353 -849h65z
M501 129q0 -79 -55 -79q-18 0 -29 5t-18 15l1 -1q-9 16 -9 60v165q0 77 55 77t55 -77v-165zM185 537q0 -78 -55 -78q-35 0 -45 19q-9 16 -9 59v165q0 78 54 78q55 0 55 -78v-165z" />
    <glyph glyph-name="ampersand" unicode="&#x26;" 
d="M342 -94v41q-70 0 -70 79v248h-3q-14 105 -132 105v-57q70 0 70 -77v-135q0 -38 -17 -51q-17 -12 -59 -12q-55 0 -55 80v248q0 49 7 56q24 24 59 24q83 0 107 59q12 25 12 77v114q0 136 -119 136q-118 0 -118 -136v-114q0 -77 33 -108q-25 -17 -34 -37q-5 -12 -7 -29
t-2 -43v-245q0 -137 117 -137q47 0 77 11q13 -112 119 -112zM197 589q0 -79 -55 -79t-55 79v118q0 78 55 78t55 -78v-118z" />
    <glyph glyph-name="quotesingle" unicode="'" horiz-adv-x="150" 
d="M109 591v223h-68v-223h68z" />
    <glyph glyph-name="parenleft" unicode="(" horiz-adv-x="150" 
d="M157 -216v39q-47 1 -60 21v-1q-10 16 -10 59v859q0 44 9 58q11 17 61 22v56q-82 -4 -109 -41q-24 -32 -24 -96v-855q0 -64 24 -97q28 -38 94 -39z" />
    <glyph glyph-name="parenright" unicode=")" horiz-adv-x="150" 
d="M157 -95v855q0 64 -24 96q-27 37 -109 41v-56q50 -5 60 -22q10 -14 10 -58v-859q0 -43 -10 -59v1q-5 -8 -20 -13.5t-40 -6.5v-55q82 1 109 39q24 33 24 97z" />
    <glyph glyph-name="asterisk" unicode="*" horiz-adv-x="356" 
d="M337 700l-32 60l-94 -54v108h-67v-108l-94 54l-33 -60l92 -53l-92 -52l34 -61l93 54v-107h67v107l94 -54l32 61l-91 52z" />
    <glyph glyph-name="plus" unicode="+" horiz-adv-x="366" 
d="M363 324v61h-148v147h-62v-147h-148v-61h148v-149h62v149h148z" />
    <glyph glyph-name="comma" unicode="," horiz-adv-x="142" 
d="M102 71h-88v-67h14l-15 -77h65l24 124v20z" />
    <glyph glyph-name="hyphen" unicode="-" horiz-adv-x="270" 
d="M246 324v61h-222v-61h222z" />
    <glyph glyph-name="hyphen" unicode="&#x2010;" horiz-adv-x="270" 
d="M246 324v61h-222v-61h222z" />
    <glyph glyph-name="period" unicode="." horiz-adv-x="142" 
d="M102 4v67h-62v-67h62z" />
    <glyph glyph-name="slash" unicode="/" horiz-adv-x="291" 
d="M307 841h-64l-257 -841h64z" />
    <glyph glyph-name="zero" unicode="0" 
d="M261 129v576q0 136 -119 136q-118 0 -118 -136v-576q0 -137 118 -137q119 0 119 137zM197 127q0 -80 -55 -80q-47 0 -53 54l108 405v-379zM87 707q0 78 55 78q45 0 53 -49l-108 -404v375z" />
    <glyph glyph-name="one" unicode="1" horiz-adv-x="132" 
d="M126 0v61h-27v781l-99 -41v-63l35 13v-690h-26v-61h117z" />
    <glyph glyph-name="two" unicode="2" horiz-adv-x="272" 
d="M261 0v57h-174v314q0 16 2.5 27t9 17.5t17.5 10t28 5.5h-1q66 6 92 29q26 26 26 94v151q0 136 -119 136q-118 0 -118 -136v-73h63v75q0 78 55 78t55 -78v-151q0 -42 -11 -53q-7 -7 -57 -13h1q-61 -5 -83.5 -31.5t-22.5 -86.5v-372h237z" />
    <glyph glyph-name="three" unicode="3" horiz-adv-x="265" 
d="M249 129v251q0 69 -41 96q41 30 41 98v131q0 136 -119 136q-118 0 -118 -136v-73h63v75q0 78 55 78t55 -78v-130q0 -23 -2.5 -36.5t-7.5 -21.5l1 1q-12 -15 -56 -15h-48v-56h48q42 0 54 -15h-1q12 -14 12 -58v-249q0 -80 -55 -80t-55 80v79h-63v-77q0 -137 118 -137
q119 0 119 137z" />
    <glyph glyph-name="four" unicode="4" horiz-adv-x="273" 
d="M288 449v56h-53v329h-59l-197 -385h193v-449h63v449h53zM79 505l93 182v-182h-93z" />
    <glyph glyph-name="five" unicode="5" 
d="M261 129v238q0 71 -22 102q-27 37 -99 37h-53v270h174v58h-237v-384h108q44 0 56 -15h-1q10 -15 10 -59v-249q0 -80 -55 -80t-55 80v79h-63v-77q0 -137 118 -137q119 0 119 137z" />
    <glyph glyph-name="six" unicode="6" 
d="M261 129v241q0 136 -115 136q-34 0 -59 -15v216q0 78 55 78t55 -78v-80h64v78q0 136 -119 136q-118 0 -118 -136v-576q0 -137 118 -137q119 0 119 137zM197 127q0 -80 -55 -80t-55 80v244q0 79 59 79q51 0 51 -79v-244z" />
    <glyph glyph-name="seven" unicode="7" horiz-adv-x="222" 
d="M241 834h-241v-58h164l-178 -776h62z" />
    <glyph glyph-name="eight" unicode="8" 
d="M261 129v245q0 74 -34 108q34 34 34 109v114q0 136 -119 136q-118 0 -118 -136v-114q0 -78 34 -109q-34 -33 -34 -108v-245q0 -137 118 -137q119 0 119 137zM197 127q0 -80 -55 -80t-55 80v248q0 79 55 79t55 -79v-248zM197 589q0 -79 -55 -79t-55 79v118q0 78 55 78
t55 -78v-118z" />
    <glyph glyph-name="nine" unicode="9" 
d="M261 129v576q0 136 -119 136q-118 0 -118 -136v-123q0 -135 110 -135q38 0 63 14v-334q0 -80 -55 -80t-55 80v79h-63v-77q0 -137 118 -137q119 0 119 137zM197 582q0 -78 -58 -78q-52 0 -52 78v125q0 78 55 78t55 -78v-125z" />
    <glyph glyph-name="colon" unicode=":" horiz-adv-x="142" 
d="M102 326v68h-62v-68h62zM102 4v67h-62v-67h62z" />
    <glyph glyph-name="semicolon" unicode=";" horiz-adv-x="142" 
d="M102 71h-88v-67h14l-15 -77h65l24 124v20zM102 326v68h-62v-68h62z" />
    <glyph glyph-name="less" unicode="&#x3c;" horiz-adv-x="441" 
d="M410 131v72l-264 146l264 144v73l-369 -197v-41z" />
    <glyph glyph-name="equal" unicode="=" horiz-adv-x="641" 
d="M586 246v65h-531v-65h531zM586 386v64h-531v-64h531z" />
    <glyph glyph-name="greater" unicode="&#x3e;" horiz-adv-x="441" 
d="M410 328v41l-369 197v-73l263 -144l-263 -146v-72z" />
    <glyph glyph-name="question" unicode="?" horiz-adv-x="251" 
d="M227 586v119q0 136 -119 136q-120 0 -120 -136v-73h65v75q0 78 55 78t55 -78v-122q0 -48 -13 -65l1 1q-13 -16 -75 -16v-384h64v332q45 11 68 44q19 29 19 89zM138 4v67h-62v-67h62z" />
    <glyph glyph-name="at" unicode="@" horiz-adv-x="659" 
d="M641 407q0 152 -89 253q-78 85 -194 85q-174 0 -274 -178q-68 -122 -68 -281q0 -96 25 -172t78 -134q82 -93 216 -93q126 0 231 117l-20 48q-108 -105 -215 -105q-126 0 -194 105q-59 87 -59 227q0 201 103 320q72 85 175 85q107 0 169 -83q56 -77 56 -192
q0 -180 -54 -262l1 1q-36 -53 -76 -53q-25 0 -25 27l39 321q1 7 1.5 14t0.5 15q0 110 -107 110q-117 0 -131 -136v3l-7 -27h66q7 54 23.5 78.5t44.5 24.5q47 0 47 -53q0 -5 -0.5 -11t-1.5 -13l-5 -46q-21 10 -55 10q-119 0 -132 -135v1q-4 -34 -4.5 -46t-0.5 -20
q0 -107 105 -107q31 0 57 9v-3q1 -79 79 -79q61 0 111 59q41 47 64 142v-1q11 42 15.5 85.5t4.5 89.5zM385 307l-10 -94v1q-12 -54 -62 -54q-16 0 -31 8t-15 19l6 89q2 41 19.5 60.5t45.5 19.5q45 0 47 -49z" />
    <glyph glyph-name="A" unicode="A" horiz-adv-x="280" 
d="M287 0l-120 834h-54l-120 -834h60l55 379h63l53 -379h63zM140 602l22 -162h-46z" />
    <glyph glyph-name="B" unicode="B" horiz-adv-x="279" 
d="M259 140v241q0 69 -39 98q39 28 39 97v131q0 127 -120 127h-116v-834h116q73 0 100 36q20 31 20 104zM197 129q0 -45 -11 -58q-12 -15 -56 -15h-43v395h43q44 0 56 -15q11 -13 11 -57v-250zM197 580q0 -46 -11 -59q-12 -15 -56 -15h-43v271h43q44 0 56 -15q11 -13 11 -58
v-124z" />
    <glyph glyph-name="C" unicode="C" horiz-adv-x="265" 
d="M261 129v77h-64v-79q0 -80 -55 -80t-55 80v580q0 78 55 78t55 -78v-75h64v73q0 136 -119 136q-118 0 -118 -136v-576q0 -137 118 -137q119 0 119 137z" />
    <glyph glyph-name="D" unicode="D" horiz-adv-x="277" 
d="M261 126v568q0 73 -22 101q-14 19 -37.5 29t-61.5 10h-116v-834h116q121 0 121 126zM197 129q0 -23 -2.5 -37t-7.5 -22l1 1q-12 -15 -56 -15h-45v720h45q43 0 54 -14q11 -13 11 -57v-576z" />
    <glyph glyph-name="E" unicode="E" horiz-adv-x="257" 
d="M257 0v56h-170v395h170v55h-170v271h170v57h-234v-834h234z" />
    <glyph glyph-name="F" unicode="F" horiz-adv-x="250" 
d="M262 776v58h-234v-834h64v452h147v57h-147v267h170z" />
    <glyph glyph-name="G" unicode="G" 
d="M261 129v380h-120v-62h56v-320q0 -80 -55 -80t-55 80v580q0 78 55 78t55 -78v-75h64v73q0 136 -119 136q-118 0 -118 -136v-576q0 -137 118 -137q119 0 119 137z" />
    <glyph glyph-name="H" unicode="H" horiz-adv-x="281" 
d="M263 0v834h-62v-328h-110v328h-64v-834h64v451h110v-451h62z" />
    <glyph glyph-name="I" unicode="I" horiz-adv-x="111" 
d="M110 1v61h-22v709h22v61h-106v-61h21v-709h-21v-61h106z" />
    <glyph glyph-name="J" unicode="J" horiz-adv-x="265" 
d="M241 129v705h-64v-707q0 -80 -55 -80q-33 0 -45 21v-1q-10 17 -10 60v79h-65v-77q0 -137 120 -137q119 0 119 137z" />
    <glyph glyph-name="K" unicode="K" horiz-adv-x="295" 
d="M265 0v381q0 69 -39 98q39 28 39 97v258h-62v-254q0 -46 -11 -59q-12 -15 -56 -15h-43v328h-64v-834h64v451h43q44 0 56 -15q11 -13 11 -57v-379h62z" />
    <glyph glyph-name="L" unicode="L" horiz-adv-x="246" 
d="M261 0v56h-171v778h-64v-834h235z" />
    <glyph glyph-name="M" unicode="M" horiz-adv-x="459" 
d="M434 0v834h-62l-145 -625l-139 625h-62v-834h64v545l112 -496h51l118 508v-557h63z" />
    <glyph glyph-name="N" unicode="N" horiz-adv-x="287" 
d="M275 0l-5 834h-63v-520l-117 513v7h-64v-834h64v545l117 -516v-29h68z" />
    <glyph glyph-name="O" unicode="O" 
d="M261 129v576q0 136 -119 136q-118 0 -118 -136v-576q0 -137 118 -137q119 0 119 137zM197 127q0 -80 -55 -80t-55 80v580q0 78 55 78t55 -78v-580z" />
    <glyph glyph-name="P" unicode="P" horiz-adv-x="280" 
d="M269 577v117q0 72 -20 101q-27 39 -100 39h-116v-834h64v452h52q120 0 120 125zM207 581q0 -44 -12 -59q-14 -13 -55 -13h-43v267h43q23 0 36 -3.5t20 -10.5q11 -13 11 -57v-124z" />
    <glyph glyph-name="Q" unicode="Q" 
d="M261 129v576q0 136 -119 136q-118 0 -118 -136v-576q0 -120 92 -135v-38q0 -136 134 -136v56q-70 0 -70 78v43q81 18 81 132zM197 127q0 -47 -17 -67v319q0 119 -93 134v194q0 78 55 78t55 -78v-580zM87 127v327q29 -15 29 -73v-328q-29 14 -29 74z" />
    <glyph glyph-name="R" unicode="R" horiz-adv-x="298" 
d="M265 0v371q0 73 -40 103q40 29 40 98v122q0 72 -20 101q-27 39 -100 39h-116v-834h64v441h43q37 0 54 -18q13 -13 13 -56v-367h62zM203 575q0 -45 -12 -58h1q-14 -15 -56 -15h-43v274h43q23 0 36 -3.5t20 -10.5q11 -13 11 -57v-130z" />
    <glyph glyph-name="S" unicode="S" horiz-adv-x="267" 
d="M251 412h-3q-17 89 -114 89q-55 0 -55 80v126q0 79 55 79t55 -79v-80h62v78q0 136 -117 136q-120 0 -120 -136v-121q0 -138 120 -138q55 0 55 -60v-259q0 -78 -55 -78t-55 78v74h-65v-72q0 -137 120 -137q117 0 117 137v283z" />
    <glyph glyph-name="T" unicode="T" horiz-adv-x="274" 
d="M280 776v58h-286v-58h113v-776h64v776h109z" />
    <glyph glyph-name="U" unicode="U" 
d="M261 129v705h-64v-707q0 -80 -55 -80t-55 80v707h-63v-705q0 -137 118 -137q119 0 119 137z" />
    <glyph glyph-name="V" unicode="V" horiz-adv-x="280" 
d="M287 834h-64l-83 -582l-83 582h-64l120 -834h54z" />
    <glyph glyph-name="W" unicode="W" horiz-adv-x="459" 
d="M435 129v705h-64v-707q0 -80 -55 -80q-28 0 -44 72q-11 55 -11 117v598h-64v-598q0 -32 -2.5 -61t-9.5 -56q-17 -72 -43 -72q-55 0 -55 80v707h-63v-705q0 -137 116 -137h2q60 0 86 66q20 -62 87 -66h3q117 0 117 137z" />
    <glyph glyph-name="X" unicode="X" horiz-adv-x="280" 
d="M289 0l-117 419l117 415h-64l-85 -304l-82 304h-67l116 -408l-116 -426h64l84 308l82 -308h68z" />
    <glyph glyph-name="Y" unicode="Y" horiz-adv-x="267" 
d="M285 834h-65l-85 -304l-82 304h-67l116 -406v-428h64v426z" />
    <glyph glyph-name="Z" unicode="Z" horiz-adv-x="262" 
d="M263 834h-255v-58h175l-183 -776h256v56h-176z" />
    <glyph glyph-name="bracketleft" unicode="[" horiz-adv-x="150" 
d="M155 -224v55h-65v1000h65v56h-129v-1111h129z" />
    <glyph glyph-name="backslash" unicode="\" horiz-adv-x="291" 
d="M307 0l-257 841h-64l257 -841h64z" />
    <glyph glyph-name="bracketright" unicode="]" horiz-adv-x="150" 
d="M155 -224v1111h-129v-56h65v-1000h-65v-55h129z" />
    <glyph glyph-name="asciicircum" unicode="^" horiz-adv-x="332" 
d="M238 536l-45 288h-54l-45 -288h64l8 51l8 -51h64z" />
    <glyph glyph-name="underscore" unicode="_" horiz-adv-x="558" 
d="M574 -100v63h-590v-63h590z" />
    <glyph glyph-name="grave" unicode="`" horiz-adv-x="150" 
d="M142 674l-77 150l-60 -32l75 -150z" />
    <glyph glyph-name="a" unicode="a" 
d="M261 698q0 137 -119 137q-118 0 -118 -137v-44h63v46q0 79 55 79t55 -79v-186q-24 9 -55 9q-118 0 -118 -136v-258q0 -137 118 -137q30 0 54 9v-5h64zM142 47q-33 0 -45 21v-1q-10 17 -10 60v263q0 77 55 77q48 0 54 -52v-313q-6 -55 -54 -55z" />
    <glyph glyph-name="b" unicode="b" horiz-adv-x="275" 
d="M261 129v336q0 137 -119 137q-33 0 -55 -9v240h-63v-837h63v5q22 -9 55 -9q119 0 119 137zM197 127q0 -80 -55 -80t-55 80v340q0 79 55 79t55 -79v-340z" />
    <glyph glyph-name="c" unicode="c" horiz-adv-x="265" 
d="M261 129v77h-64v-79q0 -80 -55 -80t-55 80v580q0 78 55 78t55 -78v-75h64v73q0 136 -119 136q-118 0 -118 -136v-576q0 -137 118 -137q119 0 119 137z" />
    <glyph glyph-name="d" unicode="d" 
d="M261 -4v837h-62v-232q-24 9 -55 9q-120 0 -120 -137v-344q0 -137 120 -137q32 0 55 10v-6h62zM197 127q0 -80 -53 -80q-57 0 -57 80v348q0 79 57 79q53 0 53 -79v-348z" />
    <glyph glyph-name="e" unicode="e" horiz-adv-x="278" 
d="M261 129v32h-64v-34q0 -80 -55 -80t-55 80v327h174v242q0 137 -119 137q-118 0 -118 -137v-567q0 -137 118 -137q119 0 119 137zM87 698q0 79 55 79t55 -79v-183h-110v183z" />
    <glyph glyph-name="f" unicode="f" horiz-adv-x="254" 
d="M268 664v32q0 138 -120 138q-119 0 -119 -138v-697h64v541h136v60h-136v99q0 78 55 78q35 0 46 -20v1q9 -17 9 -59v-35h65z" />
    <glyph glyph-name="g" unicode="g" 
d="M262 136v697h-63v-7q-24 9 -57 9q-118 0 -118 -137v-280q0 -137 118 -137q33 0 57 9v-157q0 -78 -55 -78q-35 0 -46 20v-1q-5 9 -7 23.5t-2 35.5v80h-65v-77q0 -136 120 -136q118 0 118 136zM197 416q0 -80 -55 -80t-55 80v284q0 79 55 79t55 -79v-284z" />
    <glyph glyph-name="h" unicode="h" 
d="M261 -8v475q0 137 -119 137q-33 0 -57 -11v241h-64v-842h66v477q0 80 55 80t55 -80v-477h64z" />
    <glyph glyph-name="i" unicode="i" horiz-adv-x="116" 
d="M26 0h64v711h-64v-711zM26 771h64v62h-64v-62z" />
    <glyph glyph-name="j" unicode="j" horiz-adv-x="104" 
d="M83 136v570h-62v-573q0 -78 -71 -78v-55q133 0 133 136zM23 772h63v62h-63v-62z" />
    <glyph glyph-name="k" unicode="k" horiz-adv-x="295" 
d="M265 0v381q0 69 -39 98q39 28 39 97v258h-62v-254q0 -46 -11 -59q-12 -15 -56 -15h-43v328h-64v-834h64v451h43q44 0 56 -15q11 -13 11 -57v-379h62z" />
    <glyph glyph-name="l" unicode="l" horiz-adv-x="116" 
d="M26 0h64v854l-64 -62v-792z" />
    <glyph glyph-name="m" unicode="m" horiz-adv-x="452" 
d="M436 -8v704q0 137 -119 137q-58 0 -88 -32q-30 32 -87 32q-33 0 -57 -11v11h-64v-841h66v706q0 80 55 80t55 -80v-706h65v706q0 80 55 80t55 -80v-706h64z" />
    <glyph glyph-name="n" unicode="n" horiz-adv-x="279" 
d="M261 -8v704q0 137 -119 137q-33 0 -57 -11v11h-64v-841h66v706q0 80 55 80t55 -80v-706h64z" />
    <glyph glyph-name="o" unicode="o" 
d="M261 129v576q0 136 -119 136q-118 0 -118 -136v-576q0 -137 118 -137q119 0 119 137zM197 127q0 -80 -55 -80t-55 80v580q0 78 55 78t55 -78v-580z" />
    <glyph glyph-name="p" unicode="p" horiz-adv-x="280" 
d="M269 577v117q0 72 -20 101q-27 39 -100 39h-116v-834h64v452h52q120 0 120 125zM207 581q0 -44 -12 -59q-14 -13 -55 -13h-43v267h43q23 0 36 -3.5t20 -10.5q11 -13 11 -57v-124z" />
    <glyph glyph-name="q" unicode="q" horiz-adv-x="275" 
d="M256 -5v839h-64v-5q-24 9 -55 9q-118 0 -118 -136v-347q0 -138 118 -138q16 0 29.5 1.5t25.5 6.5v-230h64zM192 352q0 -79 -55 -79t-55 79v351q0 80 55 80t55 -80v-351z" />
    <glyph glyph-name="r" unicode="r" horiz-adv-x="259" 
d="M262 576v114q0 69 -23 104t-84 35q-16 0 -33.5 -3t-31.5 -8v15h-66v-836h65v302v228t0.5 145t0.5 54v-1q11 46 52 46q35 0 45 -21.5t10 -56.5v-117h65z" />
    <glyph glyph-name="s" unicode="s" horiz-adv-x="267" 
d="M251 412h-3q-17 89 -114 89q-55 0 -55 80v126q0 79 55 79t55 -79v-80h62v78q0 136 -117 136q-120 0 -120 -136v-121q0 -138 120 -138q55 0 55 -60v-259q0 -78 -55 -78t-55 78v74h-65v-72q0 -137 120 -137q117 0 117 137v283z" />
    <glyph glyph-name="t" unicode="t" horiz-adv-x="190" 
d="M201 574v60h-111v199h-64v-833h64v574h111z" />
    <glyph glyph-name="u" unicode="u" 
d="M261 129v705h-64v-707q0 -80 -55 -80t-55 80v707h-63v-705q0 -137 118 -137q119 0 119 137z" />
    <glyph glyph-name="v" unicode="v" horiz-adv-x="280" 
d="M287 834h-64l-83 -582l-83 582h-64l120 -834h54z" />
    <glyph glyph-name="w" unicode="w" horiz-adv-x="459" 
d="M435 129v705h-64v-707q0 -80 -55 -80q-28 0 -44 72q-11 55 -11 117v598h-64v-598q0 -32 -2.5 -61t-9.5 -56q-17 -72 -43 -72q-55 0 -55 80v707h-63v-705q0 -137 116 -137h2q60 0 86 66q20 -62 87 -66h3q117 0 117 137z" />
    <glyph glyph-name="x" unicode="x" horiz-adv-x="280" 
d="M289 0l-117 419l117 415h-64l-85 -304l-82 304h-67l116 -408l-116 -426h64l84 308l82 -308h68z" />
    <glyph glyph-name="y" unicode="y" 
d="M262 131v698h-1v5h-64v-462q0 -80 -55 -80t-55 80v462h-63v-460q0 -137 118 -137q33 0 57 9v-118q0 -78 -55 -78q-35 0 -46 20v-1q-5 9 -7 23.5t-2 35.5v80h-65v-77q0 -136 120 -136q118 0 118 136z" />
    <glyph glyph-name="z" unicode="z" horiz-adv-x="262" 
d="M263 834h-255v-58h175l-183 -776h256v56h-176z" />
    <glyph glyph-name="braceleft" unicode="{" horiz-adv-x="270" 
d="M250 -216v40q-26 1 -40.5 6.5t-19.5 13.5v-1q-9 16 -9 51v7l22 451l-54 18l54 19l-22 373v8q0 33 9 50v-1q10 17 60 22v56q-79 -4 -108 -41q-25 -31 -25 -88v-9l22 -327l-120 -37v-50l120 -37l-22 -403v-10q0 -60 27 -91.5t90 -34.5z" />
    <glyph glyph-name="bar" unicode="|" horiz-adv-x="560" 
d="M315 -264v1149h-70v-1149h70z" />
    <glyph glyph-name="braceright" unicode="}" horiz-adv-x="270" 
d="M250 345v50l-121 37l22 327q0 4 0.5 8t0.5 8q0 50 -25 81q-14 18 -41.5 28.5t-66.5 12.5v-56q49 -5 59 -22t10 -44q0 -4 -0.5 -7t-0.5 -7v1l-22 -373l54 -19l-54 -18l22 -451q0 -3 0.5 -6.5t0.5 -6.5q0 -27 -10 -45q-10 -17 -59 -19v-56q71 3 101.5 34t30.5 89v14
l-22 403z" />
    <glyph glyph-name="asciitilde" unicode="~" horiz-adv-x="491" 
d="M480 471q-50 -38 -85.5 -58t-55.5 -20q-2 0 -4 0.5t-4 0.5q-26 3 -76 39q-62 46 -105 46q-28 -2 -60 -16.5t-69 -43.5l-11 -82q102 79 142 79h6q11 -1 27 -9.5t38 -23.5q37 -25 65.5 -38t50.5 -13q54 0 130 59z" />
    <glyph glyph-name="quotesinglbase" unicode="&#x201a;" horiz-adv-x="142" 
d="M102 71h-88v-67h14l-15 -77h65l24 124v20z" />
    <glyph glyph-name="florin" unicode="&#x192;" horiz-adv-x="301" 
d="M295 721v-1q1 5 1 10v10q0 101 -90 101q-97 0 -106 -118l-59 -727q-4 -62 -41 -62q-30 0 -30 46q0 7 1 12v28h-59l-2 -24v1q-1 -5 -1 -9v-11q0 -100 90 -100q98 0 106 117l43 528h71l4 57h-72l13 144q4 62 41 62q30 0 30 -46q0 -7 -1 -12v-30h59z" />
    <glyph glyph-name="quotedblbase" unicode="&#x201e;" horiz-adv-x="225" 
d="M206 71h-89v-67h15l-15 -77h65l24 124v20zM102 71h-88v-67h14l-15 -77h65l24 124v20z" />
    <glyph glyph-name="ellipsis" unicode="&#x2026;" horiz-adv-x="457" 
d="M430 4v67h-63v-67h63zM271 4v67h-62v-67h62zM102 4v67h-62v-67h62z" />
    <glyph glyph-name="dagger" unicode="&#x2020;" 
d="M250 644v55h-78v135h-61v-135h-76v-55h76v-683h61v683h78z" />
    <glyph glyph-name="daggerdbl" unicode="&#x2021;" 
d="M250 71v56h-78v519h78v56h-78v132h-61v-132h-76v-56h76v-519h-76v-56h76v-110h61v110h78z" />
    <glyph glyph-name="circumflex" unicode="&#x2c6;" horiz-adv-x="332" 
d="M251 573l-55 186h-60l-55 -185h65l20 64l22 -63z" />
    <glyph glyph-name="perthousand" unicode="&#x2030;" horiz-adv-x="792" 
d="M779 131v160q0 138 -120 138q-118 0 -118 -138v-160q0 -72 28 -104q9 -11 15.5 -17t9.5 -8q15 -7 43 -7q40 0 67 7t43.5 23t24 42t7.5 64zM532 131v160q0 138 -118 138q-119 0 -119 -138v-160q0 -69 28 -103q15 -19 25 -25q18 -8 44 -8q39 0 66 7t43.5 23t23.5 42t7 64z
M266 540v160q0 136 -120 136q-117 0 -117 -136v-160q0 -138 117 -138q120 0 120 138zM487 841h-65l-353 -849h65zM715 129q0 -79 -56 -79q-35 0 -45 19q-9 16 -9 60v165q0 77 54 77q56 0 56 -77v-165zM202 537q0 -78 -56 -78q-34 0 -44 19q-10 16 -10 59v165q0 78 54 78
q56 0 56 -78v-165zM469 129q0 -79 -55 -79q-36 0 -46 19q-5 9 -7 23.5t-2 36.5v165q0 77 55 77t55 -77v-165z" />
    <glyph glyph-name="Scaron" unicode="&#x160;" 
d="M261 412h-3q-17 89 -114 89q-55 0 -55 80v126q0 79 55 79t55 -79v-80h62v78q0 136 -117 136q-120 0 -120 -136v-121q0 -138 120 -138q55 0 55 -60v-259q0 -78 -55 -78t-55 78v74h-65v-72q0 -137 120 -137q117 0 117 137v283zM227 1028l-63 -2l-22 -63l-20 64h-63l54 -185
h59z" />
    <glyph glyph-name="guilsinglleft" unicode="&#x2039;" horiz-adv-x="325" 
d="M300 125v76l-176 147l176 146v78l-259 -205v-37z" />
    <glyph glyph-name="OE" unicode="&#x152;" horiz-adv-x="449" 
d="M432 0v56h-170v395h170v55h-170v271h170v57h-233v-3q-24 10 -57 10q-118 0 -118 -136v-576q0 -137 118 -137q32 0 57 11v-3h233zM197 127q0 -80 -55 -80t-55 80v580q0 78 55 78t55 -78v-580z" />
    <glyph glyph-name="quoteleft" unicode="&#x2018;" horiz-adv-x="142" 
d="M132 627v95h-36l30 114h-63l-51 -187v1l-8 -23h128z" />
    <glyph glyph-name="quoteright" unicode="&#x2019;" horiz-adv-x="142" 
d="M141 836h-131v-95h37l-31 -114h62l51 186z" />
    <glyph glyph-name="quotedblleft" unicode="&#x201c;" horiz-adv-x="289" 
d="M280 627v95h-36l30 114h-63l-51 -186l-15 -23h135zM132 627v95h-36l30 114h-63l-51 -187v1l-8 -23h128z" />
    <glyph glyph-name="quotedblright" unicode="&#x201d;" horiz-adv-x="289" 
d="M289 836h-132v-95h37l-31 -114h63l51 186zM141 836h-131v-95h37l-31 -114h62l51 186z" />
    <glyph glyph-name="bullet" unicode="&#x2022;" horiz-adv-x="200" 
d="M160 292v132h-128v-132h128z" />
    <glyph glyph-name="endash" unicode="&#x2013;" horiz-adv-x="507" 
d="M524 327v54h-540v-54h540z" />
    <glyph glyph-name="emdash" unicode="&#x2014;" horiz-adv-x="886" 
d="M902 327v54h-918v-54h918z" />
    <glyph glyph-name="tilde" unicode="&#x2dc;" horiz-adv-x="327" 
d="M310 816q-76 -79 -93 -80h-1q-9 1 -37 23l1 -1q-36 30 -57 33h-3q-19 0 -40.5 -12.5t-47.5 -40.5l-6 -89q75 78 92 80q5 -2 12 -7t18 -14l6 -4q34 -29 57 -30h5q39 0 86 51z" />
    <glyph glyph-name="trademark" unicode="&#x2122;" horiz-adv-x="719" 
d="M696 437v397h-59l-147 -230l-142 230h-59v-397h63v274l115 -186h45l122 184v-272h62zM256 776v58h-269v-58h103v-339h64v339h102z" />
    <glyph glyph-name="scaron" unicode="&#x161;" 
d="M261 412h-3q-17 89 -114 89q-55 0 -55 80v126q0 79 55 79t55 -79v-80h62v78q0 136 -117 136q-120 0 -120 -136v-121q0 -138 120 -138q55 0 55 -60v-259q0 -78 -55 -78t-55 78v74h-65v-72q0 -137 120 -137q117 0 117 137v283zM227 1028l-63 -2l-22 -63l-20 64h-63l54 -185
h59z" />
    <glyph glyph-name="guilsinglright" unicode="&#x203a;" horiz-adv-x="325" 
d="M300 330v37l-259 205v-78l176 -145l-176 -147v-77z" />
    <glyph glyph-name="oe" unicode="&#x153;" horiz-adv-x="456" 
d="M436 129v32h-64v-34q0 -80 -55 -80t-55 80v337h174v230q0 137 -119 137q-56 0 -87 -34q-31 34 -88 34q-118 0 -118 -137v-565q0 -137 118 -137q57 0 88 34q31 -34 87 -34q119 0 119 137zM197 127q0 -80 -55 -80t-55 80v569q0 79 55 79t55 -79v-569zM262 696q0 79 55 79
t55 -79v-171h-110v171z" />
    <glyph glyph-name="Ydieresis" unicode="&#x178;" horiz-adv-x="280" 
d="M290 834h-65l-85 -304l-82 304h-67l116 -406v-428h64v426zM220 889v67h-63v-67h63zM121 889v67h-62v-67h62z" />
    <glyph glyph-name="exclamdown" unicode="&#xa1;" horiz-adv-x="142" 
d="M104 -188v714h-64v-714h64zM102 580v67h-61v-67h61z" />
    <glyph glyph-name="cent" unicode="&#xa2;" horiz-adv-x="275" 
d="M261 241v77h-64v-79q0 -52 -22 -69v478q22 -18 22 -70v-74h64v72q0 116 -86 134v86h-64v-86q-87 -18 -87 -134v-335q0 -117 87 -133v-67h64v67q86 17 86 133zM87 239v339q0 54 24 71v-481q-24 16 -24 71z" />
    <glyph glyph-name="sterling" unicode="&#xa3;" horiz-adv-x="246" 
d="M224 322v65h-134v75h134v64h-134v308h-64v-308h-43v-64h43v-75h-43v-65h43v-322h235v56h-171v266h134z" />
    <glyph glyph-name="currency" unicode="&#xa4;" horiz-adv-x="295" 
d="M286 129v77h-64v-79q0 -80 -55 -80t-55 80v214h113v65h-113v74h140v65h-140v162q0 78 55 78t55 -78v-75h64v73q0 136 -119 136t-119 -136v-160h-32v-65h32v-74h-60v-65h60v-212q0 -137 119 -137t119 137z" />
    <glyph glyph-name="yen" unicode="&#xa5;" horiz-adv-x="263" 
d="M283 834h-65l-85 -304l-82 304h-67l116 -406v-32h-88v-65h88v-47h-88v-65h88v-219h64v219h90v65h-90v47h90v65h-90v30z" />
    <glyph glyph-name="brokenbar" unicode="&#xa6;" horiz-adv-x="244" 
d="M156 369v443h-70v-443h70zM156 -191v443h-70v-443h70z" />
    <glyph glyph-name="section" unicode="&#xa7;" 
d="M262 36v13q-1 5 -1 6v3v26h-3q-8 43 -34 65q36 29 37 95v46q0 37 -11 70q-27 71 -108 71q-55 0 -55 59v107q0 78 54 78q56 0 56 -78v-75h64v73q0 136 -120 136q-117 0 -117 -136v-130h3q7 -42 34 -64q-36 -32 -37 -96v-45q0 -20 2.5 -37.5t8.5 -33.5q25 -70 109 -70
q55 0 55 -60v-107q0 -78 -55 -78t-55 78v74h-65v-72q0 -137 120 -137q117 0 117 137v52zM197 257q0 -78 -56 -78q-33 0 -44 20q-8 12 -8 55v37q0 79 55 79q30 0 43 -18q4 -9 6.5 -23t2.5 -33v-25h1v-14z" />
    <glyph glyph-name="dieresis" unicode="&#xa8;" horiz-adv-x="174" 
d="M69 687v67h-63v-67h63zM167 687v67h-62v-67h62z" />
    <glyph glyph-name="copyright" unicode="&#xa9;" horiz-adv-x="932" 
d="M797 407q0 380 -331 380q-168 0 -253 -106v1q-78 -95 -78 -275q0 -176 79 -273v1q85 -108 252 -108q166 0 252 106q79 98 79 274zM732 407q0 -316 -266 -316q-133 0 -202 88q-64 80 -64 228q0 315 266 315t266 -315zM585 267v77h-64v-79q0 -79 -56 -79q-54 0 -54 79v301
q0 79 54 79q56 0 56 -79v-74h64v72q0 137 -120 137q-118 0 -118 -137v-297q0 -136 118 -136q120 0 120 136z" />
    <glyph glyph-name="ordfeminine" unicode="&#xaa;" 
d="M261 474v220q0 137 -120 137q-117 0 -117 -137v-23h63v25q0 78 54 78q56 0 56 -78v-55q-24 9 -56 9q-117 0 -117 -136v-40q0 -138 117 -138q34 0 54 8v-4h64v99q1 7 1.5 15.5t0.5 19.5zM141 392q-32 0 -44 21v-1q-10 16 -10 59v45q0 78 54 78q49 0 54 -53v-95
q-6 -54 -54 -54z" />
    <glyph glyph-name="guillemotleft" unicode="&#xab;" horiz-adv-x="482" 
d="M300 125v76l-176 147l176 146v78l-259 -205v-37zM447 125v76l-176 147l176 146v78l-257 -205v-37z" />
    <glyph glyph-name="logicalnot" unicode="&#xac;" horiz-adv-x="497" 
d="M476 264v156h-455v-64h393v-92h62z" />
    <glyph glyph-name="registered" unicode="&#xae;" horiz-adv-x="932" 
d="M797 407q0 380 -331 380q-168 0 -253 -106v1q-78 -95 -78 -275q0 -176 79 -273v1q85 -108 252 -108q166 0 252 106q79 98 79 274zM732 407q0 -316 -266 -316q-133 0 -202 88q-64 80 -64 228q0 315 266 315t266 -315zM594 245v71q0 73 -42 103q42 30 42 98v29
q0 75 -22 103q-27 37 -100 37h-116v-555h64v256h44q37 0 54 -18q12 -12 12 -55v-183h62v114h2zM530 520q0 -45 -12 -58h1q-12 -15 -55 -15h-44v182h44q43 0 55 -14q11 -13 11 -58v-37z" />
    <glyph glyph-name="macron" horiz-adv-x="266" 
d="M234 891v64h-202v-64h202z" />
    <glyph glyph-name="degree" unicode="&#xb0;" horiz-adv-x="369" 
d="M346 659q0 33 -12.5 62.5t-34.5 51.5t-51.5 35t-62.5 13q-35 0 -65 -12.5t-51.5 -34.5t-34 -51.5t-12.5 -63.5q0 -35 12 -65t34 -51.5t51.5 -34t64.5 -12.5q67 0 114 48q48 48 48 115zM289 659q0 -23 -8 -42t-22 -33t-33 -22t-41 -8q-45 0 -75 30t-30 75q0 22 8 41
t22 33.5t33 22.5t42 8q22 0 41 -8.5t33 -22.5t22 -33t8 -41z" />
    <glyph glyph-name="plusminus" unicode="&#xb1;" horiz-adv-x="399" 
d="M382 324v61h-148v147h-62v-147h-148v-61h148v-149h62v149h148zM382 100v61h-358v-61h358z" />
    <glyph glyph-name="twosuperior" unicode="&#xb2;" horiz-adv-x="229" 
d="M224 317v54h-104v179q0 14 4.5 18.5t28.5 7.5q21 3 34.5 7t21.5 13t11.5 24t3.5 39v91q0 91 -82 91q-81 0 -81 -91v-54h59v55q0 24 4 31l-1 -2q5 7 19 7q13 0 19 -6q2 -5 3 -12t1 -18v-90q0 -10 -1 -15.5t-4.5 -8.5t-10 -4t-16.5 -2q-72 -8 -72 -81v-233h163z" />
    <glyph glyph-name="threesuperior" unicode="&#xb3;" horiz-adv-x="229" 
d="M224 402v150q0 40 -19 59q19 20 19 59v77q0 93 -82 93q-81 0 -81 -93v-52h59v55q0 11 0.5 18t2.5 11q4 7 19 7q12 0 19 -7q2 -5 3 -12.5t1 -16.5v-78q0 -12 -1 -19t-2 -10q-4 -3 -9.5 -4.5t-16.5 -1.5h-39v-53h39q20 0 24.5 -6.5t4.5 -26.5v-150q0 -36 -23 -36
q-15 0 -19 7v-1q-2 4 -2.5 11.5t-0.5 18.5v58h-59v-57q0 -92 81 -92q82 0 82 92z" />
    <glyph glyph-name="acute" unicode="&#xb4;" horiz-adv-x="150" 
d="M142 792l-62 32l-75 -150l60 -32z" />
    <glyph glyph-name="mu" unicode="&#x3bc;" 
d="M267 96v41q-70 0 -70 75v1q64 28 64 128v475h-64v-477q0 -80 -55 -80t-55 80v477h-63v-818h63v216q20 -10 47 -10q6 -123 118 -123z" />
    <glyph glyph-name="paragraph" unicode="&#xb6;" horiz-adv-x="366" 
d="M359 772v62h-230q-73 0 -100 -39v1q-22 -28 -22 -102v-117q0 -125 122 -125h52v-512h64v832h20v-832h64v832h30z" />
    <glyph glyph-name="periodcentered" unicode="&#xb7;" horiz-adv-x="426" 
d="M378 380l-35 37q27 39 27 90q0 48 -26 88l34 35l-42 44l-34 -34q-20 16 -43.5 23t-49.5 7t-48 -7t-42 -21l-32 32l-44 -44l32 -30q-29 -39 -29 -93q0 -55 28 -95l-31 -31l45 -42l31 31q40 -25 88 -25q53 0 93 28l36 -35zM312 507q0 -23 -8 -42t-21.5 -33.5t-32.5 -22.5
t-41 -8t-41 8t-33.5 22.5t-22.5 33.5t-8 42q0 45 30 74.5t75 29.5q44 0 73.5 -29.5t29.5 -74.5z" />
    <glyph glyph-name="cedilla" unicode="&#xb8;" horiz-adv-x="249" 
d="M187 -129v43q0 52 -45 55v66h-52v-116h22q2 0 3 0.5t3 0.5t3 -0.5t3 -0.5q7 0 7 -10v-38q0 -12 -6 -15h-64v-51h59q67 0 67 66z" />
    <glyph glyph-name="onesuperior" unicode="&#xb9;" horiz-adv-x="226" 
d="M186 315v57h-16v471l-80 -29v-60l21 8v-390h-16v-57h91z" />
    <glyph glyph-name="ordmasculine" unicode="&#xba;" horiz-adv-x="187" 
d="M181 564v187q0 91 -87 91q-88 0 -88 -91v-187q0 -93 88 -93q87 0 87 93zM120 562q0 -37 -26 -37q-27 0 -27 37v189q0 38 27 38q26 0 26 -38v-189z" />
    <glyph glyph-name="guillemotright" unicode="&#xbb;" horiz-adv-x="482" 
d="M300 330v37l-259 205v-78l176 -145l-176 -147v-77zM447 330v37l-257 205v-78l176 -146l-176 -147v-76z" />
    <glyph glyph-name="onequarter" unicode="&#xbc;" horiz-adv-x="291" 
d="M307 841h-64l-257 -841h64zM431 270v52h-30v198h-53l-128 -250h122v-270h59v270h30zM19 321v58h-17v472l-80 -32v-61l22 9v-388h-15v-58h90zM314 322l28 56v-56h-28z" />
    <glyph glyph-name="onehalf" unicode="&#xbd;" horiz-adv-x="291" 
d="M307 841h-64l-257 -841h64zM425 0v55h-104v177q0 17 2 19q4 4 32 9q38 8 52 19q18 18 18 62v91q0 93 -81 93q-80 0 -80 -93v-53h57v55q0 19 3 30q7 7 20 7q15 0 19 -7h-1q5 -8 5 -30v-90q0 -10 -1 -15t-4.5 -8t-10 -4.5t-17.5 -2.5q-36 -4 -53 -23.5t-17 -58.5v-232h161z
M19 321v58h-17v472l-80 -32v-61l22 9v-388h-15v-58h90zM326 467l-1 -2q0 1 1 2z" />
    <glyph glyph-name="threequarters" unicode="&#xbe;" horiz-adv-x="291" 
d="M307 841h-64l-257 -841h64zM60 402v150q0 40 -19 59q19 20 19 59v77q0 93 -81 93q-82 0 -82 -93v-52h59v55q0 10 1 17t3 12q7 7 19 7q15 0 19 -7q3 -8 3 -29v-78q0 -23 -4 -28h1q-6 -7 -26 -7h-40v-53h40q18 0 23.5 -6.5t5.5 -26.5v-150q0 -36 -22 -36q-11 0 -18 5l-1 1
q-2 5 -3 12.5t-1 17.5v58h-59v-57q0 -92 82 -92q81 0 81 92zM431 270v52h-30v198h-53l-128 -250h122v-270h59v270h30zM314 322l28 56v-56h-28z" />
    <glyph glyph-name="questiondown" unicode="&#xbf;" horiz-adv-x="275" 
d="M251 -45v72h-65v-75q0 -77 -55 -77t-55 77v123q0 47 12 59q15 21 76 21v384h-64v-333q-25 -5 -42 -16.5t-27 -27.5l1 1q-20 -29 -20 -91v-117q0 -138 119 -138q120 0 120 138zM164 589v67h-63v-67h63z" />
    <glyph glyph-name="Agrave" unicode="&#xc0;" horiz-adv-x="280" 
d="M287 0l-120 834h-54l-120 -834h60l55 379h63l53 -379h63zM209 874l-77 148l-61 -29l77 -151zM140 602l22 -162h-46z" />
    <glyph glyph-name="Aacute" unicode="&#xc1;" horiz-adv-x="280" 
d="M287 0l-120 834h-54l-120 -834h60l55 379h63l53 -379h63zM209 993l-61 29l-77 -148l61 -32zM140 602l22 -162h-46z" />
    <glyph glyph-name="Acircumflex" unicode="&#xc2;" horiz-adv-x="280" 
d="M287 0l-120 834h-54l-120 -834h60l55 379h63l53 -379h63zM225 842l-55 185h-60l-55 -185h65l20 62l21 -62h64zM140 602l22 -162h-46z" />
    <glyph glyph-name="Atilde" unicode="&#xc3;" horiz-adv-x="280" 
d="M287 0l-120 834h-54l-120 -834h60l55 379h63l53 -379h63zM285 1006q-79 -80 -97 -80q-9 1 -37 25q-17 14 -30 21.5t-24 8.5h-3q-19 0 -41 -12.5t-48 -40.5l-8 -90q72 76 92 81q11 -5 32 -20h-1l6 -5q17 -13 30.5 -20.5t27.5 -9.5h5q37 0 85 51zM140 602l22 -162h-46z" />
    <glyph glyph-name="Adieresis" unicode="&#xc4;" horiz-adv-x="280" 
d="M287 0l-120 834h-54l-120 -834h60l55 379h63l53 -379h63zM220 889v67h-63v-67h63zM121 889v67h-62v-67h62zM140 602l22 -162h-46z" />
    <glyph glyph-name="Aring" unicode="&#xc5;" horiz-adv-x="280" 
d="M240 916q0 20 -8 38.5t-21.5 32t-31.5 21.5t-38 8t-38 -8t-31.5 -21.5t-21.5 -32t-8 -38.5q0 -33 18.5 -59.5t50.5 -35.5l-118 -821h60l55 379h63l53 -379h63l-118 821q31 9 51 35t20 60zM179 916q0 -17 -10.5 -28t-27.5 -11q-16 0 -26.5 11t-10.5 28t10.5 28t26.5 11
q17 0 27.5 -11t10.5 -28zM140 602l22 -162h-46z" />
    <glyph glyph-name="AE" unicode="&#xc6;" horiz-adv-x="475" 
d="M454 0v56h-170v395h170v55h-170v271h170v57h-224l-239 -834h60l109 379h64l-2 -379h232zM176 440l48 165v-165h-48z" />
    <glyph glyph-name="Ccedilla" unicode="&#xc7;" horiz-adv-x="275" 
d="M261 129v77h-64v-79q0 -80 -55 -80t-55 80v580q0 78 55 78t55 -78v-75h64v73q0 136 -119 136q-118 0 -118 -136v-576q0 -117 88 -135v-75h23q2 0 3 0.5t3 0.5t3 -0.5t3 -0.5q8 0 8 -10v-38q0 -12 -6 -15h-64v-51h59q67 0 67 66v43q0 52 -45 55v25q95 14 95 135z" />
    <glyph glyph-name="Egrave" unicode="&#xc8;" horiz-adv-x="290" 
d="M274 0v56h-170v395h170v55h-170v271h170v57h-234v-834h234zM214 874l-77 148l-61 -29l77 -151z" />
    <glyph glyph-name="Eacute" unicode="&#xc9;" horiz-adv-x="290" 
d="M274 0v56h-170v395h170v55h-170v271h170v57h-234v-834h234zM214 993l-61 29l-77 -148l61 -32z" />
    <glyph glyph-name="Ecircumflex" unicode="&#xca;" horiz-adv-x="290" 
d="M261 0v56h-170v395h170v55h-170v271h170v57h-234v-834h234zM229 842l-54 185h-60l-55 -185h65l20 62l21 -62h63z" />
    <glyph glyph-name="Edieresis" unicode="&#xcb;" horiz-adv-x="290" 
d="M261 0v56h-170v395h170v55h-170v271h170v57h-234v-834h234zM225 889v67h-63v-67h63zM126 889v67h-62v-67h62z" />
    <glyph glyph-name="Igrave" unicode="&#xcc;" horiz-adv-x="127" 
d="M117 1v61h-22v709h22v61h-22v2h-63v-2h-21v-61h21v-709h-21v-61h21v-1h63v1h22zM132 874l-77 148l-60 -29l78 -151z" />
    <glyph glyph-name="Iacute" unicode="&#xcd;" horiz-adv-x="127" 
d="M117 1v61h-22v709h22v61h-22v2h-63v-2h-21v-61h21v-709h-21v-61h21v-1h63v1h22zM132 993l-59 29l-78 -148l60 -32z" />
    <glyph glyph-name="Icircumflex" unicode="&#xce;" horiz-adv-x="127" 
d="M117 1v61h-22v709h22v61h-22v2h-63v-2h-21v-61h21v-709h-21v-61h21v-1h63v1h22zM149 842l-56 185h-60l-54 -185h64l21 63l21 -63h64z" />
    <glyph glyph-name="Idieresis" unicode="&#xcf;" horiz-adv-x="127" 
d="M117 1v61h-22v709h22v61h-22v2h-63v-2h-21v-61h21v-709h-21v-61h21v-1h63v1h22zM144 889v67h-63v-67h63zM45 889v67h-61v-67h61z" />
    <glyph glyph-name="Eth" unicode="&#xd0;" 
d="M261 126v568q0 73 -22 101q-14 19 -37.5 29t-61.5 10h-116v-279h-39v-61h39v-494h116q121 0 121 126zM197 129q0 -23 -2.5 -37t-7.5 -22l1 1q-12 -15 -56 -15h-45v438h103v61h-103v221h45q43 0 54 -14q11 -13 11 -57v-576z" />
    <glyph glyph-name="Ntilde" unicode="&#xd1;" horiz-adv-x="287" 
d="M275 0l-5 834h-63v-520l-117 513v7h-64v-834h64v545l117 -516v-29h68zM285 1005q-75 -79 -93 -79q-12 2 -37 24q-18 14 -31 22t-24 9h-3q-19 0 -41 -12.5t-47 -40.5l-10 -90q74 77 94 81q11 -5 32 -20l-2 1l3 -3q19 -14 34 -22.5t26 -10.5h5q40 0 88 51z" />
    <glyph glyph-name="Ograve" unicode="&#xd2;" 
d="M261 129v576q0 136 -119 136q-118 0 -118 -136v-576q0 -137 118 -137q119 0 119 137zM197 127q0 -80 -55 -80t-55 80v580q0 78 55 78t55 -78v-580zM211 874l-75 148l-62 -29l75 -151z" />
    <glyph glyph-name="Oacute" unicode="&#xd3;" 
d="M261 129v576q0 136 -119 136q-118 0 -118 -136v-576q0 -137 118 -137q119 0 119 137zM197 127q0 -80 -55 -80t-55 80v580q0 78 55 78t55 -78v-580zM211 993l-62 29l-75 -148l62 -32z" />
    <glyph glyph-name="Ocircumflex" unicode="&#xd4;" 
d="M261 129v576q0 136 -119 136q-118 0 -118 -136v-576q0 -137 118 -137q119 0 119 137zM197 127q0 -80 -55 -80t-55 80v580q0 78 55 78t55 -78v-580zM227 842l-55 185h-59l-54 -185h63l20 63l22 -63h63z" />
    <glyph glyph-name="Otilde" unicode="&#xd5;" 
d="M261 129v576q0 136 -119 136q-118 0 -118 -136v-576q0 -137 118 -137q119 0 119 137zM197 127q0 -80 -55 -80t-55 80v580q0 78 55 78t55 -78v-580zM285 1006q-77 -80 -94 -80q-12 2 -37 24q-36 28 -56 31h-3q-19 0 -40.5 -12.5t-47.5 -40.5l-10 -90q81 81 97 81
q4 -2 10.5 -7t17.5 -13l8 -5q17 -13 30.5 -20.5t25.5 -9.5h5q39 0 86 51zM93 919l-2 1v0q1 0 2 -1z" />
    <glyph glyph-name="Odieresis" unicode="&#xd6;" 
d="M261 129v576q0 136 -119 136q-118 0 -118 -136v-576q0 -137 118 -137q119 0 119 137zM197 127q0 -80 -55 -80t-55 80v580q0 78 55 78t55 -78v-580zM222 889v67h-62v-67h62zM124 889v67h-62v-67h62z" />
    <glyph glyph-name="multiply" unicode="&#xd7;" horiz-adv-x="309" 
d="M306 251l-104 103l104 104l-42 45l-105 -105l-104 104l-46 -43l105 -105l-105 -104l45 -45l105 105l105 -105z" />
    <glyph glyph-name="Oslash" unicode="&#xd8;" 
d="M286 841h-66l-5 -20q-29 20 -73 20q-118 0 -118 -136v-576q0 -8 0.5 -14.5t1.5 -13.5l-28 -101h65l4 15q29 -23 75 -23q119 0 119 137v576q0 10 -0.5 18.5t-1.5 16.5zM197 127q0 -80 -55 -80q-47 0 -53 51l108 409v-380zM87 707q0 78 55 78q44 0 52 -45l-107 -404v371z
" />
    <glyph glyph-name="Ugrave" unicode="&#xd9;" 
d="M261 129v705h-64v-707q0 -80 -55 -80t-55 80v707h-63v-705q0 -137 118 -137q119 0 119 137zM211 874l-75 148l-62 -29l75 -151z" />
    <glyph glyph-name="Uacute" unicode="&#xda;" 
d="M261 129v705h-64v-707q0 -80 -55 -80t-55 80v707h-63v-705q0 -137 118 -137q119 0 119 137zM211 993l-62 29l-75 -148l62 -32z" />
    <glyph glyph-name="Ucircumflex" unicode="&#xdb;" 
d="M261 129v705h-64v-707q0 -80 -55 -80t-55 80v707h-63v-705q0 -137 118 -137q119 0 119 137zM227 842l-55 185h-59l-54 -185h63l20 63l22 -63h63z" />
    <glyph glyph-name="Udieresis" unicode="&#xdc;" 
d="M261 129v705h-64v-707q0 -80 -55 -80t-55 80v707h-63v-705q0 -137 118 -137q119 0 119 137zM124 889v67h-62v-67h62zM222 889v67h-62v-67h62z" />
    <glyph glyph-name="Yacute" unicode="&#xdd;" horiz-adv-x="280" 
d="M290 834h-65l-85 -304l-82 304h-67l116 -406v-428h64v426zM209 993l-61 29l-77 -148l61 -32z" />
    <glyph glyph-name="Thorn" unicode="&#xde;" horiz-adv-x="284" 
d="M269 370v115q0 76 -22 104v-1q-25 38 -100 38h-57v208h-64v-834h64v245h57q122 0 122 125zM206 372q0 -45 -12 -58q-11 -14 -54 -14h-50v269h50q43 0 55 -14q11 -13 11 -58v-125z" />
    <glyph glyph-name="germandbls" unicode="&#xdf;" horiz-adv-x="326" 
d="M311 64v316q0 24 -11 65q-11 40 -53 53q14 28 14 76v131q0 136 -119 136q-118 0 -118 -136v-701h63v703q0 78 55 78t55 -78v-130q0 -23 -2.5 -37t-7.5 -22q-15 -13 -38 -13h-28v-56h60q43 0 55 -15l-1 1q5 -8 8 -22t3 -37v-315q0 -74 -70 -80v-55q135 0 135 138z" />
    <glyph glyph-name="agrave" unicode="&#xe0;" 
d="M211 874l-75 148l-62 -29l75 -151zM261 713q0 137 -119 137q-118 0 -118 -137v-44h63v46q0 79 55 79t55 -79v-186q-24 9 -55 9q-118 0 -118 -136v-258q0 -137 118 -137q30 0 54 9v-5h64zM142 62q-33 0 -45 21v-1q-10 17 -10 60v263q0 77 55 77q48 0 54 -52v-313
q-6 -55 -54 -55z" />
    <glyph glyph-name="aacute" unicode="&#xe1;" 
d="M211 993l-62 29l-75 -148l62 -32zM261 713q0 137 -119 137q-118 0 -118 -137v-44h63v46q0 79 55 79t55 -79v-186q-24 9 -55 9q-118 0 -118 -136v-258q0 -137 118 -137q30 0 54 9v-5h64zM142 62q-33 0 -45 21v-1q-10 17 -10 60v263q0 77 55 77q48 0 54 -52v-313
q-6 -55 -54 -55z" />
    <glyph glyph-name="acircumflex" unicode="&#xe2;" 
d="M227 842l-55 185h-59l-54 -185h63l20 63l22 -63h63zM261 713q0 137 -119 137q-118 0 -118 -137v-44h63v46q0 79 55 79t55 -79v-186q-24 9 -55 9q-118 0 -118 -136v-258q0 -137 118 -137q30 0 54 9v-5h64zM142 62q-33 0 -45 21v-1q-10 17 -10 60v263q0 77 55 77
q48 0 54 -52v-313q-6 -55 -54 -55z" />
    <glyph glyph-name="atilde" unicode="&#xe3;" 
d="M285 1006q-76 -79 -93 -80q-13 2 -38 24q-36 28 -56 31h-3q-19 0 -40.5 -12.5t-47.5 -40.5l-10 -90q81 81 97 81q4 -2 10.5 -7t17.5 -13l8 -5q17 -13 30.5 -20.5t25.5 -9.5h5q39 0 86 51zM93 919l-2 1v0q1 0 2 -1zM261 713q0 137 -119 137q-118 0 -118 -137v-44h63v46
q0 79 55 79t55 -79v-186q-24 9 -55 9q-118 0 -118 -136v-258q0 -137 118 -137q30 0 54 9v-5h64zM142 62q-33 0 -45 21v-1q-10 17 -10 60v263q0 77 55 77q48 0 54 -52v-313q-6 -55 -54 -55z" />
    <glyph glyph-name="adieresis" unicode="&#xe4;" 
d="M222 889v67h-62v-67h62zM124 889v67h-62v-67h62zM261 713q0 137 -119 137q-118 0 -118 -137v-44h63v46q0 79 55 79t55 -79v-186q-24 9 -55 9q-118 0 -118 -136v-258q0 -137 118 -137q30 0 54 9v-5h64zM142 62q-33 0 -45 21v-1q-10 17 -10 60v263q0 77 55 77q48 0 54 -52
v-313q-6 -55 -54 -55z" />
    <glyph glyph-name="aring" unicode="&#xe5;" 
d="M239 949q0 20 -8 38t-21.5 31.5t-31.5 21.5t-38 8t-38 -8t-31.5 -21.5t-21.5 -31.5t-8 -38q0 -41 28 -70t70 -29q20 0 38.5 8t32 21.5t21.5 31.5t8 38zM177 949q0 -17 -10.5 -28t-26.5 -11q-17 0 -27.5 11t-10.5 28t10.5 28t27.5 11q16 0 26.5 -11t10.5 -28zM261 713
q0 137 -119 137q-118 0 -118 -137v-44h63v46q0 79 55 79t55 -79v-186q-24 9 -55 9q-118 0 -118 -136v-258q0 -137 118 -137q30 0 54 9v-5h64zM142 62q-33 0 -45 21v-1q-10 17 -10 60v263q0 77 55 77q48 0 54 -52v-313q-6 -55 -54 -55z" />
    <glyph glyph-name="ae" unicode="&#xe6;" horiz-adv-x="462" 
d="M436 129v32h-64v-34q0 -80 -55 -80t-55 80v317h174v253q0 137 -119 137q-56 0 -87 -34q-31 34 -88 34q-118 0 -118 -137v-44h63v46q0 79 55 79t55 -79v-178q-24 9 -55 9q-118 0 -118 -136v-265q0 -137 118 -137q30 0 54 9v-5h63v9q26 -13 58 -13q119 0 119 137zM196 422
v-320q-6 -55 -54 -55q-33 0 -45 21v-1q-10 17 -10 60v270q0 77 55 77q48 0 54 -52zM262 699q0 79 55 79t55 -79v-194h-110v194z" />
    <glyph glyph-name="ccedilla" unicode="&#xe7;" horiz-adv-x="275" 
d="M261 129v77h-64v-79q0 -80 -55 -80t-55 80v580q0 78 55 78t55 -78v-75h64v73q0 136 -119 136q-118 0 -118 -136v-576q0 -117 88 -135v-75h23q2 0 3 0.5t3 0.5t3 -0.5t3 -0.5q8 0 8 -10v-38q0 -12 -6 -15h-64v-51h59q67 0 67 66v43q0 52 -45 55v25q95 14 95 135z" />
    <glyph glyph-name="egrave" unicode="&#xe8;" 
d="M211 874l-75 148l-62 -29l75 -151zM261 144v32h-64v-34q0 -80 -55 -80t-55 80v327h174v242q0 137 -119 137q-118 0 -118 -137v-567q0 -137 118 -137q119 0 119 137zM87 713q0 79 55 79t55 -79v-183h-110v183z" />
    <glyph glyph-name="eacute" unicode="&#xe9;" 
d="M211 993l-62 29l-75 -148l62 -32zM261 144v32h-64v-34q0 -80 -55 -80t-55 80v327h174v242q0 137 -119 137q-118 0 -118 -137v-567q0 -137 118 -137q119 0 119 137zM87 713q0 79 55 79t55 -79v-183h-110v183z" />
    <glyph glyph-name="ecircumflex" unicode="&#xea;" 
d="M227 842l-55 185h-59l-54 -185h63l20 63l22 -63h63zM261 144v32h-64v-34q0 -80 -55 -80t-55 80v327h174v242q0 137 -119 137q-118 0 -118 -137v-567q0 -137 118 -137q119 0 119 137zM87 713q0 79 55 79t55 -79v-183h-110v183z" />
    <glyph glyph-name="edieresis" unicode="&#xeb;" 
d="M222 889v67h-62v-67h62zM124 889v67h-62v-67h62zM261 144v32h-64v-34q0 -80 -55 -80t-55 80v327h174v242q0 137 -119 137q-118 0 -118 -137v-567q0 -137 118 -137q119 0 119 137zM87 713q0 79 55 79t55 -79v-183h-110v183z" />
    <glyph glyph-name="igrave" unicode="&#xec;" horiz-adv-x="127" 
d="M117 1v61h-22v709h22v61h-22v2h-63v-2h-21v-61h21v-709h-21v-61h21v-1h63v1h22zM132 874l-77 148l-60 -29l78 -151z" />
    <glyph glyph-name="iacute" unicode="&#xed;" horiz-adv-x="127" 
d="M117 1v61h-22v709h22v61h-22v2h-63v-2h-21v-61h21v-709h-21v-61h21v-1h63v1h22zM132 993l-59 29l-78 -148l60 -32z" />
    <glyph glyph-name="icircumflex" unicode="&#xee;" horiz-adv-x="127" 
d="M117 1v61h-22v709h22v61h-22v2h-63v-2h-21v-61h21v-709h-21v-61h21v-1h63v1h22zM149 842l-56 185h-60l-54 -185h64l21 63l21 -63h64z" />
    <glyph glyph-name="idieresis" unicode="&#xef;" horiz-adv-x="127" 
d="M117 1v61h-22v709h22v61h-22v2h-63v-2h-21v-61h21v-709h-21v-61h21v-1h63v1h22zM144 889v67h-63v-67h63zM45 889v67h-61v-67h61z" />
    <glyph glyph-name="eth" unicode="&#xf0;" horiz-adv-x="359" 
d="M359 687q-74 -75 -91 -78h-2q-2 0 -3 0.5t-2 0.5v95q0 136 -117 136q-120 0 -120 -136v-78h65v80q0 78 55 78t55 -78v-53q-8 4 -14 6.5t-11 3.5h-7q-37 0 -85 -52l-11 -90q77 79 94 79h4q5 0 28 -19h-1l3 -3v-89q-28 16 -60 16q-115 0 -115 -136v-241q0 -137 120 -137
q117 0 117 137v418h4q37 0 85 52zM199 127q0 -80 -55 -80t-55 80v244q0 79 50 79q60 0 60 -79v-244z" />
    <glyph glyph-name="ntilde" unicode="&#xf1;" 
d="M285 993q-76 -78 -93 -78h-1q-9 1 -37 23q-17 14 -30.5 21t-25.5 9h-7q-38 0 -84 -51l-10 -91q78 80 96 81q8 -3 31 -22l6 -4q17 -13 30.5 -20.5t25.5 -8.5h5q19 0 41 12.5t45 39.5zM261 7v704q0 137 -119 137q-33 0 -57 -11v11h-64v-841h66v706q0 80 55 80t55 -80v-706
h64z" />
    <glyph glyph-name="ograve" unicode="&#xf2;" 
d="M261 129v576q0 136 -119 136q-118 0 -118 -136v-576q0 -137 118 -137q119 0 119 137zM197 127q0 -80 -55 -80t-55 80v580q0 78 55 78t55 -78v-580zM211 874l-75 148l-62 -29l75 -151z" />
    <glyph glyph-name="oacute" unicode="&#xf3;" 
d="M261 129v576q0 136 -119 136q-118 0 -118 -136v-576q0 -137 118 -137q119 0 119 137zM197 127q0 -80 -55 -80t-55 80v580q0 78 55 78t55 -78v-580zM211 993l-62 29l-75 -148l62 -32z" />
    <glyph glyph-name="ocircumflex" unicode="&#xf4;" 
d="M261 129v576q0 136 -119 136q-118 0 -118 -136v-576q0 -137 118 -137q119 0 119 137zM197 127q0 -80 -55 -80t-55 80v580q0 78 55 78t55 -78v-580zM227 842l-55 185h-59l-54 -185h63l20 63l22 -63h63z" />
    <glyph glyph-name="otilde" unicode="&#xf5;" 
d="M261 129v576q0 136 -119 136q-118 0 -118 -136v-576q0 -137 118 -137q119 0 119 137zM197 127q0 -80 -55 -80t-55 80v580q0 78 55 78t55 -78v-580zM285 1006q-77 -80 -94 -80q-12 2 -37 24q-36 28 -56 31h-3q-19 0 -40.5 -12.5t-47.5 -40.5l-10 -90q81 81 97 81
q4 -2 10.5 -7t17.5 -13l8 -5q17 -13 30.5 -20.5t25.5 -9.5h5q39 0 86 51zM93 919l-2 1v0q1 0 2 -1z" />
    <glyph glyph-name="odieresis" unicode="&#xf6;" 
d="M261 129v576q0 136 -119 136q-118 0 -118 -136v-576q0 -137 118 -137q119 0 119 137zM197 127q0 -80 -55 -80t-55 80v580q0 78 55 78t55 -78v-580zM222 889v67h-62v-67h62zM124 889v67h-62v-67h62z" />
    <glyph glyph-name="divide" unicode="&#xf7;" horiz-adv-x="377" 
d="M369 324v61h-359v-61h359zM220 424v67h-63v-67h63zM220 205v67h-63v-67h63z" />
    <glyph glyph-name="oslash" unicode="&#xf8;" 
d="M286 841h-66l-5 -20q-29 20 -73 20q-118 0 -118 -136v-576q0 -8 0.5 -14.5t1.5 -13.5l-28 -101h65l4 15q29 -23 75 -23q119 0 119 137v576q0 10 -0.5 18.5t-1.5 16.5zM197 127q0 -80 -55 -80q-47 0 -53 51l108 409v-380zM87 707q0 78 55 78q44 0 52 -45l-107 -404v371z
" />
    <glyph glyph-name="ugrave" unicode="&#xf9;" 
d="M261 129v705h-64v-707q0 -80 -55 -80t-55 80v707h-63v-705q0 -137 118 -137q119 0 119 137zM211 874l-75 148l-62 -29l75 -151z" />
    <glyph glyph-name="uacute" unicode="&#xfa;" 
d="M261 129v705h-64v-707q0 -80 -55 -80t-55 80v707h-63v-705q0 -137 118 -137q119 0 119 137zM211 993l-62 29l-75 -148l62 -32z" />
    <glyph glyph-name="ucircumflex" unicode="&#xfb;" 
d="M261 129v705h-64v-707q0 -80 -55 -80t-55 80v707h-63v-705q0 -137 118 -137q119 0 119 137zM227 842l-55 185h-59l-54 -185h63l20 63l22 -63h63z" />
    <glyph glyph-name="udieresis" unicode="&#xfc;" 
d="M261 129v705h-64v-707q0 -80 -55 -80t-55 80v707h-63v-705q0 -137 118 -137q119 0 119 137zM124 889v67h-62v-67h62zM222 889v67h-62v-67h62z" />
    <glyph glyph-name="yacute" unicode="&#xfd;" 
d="M211 1012l-61 32l-76 -150l62 -30zM262 146v698h-1v5h-64v-462q0 -80 -55 -80t-55 80v462h-63v-460q0 -137 118 -137q33 0 57 9v-118q0 -78 -55 -78q-35 0 -46 20v-1q-5 9 -7 23.5t-2 35.5v80h-65v-77q0 -136 120 -136q118 0 118 136z" />
    <glyph glyph-name="thorn" unicode="&#xfe;" horiz-adv-x="275" 
d="M256 281v265q0 136 -120 136q-33 0 -55 -9v161h-62v-834h62v151q11 -5 25 -6.5t30 -1.5q120 0 120 138zM192 278q0 -79 -56 -79q-54 0 -54 79v269q0 80 54 80q56 0 56 -80v-269z" />
    <glyph glyph-name="ydieresis" unicode="&#xff;" 
d="M124 898v68h-62v-68h62zM222 898v68h-62v-68h62zM262 146v698h-1v5h-64v-462q0 -80 -55 -80t-55 80v462h-63v-460q0 -137 118 -137q33 0 57 9v-118q0 -78 -55 -78q-35 0 -46 20v-1q-5 9 -7 23.5t-2 35.5v80h-65v-77q0 -136 120 -136q118 0 118 136z" />
    <glyph glyph-name="minus" unicode="&#x2212;" horiz-adv-x="384" 
d="M365 350v64h-346v-64h346z" />
    <glyph glyph-name="apple" unicode="&#xf000;" horiz-adv-x="884" 
d="M693 960l-20 16l-175 -137l-57 -136l1 -32l-52 13l-86 19l-190 -85l-69 -201l121 -334l151 -103l144 36l62 -17l78 -20l150 92l97 181l-106 -7l2 99h-97l41 62l-50 52l119 26l-37 76l128 36l-237 109l-88 -21l-27 -8l102 54l53 128z" />
    </font>
</defs>
</svg>
