<?xml version="1.0" standalone="no"?>
<!DOCTYPE svg PUBLIC "-//W3C//DTD SVG 1.1//EN" "http://www.w3.org/Graphics/SVG/1.1/DTD/svg11.dtd" >
<svg xmlns="http://www.w3.org/2000/svg" xmlns:xlink="http://www.w3.org/1999/xlink" version="1.1">
<metadata>
Created by FontForge 20150504 at Fri Jul 24 10:54:08 2015
 By Jimmy Wärting
Copyright (c) Graham Meade &#38; Apostrophic Labs, 2001. All rights reserved. Email info@apostrophiclab.com or visit www.apostrophiclab.com for more information.
</metadata>
<defs>
<font id="LabtopUnicase-BoldItalic" horiz-adv-x="285" >
  <font-face 
    font-family="Labtop Unicase"
    font-weight="700"
    font-style="italic"
    font-stretch="normal"
    units-per-em="1000"
    panose-1="2 11 3 6 4 0 2 2 2 4"
    ascent="800"
    descent="-200"
    x-height="834"
    cap-height="832"
    bbox="-101 -264 973 1048"
    underline-thickness="31"
    underline-position="-105"
    slope="-12"
    unicode-range="U+0020-F000"
  />
<missing-glyph horiz-adv-x="500" 
 />
    <glyph glyph-name=".notdef" horiz-adv-x="500" 
 />
    <glyph glyph-name=".null" horiz-adv-x="0" 
 />
    <glyph glyph-name="nonmarkingreturn" horiz-adv-x="500" 
 />
    <glyph glyph-name="space" unicode=" " horiz-adv-x="175" 
 />
    <glyph glyph-name="space" unicode="&#xa0;" horiz-adv-x="175" 
 />
    <glyph glyph-name="caron" unicode="&#x2c7;" 
d="M386 826h-65l-34 -63l-8 63h-62l18 -185h60z" />
    <glyph glyph-name="dotlessi" unicode="&#x131;" horiz-adv-x="116" 
d="M88 0l137 711h-65l-137 -711h65z" />
    <glyph glyph-name="Lslash" unicode="&#x141;" horiz-adv-x="246" 
d="M270 435l-14 58l-80 -37l73 378h-65l-80 -412l-108 -50l14 -58l81 37l-69 -351h237l10 56h-171l64 328z" />
    <glyph glyph-name="lslash" unicode="&#x142;" horiz-adv-x="116" 
d="M88 0l73 381l107 50l-14 58l-79 -37l79 406l-77 -63l-73 -376l-110 -50l17 -58l79 36l-68 -347h66z" />
    <glyph glyph-name="Zcaron" unicode="&#x17d;" horiz-adv-x="270" 
d="M426 834h-257l-10 -58h175l-335 -776h258l10 56h-175zM429 1037h-65l-34 -63l-8 63h-62l18 -185h60z" />
    <glyph glyph-name="zcaron" unicode="&#x17e;" horiz-adv-x="270" 
d="M426 834h-257l-10 -58h175l-335 -776h258l10 56h-175zM429 1037h-65l-34 -63l-8 63h-62l18 -185h60z" />
    <glyph glyph-name="exclam" unicode="!" horiz-adv-x="142" 
d="M126 121l137 713h-65l-137 -713h65zM100 -1l12 67h-62l-12 -67h62z" />
    <glyph glyph-name="quotedbl" unicode="&#x22;" horiz-adv-x="245" 
d="M320 591l42 223h-69l-42 -223h69zM222 591l42 223h-69l-42 -223h69z" />
    <glyph glyph-name="numbersign" unicode="#" horiz-adv-x="399" 
d="M487 467l-101 -1l37 129h-64l-36 -129l-47 -1l37 129h-63l-37 -129h-100l-21 -64l102 1l-21 -73h-100l-19 -64l102 1l-36 -129h63l36 129h45l-35 -127h64l36 127l101 1l17 63h-100l22 74h102zM259 402h44l-20 -72l-46 -1z" />
    <glyph glyph-name="dollar" unicode="$" 
d="M338 412h-3q0 72 -65 86l54 281q14 -9 14 -36q0 -14 -4 -33l-17 -83h64l14 75q2 12 3.5 23.5t1.5 22.5q0 76 -65 90l9 48h-61l-8 -47q-93 -13 -117 -131l-23 -121q-2 -12 -3.5 -23.5t-1.5 -22.5q0 -81 69 -93l-77 -394q-15 10 -15 37q0 16 4 33l14 77h-66l-13 -69
q-2 -12 -3.5 -22.5t-1.5 -22.5q0 -79 69 -92l-8 -45h61l8 44q90 15 112 132zM221 130q-6 -27 -14.5 -45t-22.5 -27l73 382q17 -9 17 -30q0 -8 -3 -21zM195 545q0 16 4 33l25 126q11 58 39 74l-53 -271q-15 9 -15 38z" />
    <glyph glyph-name="percent" unicode="%" horiz-adv-x="577" 
d="M352 537l31 160q2 11 3 22t1 22q0 95 -100 95q-117 0 -142 -133l-31 -160q-5 -25 -5 -45q0 -96 99 -96q117 0 144 135zM588 128l31 160q4 20 4 43q0 98 -99 98q-117 0 -141 -135l-31 -160q-6 -27 -6 -54q0 -33 12 -52q7 -11 15 -18l2 -2q10 -7 22.5 -10t26.5 -3
q39 0 66.5 6.5t47 22.5t31 41t19.5 63zM649 841h-68l-518 -849h68zM523 132q-16 -82 -73 -82q-32 0 -41 19l1 -2q-2 8 -2 18q0 8 1.5 18t3.5 24v-1l32 165q17 80 73 80q41 0 41 -44q0 -6 -1 -14t-3 -16zM286 540q-17 -81 -73 -81q-32 0 -38 17v-1q-3 7 -3 21q0 7 1.5 16.5
t3.5 21.5l33 165q16 81 72 81q41 0 41 -44q0 -6 -1 -14.5t-3 -17.5v1z" />
    <glyph glyph-name="ampersand" unicode="&#x26;" 
d="M321 -97l8 44q-59 0 -59 45q0 6 1 14.5t3 17.5v-1l48 251h-2v11q0 94 -113 94l-10 -57q59 0 59 -43q0 -6 -1 -14t-3 -17l-27 -136q-6 -37 -28 -52q-20 -13 -63 -13q-40 0 -40 45q0 6 1 14t3 18l48 248q10 50 19 59v-1q29 25 65 25q82 0 116 57q8 13 15 32t12 44l22 114
q2 11 3 22t1 22q0 95 -99 95q-117 0 -142 -133l-22 -114q-3 -14 -4 -26t-1 -24q0 -39 17 -59q-27 -16 -41 -37q-14 -22 -23 -71l-48 -245q-2 -12 -3.5 -23.5t-1.5 -22.5q0 -94 98 -94q23 0 42.5 2.5t34.5 7.5v-11q0 -100 100 -100zM309 592q-16 -82 -74 -82q-40 0 -40 43
q0 6 1 14.5t3 18.5l23 118q16 81 73 81q41 0 41 -44q0 -6 -1 -14t-3 -17z" />
    <glyph glyph-name="quotesingle" unicode="'" horiz-adv-x="150" 
d="M222 591l42 223h-69l-42 -223h69z" />
    <glyph glyph-name="parenleft" unicode="(" horiz-adv-x="150" 
d="M112 -219l8 42q-49 1 -57 19v-2q-3 7 -3 21q0 7 1.5 16.5t3.5 21.5l167 859q7 41 22 59q15 19 64 24l11 56q-44 -2 -72.5 -12.5t-45.5 -27.5v1q-28 -28 -42 -95l-166 -855q-5 -28 -5 -49q0 -30 11 -49l-1 1q20 -41 89 -42z" />
    <glyph glyph-name="parenright" unicode=")" horiz-adv-x="150" 
d="M136 -98l166 855q2 13 3.5 24.5t1.5 22.5q0 32 -11 51v-1q-22 39 -102 43l-10 -55q50 -5 57 -22q3 -8 3 -16t-1.5 -17.5t-3.5 -22.5l-167 -859q-9 -42 -22 -60q-16 -20 -64 -21l-11 -55q86 1 119 38q30 33 42 95z" />
    <glyph glyph-name="asterisk" unicode="*" horiz-adv-x="356" 
d="M469 699l-20 62l-103 -53l21 106h-69l-21 -108l-83 54l-45 -58l83 -54l-101 -52l22 -62l101 53l-21 -106h69l21 108l84 -55l44 59l-83 53z" />
    <glyph glyph-name="plus" unicode="+" horiz-adv-x="366" 
d="M424 324l11 61h-148l30 147h-64l-29 -147h-148l-11 -61h147l-29 -149h64l28 149h149z" />
    <glyph glyph-name="comma" unicode="," horiz-adv-x="142" 
d="M110 71h-86l-12 -67h14l-30 -77h65l49 125v19z" />
    <glyph glyph-name="hyphen" unicode="-" horiz-adv-x="270" 
d="M307 324l11 61h-223l-11 -61h223z" />
    <glyph glyph-name="hyphen" unicode="&#x2010;" horiz-adv-x="270" 
d="M307 324l11 61h-223l-11 -61h223z" />
    <glyph glyph-name="period" unicode="." horiz-adv-x="142" 
d="M101 4l12 67h-63l-12 -67h63z" />
    <glyph glyph-name="slash" unicode="/" horiz-adv-x="291" 
d="M469 841h-66l-421 -841h66z" />
    <glyph glyph-name="zero" unicode="0" 
d="M283 126l112 576q2 11 3 22t1 22q0 95 -99 95q-117 0 -142 -133l-112 -576q-2 -11 -3 -22.5t-1 -22.5q0 -95 98 -95q118 0 143 134zM219 130q-17 -83 -74 -83q-40 0 -40 42q0 5 1 8l184 400zM222 704q16 81 73 81q41 0 41 -40v-4l-185 -400z" />
    <glyph glyph-name="one" unicode="1" horiz-adv-x="132" 
d="M124 0l11 61h-27l152 782l-107 -41l-13 -65l38 14l-135 -690h-26l-11 -61h118z" />
    <glyph glyph-name="two" unicode="2" horiz-adv-x="272" 
d="M259 0l10 57h-174l61 311q3 18 8 29t13.5 18t20.5 10.5t30 5.5h-1q35 3 58 10t37 17q15 14 26.5 36.5t17.5 56.5l29 151q2 11 3 22t1 22q0 95 -99 95q-117 0 -142 -133l-14 -76h64l14 72q16 81 73 81q41 0 41 -44q0 -6 -1 -14t-3 -17l-30 -151q-9 -44 -21 -55
q-6 -5 -22 -8t-41 -6h1q-60 -5 -87.5 -31t-38.5 -84l-72 -375h238z" />
    <glyph glyph-name="three" unicode="3" horiz-adv-x="265" 
d="M271 126l49 251q3 16 3 34q0 42 -25 64q45 27 60 96l25 131q2 11 3 22t1 22q0 95 -99 95q-117 0 -142 -133l-14 -76h64l14 72q16 81 73 81q41 0 41 -44q0 -6 -1 -14t-3 -17l-26 -130q-7 -44 -21 -59q-17 -16 -61 -16h-46l-10 -56h51q41 0 48 -13v1q5 -8 5 -22
q0 -11 -5 -36l-48 -249q-17 -83 -74 -83q-40 0 -40 45q0 6 1 14t3 18l15 82h-64l-14 -74q-2 -11 -3 -22.5t-1 -22.5q0 -95 98 -95q118 0 143 134z" />
    <glyph glyph-name="four" unicode="4" horiz-adv-x="273" 
d="M373 449l10 56h-53l65 329h-62l-272 -385h194l-86 -449h64l86 449h54zM176 505l125 177l-35 -177h-90z" />
    <glyph glyph-name="five" unicode="5" 
d="M283 126l46 238q3 16 5 30t2 28q0 27 -10 45l1 -1q-19 40 -94 40h-50l52 270h175l10 58h-238l-75 -384h112q38 0 50 -12l2 -8t1 -11q0 -8 -1.5 -17.5t-3.5 -22.5l-48 -249q-17 -83 -74 -83q-40 0 -40 45q0 6 1 14t3 18l15 82h-64l-14 -74q-2 -11 -3 -22.5t-1 -22.5
q0 -95 98 -95q118 0 143 134z" />
    <glyph glyph-name="six" unicode="6" 
d="M283 126l47 241q5 25 5 45q0 94 -96 94q-29 0 -59 -14l42 212q16 81 73 81q41 0 41 -44q0 -6 -1 -14t-3 -17l-17 -83h66l14 75q2 11 3 22t1 22q0 95 -99 95q-117 0 -142 -133l-112 -576q-2 -11 -3 -22.5t-1 -22.5q0 -95 98 -95q118 0 143 134zM219 130q-17 -83 -74 -83
q-40 0 -40 45q0 6 1 14t3 18l47 244q16 82 77 82q37 0 37 -43q0 -16 -4 -33z" />
    <glyph glyph-name="seven" unicode="7" horiz-adv-x="222" 
d="M401 834h-243l-10 -58h163l-329 -776h64z" />
    <glyph glyph-name="eight" unicode="8" 
d="M283 126l48 245q2 12 3.5 24t1.5 23q0 38 -19 62q41 32 56 108l22 114q2 11 3 22t1 22q0 95 -99 95q-117 0 -142 -133l-22 -114q-3 -14 -4 -26t-1 -24q0 -41 19 -61q-41 -31 -56 -106l-48 -245q-2 -11 -3 -22.5t-1 -22.5q0 -95 98 -95q118 0 143 134zM219 130
q-17 -83 -74 -83q-40 0 -40 45q0 6 1 14t3 18l48 248q17 82 73 82q41 0 41 -44q0 -6 -1 -14.5t-3 -18.5v1zM309 592q-16 -82 -74 -82q-40 0 -40 43q0 6 1 14.5t3 18.5l23 118q16 81 73 81q41 0 41 -44q0 -6 -1 -14t-3 -18v1z" />
    <glyph glyph-name="nine" unicode="9" 
d="M283 126l112 576q2 11 3 22t1 22q0 95 -99 95q-117 0 -142 -133l-24 -123q-2 -12 -3 -23t-1 -22q0 -93 91 -93q35 0 62 13l-64 -330q-17 -83 -74 -83q-40 0 -40 45q0 6 1 14t3 18l15 82h-64l-14 -74q-2 -11 -3 -22.5t-1 -22.5q0 -95 98 -95q118 0 143 134zM307 585
q-17 -81 -76 -81q-38 0 -38 43q0 6 1 14t3 18l25 125q16 81 73 81q41 0 41 -44q0 -6 -1 -14t-3 -17z" />
    <glyph glyph-name="colon" unicode=":" horiz-adv-x="142" 
d="M162 326l15 68h-63l-15 -68h63zM101 4l12 67h-63l-12 -67h63z" />
    <glyph glyph-name="semicolon" unicode=";" horiz-adv-x="142" 
d="M110 71h-86l-12 -67h14l-30 -77h65l49 125v19zM162 326l15 68h-63l-15 -68h63z" />
    <glyph glyph-name="less" unicode="&#x3c;" horiz-adv-x="441" 
d="M433 132l14 69l-235 147l292 144l13 76l-408 -197l-7 -42z" />
    <glyph glyph-name="equal" unicode="=" horiz-adv-x="641" 
d="M632 246l13 65h-533l-13 -65h533zM659 386l13 64h-533l-13 -64h533z" />
    <glyph glyph-name="greater" unicode="&#x3e;" horiz-adv-x="441" 
d="M472 326l7 42l-332 197l-13 -71l235 -144l-292 -146l-15 -76z" />
    <glyph glyph-name="question" unicode="?" horiz-adv-x="251" 
d="M338 583l23 119q2 11 3 22t1 22q0 95 -99 95q-119 0 -144 -133l-14 -76h66l14 72q16 81 73 81q41 0 41 -44q0 -6 -1 -14t-3 -18v1l-24 -122q-9 -48 -27 -66q-17 -17 -77 -17l-73 -384h65l64 332q49 10 76 42q13 14 21.5 36.5t14.5 51.5zM137 4l12 67h-63l-12 -67h63z" />
    <glyph glyph-name="at" unicode="@" horiz-adv-x="659" 
d="M414 176v1q22 -39 57 -39h2q61 2 120 58q52 49 96 150q16 41 28.5 81.5t20.5 82.5q9 45 9 88q0 96 -50 167q-60 86 -179 86q-174 0 -306 -176q-93 -122 -123 -280q-6 -29 -8.5 -57.5t-2.5 -55.5q0 -117 56 -195q66 -94 200 -94q123 0 250 115l-11 51q-131 -106 -238 -106
q-122 0 -170 103q-26 58 -26 127q0 23 3 47.5t8 51.5q40 202 166 322q91 86 194 86q108 0 151 -82q26 -46 26 -111q0 -36 -9 -79q-34 -183 -104 -263q-47 -54 -89 -54q-17 0 -17 15q0 2 0.5 5t1.5 8l-1 -3l145 456h-63l-8 -24q-22 10 -50 10h-6q-116 0 -158 -132l-62 -196
q-2 -8 -4 -15.5t-4 -14.5q-3 -15 -3 -31q0 -80 92 -80q28 0 52 9q3 -16 14 -32zM440 340q-27 -84 -84 -86q-36 0 -36 33v8t2 10t3 11.5t3 12.5l63 199q27 84 88 84h2q31 0 31 -30q0 -7 -3 -20v1q-2 -6 -3 -11.5t-3 -12.5z" />
    <glyph glyph-name="A" unicode="A" horiz-adv-x="280" 
d="M284 0l42 834h-55l-282 -834h62l128 379h63l-21 -379h63zM199 440l55 162l-9 -162h-46z" />
    <glyph glyph-name="B" unicode="B" horiz-adv-x="279" 
d="M283 137l47 241v-1q2 9 3 19t1 19q0 42 -24 63q44 28 58 95l26 131q2 9 3 18t1 19q0 93 -103 93h-114l-161 -834h119q73 0 105 35q26 30 39 102zM219 132q-7 -46 -23 -60q-17 -16 -61 -16h-40l77 395h46q41 0 51 -14v1q3 -5 3 -20q0 -16 -4 -36zM307 583q-9 -48 -31 -67
q-10 -10 -53 -10h-40l52 271h46q41 0 50 -13q4 -5 4 -20q0 -7 -1 -16.5t-3 -20.5z" />
    <glyph glyph-name="C" unicode="C" horiz-adv-x="265" 
d="M283 126l15 80h-65l-14 -76q-17 -83 -74 -83q-40 0 -40 45q0 6 1 14t3 18l113 580q16 81 73 81q41 0 41 -44q0 -6 -1 -14t-3 -17l-16 -78h66l13 70q2 11 3 22t1 22q0 95 -99 95q-117 0 -142 -133l-112 -576q-2 -11 -3 -22.5t-1 -22.5q0 -95 98 -95q118 0 143 134z" />
    <glyph glyph-name="D" unicode="D" horiz-adv-x="277" 
d="M283 123l110 568q3 17 5 31t2 28q0 27 -10 44v-1q-21 41 -94 41h-114l-161 -834h119q60 0 95 30.5t48 92.5zM219 132q-9 -46 -22 -61q-16 -15 -60 -15h-42l140 720h48q40 0 48 -12q5 -7 5 -20q0 -11 -5 -36z" />
    <glyph glyph-name="E" unicode="E" horiz-adv-x="257" 
d="M255 0l10 56h-170l77 395h171l11 55h-171l52 271h171l10 57h-235l-161 -834h235z" />
    <glyph glyph-name="F" unicode="F" horiz-adv-x="250" 
d="M411 776l10 58h-235l-161 -834h65l87 452h148l10 57h-147l52 267h171z" />
    <glyph glyph-name="G" unicode="G" 
d="M283 126l75 383h-122l-11 -62h55l-61 -317q-17 -83 -74 -83q-40 0 -40 45q0 6 1 14t3 18l113 580q16 81 73 81q41 0 41 -44q0 -6 -1 -14t-3 -17l-16 -78h66l13 70q2 11 3 22t1 22q0 95 -99 95q-117 0 -142 -133l-112 -576q-2 -11 -3 -22.5t-1 -22.5q0 -95 98 -95
q118 0 143 134z" />
    <glyph glyph-name="H" unicode="H" horiz-adv-x="281" 
d="M261 0l161 834h-63l-63 -328h-109l63 328h-65l-161 -834h65l87 451h109l-88 -451h64z" />
    <glyph glyph-name="I" unicode="I" horiz-adv-x="111" 
d="M108 1l11 61h-22l138 709h23l11 61h-107l-11 -61h20l-138 -709h-21l-11 -61h107z" />
    <glyph glyph-name="J" unicode="J" horiz-adv-x="265" 
d="M263 126l137 708h-65l-136 -704q-17 -83 -74 -83q-31 0 -38 18q-3 6 -3 19q0 8 1.5 17.5t3.5 22.5l15 82h-66l-14 -74q-2 -11 -3 -22t-1 -22q0 -96 100 -96q118 0 143 134z" />
    <glyph glyph-name="K" unicode="K" horiz-adv-x="295" 
d="M263 0l73 378v-1q2 9 3 19t1 19q0 42 -24 63q44 28 58 95l50 261h-63l-48 -251q-9 -48 -31 -67q-10 -10 -53 -10h-40l63 328h-65l-161 -834h65l87 451h46q41 0 51 -14v1q3 -5 3 -20q0 -16 -4 -36l-75 -382h64z" />
    <glyph glyph-name="L" unicode="L" horiz-adv-x="246" 
d="M259 0l10 56h-171l151 778h-65l-161 -834h236z" />
    <glyph glyph-name="M" unicode="M" horiz-adv-x="459" 
d="M432 0l161 834h-63l-266 -625l-17 625h-63l-161 -834h65l105 545l16 -496h52l213 501l-106 -550h64z" />
    <glyph glyph-name="N" unicode="N" horiz-adv-x="287" 
d="M273 0l156 834h-64l-101 -519l-16 517h-2v2h-62l-161 -834h65l105 545l17 -511l-6 -34h69z" />
    <glyph glyph-name="O" unicode="O" 
d="M283 126l112 576q2 11 3 22t1 22q0 95 -99 95q-117 0 -142 -133l-112 -576q-2 -11 -3 -22.5t-1 -22.5q0 -95 98 -95q118 0 143 134zM219 130q-17 -83 -74 -83q-40 0 -40 45q0 6 1 14t3 18l113 580q16 81 73 81q41 0 41 -44q0 -6 -1 -14t-3 -17z" />
    <glyph glyph-name="P" unicode="P" horiz-adv-x="280" 
d="M378 574l23 117q7 34 7 62q0 23 -8 41q-21 40 -95 40h-114l-161 -834h65l87 452h55q118 0 141 122zM317 584q-5 -23 -10.5 -38t-13.5 -23l2 1q-18 -15 -62 -15h-40l52 267h46q42 0 51 -13v1q4 -6 4 -20q0 -11 -5 -36z" />
    <glyph glyph-name="Q" unicode="Q" 
d="M283 126l112 576q2 11 3 22t1 22q0 95 -99 95q-117 0 -142 -133l-112 -576q-2 -11 -3 -22.5t-1 -22.5q0 -81 69 -93l-6 -35q-2 -11 -3 -22t-1 -22q0 -95 112 -95l10 56q-59 0 -59 44q0 6 1 14.5t3 17.5v-1l9 45q85 19 106 130zM219 130q-11 -46 -29 -66l61 312q4 20 4 43
q0 82 -71 94l38 191q16 81 73 81q41 0 41 -44q0 -6 -1 -14t-3 -17zM105 91q0 16 4 33l64 331q18 -9 18 -40q0 -6 -1 -14t-3 -18v1l-64 -332q-18 7 -18 39z" />
    <glyph glyph-name="R" unicode="R" horiz-adv-x="298" 
d="M263 0l71 368q4 17 4 39q0 43 -24 66q46 27 59 96l24 122q7 34 7 62q0 23 -8 41q-21 40 -95 40h-114l-161 -834h65l85 441h46q37 0 50 -19q4 -4 4 -18q0 -11 -5 -34l-71 -370h63zM312 578q-9 -45 -24 -60h1q-9 -8 -23.5 -12t-37.5 -4h-40l53 274h46q42 0 51 -13v1
q4 -6 4 -20q0 -11 -5 -36z" />
    <glyph glyph-name="S" unicode="S" horiz-adv-x="267" 
d="M328 412h-3q0 89 -99 89q-41 0 -41 45q0 6 1 14t3 18l25 126q16 82 73 82q41 0 41 -45q0 -6 -1 -14t-3 -17l-17 -83h64l14 75q5 25 5 45q0 94 -98 94q-119 0 -144 -133l-23 -121q-2 -11 -3 -22t-1 -22q0 -97 100 -97q43 0 43 -36q0 -8 -3 -21l-50 -259q-17 -81 -73 -81
q-41 0 -41 44q0 5 1 13t3 18l14 77h-66l-13 -69q-2 -11 -3 -22t-1 -22q0 -96 100 -96q116 0 141 134z" />
    <glyph glyph-name="T" unicode="T" horiz-adv-x="274" 
d="M429 776l10 58h-287l-10 -58h112l-151 -776h66l150 776h110z" />
    <glyph glyph-name="U" unicode="U" 
d="M283 126l137 708h-65l-136 -704q-17 -83 -74 -83q-40 0 -40 45q0 6 1 14t3 18l137 710h-64l-136 -702q-2 -11 -3 -22.5t-1 -22.5q0 -95 98 -95q118 0 143 134z" />
    <glyph glyph-name="V" unicode="V" horiz-adv-x="280" 
d="M447 834h-66l-196 -581l31 581h-64l-42 -834h55z" />
    <glyph glyph-name="W" unicode="W" horiz-adv-x="459" 
d="M457 126l137 708h-65l-136 -704q-17 -83 -74 -83q-26 0 -27 69v11q0 44 12 106l116 601h-65l-115 -595q-7 -32 -14.5 -61.5t-19.5 -55.5q-32 -75 -61 -75q-40 0 -40 45q0 6 1 14t3 18l137 710h-64l-136 -702q-2 -11 -3 -22.5t-1 -22.5q0 -95 96 -95h2q59 0 97 66
q10 -62 76 -66h3q115 0 141 134z" />
    <glyph glyph-name="X" unicode="X" horiz-adv-x="280" 
d="M286 0l-35 416l199 418h-68l-143 -301l-22 301h-67l36 -405l-200 -429h68l142 305l22 -305h68z" />
    <glyph glyph-name="Y" unicode="Y" horiz-adv-x="267" 
d="M445 834h-68l-143 -301l-22 301h-67l37 -404l-83 -430h65l82 424z" />
    <glyph glyph-name="Z" unicode="Z" horiz-adv-x="262" 
d="M423 834h-257l-10 -58h175l-335 -776h258l10 56h-175z" />
    <glyph glyph-name="bracketleft" unicode="[" horiz-adv-x="150" 
d="M109 -224l11 55h-66l195 1000h66l10 56h-130l-217 -1111h131z" />
    <glyph glyph-name="backslash" unicode="\" horiz-adv-x="291" 
d="M304 0l-93 841h-64l93 -841h64z" />
    <glyph glyph-name="bracketright" unicode="]" horiz-adv-x="150" 
d="M109 -224l217 1111h-131l-10 -56h64l-195 -1000h-65l-11 -55h131z" />
    <glyph glyph-name="asciicircum" unicode="^" horiz-adv-x="332" 
d="M338 536l12 288h-55l-100 -288h64l18 51l-2 -51h63z" />
    <glyph glyph-name="underscore" unicode="_" horiz-adv-x="558" 
d="M553 -100l11 63h-591l-11 -63h591z" />
    <glyph glyph-name="grave" unicode="`" horiz-adv-x="150" 
d="M269 672l-48 153l-64 -31l47 -153z" />
    <glyph glyph-name="a" unicode="a" 
d="M258 -4l163 837h-64l-2 -12q-11 5 -24.5 7.5t-30.5 2.5q-118 0 -144 -134l-110 -565q-2 -11 -3 -22t-1 -22q0 -96 100 -96q28 0 54 9l-1 -5h63zM219 130q-17 -83 -72 -83q-42 0 -42 45q0 6 1 14t3 18l110 569q16 82 76 82q38 0 38 -42q0 -15 -4 -34z" />
    <glyph glyph-name="b" unicode="b" horiz-adv-x="275" 
d="M283 126l65 336q2 11 3 22t1 22q0 96 -99 96q-15 0 -28.5 -1.5t-24.5 -6.5l47 239h-65l-163 -837h65l1 6q20 -10 55 -10q118 0 143 134zM219 130q-17 -83 -74 -83q-40 0 -40 45q0 6 1 14t3 18l66 340q16 82 73 82q41 0 41 -44q0 -6 -1 -14.5t-3 -18.5v1z" />
    <glyph glyph-name="c" unicode="c" horiz-adv-x="265" 
d="M283 126l15 80h-65l-14 -76q-17 -83 -74 -83q-40 0 -40 45q0 6 1 14t3 18l113 580q16 81 73 81q41 0 41 -44q0 -6 -1 -14t-3 -17l-16 -78h66l13 70q2 11 3 22t1 22q0 95 -99 95q-117 0 -142 -133l-112 -576q-2 -11 -3 -22.5t-1 -22.5q0 -95 98 -95q118 0 143 134z" />
    <glyph glyph-name="d" unicode="d" 
d="M258 -4l163 837h-64l-45 -232q-21 9 -55 9q-118 0 -144 -134l-67 -344q-2 -11 -3 -22t-1 -22q0 -96 100 -96q30 0 54 9l-1 -5h63zM219 130q-17 -83 -72 -83q-42 0 -42 45q0 6 1 14t3 18l67 348q16 82 76 82q38 0 38 -42q0 -15 -4 -34z" />
    <glyph glyph-name="e" unicode="e" horiz-adv-x="278" 
d="M283 126l6 35h-65l-5 -32v1q-17 -83 -74 -83q-40 0 -40 45q0 6 1 14t3 18l49 254l191 85l44 230q2 11 3 22t1 22q0 96 -99 96q-116 0 -142 -134l-110 -567q-2 -11 -3 -22.5t-1 -22.5q0 -95 98 -95q118 0 143 134zM220 695q16 82 73 82q41 0 41 -44q0 -6 -1 -14.5
t-3 -17.5l-38 -192l-119 -57z" />
    <glyph glyph-name="f" unicode="f" horiz-adv-x="254" 
d="M395 664l5 29q2 11 3 22t1 22q0 97 -100 97q-116 0 -143 -135l-135 -700h65l104 541h137l12 60h-137l19 96q16 81 73 81q32 0 40 -18v1q2 -8 2 -18q0 -8 -1.5 -17.5t-3.5 -22.5l-8 -38h67z" />
    <glyph glyph-name="g" unicode="g" 
d="M286 133l135 700h-63l-2 -8q-21 10 -58 10q-115 0 -141 -134l-55 -280q-2 -11 -3 -22t-1 -22q0 -96 99 -96q29 0 55 8l-30 -153q-17 -81 -73 -81q-34 0 -40 17q-1 3 -1.5 7t-0.5 10q0 8 1.5 18t3.5 24v-1l17 83h-67l-14 -74q-2 -11 -3 -22t-1 -22q0 -95 100 -95
q117 0 142 133zM275 419q-17 -83 -74 -83q-40 0 -40 45q0 6 1 14t3 18l55 284q16 82 73 82q41 0 41 -44q0 -6 -1 -14.5t-3 -18.5v1z" />
    <glyph glyph-name="h" unicode="h" 
d="M257 -8l92 472q2 11 3 22t1 22q0 96 -99 96q-16 0 -30 -2.5t-26 -7.5l46 240h-65l-164 -842h68l92 474q17 83 74 83q40 0 40 -44q0 -16 -4 -33l-94 -480h66z" />
    <glyph glyph-name="i" unicode="i" horiz-adv-x="116" 
d="M88 0l137 711h-65l-137 -711h65zM238 771l11 62h-65l-11 -62h65z" />
    <glyph glyph-name="j" unicode="j" horiz-adv-x="104" 
d="M107 133l110 573h-63l-110 -570q-17 -81 -87 -81l-11 -55q136 0 161 133zM234 772l11 62h-64l-11 -62h64z" />
    <glyph glyph-name="k" unicode="k" horiz-adv-x="295" 
d="M263 0l73 378v-1q2 9 3 19t1 19q0 42 -24 63q44 28 58 95l50 261h-63l-48 -251q-9 -48 -31 -67q-10 -10 -53 -10h-40l63 328h-65l-161 -834h65l87 451h46q41 0 51 -14v1q3 -5 3 -20q0 -16 -4 -36l-75 -382h64z" />
    <glyph glyph-name="l" unicode="l" horiz-adv-x="116" 
d="M88 0l166 858l-77 -63l-155 -795h66z" />
    <glyph glyph-name="m" unicode="m" horiz-adv-x="452" 
d="M432 -8l136 701q2 11 3 22t1 22q0 96 -99 96q-59 0 -93 -31q-24 31 -82 31q-33 0 -56 -10l2 10h-65l-164 -841h68l137 703q17 83 73 83q41 0 41 -45q0 -6 -1 -14.5t-3 -18.5v1l-139 -709h67l137 703q17 83 73 83q41 0 41 -45q0 -6 -1 -14.5t-3 -18.5v1l-139 -709h66z" />
    <glyph glyph-name="n" unicode="n" horiz-adv-x="279" 
d="M257 -8l136 701q2 11 3 22t1 22q0 96 -99 96q-33 0 -56 -10l2 10h-65l-164 -841h68l137 703q17 83 73 83q41 0 41 -45q0 -6 -1 -14.5t-3 -18.5v1l-139 -709h66z" />
    <glyph glyph-name="o" unicode="o" 
d="M283 126l112 576q2 11 3 22t1 22q0 95 -99 95q-117 0 -142 -133l-112 -576q-2 -11 -3 -22.5t-1 -22.5q0 -95 98 -95q118 0 143 134zM219 130q-17 -83 -74 -83q-40 0 -40 45q0 6 1 14t3 18l113 580q16 81 73 81q41 0 41 -44q0 -6 -1 -14t-3 -17z" />
    <glyph glyph-name="p" unicode="p" horiz-adv-x="280" 
d="M378 574l23 117q7 34 7 62q0 23 -8 41q-21 40 -95 40h-114l-161 -834h65l87 452h55q118 0 141 122zM317 584q-5 -23 -10.5 -38t-13.5 -23l2 1q-18 -15 -62 -15h-40l52 267h46q42 0 51 -13v1q4 -6 4 -20q0 -11 -5 -36z" />
    <glyph glyph-name="q" unicode="q" horiz-adv-x="275" 
d="M253 -5l162 839h-65l-1 -6q-21 10 -55 10q-116 0 -141 -133l-68 -347q-2 -11 -3 -22.5t-1 -22.5q0 -96 98 -96q31 0 53 7l-44 -229h65zM258 355q-17 -82 -74 -82q-40 0 -40 44q0 6 1 14t3 18l68 351q16 83 73 83q41 0 41 -45q0 -6 -1 -14.5t-3 -17.5z" />
    <glyph glyph-name="r" unicode="r" horiz-adv-x="259" 
d="M372 576l21 111q6 30 6 55q0 43 -20.5 65t-68.5 22q-15 0 -31.5 -2.5t-31.5 -7.5l3 14h-68l-163 -836h67q33 170 59 304t44 227.5t28 143t11 51.5v-1q21 49 64 49q24 0 33 -9.5t9 -26.5q0 -14 -5 -39l-24 -120h67z" />
    <glyph glyph-name="s" unicode="s" horiz-adv-x="267" 
d="M328 412h-3q0 89 -99 89q-41 0 -41 45q0 6 1 14t3 18l25 126q16 82 73 82q41 0 41 -45q0 -6 -1 -14t-3 -17l-17 -83h64l14 75q5 25 5 45q0 94 -98 94q-119 0 -144 -133l-23 -121q-2 -11 -3 -22t-1 -22q0 -97 100 -97q43 0 43 -36q0 -8 -3 -21l-50 -259q-17 -81 -73 -81
q-41 0 -41 44q0 5 1 13t3 18l14 77h-66l-13 -69q-2 -11 -3 -22t-1 -22q0 -96 100 -96q116 0 141 134z" />
    <glyph glyph-name="t" unicode="t" horiz-adv-x="190" 
d="M311 574l10 60h-111l40 199h-66l-161 -833h65l111 574h112z" />
    <glyph glyph-name="u" unicode="u" 
d="M283 126l137 708h-65l-136 -704q-17 -83 -74 -83q-40 0 -40 45q0 6 1 14t3 18l137 710h-64l-136 -702q-2 -11 -3 -22.5t-1 -22.5q0 -95 98 -95q118 0 143 134z" />
    <glyph glyph-name="v" unicode="v" horiz-adv-x="280" 
d="M447 834h-66l-196 -581l31 581h-64l-42 -834h55z" />
    <glyph glyph-name="w" unicode="w" horiz-adv-x="459" 
d="M457 126l137 708h-65l-136 -704q-17 -83 -74 -83q-26 0 -27 69v11q0 44 12 106l116 601h-65l-115 -595q-7 -32 -14.5 -61.5t-19.5 -55.5q-32 -75 -61 -75q-40 0 -40 45q0 6 1 14t3 18l137 710h-64l-136 -702q-2 -11 -3 -22.5t-1 -22.5q0 -95 96 -95h2q59 0 97 66
q10 -62 76 -66h3q115 0 141 134z" />
    <glyph glyph-name="x" unicode="x" horiz-adv-x="280" 
d="M286 0l-35 416l199 418h-68l-143 -301l-22 301h-67l36 -405l-200 -429h68l142 305l22 -305h68z" />
    <glyph glyph-name="y" unicode="y" 
d="M285 128l135 701l1 5h-66l-89 -459q-17 -83 -73 -83q-41 0 -41 46q0 5 1 13t3 18l91 465h-65l-88 -457q-2 -11 -3 -22.5t-1 -22.5q0 -95 98 -95q29 0 55 8l-22 -114q-17 -81 -73 -81q-34 0 -40 17q-1 3 -1.5 7t-0.5 10q0 8 1.5 18t3.5 24v-1l17 83h-67l-14 -74
q-2 -11 -3 -22t-1 -22q0 -95 100 -95q117 0 142 133z" />
    <glyph glyph-name="z" unicode="z" horiz-adv-x="262" 
d="M423 834h-257l-10 -58h175l-335 -776h258l10 56h-175z" />
    <glyph glyph-name="braceleft" unicode="{" horiz-adv-x="270" 
d="M205 -219l8 42q-49 1 -57 19v-2q-2 10 -2 20q0 8 1.5 17.5t3.5 21.5v-1l110 453l-51 18l58 19l50 371v-1q7 42 21 60t64 23l11 56q-43 -2 -71.5 -12t-45.5 -27q-34 -34 -43 -96l-42 -329l-127 -38l-11 -49l113 -37l-99 -401q-6 -26 -6 -48q0 -44 23.5 -66.5t75.5 -24.5z
" />
    <glyph glyph-name="bar" unicode="|" horiz-adv-x="560" 
d="M262 -264l222 1149h-71l-222 -1149h71z" />
    <glyph glyph-name="braceright" unicode="}" horiz-adv-x="270" 
d="M314 345l11 49l-114 37l85 325q6 24 6 47q0 29 -12 52v-1q-22 38 -101 43l-10 -55q51 -5 56 -21q3 -8 3 -19q0 -13 -6 -37l-94 -375l50 -19l-57 -18l-66 -449q-2 -19 -7.5 -33.5t-13.5 -25.5q-15 -19 -63 -21l-11 -56q77 3 114 37.5t46 97.5l56 405z" />
    <glyph glyph-name="asciitilde" unicode="~" horiz-adv-x="491" 
d="M569 473q-60 -39 -99.5 -59.5t-59.5 -20.5q-2 0 -3.5 0.5t-3.5 0.5q-25 1 -68 38q-27 24 -52 35.5t-46 11.5q-54 -3 -138 -59l-27 -84q121 80 161 80h6q10 -1 24 -9.5t33 -23.5q32 -25 58.5 -38t49.5 -13q52 0 139 58z" />
    <glyph glyph-name="quotesinglbase" unicode="&#x201a;" horiz-adv-x="142" 
d="M110 71h-86l-12 -67h14l-30 -77h65l49 125v19z" />
    <glyph glyph-name="florin" unicode="&#x192;" horiz-adv-x="301" 
d="M437 735v2q3 15 3 31q0 73 -76 73q-94 0 -126 -115l-200 -727q-18 -65 -57 -65q-21 0 -21 23q0 6 3 20q1 3 1.5 6t2.5 8l6 29h-60l-6 -21v1q-2 -6 -3 -10.5t-2 -9.5q-3 -15 -3 -31q0 -72 76 -72q96 0 126 114h-1l146 531h71l17 57h-73l40 141q16 65 57 65q21 0 21 -23
q0 -7 -3 -20q-2 -10 -4 -15l-8 -30h61l5 18q4 8 5 12z" />
    <glyph glyph-name="quotedblbase" unicode="&#x201e;" horiz-adv-x="225" 
d="M214 71h-87l-12 -67h15l-30 -77h65l49 125v19zM110 71h-86l-12 -67h14l-30 -77h65l49 125v19z" />
    <glyph glyph-name="ellipsis" unicode="&#x2026;" horiz-adv-x="457" 
d="M429 4l12 67h-64l-12 -67h64zM101 4l12 67h-63l-12 -67h63zM270 4l12 67h-63l-12 -67h63z" />
    <glyph glyph-name="dagger" unicode="&#x2020;" 
d="M373 644l11 55h-79l26 135h-62l-26 -135h-76l-11 -55h76l-133 -683h63l132 683h79z" />
    <glyph glyph-name="daggerdbl" unicode="&#x2021;" 
d="M262 71l10 56h-78l101 519h79l10 56h-78l25 132h-62l-25 -132h-76l-10 -56h75l-101 -519h-76l-10 -56h75l-22 -110h63l21 110h79z" />
    <glyph glyph-name="circumflex" unicode="&#x2c6;" horiz-adv-x="332" 
d="M360 573l-19 186h-61l-91 -185h67l32 63l10 -62z" />
    <glyph glyph-name="perthousand" unicode="&#x2030;" horiz-adv-x="792" 
d="M802 128l31 160q4 20 4 43q0 98 -100 98q-118 0 -142 -135l-31 -160q-6 -27 -6 -51q0 -34 13 -55q6 -8 11 -14t8 -9q19 -10 46 -10q39 0 67 6.5t47.5 22.5t31.5 41t20 63zM555 128l31 160q4 20 4 43q0 98 -98 98q-119 0 -143 -135l-31 -160q-3 -13 -4 -25.5t-1 -23.5
q0 -19 3.5 -32t9.5 -24q11 -17 20 -24q18 -10 45 -10q39 0 66.5 6.5t47 22.5t31 41t19.5 63zM368 537l31 160q2 11 3 22t1 22q0 95 -100 95q-116 0 -141 -133l-31 -160q-2 -12 -3.5 -23.5t-1.5 -22.5q0 -95 98 -95q117 0 144 135zM649 841h-68l-518 -849h68zM737 132
q-16 -82 -74 -82q-31 0 -39 17q-2 8 -2 18q0 8 1.5 18t3.5 24v-1l32 165q17 80 72 80q42 0 42 -44q0 -6 -1 -14t-3 -17v1zM491 132q-16 -82 -73 -82q-32 0 -40 17q-1 3 -1.5 7t-0.5 10q0 8 1.5 18.5l3.5 24.5v-1l32 165q17 80 73 80q41 0 41 -44q0 -6 -1 -14t-3 -17v1z
M303 540q-17 -81 -74 -81q-31 0 -38 21q-3 6 -3 18q0 6 1.5 15l3.5 21l33 165q16 81 72 81q42 0 42 -44q0 -6 -1 -14t-3 -18v1z" />
    <glyph glyph-name="Scaron" unicode="&#x160;" 
d="M338 412h-3q0 89 -99 89q-41 0 -41 45q0 6 1 14t3 18l25 126q16 82 73 82q41 0 41 -45q0 -6 -1 -14t-3 -17l-17 -83h64l14 75q5 25 5 45q0 94 -98 94q-119 0 -144 -133l-23 -121q-2 -11 -3 -22t-1 -22q0 -97 100 -97q43 0 43 -36q0 -8 -3 -21l-50 -259q-17 -81 -73 -81
q-41 0 -41 44q0 5 1 13t3 18l14 77h-66l-13 -69q-2 -11 -3 -22t-1 -22q0 -96 100 -96q116 0 141 134zM425 1028l-65 -2l-34 -63l-8 64h-62l18 -185h60z" />
    <glyph glyph-name="guilsinglleft" unicode="&#x2039;" horiz-adv-x="325" 
d="M321 127l16 72l-149 148l206 147l14 79l-299 -205l-6 -36z" />
    <glyph glyph-name="OE" unicode="&#x152;" horiz-adv-x="449" 
d="M430 0l10 56h-170l77 395h171l11 55h-171l52 271h171l10 57h-234l-1 -4q-21 11 -56 11q-117 0 -142 -133l-112 -576q-2 -11 -3 -22.5t-1 -22.5q0 -95 98 -95q31 0 55 10v-2h235zM219 130q-17 -83 -74 -83q-40 0 -40 45q0 6 1 14t3 18l113 580q16 81 73 81q41 0 41 -44
q0 -6 -1 -14t-3 -17z" />
    <glyph glyph-name="quoteleft" unicode="&#x2018;" horiz-adv-x="142" 
d="M252 627l19 95h-37l53 114h-66l-86 -183l-9 -26h126z" />
    <glyph glyph-name="quoteright" unicode="&#x2019;" horiz-adv-x="142" 
d="M311 836h-142l-19 -95h36l-53 -114h66l85 182z" />
    <glyph glyph-name="quotedblleft" unicode="&#x201c;" horiz-adv-x="289" 
d="M400 627l19 95h-37l53 114h-66l-87 -185l2 2l-17 -26h133zM252 627l19 95h-37l53 114h-66l-86 -183l-9 -26h126z" />
    <glyph glyph-name="quotedblright" unicode="&#x201d;" horiz-adv-x="289" 
d="M459 836h-143l-19 -95h37l-54 -114h67l85 182zM311 836h-142l-19 -95h36l-53 -114h66l85 182z" />
    <glyph glyph-name="bullet" unicode="&#x2022;" horiz-adv-x="200" 
d="M215 292l26 132h-130l-26 -132h130z" />
    <glyph glyph-name="endash" unicode="&#x2013;" horiz-adv-x="507" 
d="M586 327l9 54h-541l-9 -54h541z" />
    <glyph glyph-name="emdash" unicode="&#x2014;" horiz-adv-x="886" 
d="M964 327l9 54h-919l-9 -54h919z" />
    <glyph glyph-name="tilde" unicode="&#x2dc;" horiz-adv-x="327" 
d="M468 818q-49 -42 -77 -62t-38 -20h1q-10 2 -31 21q-28 31 -52 34h-3q-18 0 -41.5 -12t-54.5 -40l-25 -93q90 80 112 83q5 -2 10.5 -6.5t13.5 -12.5l9 -6l-3 1q30 -30 53 -31h5q36 0 92 48z" />
    <glyph glyph-name="trademark" unicode="&#x2122;" horiz-adv-x="719" 
d="M779 437l76 397h-61l-191 -229l-98 229h-58l-76 -397h64l53 275l80 -187h45l155 181l-53 -269h64zM405 776l10 58h-270l-10 -58h102l-66 -339h66l65 339h103z" />
    <glyph glyph-name="scaron" unicode="&#x161;" 
d="M338 412h-3q0 89 -99 89q-41 0 -41 45q0 6 1 14t3 18l25 126q16 82 73 82q41 0 41 -45q0 -6 -1 -14t-3 -17l-17 -83h64l14 75q5 25 5 45q0 94 -98 94q-119 0 -144 -133l-23 -121q-2 -11 -3 -22t-1 -22q0 -97 100 -97q43 0 43 -36q0 -8 -3 -21l-50 -259q-17 -81 -73 -81
q-41 0 -41 44q0 5 1 13t3 18l14 77h-66l-13 -69q-2 -11 -3 -22t-1 -22q0 -96 100 -96q116 0 141 134zM425 1028l-65 -2l-34 -63l-8 64h-62l18 -185h60z" />
    <glyph glyph-name="guilsinglright" unicode="&#x203a;" horiz-adv-x="325" 
d="M362 329l6 36l-220 206l-14 -75l149 -146l-206 -147l-17 -80z" />
    <glyph glyph-name="oe" unicode="&#x153;" horiz-adv-x="456" 
d="M458 126l6 35h-65l-5 -32v1q-17 -83 -74 -83q-40 0 -40 45q0 6 1 14t3 18l65 340h175l44 227q2 11 3 22t1 22q0 96 -99 96q-58 0 -93 -34q-24 34 -82 34q-116 0 -142 -134l-110 -565q-2 -11 -3 -22.5t-1 -22.5q0 -95 98 -95q57 0 93 33q24 -33 82 -33q118 0 143 134z
M219 130q-17 -83 -74 -83q-40 0 -40 45q0 6 1 14t3 18l110 569q16 82 74 82q40 0 40 -43q0 -14 -4 -33zM394 693q16 82 74 82q40 0 40 -43q0 -14 -4 -33l-34 -174h-109z" />
    <glyph glyph-name="Ydieresis" unicode="&#x178;" horiz-adv-x="280" 
d="M450 834h-68l-143 -301l-22 301h-67l37 -404l-83 -430h65l82 424l-2 -4zM391 889l12 67h-64l-12 -67h64zM292 889l12 67h-63l-12 -67h63z" />
    <glyph glyph-name="exclamdown" unicode="&#xa1;" horiz-adv-x="142" 
d="M65 -188l138 714h-65l-138 -714h65zM213 580l12 67h-62l-12 -67h62z" />
    <glyph glyph-name="cent" unicode="&#xa2;" horiz-adv-x="275" 
d="M305 238l15 80h-65l-14 -76q-11 -52 -35 -70l93 477q11 -11 11 -34q0 -15 -4 -34l-14 -77h65l13 69q4 20 4 43q0 78 -63 93l16 87h-65l-16 -86q-47 -8 -74 -40.5t-39 -90.5l-65 -335q-2 -11 -3 -22t-1 -22q0 -77 65 -92l-14 -67h66l13 66q44 8 72 40.5t39 90.5zM127 203
q0 16 4 33l65 339q9 52 37 71l-94 -479q-12 10 -12 36z" />
    <glyph glyph-name="sterling" unicode="&#xa3;" horiz-adv-x="246" 
d="M285 322l11 65h-134l15 75h135l11 64h-134l61 308h-66l-60 -308h-43l-11 -64h42l-15 -75h-43l-11 -65h42l-63 -322h237l10 56h-171l52 266h135z" />
    <glyph glyph-name="currency" unicode="&#xa4;" horiz-adv-x="295" 
d="M308 126l15 80h-65l-14 -76q-17 -83 -74 -83q-40 0 -40 45q0 6 1 14t3 18l41 217h114l13 65h-114l14 74h141l13 65h-141l32 159q16 81 73 81q41 0 41 -44q0 -6 -1 -14.5t-3 -17.5v1l-16 -78h66l13 70q2 11 3 22t1 22q0 95 -99 95q-118 0 -143 -133l-32 -163h-32l-13 -65
h32l-14 -74h-60l-13 -65h60l-40 -209q-2 -11 -3 -22t-1 -22q0 -96 99 -96q118 0 143 134z" />
    <glyph glyph-name="yen" unicode="&#xa5;" horiz-adv-x="263" 
d="M443 834h-68l-143 -301l-22 301h-67l37 -404l-7 -34h-88l-13 -65h88l-9 -47h-88l-11 -65h87l-43 -219h66l42 219h91l11 65h-90l9 47h91l13 65h-91l6 28z" />
    <glyph glyph-name="brokenbar" unicode="&#xa6;" horiz-adv-x="244" 
d="M226 369l85 443h-71l-85 -443h71zM117 -191l85 443h-71l-85 -443h71z" />
    <glyph glyph-name="section" unicode="&#xa7;" 
d="M266 33l2 11q0 2 0.5 5.5t0.5 5.5l5 29h-3q0 40 -22 62q41 28 57 95l8 46q4 20 4 45v13q0 7 -1 12q-13 74 -97 74q-43 0 -43 37q0 4 0.5 8.5t1.5 10.5l21 107q16 81 72 81q42 0 42 -44q0 -6 -1 -14t-3 -17l-16 -78h66l14 70q4 19 4 42q0 97 -101 97q-115 0 -140 -133
l-27 -133h5q2 -40 22 -62q-44 -30 -57 -95l-8 -45q-5 -25 -5 -46q0 -8 0.5 -14.5t1.5 -11.5q13 -72 98 -72q43 0 43 -38q0 -4 -0.5 -9t-1.5 -10l-21 -107q-17 -81 -73 -81q-41 0 -41 44q0 5 1 13.5t3 17.5l14 77h-66l-13 -69q-2 -11 -3 -22t-1 -22q0 -96 100 -96
q116 0 141 134l10 52zM244 260q-17 -81 -74 -81q-31 0 -39 18q-1 1 -1 13q0 8 1.5 18t3.5 24v-1l8 37q16 82 73 82q29 0 37 -17q2 -10 2 -16q0 -7 -1 -16.5t-3 -21.5l-6 -28h1z" />
    <glyph glyph-name="dieresis" unicode="&#xa8;" horiz-adv-x="174" 
d="M201 687l12 67h-64l-12 -67h64zM299 687l12 67h-63l-12 -67h63z" />
    <glyph glyph-name="copyright" unicode="&#xa9;" horiz-adv-x="932" 
d="M873 404q13 65 13 126q0 257 -273 257q-167 0 -271 -104q-48 -48 -80.5 -116t-50.5 -157q-12 -62 -12 -117q0 -96 39 -157q66 -109 233 -109q84 0 151 26.5t120 77.5q98 98 131 273zM808 410q-61 -319 -330 -319q-132 0 -183 87q-30 49 -30 125q0 22 3 47t8 54
q61 318 330 318q214 0 214 -203q0 -48 -12 -109zM634 264l15 80h-65l-14 -76q-16 -82 -75 -82q-39 0 -39 42q0 15 4 34l58 301q16 82 72 82q42 0 42 -45q0 -6 -1 -14t-3 -17l-14 -77h65l13 69q4 19 4 42q0 98 -101 98q-115 0 -141 -134l-58 -297q-5 -25 -5 -45q0 -94 99 -94
q119 0 144 133z" />
    <glyph glyph-name="ordfeminine" unicode="&#xaa;" 
d="M350 471l43 220q2 11 3 22t1 22q0 96 -100 96q-115 0 -141 -134v1l-7 -27h66l4 22q17 81 72 81q42 0 42 -44q0 -6 -1 -14t-3 -17l-11 -58q-23 9 -56 9q-116 0 -141 -133l-8 -40q-2 -12 -3.5 -23.5t-1.5 -22.5q0 -95 98 -95q31 0 52 7v-3h65l19 98l-1 -2q2 8 4.5 16.5
t4.5 18.5zM278 447l1 1q-17 -56 -68 -56q-30 0 -37 18v-1q-3 7 -3 21q0 7 1.5 16.5t3.5 21.5l8 45q17 81 72 81q42 0 42 -39q0 -6 -1 -10z" />
    <glyph glyph-name="guillemotleft" unicode="&#xab;" horiz-adv-x="482" 
d="M321 127l16 72l-149 148l206 147l14 79l-299 -205l-6 -36zM468 127l16 72l-149 148l206 147l14 80l-297 -205l-6 -37z" />
    <glyph glyph-name="logicalnot" unicode="&#xac;" horiz-adv-x="497" 
d="M525 264l31 156h-457l-13 -64h393l-18 -92h64z" />
    <glyph glyph-name="registered" unicode="&#xae;" horiz-adv-x="932" 
d="M873 404q13 65 13 126q0 257 -273 257q-167 0 -271 -104q-48 -48 -80.5 -116t-50.5 -157q-12 -62 -12 -117q0 -96 39 -157q66 -109 233 -109q84 0 151 26.5t120 77.5q98 98 131 273zM808 410q-61 -319 -330 -319q-132 0 -183 87q-30 49 -30 125q0 22 3 47t8 54
q61 318 330 318q214 0 214 -203q0 -48 -12 -109zM640 245l13 68q3 18 3 36q0 46 -25 68q24 14 38.5 38t22.5 59l5 29q6 33 6 59q0 15 -2 26.5t-7 19.5q-21 38 -94 38h-114l-109 -555h66l49 256h47q38 0 49 -17q4 -5 4 -19q0 -6 -1 -14.5t-3 -19.5l-37 -186h64l22 114h3z
M628 523q-9 -45 -24 -60h1q-8 -8 -22.5 -12t-37.5 -4h-41l35 182h47q41 0 51 -13v1q3 -5 3 -20q0 -6 -1.5 -15.5t-3.5 -21.5z" />
    <glyph glyph-name="macron" horiz-adv-x="266" 
d="M405 891l13 64h-204l-13 -64h204z" />
    <glyph glyph-name="degree" unicode="&#xb0;" horiz-adv-x="369" 
d="M471 656q3 15 3 32q0 28 -10 52.5t-27.5 42.5t-42.5 28t-55 10q-34 0 -66 -12t-57.5 -33.5t-43.5 -50.5t-25 -63q-3 -17 -3 -33q0 -59 36.5 -96t99.5 -37q68 0 122 47v-1q55 45 69 114zM414 662q-4 -23 -16 -43t-29.5 -34.5t-38.5 -22.5t-43 -8q-38 0 -61 22.5t-23 57.5
v10t2 12q4 23 16 42.5t29.5 34t39 23t44.5 8.5q37 0 59.5 -23t22.5 -58v-10q0 -4 -2 -10v-1z" />
    <glyph glyph-name="plusminus" unicode="&#xb1;" horiz-adv-x="399" 
d="M443 324l11 61h-148l30 147h-64l-29 -147h-148l-11 -61h147l-29 -149h64l28 149h149zM399 100l11 61h-359l-11 -61h359z" />
    <glyph glyph-name="twosuperior" unicode="&#xb2;" horiz-adv-x="229" 
d="M284 317l9 54h-104l35 176q3 16 9 20.5t32 8.5q21 3 35 7t23.5 12.5t15 23t10.5 37.5l18 91q3 15 3 28q0 66 -70 66q-38 0 -63 -21.5t-33 -66.5l-12 -57h61l10 52q2 11 4.5 18.5t5.5 12.5q5 4 9.5 6t12.5 2q11 0 14 -5q2 -6 2 -8q0 -7 -3 -20l-17 -90q-2 -11 -4.5 -17
t-6.5 -9t-11 -4.5t-18 -2.5q-73 -8 -86 -78l-45 -236h164zM274 781l-1 -1v0q1 0 1 1z" />
    <glyph glyph-name="threesuperior" unicode="&#xb3;" horiz-adv-x="229" 
d="M299 399l29 150q3 12 3 26q0 19 -10 34q23 21 30 58l15 77q3 13 3 29q0 67 -70 67q-38 0 -63 -22.5t-33 -67.5l-10 -55h60l10 52q4 22 9 30q7 9 23 9q8 0 14 -4q1 -4 1 -9v-9t-2 -11l-15 -78q-3 -15 -6 -22.5t-5 -10.5l1 3q-8 -8 -29 -8h-37l-9 -53h42q23 0 23 -7
q0 -2 -1 -8.5t-3 -14.5l-29 -150q-8 -39 -33 -39q-12 0 -14 5v-1q-1 1 -1 7q0 7 3 22l11 61h-60l-10 -54q-3 -14 -3 -28q0 -67 69 -67q80 0 97 89z" />
    <glyph glyph-name="acute" unicode="&#xb4;" horiz-adv-x="150" 
d="M294 791l-59 33l-103 -149l57 -33z" />
    <glyph glyph-name="mu" unicode="&#x3bc;" 
d="M283 93l8 44q-59 0 -59 44q0 11 3 28v-1l1 5q70 27 88 125l94 478h-66l-92 -474q-17 -83 -73 -83q-41 0 -41 46q0 5 1 13t3 18l94 480h-65l-158 -818h64l41 217q21 -10 44 -11q-1 -7 -1 -14v-12q0 -97 99 -97z" />
    <glyph glyph-name="paragraph" unicode="&#xb6;" horiz-adv-x="366" 
d="M507 772l11 62h-233q-72 0 -105 -37q-13 -14 -23.5 -39t-17.5 -61l-23 -118q-3 -18 -3 -35q0 -92 104 -92h48l-100 -512h66l161 832h19l-162 -832h66l161 832h31z" />
    <glyph glyph-name="periodcentered" unicode="&#xb7;" horiz-adv-x="426" 
d="M448 379l-26 35q34 40 44 90q3 15 3 32q0 31 -12 57l41 35l-36 45l-40 -33q-36 30 -89 30q-26 0 -49 -7t-46 -21l-25 31l-49 -42l24 -30q-37 -40 -46 -91q-2 -8 -3 -16.5t-1 -19.5q0 -31 14 -59l-38 -32l39 -44l38 31q35 -25 83 -25q53 0 99 28l28 -34zM408 510
q-5 -23 -16.5 -43t-28.5 -34.5t-38 -23t-44 -8.5q-37 0 -60.5 23t-23.5 58q0 8 3 22q4 22 16.5 42t29.5 34t38 22.5t44 8.5q37 0 59.5 -22.5t22.5 -57.5v-10q0 -4 -2 -10v-1z" />
    <glyph glyph-name="cedilla" unicode="&#xb8;" horiz-adv-x="249" 
d="M159 -132l8 43q1 5 1 16q0 37 -35 42l14 66h-54l-23 -116h26q2 0 3 0.5t3 0.5t3 -0.5t3 -0.5q3 0 3 -1q0 -5 -1 -8l-7 -36q-3 -13 -11 -18h-63l-9 -51h62q33 0 51.5 15.5t25.5 47.5z" />
    <glyph glyph-name="onesuperior" unicode="&#xb9;" horiz-adv-x="226" 
d="M245 315l10 57h-16l93 472l-88 -29l-11 -62l22 8l-76 -389h-16l-10 -57h92z" />
    <glyph glyph-name="ordmasculine" unicode="&#xba;" horiz-adv-x="187" 
d="M288 561l36 187q3 13 3 27q0 67 -75 67q-87 0 -103 -88l-36 -187q-3 -14 -3 -28q0 -68 76 -68q85 0 102 90zM226 565q-7 -40 -36 -40q-19 0 -19 19q0 2 0.5 6.5t1.5 9.5v-1l37 189q8 41 37 41q18 0 18 -19q0 -3 -0.5 -7.5t-1.5 -9.5v1z" />
    <glyph glyph-name="guillemotright" unicode="&#xbb;" horiz-adv-x="482" 
d="M362 329l6 36l-220 206l-14 -75l149 -146l-206 -147l-17 -80zM509 328l6 37l-218 206l-14 -75l148 -146l-205 -147l-17 -81z" />
    <glyph glyph-name="onequarter" unicode="&#xbc;" horiz-adv-x="291" 
d="M469 841h-66l-421 -841h66zM480 270l12 52h-31l38 198h-55l-177 -250h123l-51 -270h60l51 270h30zM78 321l13 58h-18l92 473l-88 -32l-11 -62l24 9l-76 -388h-14l-13 -58h91zM375 322l36 51l-10 -51h-26z" />
    <glyph glyph-name="onehalf" unicode="&#xbd;" horiz-adv-x="291" 
d="M469 841h-66l-421 -841h66zM423 0l11 55h-105l34 174q3 19 6 21q5 4 37 10q38 8 53 18q22 19 29 60l18 91q3 13 3 29q0 67 -69 67q-79 0 -95 -90l-10 -56h58l9 52q2 10 5 17.5l5 12.5q10 10 24 10q9 0 13 -4q2 -8 2 -9q0 -8 -3 -21l-17 -90q-2 -11 -4.5 -17t-7 -9
t-11.5 -4.5t-19 -2.5h1q-36 -4 -56 -22.5t-28 -56.5l-45 -235h162zM78 321l13 58h-18l92 473l-88 -32l-11 -62l24 9l-76 -388h-14l-13 -58h91zM414 464l-1 -2q0 1 1 2z" />
    <glyph glyph-name="threequarters" unicode="&#xbe;" horiz-adv-x="291" 
d="M469 841h-66l-421 -841h66zM135 399l29 150q3 12 3 26q0 19 -10 34q23 21 30 58l15 77q3 13 3 29q0 67 -69 67q-81 0 -97 -90l-10 -55h60l10 52q2 10 4.5 17t4.5 12q10 10 24 10q12 0 14 -5q0 -2 0.5 -3.5t0.5 -3.5q0 -8 -3 -21l-15 -78q-4 -23 -11 -30q-8 -8 -28 -8h-38
l-9 -53h43q22 0 22 -8q0 -7 -3 -22l-29 -150q-8 -39 -32 -39q-12 0 -15 4v8v9q0 5 2 12l11 61h-60l-10 -54q-3 -14 -3 -28q0 -67 70 -67q79 0 96 89zM480 270l12 52h-31l38 198h-55l-177 -250h123l-51 -270h60l51 270h30zM375 322l36 51l-10 -51h-26zM110 780l-2 -3l1 1
q0 1 1 2z" />
    <glyph glyph-name="questiondown" unicode="&#xbf;" horiz-adv-x="275" 
d="M239 -48l14 75h-66l-13 -72q-17 -80 -73 -80q-41 0 -41 44q0 6 1 14t3 16l24 123q11 50 27 63q20 20 77 20l75 384h-66l-64 -332q-51 -10 -78 -44q-26 -30 -36 -88l-23 -117q-4 -20 -4 -43q0 -98 99 -98q120 0 144 135zM275 589l15 67h-64l-15 -67h64z" />
    <glyph glyph-name="Agrave" unicode="&#xc0;" horiz-adv-x="280" 
d="M284 0l42 834h-55l-282 -834h62l128 379h63l-21 -379h63zM375 872l-48 150l-65 -27l48 -154zM199 440l55 162l-9 -162h-46z" />
    <glyph glyph-name="Aacute" unicode="&#xc1;" horiz-adv-x="280" 
d="M284 0l42 834h-55l-282 -834h62l128 379h63l-21 -379h63zM400 991l-59 30l-104 -146l59 -33zM199 440l55 162l-9 -162h-46z" />
    <glyph glyph-name="Acircumflex" unicode="&#xc2;" horiz-adv-x="280" 
d="M284 0l42 834h-55l-282 -834h62l128 379h63l-21 -379h63zM386 842l-19 185h-61l-91 -185h67l32 62l9 -62h63zM199 440l55 162l-9 -162h-46z" />
    <glyph glyph-name="Atilde" unicode="&#xc3;" horiz-adv-x="280" 
d="M284 0l42 834h-55l-282 -834h62l128 379h63l-21 -379h63zM478 1008q-49 -42 -77 -62t-39 -20q-8 1 -30 24q-31 30 -50 31h-3q-20 0 -43.5 -12t-52.5 -38l-27 -95q95 83 114 83q4 -2 10 -6.5t14 -12.5h-1l5 -5q14 -14 27 -21.5t27 -9.5h5q35 0 92 48zM199 440l55 162
l-9 -162h-46zM269 919l-2 1v0q1 0 2 -1z" />
    <glyph glyph-name="Adieresis" unicode="&#xc4;" horiz-adv-x="280" 
d="M284 0l42 834h-55l-282 -834h62l128 379h63l-21 -379h63zM391 889l12 67h-64l-12 -67h64zM292 889l12 67h-63l-12 -67h63zM199 440l55 162l-9 -162h-46z" />
    <glyph glyph-name="Aring" unicode="&#xc5;" horiz-adv-x="280" 
d="M284 0l41 820q32 8 57.5 33.5t32.5 59.5v1q1 5 1.5 8.5t0.5 9.5q0 35 -23.5 59.5t-60.5 24.5q-20 0 -39 -8t-35 -21.5t-27 -31t-15 -37.5q-1 -5 -1.5 -9.5t-0.5 -9.5q0 -27 13.5 -47.5t38.5 -29.5l-278 -822h62l128 379h63l-21 -379h63zM354 919q-3 -17 -17 -29.5
t-31 -12.5q-13 0 -20.5 8t-7.5 20q0 3 1 7q4 18 17.5 30.5t30.5 12.5q13 0 20.5 -8t7.5 -20q0 -3 -1 -7v-1zM199 440l55 162l-9 -162h-46z" />
    <glyph glyph-name="AE" unicode="&#xc6;" horiz-adv-x="475" 
d="M452 0l10 56h-170l77 395h171l11 55h-171l52 271h171l10 57h-226l-402 -834h65l183 379h61l-76 -379h234zM261 440l76 156l-31 -156h-45z" />
    <glyph glyph-name="Ccedilla" unicode="&#xc7;" horiz-adv-x="275" 
d="M283 126l15 80h-65l-14 -76q-17 -83 -74 -83q-40 0 -40 45q0 6 1 14t3 18l113 580q16 81 73 81q41 0 41 -44q0 -6 -1 -14t-3 -18v1l-16 -78h66l13 70q2 11 3 22t1 22q0 95 -99 95q-117 0 -142 -133l-112 -576q-4 -20 -4 -43q0 -78 65 -94l-14 -76h26q2 0 3 0.5t3 0.5
t3 -0.5t3 -0.5q4 0 4 -2q0 -4 -1 -7l-7 -36q-3 -13 -11 -18h-63l-9 -51h62q33 0 51.5 15.5t25.5 47.5l8 43q1 5 1 16q0 37 -35 42l5 24q99 14 121 133z" />
    <glyph glyph-name="Egrave" unicode="&#xc8;" horiz-adv-x="290" 
d="M272 0l10 56h-170l77 395h171l11 55h-171l52 271h171l10 57h-235l-161 -834h235zM380 872l-48 150l-65 -27l48 -154z" />
    <glyph glyph-name="Eacute" unicode="&#xc9;" horiz-adv-x="290" 
d="M272 0l10 56h-170l77 395h171l11 55h-171l52 271h171l10 57h-235l-161 -834h235zM405 991l-59 30l-104 -146l59 -33z" />
    <glyph glyph-name="Ecircumflex" unicode="&#xca;" horiz-adv-x="290" 
d="M259 0l10 56h-170l77 395h171l11 55h-171l52 271h171l10 57h-235l-161 -834h235zM390 842l-18 185h-61l-91 -185h67l32 62l9 -62h62z" />
    <glyph glyph-name="Edieresis" unicode="&#xcb;" horiz-adv-x="290" 
d="M259 0l10 56h-170l77 395h171l11 55h-171l52 271h171l10 57h-235l-161 -834h235zM396 889l12 67h-64l-12 -67h64zM297 889l12 67h-63l-12 -67h63z" />
    <glyph glyph-name="Igrave" unicode="&#xcc;" horiz-adv-x="127" 
d="M115 1l11 61h-22l138 709h23l11 61h-25v2h-63v-2h-19l-11 -61h20l-138 -709h-21l-11 -61h24v-1h63v1h20zM298 872l-48 151l-64 -28l49 -154z" />
    <glyph glyph-name="Iacute" unicode="&#xcd;" horiz-adv-x="127" 
d="M115 1l11 61h-22l138 709h23l11 61h-25v2h-63v-2h-19l-11 -61h20l-138 -709h-21l-11 -61h24v-1h63v1h20zM323 991l-57 30l-105 -146l57 -33z" />
    <glyph glyph-name="Icircumflex" unicode="&#xce;" horiz-adv-x="127" 
d="M115 1l11 61h-22l138 709h23l11 61h-25v2h-63v-2h-19l-11 -61h20l-138 -709h-21l-11 -61h24v-1h63v1h20zM310 842l-20 185h-62l-90 -185h67l32 62l10 -62h63z" />
    <glyph glyph-name="Idieresis" unicode="&#xcf;" horiz-adv-x="127" 
d="M115 1l11 61h-22l138 709h23l11 61h-25v2h-63v-2h-19l-11 -61h20l-138 -709h-21l-11 -61h24v-1h63v1h20zM315 889l12 67h-64l-12 -67h64zM216 889l12 67h-62l-12 -67h62z" />
    <glyph glyph-name="Eth" unicode="&#xd0;" 
d="M283 123l110 568q3 17 5 31t2 28q0 27 -10 44v-1q-21 41 -94 41h-114l-54 -279h-39l-11 -61h38l-95 -494h119q60 0 95 30.5t48 92.5zM219 132q-5 -23 -10.5 -38t-10.5 -22q-17 -16 -61 -16h-42l85 438h104l11 61h-103l43 221h48q40 0 48 -12q5 -7 5 -20q0 -11 -5 -36z
" />
    <glyph glyph-name="Ntilde" unicode="&#xd1;" horiz-adv-x="287" 
d="M273 0l156 834h-64l-101 -519l-16 517h-2v2h-62l-161 -834h65l105 545l17 -511l-6 -34h69zM478 1008q-48 -42 -75.5 -62t-36.5 -20q-10 2 -30 23q-32 31 -51 32h-3q-20 0 -43 -12t-52 -38l-29 -95q98 83 116 83q6 -2 22 -17l5 -6q32 -29 53 -32h5q37 0 95 49zM273 919
l-2 1v0q1 0 2 -1z" />
    <glyph glyph-name="Ograve" unicode="&#xd2;" 
d="M283 126l112 576q2 11 3 22t1 22q0 95 -99 95q-117 0 -142 -133l-112 -576q-2 -11 -3 -22.5t-1 -22.5q0 -95 98 -95q118 0 143 134zM219 130q-17 -83 -74 -83q-40 0 -40 45q0 6 1 14t3 18l113 580q16 81 73 81q41 0 41 -44q0 -6 -1 -14t-3 -18v1zM377 872l-47 150
l-65 -27l47 -154z" />
    <glyph glyph-name="Oacute" unicode="&#xd3;" 
d="M283 126l112 576q2 11 3 22t1 22q0 95 -99 95q-117 0 -142 -133l-112 -576q-2 -11 -3 -22.5t-1 -22.5q0 -95 98 -95q118 0 143 134zM219 130q-17 -83 -74 -83q-40 0 -40 45q0 6 1 14t3 18l113 580q16 81 73 81q41 0 41 -44q0 -6 -1 -14t-3 -17zM402 991l-59 30l-103 -146
l59 -33z" />
    <glyph glyph-name="Ocircumflex" unicode="&#xd4;" 
d="M283 126l112 576q2 11 3 22t1 22q0 95 -99 95q-117 0 -142 -133l-112 -576q-2 -11 -3 -22.5t-1 -22.5q0 -95 98 -95q118 0 143 134zM219 130q-17 -83 -74 -83q-40 0 -40 45q0 6 1 14t3 18l113 580q16 81 73 81q41 0 41 -44q0 -6 -1 -14t-3 -17zM388 842l-19 185h-61
l-90 -185h66l32 62l10 -62h62z" />
    <glyph glyph-name="Otilde" unicode="&#xd5;" 
d="M283 126l112 576q2 11 3 22t1 22q0 95 -99 95q-117 0 -142 -133l-112 -576q-2 -11 -3 -22.5t-1 -22.5q0 -95 98 -95q118 0 143 134zM219 130q-17 -83 -74 -83q-40 0 -40 45q0 6 1 14t3 18l113 580q16 81 73 81q41 0 41 -44q0 -6 -1 -14t-3 -17zM477 1008
q-47 -42 -74 -61.5t-37 -20.5q-11 2 -31 23q-31 29 -52 32h-3q-20 0 -43 -12t-52 -38l-29 -96q94 81 115 84q9 -5 25 -20l6 -5v1q30 -28 52 -31h5q36 0 92 48zM270 919l-1 1z" />
    <glyph glyph-name="Odieresis" unicode="&#xd6;" 
d="M283 126l112 576q2 11 3 22t1 22q0 95 -99 95q-117 0 -142 -133l-112 -576q-2 -11 -3 -22.5t-1 -22.5q0 -95 98 -95q118 0 143 134zM219 130q-17 -83 -74 -83q-40 0 -40 45q0 6 1 14t3 18l113 580q16 81 73 81q41 0 41 -44q0 -6 -1 -14t-3 -17zM393 889l12 67h-63
l-12 -67h63zM295 889l12 67h-63l-12 -67h63z" />
    <glyph glyph-name="multiply" unicode="&#xd7;" horiz-adv-x="309" 
d="M352 248l-85 104l124 105l-34 46l-127 -105l-83 104l-51 -41l84 -105l-124 -103l37 -48l126 105l84 -105z" />
    <glyph glyph-name="Oslash" unicode="&#xd8;" 
d="M448 841h-68l-10 -21q-26 21 -70 21q-117 0 -142 -133l-112 -577q-1 -5 -1.5 -9.5t-0.5 -10.5q0 -2 -0.5 -2.5t-0.5 -1.5l-50 -107h68l7 15q25 -23 72 -23q118 0 143 134l112 576q2 9 3 18l2 18zM219 130q-17 -83 -74 -83q-40 0 -40 38v11l186 406zM222 704q16 81 73 81
q41 0 41 -39v-1l-184 -400z" />
    <glyph glyph-name="Ugrave" unicode="&#xd9;" 
d="M283 126l137 708h-65l-136 -704q-17 -83 -74 -83q-40 0 -40 45q0 6 1 14t3 18l137 710h-64l-136 -702q-2 -11 -3 -22.5t-1 -22.5q0 -95 98 -95q118 0 143 134zM377 872l-47 150l-65 -27l47 -154z" />
    <glyph glyph-name="Uacute" unicode="&#xda;" 
d="M283 126l137 708h-65l-136 -704q-17 -83 -74 -83q-40 0 -40 45q0 6 1 14t3 18l137 710h-64l-136 -702q-2 -11 -3 -22.5t-1 -22.5q0 -95 98 -95q118 0 143 134zM402 991l-59 30l-103 -146l59 -33z" />
    <glyph glyph-name="Ucircumflex" unicode="&#xdb;" 
d="M283 126l137 708h-65l-136 -704q-17 -83 -74 -83q-40 0 -40 45q0 6 1 14t3 18l137 710h-64l-136 -702q-2 -11 -3 -22.5t-1 -22.5q0 -95 98 -95q118 0 143 134zM388 842l-19 185h-61l-90 -185h66l32 62l10 -62h62z" />
    <glyph glyph-name="Udieresis" unicode="&#xdc;" 
d="M283 126l137 708h-65l-136 -704q-17 -83 -74 -83q-40 0 -40 45q0 6 1 14t3 18l137 710h-64l-136 -702q-2 -11 -3 -22.5t-1 -22.5q0 -95 98 -95q118 0 143 134zM393 889l12 67h-63l-12 -67h63zM295 889l12 67h-63l-12 -67h63z" />
    <glyph glyph-name="Yacute" unicode="&#xdd;" horiz-adv-x="280" 
d="M450 834h-68l-143 -301l-22 301h-67l37 -404l-83 -430h65l82 424l-2 -4zM400 991l-59 30l-104 -146l59 -33z" />
    <glyph glyph-name="Thorn" unicode="&#xde;" horiz-adv-x="284" 
d="M338 367l22 115q3 17 5 32.5t2 29.5t-2.5 24.5t-6.5 18.5l1 -1q-19 40 -96 40h-54l40 208h-65l-161 -834h65l47 245h60q121 0 143 122zM275 375q-8 -47 -23 -59q-15 -16 -60 -16h-47l53 269h53q40 0 50 -13v1q3 -5 3 -20q0 -7 -1 -16t-3 -21z" />
    <glyph glyph-name="germandbls" unicode="&#xdf;" horiz-adv-x="326" 
d="M321 61l61 316q3 16 3 39q0 6 -0.5 12t-0.5 13q-5 41 -43 56q20 28 29 74l25 131q2 11 3 22t1 22q0 95 -99 95q-117 0 -142 -133l-136 -704h64l136 700q16 81 73 81q41 0 41 -44q0 -6 -1 -14t-3 -17l-26 -130q-4 -23 -10 -38.5t-12 -22.5l1 1q-18 -15 -44 -15h-26
l-10 -56h63q42 0 49 -13q4 -5 4 -20q0 -6 -1.5 -15.5t-3.5 -21.5l-61 -315q-16 -77 -86 -83l-10 -55q136 0 162 135z" />
    <glyph glyph-name="agrave" unicode="&#xe0;" 
d="M377 872l-47 150l-65 -27l47 -154z" />
    <glyph glyph-name="aacute" unicode="&#xe1;" 
d="M402 991l-59 30l-103 -146l59 -33z" />
    <glyph glyph-name="acircumflex" unicode="&#xe2;" 
d="M388 842l-19 185h-61l-90 -185h66l32 62l10 -62h62z" />
    <glyph glyph-name="atilde" unicode="&#xe3;" 
d="M477 1008q-47 -42 -74 -61.5t-37 -20.5h-1q-10 2 -30 23q-31 29 -52 32h-3q-20 0 -43 -12t-52 -38l-29 -96q94 81 115 84q9 -5 25 -20l6 -5v1q30 -28 52 -31h5q36 0 92 48zM270 919l-1 1z" />
    <glyph glyph-name="adieresis" unicode="&#xe4;" 
d="M393 889l12 67h-63l-12 -67h63zM295 889l12 67h-63l-12 -67h63z" />
    <glyph glyph-name="aring" unicode="&#xe5;" 
d="M421 946q1 5 1 18q0 35 -23 59.5t-61 24.5q-20 0 -39 -7.5t-35 -21t-27 -31t-14 -37.5q-1 -5 -1.5 -9.5t-0.5 -9.5q0 -35 22.5 -58.5t60.5 -23.5q19 0 38.5 7.5t35.5 20.5t27.5 30.5t15.5 37.5zM359 952q-3 -17 -17 -29.5t-31 -12.5q-13 0 -20.5 8t-7.5 20q0 4 1 8
q3 17 17 29.5t31 12.5q14 0 21 -8.5t7 -20.5v-5z" />
    <glyph glyph-name="ae" unicode="&#xe6;" horiz-adv-x="462" 
d="M458 126l6 35h-65l-5 -32v1q-17 -83 -74 -83q-40 0 -40 45q0 6 1 14t3 18l61 320h175l49 250q2 11 3 21.5t1 21.5q0 97 -100 97q-58 0 -92 -34q-25 34 -83 34q-115 0 -141 -134l-10 -47h65l8 43q16 82 73 82q41 0 41 -44q0 -6 -1 -14.5t-3 -17.5l-36 -182q-21 10 -55 10
q-116 0 -141 -133l-52 -265q-2 -11 -3 -22.5t-1 -22.5q0 -95 98 -95q26 0 52 8l-1 -4h65l1 9q22 -13 58 -13q118 0 143 134zM213 103l1 1q-18 -57 -69 -57q-31 0 -38 18q-3 6 -3 19q0 8 1.5 17.5t3.5 22.5l52 270q17 80 73 80q42 0 42 -41v-6zM395 696q16 82 73 82
q41 0 41 -44q0 -6 -1 -14.5t-3 -17.5l-39 -197h-109z" />
    <glyph glyph-name="ccedilla" unicode="&#xe7;" horiz-adv-x="275" 
d="M283 126l15 80h-65l-14 -76q-17 -83 -74 -83q-40 0 -40 45q0 6 1 14t3 18l113 580q16 81 73 81q41 0 41 -44q0 -6 -1 -14t-3 -18v1l-16 -78h66l13 70q2 11 3 22t1 22q0 95 -99 95q-117 0 -142 -133l-112 -576q-4 -20 -4 -43q0 -78 65 -94l-14 -76h26q2 0 3 0.5t3 0.5
t3 -0.5t3 -0.5q4 0 4 -2q0 -4 -1 -7l-7 -36q-3 -13 -11 -18h-63l-9 -51h62q33 0 51.5 15.5t25.5 47.5l8 43q1 5 1 16q0 37 -35 42l5 24q99 14 121 133z" />
    <glyph glyph-name="egrave" unicode="&#xe8;" 
d="M377 872l-47 150l-65 -27l47 -154zM283 141l6 35h-65l-5 -32v1q-17 -83 -74 -83q-40 0 -40 45q0 6 1 14t3 18l49 254l191 85l44 230q2 11 3 22t1 22q0 96 -99 96q-116 0 -142 -134l-110 -567q-2 -11 -3 -22.5t-1 -22.5q0 -95 98 -95q118 0 143 134zM220 710q16 82 73 82
q41 0 41 -44q0 -6 -1 -14.5t-3 -17.5l-38 -192l-119 -57z" />
    <glyph glyph-name="eacute" unicode="&#xe9;" 
d="M402 991l-59 30l-103 -146l59 -33zM283 141l6 35h-65l-5 -32v1q-17 -83 -74 -83q-40 0 -40 45q0 6 1 14t3 18l49 254l191 85l44 230q2 11 3 22t1 22q0 96 -99 96q-116 0 -142 -134l-110 -567q-2 -11 -3 -22.5t-1 -22.5q0 -95 98 -95q118 0 143 134zM220 710q16 82 73 82
q41 0 41 -44q0 -6 -1 -14.5t-3 -17.5l-38 -192l-119 -57z" />
    <glyph glyph-name="ecircumflex" unicode="&#xea;" 
d="M388 842l-19 185h-61l-90 -185h66l32 62l10 -62h62zM283 141l6 35h-65l-5 -32v1q-17 -83 -74 -83q-40 0 -40 45q0 6 1 14t3 18l49 254l191 85l44 230q2 11 3 22t1 22q0 96 -99 96q-116 0 -142 -134l-110 -567q-2 -11 -3 -22.5t-1 -22.5q0 -95 98 -95q118 0 143 134z
M220 710q16 82 73 82q41 0 41 -44q0 -6 -1 -14.5t-3 -17.5l-38 -192l-119 -57z" />
    <glyph glyph-name="edieresis" unicode="&#xeb;" 
d="M393 889l12 67h-63l-12 -67h63zM295 889l12 67h-63l-12 -67h63zM283 141l6 35h-65l-5 -32v1q-17 -83 -74 -83q-40 0 -40 45q0 6 1 14t3 18l49 254l191 85l44 230q2 11 3 22t1 22q0 96 -99 96q-116 0 -142 -134l-110 -567q-2 -11 -3 -22.5t-1 -22.5q0 -95 98 -95
q118 0 143 134zM220 710q16 82 73 82q41 0 41 -44q0 -6 -1 -14.5t-3 -17.5l-38 -192l-119 -57z" />
    <glyph glyph-name="igrave" unicode="&#xec;" horiz-adv-x="127" 
d="M115 1l11 61h-22l138 709h23l11 61h-25v2h-63v-2h-19l-11 -61h20l-138 -709h-21l-11 -61h24v-1h63v1h20zM298 872l-48 151l-64 -28l49 -154z" />
    <glyph glyph-name="iacute" unicode="&#xed;" horiz-adv-x="127" 
d="M115 1l11 61h-22l138 709h23l11 61h-25v2h-63v-2h-19l-11 -61h20l-138 -709h-21l-11 -61h24v-1h63v1h20zM323 991l-57 30l-105 -146l57 -33z" />
    <glyph glyph-name="icircumflex" unicode="&#xee;" horiz-adv-x="127" 
d="M115 1l11 61h-22l138 709h23l11 61h-25v2h-63v-2h-19l-11 -61h20l-138 -709h-21l-11 -61h24v-1h63v1h20zM310 842l-20 185h-62l-90 -185h67l32 62l10 -62h63z" />
    <glyph glyph-name="idieresis" unicode="&#xef;" horiz-adv-x="127" 
d="M115 1l11 61h-22l138 709h23l11 61h-25v2h-63v-2h-19l-11 -61h20l-138 -709h-21l-11 -61h24v-1h63v1h20zM315 889l12 67h-64l-12 -67h64zM216 889l12 67h-62l-12 -67h62z" />
    <glyph glyph-name="eth" unicode="&#xf0;" horiz-adv-x="359" 
d="M491 689q-45 -38 -72 -58t-38 -22h-1h-1h1q-1 0 -1.5 0.5t-1.5 0.5l18 92q5 25 5 45q0 94 -98 94q-119 0 -144 -133l-15 -81h66l15 77q16 81 73 81q41 0 41 -44q0 -6 -1 -14.5t-3 -17.5v1l-11 -57q-13 9 -26 11h-7q-36 0 -92 -49l-29 -95q95 81 113 81h4q1 0 22 -18v-1
l-17 -93q-26 17 -59 17q-114 0 -139 -133l-47 -241q-2 -11 -3 -22t-1 -22q0 -96 100 -96q116 0 141 134l82 421h2h4q37 0 93 49zM221 130q-17 -83 -74 -83q-40 0 -40 44q0 16 4 33l47 244q16 82 68 82q45 0 45 -46q0 -13 -3 -31v1z" />
    <glyph glyph-name="ntilde" unicode="&#xf1;" 
d="M475 995q-47 -39 -74.5 -59.5t-36.5 -20.5h-1q-9 1 -31 22q-30 28 -52 31h-6q-36 0 -91 -48l-29 -96q48 42 76 61.5t39 21.5q4 -1 11 -6.5t18 -17.5l2 -2v1q30 -29 52 -30h5q18 0 41 12t51 38zM257 7l136 701q2 11 3 22t1 22q0 96 -99 96q-33 0 -56 -10l2 10h-65
l-164 -841h68l137 703q17 83 73 83q41 0 41 -45q0 -6 -1 -14.5t-3 -18.5v1l-139 -709h66z" />
    <glyph glyph-name="ograve" unicode="&#xf2;" 
d="M283 126l112 576q2 11 3 22t1 22q0 95 -99 95q-117 0 -142 -133l-112 -576q-2 -11 -3 -22.5t-1 -22.5q0 -95 98 -95q118 0 143 134zM219 130q-17 -83 -74 -83q-40 0 -40 45q0 6 1 14t3 18l113 580q16 81 73 81q41 0 41 -44q0 -6 -1 -14t-3 -18v1zM377 872l-47 150
l-65 -27l47 -154z" />
    <glyph glyph-name="oacute" unicode="&#xf3;" 
d="M283 126l112 576q2 11 3 22t1 22q0 95 -99 95q-117 0 -142 -133l-112 -576q-2 -11 -3 -22.5t-1 -22.5q0 -95 98 -95q118 0 143 134zM219 130q-17 -83 -74 -83q-40 0 -40 45q0 6 1 14t3 18l113 580q16 81 73 81q41 0 41 -44q0 -6 -1 -14t-3 -17zM402 991l-59 30l-103 -146
l59 -33z" />
    <glyph glyph-name="ocircumflex" unicode="&#xf4;" 
d="M283 126l112 576q2 11 3 22t1 22q0 95 -99 95q-117 0 -142 -133l-112 -576q-2 -11 -3 -22.5t-1 -22.5q0 -95 98 -95q118 0 143 134zM219 130q-17 -83 -74 -83q-40 0 -40 45q0 6 1 14t3 18l113 580q16 81 73 81q41 0 41 -44q0 -6 -1 -14t-3 -17zM388 842l-19 185h-61
l-90 -185h66l32 62l10 -62h62z" />
    <glyph glyph-name="otilde" unicode="&#xf5;" 
d="M283 126l112 576q2 11 3 22t1 22q0 95 -99 95q-117 0 -142 -133l-112 -576q-2 -11 -3 -22.5t-1 -22.5q0 -95 98 -95q118 0 143 134zM219 130q-17 -83 -74 -83q-40 0 -40 45q0 6 1 14t3 18l113 580q16 81 73 81q41 0 41 -44q0 -6 -1 -14t-3 -17zM477 1008
q-47 -42 -74 -61.5t-37 -20.5q-11 2 -31 23q-31 29 -52 32h-3q-20 0 -43 -12t-52 -38l-29 -96q94 81 115 84q9 -5 25 -20l6 -5v1q30 -28 52 -31h5q36 0 92 48zM270 919l-1 1z" />
    <glyph glyph-name="odieresis" unicode="&#xf6;" 
d="M283 126l112 576q2 11 3 22t1 22q0 95 -99 95q-117 0 -142 -133l-112 -576q-2 -11 -3 -22.5t-1 -22.5q0 -95 98 -95q118 0 143 134zM219 130q-17 -83 -74 -83q-40 0 -40 45q0 6 1 14t3 18l113 580q16 81 73 81q41 0 41 -44q0 -6 -1 -14t-3 -17zM393 889l12 67h-63
l-12 -67h63zM295 889l12 67h-63l-12 -67h63z" />
    <glyph glyph-name="divide" unicode="&#xf7;" horiz-adv-x="377" 
d="M430 324l11 61h-360l-11 -61h360zM258 205l12 67h-64l-12 -67h64zM299 424l15 67h-64l-15 -67h64z" />
    <glyph glyph-name="oslash" unicode="&#xf8;" 
d="M448 841h-68l-10 -21q-26 21 -70 21q-117 0 -142 -133l-112 -577q-1 -5 -1.5 -9.5t-0.5 -10.5q0 -2 -0.5 -2.5t-0.5 -1.5l-50 -107h68l7 15q25 -23 72 -23q118 0 143 134l112 576q2 9 3 18l2 18zM219 130q-17 -83 -74 -83q-40 0 -40 38v11l186 406zM222 704q16 81 73 81
q41 0 41 -39v-1l-184 -400z" />
    <glyph glyph-name="ugrave" unicode="&#xf9;" 
d="M283 126l137 708h-65l-136 -704q-17 -83 -74 -83q-40 0 -40 45q0 6 1 14t3 18l137 710h-64l-136 -702q-2 -11 -3 -22.5t-1 -22.5q0 -95 98 -95q118 0 143 134zM377 872l-47 150l-65 -27l47 -154z" />
    <glyph glyph-name="uacute" unicode="&#xfa;" 
d="M283 126l137 708h-65l-136 -704q-17 -83 -74 -83q-40 0 -40 45q0 6 1 14t3 18l137 710h-64l-136 -702q-2 -11 -3 -22.5t-1 -22.5q0 -95 98 -95q118 0 143 134zM402 991l-59 30l-103 -146l59 -33z" />
    <glyph glyph-name="ucircumflex" unicode="&#xfb;" 
d="M283 126l137 708h-65l-136 -704q-17 -83 -74 -83q-40 0 -40 45q0 6 1 14t3 18l137 710h-64l-136 -702q-2 -11 -3 -22.5t-1 -22.5q0 -95 98 -95q118 0 143 134zM388 842l-19 185h-61l-90 -185h66l32 62l10 -62h62z" />
    <glyph glyph-name="udieresis" unicode="&#xfc;" 
d="M283 126l137 708h-65l-136 -704q-17 -83 -74 -83q-40 0 -40 45q0 6 1 14t3 18l137 710h-64l-136 -702q-2 -11 -3 -22.5t-1 -22.5q0 -95 98 -95q118 0 143 134zM393 889l12 67h-63l-12 -67h63zM295 889l12 67h-63l-12 -67h63z" />
    <glyph glyph-name="yacute" unicode="&#xfd;" 
d="M406 1011l-59 33l-103 -148l59 -31zM285 143l135 701l1 5h-66l-89 -459q-17 -83 -73 -83q-41 0 -41 46q0 5 1 13t3 18l91 465h-65l-88 -457q-2 -11 -3 -22.5t-1 -22.5q0 -95 98 -95q29 0 55 8l-22 -114q-17 -81 -73 -81q-34 0 -40 17q-1 3 -1.5 7t-0.5 10q0 8 1.5 18
t3.5 24v-1l17 83h-67l-14 -74q-2 -11 -3 -22t-1 -22q0 -95 100 -95q117 0 142 133z" />
    <glyph glyph-name="thorn" unicode="&#xfe;" horiz-adv-x="275" 
d="M308 278l51 265q2 11 3 22t1 22q0 95 -100 95q-15 0 -28.5 -1.5t-25.5 -6.5l31 160h-63l-161 -834h63l29 153q21 -10 56 -10q118 0 144 135zM243 281q-17 -82 -74 -82q-40 0 -40 44q0 6 1 14t3 18l52 269q16 83 73 83q41 0 41 -43q0 -15 -4 -34z" />
    <glyph glyph-name="ydieresis" unicode="&#xff;" 
d="M297 898l12 68h-63l-12 -68h63zM395 898l12 68h-63l-12 -68h63zM285 143l135 701l1 5h-66l-89 -459q-17 -83 -73 -83q-41 0 -41 46q0 5 1 13t3 18l91 465h-65l-88 -457q-2 -11 -3 -22.5t-1 -22.5q0 -95 98 -95q29 0 55 8l-22 -114q-17 -81 -73 -81q-34 0 -40 17
q-1 3 -1.5 7t-0.5 10q0 8 1.5 18t3.5 24v-1l17 83h-67l-14 -74q-2 -11 -3 -22t-1 -22q0 -95 100 -95q117 0 142 133z" />
    <glyph glyph-name="minus" unicode="&#x2212;" horiz-adv-x="384" 
d="M431 350l13 64h-348l-13 -64h348z" />
    <glyph glyph-name="apple" unicode="&#xf000;" horiz-adv-x="884" 
d="M875 956l-19 19l-199 -136l-82 -133l-6 -36l-52 14l-81 19l-205 -84l-108 -200l57 -335l132 -105l152 37l59 -17l73 -19l167 91l133 181l-108 -7l21 99h-97l52 61l-41 52l123 26l-21 75l135 37l-219 110l-91 -21l-13 -4l101 48l77 128z" />
    </font>
</defs>
</svg>
