<?xml version="1.0" standalone="no"?>
<!DOCTYPE svg PUBLIC "-//W3C//DTD SVG 1.1//EN" "http://www.w3.org/Graphics/SVG/1.1/DTD/svg11.dtd" >
<svg xmlns="http://www.w3.org/2000/svg" xmlns:xlink="http://www.w3.org/1999/xlink" version="1.1">
<metadata>
Created by FontForge 20141024 at Fri Jun  5 08:37:42 2015
 By System Administrator
Copyright (c) 2010 by Pablo Impallari (www.impallari.com)
</metadata>
<defs>
<font id="Lobster-Regular" horiz-adv-x="1034" >
  <font-face 
    font-family="Lobster"
    font-weight="400"
    font-stretch="normal"
    units-per-em="2048"
    panose-1="2 0 5 6 0 0 0 2 0 3"
    ascent="1638"
    descent="-410"
    x-height="1024"
    cap-height="1534"
    bbox="-514 -512 3172 2048"
    underline-thickness="102"
    underline-position="-103"
    unicode-range="U+000D-FB04"
  />
<missing-glyph horiz-adv-x="1659" 
d="M547 2048h1112l-549 -2560h-1110zM96 -430h948l517 2396h-949zM961 1094q0 57 -23.5 87.5t-65.5 30.5q-43 0 -71.5 -30t-28.5 -78q0 -32 17 -60.5t45 -42.5v-8q-23 -23 -49.5 -32t-49.5 -9q-43 0 -68.5 30.5t-25.5 80.5q0 46 20.5 86t57 69.5t86 46.5t106.5 17
q109 0 168.5 -48.5t59.5 -133.5q0 -56 -25 -99.5t-63 -80.5t-82 -71t-82 -72t-63 -84t-25 -107h-86q0 64 18.5 112.5t46 87.5t59.5 73t59.5 69t46 75t18.5 91zM809 389q0 -38 -22.5 -60t-59.5 -22q-38 0 -60 22t-22 60q0 37 22 59.5t60 22.5q37 0 59.5 -22.5t22.5 -59.5z
" />
    <glyph glyph-name="E_x" unicode="Ex" horiz-adv-x="1632" 
d="M1718 367q-28 -83 -63 -144t-72.5 -103t-76.5 -68t-76.5 -40t-71.5 -19t-62 -5q-49 0 -85.5 15.5t-63.5 48.5t-47.5 84t-38.5 122q-56 -65 -133 -119t-165 -92t-181 -59t-179 -21q-80 0 -150.5 20t-123.5 62.5t-84 110.5t-31 164q0 81 26 165t74.5 157.5t119 129
t159.5 78.5q-66 48 -95.5 112.5t-29.5 133.5q0 79 33.5 157.5t93 141.5t142 102t180.5 39q61 0 114.5 -16.5t93.5 -48.5t62.5 -80t22.5 -111q0 -46 -12 -85t-33 -67.5t-48.5 -44.5t-58.5 -16q-56 0 -96 55q18 6 34.5 25t29 44t19.5 54t7 56q0 31 -10 53t-25.5 35.5t-36 19.5
t-41.5 6q-46 0 -84.5 -25t-66 -65.5t-43 -92.5t-15.5 -106q0 -45 11.5 -88t36.5 -79.5t64.5 -64t94.5 -42.5q-55 -12 -103.5 -40t-89 -66.5t-72.5 -85.5t-54.5 -97.5t-34.5 -101.5t-12 -98q0 -56 15.5 -95.5t43.5 -64.5t66.5 -37t83.5 -12q56 0 117 16.5t121 46.5
t115.5 71.5t100.5 92.5l-102 561h289l65 -364q46 49 82.5 95.5t61.5 88.5t38 78t13 63v14t-2 11q-11 -2 -19 -3t-16 -1q-27 0 -45.5 9t-29.5 24.5t-16 36t-5 44.5q0 48 33 72.5t81 24.5q34 0 60.5 -14.5t44 -39t26.5 -58t9 -71.5q0 -50 -17.5 -102.5t-53.5 -111t-91 -126
t-131 -147.5l18 -102q6 -29 12.5 -60.5t19.5 -58.5t33.5 -44.5t55.5 -17.5q30 0 58.5 13.5t52.5 37.5t43 57.5t30 72.5h86z" />
    <glyph glyph-name="F_i" unicode="Fi" horiz-adv-x="1487" 
d="M221 0l295 1368h-22q-62 0 -114 -18.5t-90 -66.5t-59.5 -130t-21.5 -209q0 -39 4.5 -63.5t10 -39t10 -22.5t4.5 -14q-53 0 -94 10.5t-69 33.5t-42.5 61t-14.5 94q0 102 38 198t121.5 170t216.5 119t323 45q52 0 106.5 -6.5t113 -14t121.5 -14t132 -6.5q66 0 139 8t158 31
q-10 -56 -28 -112t-48 -102t-73.5 -74.5t-104.5 -28.5q-64 0 -115 12t-100 29t-100 37t-115 36l-88 -409h258l-33 -152h-258l-166 -770h-295zM1573 367q-29 -83 -64.5 -144t-74 -103t-79 -68t-78.5 -40t-72.5 -19t-61.5 -5q-46 0 -86 14t-69.5 44t-46.5 76t-17 111
q0 28 4 61.5t12 72.5l139 657h295l-147 -696q-5 -17 -6.5 -33.5t-1.5 -32.5q0 -43 20 -59.5t64 -16.5q30 0 58 13.5t52 37.5t43 57.5t31 72.5h86z" />
    <glyph glyph-name="IJ" unicode="IJ" horiz-adv-x="1358" 
d="M1071 1468l307 68l-307 -1454q-22 -107 -60 -199.5t-98.5 -160.5t-147 -107t-206.5 -39q-86 0 -148 21t-102.5 58.5t-60 89t-19.5 112.5q0 42 8 77t23 66h-67l296 1391q-136 -56 -211 -168t-75 -279q0 -39 4.5 -63.5t9.5 -39t9.5 -22.5t4.5 -14q-53 0 -94 10.5
t-68.5 33.5t-42 61t-14.5 94q0 68 29.5 134t81 125t121 109t149 86.5t166 57t172.5 20.5q23 0 42.5 -1t39.5 -3l-301 -1413q63 -10 100 -44.5t37 -86.5q0 -30 -14 -68q-47 47 -100 47q-28 0 -52.5 -12t-42.5 -32t-28.5 -47t-10.5 -58q0 -30 10 -55.5t29 -44.5t46 -29.5
t61 -10.5q30 0 57 10.5t51 39t44 77t36 125.5z" />
    <glyph glyph-name="T_h" unicode="Th" horiz-adv-x="1989" 
d="M2075 367q-43 -126 -93 -201t-100.5 -114.5t-99 -51.5t-88.5 -12q-68 0 -114 19.5t-74.5 52t-41 74t-12.5 85.5q0 52 14.5 121.5t31.5 142.5t31.5 141t14.5 117q0 105 -74 105q-27 0 -50 -14t-42.5 -38t-35 -56t-27.5 -68q-26 -137 -57 -301t-68 -369h-295l281 1307
q-63 5 -131 14t-140 20l-289 -1341h-294l292 1360q-86 -4 -161 -24t-130.5 -67t-87.5 -126.5t-32 -200.5q0 -39 4.5 -63.5t9.5 -39t9.5 -22.5t4.5 -14q-53 0 -94 10.5t-68.5 33.5t-42 61t-14.5 93q0 102 41.5 198.5t129 170.5t224 119t326.5 45q34 0 96 -8.5t137.5 -18
t158.5 -18t161 -8.5q75 0 140 10t108 39q-12 -23 -23 -45t-22.5 -51.5t-23.5 -70.5t-27.5 -102t-34 -146t-41.5 -202q33 38 66 61.5t64.5 36t60 17t53.5 4.5q49 0 90.5 -13t72 -41t47.5 -72t17 -105q0 -41 -7.5 -88.5t-18 -97t-23.5 -98.5t-23.5 -94t-18 -83.5t-7.5 -67.5
q0 -38 17 -62t65 -24q33 0 58 13t45 37t36.5 57.5t32.5 73.5h86z" />
    <glyph glyph-name="T_i" unicode="Ti" horiz-adv-x="1524" 
d="M322 0l294 1374q-42 6 -81 6q-71 0 -131.5 -21t-105 -71.5t-70 -134.5t-25.5 -211q0 -39 4.5 -63.5t9.5 -39t9.5 -22.5t4.5 -14q-53 0 -94 10.5t-68.5 33.5t-42 61t-14.5 93q0 102 38 198.5t121.5 170.5t216.5 119t323 45q31 0 89 -5t130 -11.5t152 -11.5t155 -5
q72 0 133 6t103 23q12 -38 17 -72t5 -63q0 -62 -22.5 -102t-55 -63t-69 -31.5t-64.5 -8.5q-36 0 -76.5 9.5t-88 25.5t-102.5 36.5t-120 43.5l-281 -1305h-294zM1610 367q-29 -83 -64.5 -144t-74 -103t-79 -68t-78.5 -40t-72.5 -19t-61.5 -5q-46 0 -86 14t-69.5 44t-46.5 76
t-17 111q0 28 4 61.5t12 72.5l139 657h295l-147 -696q-5 -17 -7 -33.5t-2 -32.5q0 -43 20.5 -59.5t63.5 -16.5q30 0 58.5 13.5t52.5 37.5t43 57.5t31 72.5h86z" />
    <glyph glyph-name="a_x" unicode="ax" horiz-adv-x="1841" 
d="M1927 367q-29 -83 -63.5 -144t-72 -103t-77 -68t-76.5 -40t-71 -19t-62 -5q-48 0 -84.5 15.5t-64.5 48.5t-49 85t-39 125q-117 -147 -237.5 -210.5t-244.5 -63.5q-43 0 -81.5 12.5t-69.5 37t-52.5 60.5t-29.5 82q-24 -36 -54.5 -70.5t-68 -61.5t-83.5 -43.5t-101 -16.5
q-53 0 -102 17t-87 56t-61 102t-23 154q0 70 14 150t43 160t72.5 153.5t102 130t132.5 90t163 33.5q87 0 126.5 -30t39.5 -74v-15l22 109h295l-147 -696q-7 -27 -7 -52q0 -38 19 -64t70 -26q40 0 84.5 15.5t87.5 42t83 61.5t72 74l-119 645h289l80 -442q46 49 82.5 95.5
t61.5 88.5t38 78t13 63v14t-2 11q-11 -2 -19 -3t-16 -1q-27 0 -45.5 9t-30 24.5t-16.5 36t-5 44.5t9 42t25 30.5t36.5 18.5t44.5 6q34 0 60.5 -14.5t43.5 -39t26 -58t9 -71.5q0 -50 -17 -102.5t-53 -111t-91 -126t-131 -147.5l18 -102q6 -29 12.5 -60.5t19.5 -58.5
t33.5 -44.5t55.5 -17.5q30 0 58 13.5t52 37.5t43 57.5t31 72.5h86zM647 829q0 9 -4 22.5t-13.5 26t-25.5 21t-41 8.5q-43 0 -81.5 -28t-70.5 -74.5t-57 -105.5t-42.5 -121.5t-26.5 -123t-9 -108.5q0 -59 11 -91t26.5 -47.5t33.5 -18.5t32 -3q23 0 48.5 11.5t49 34t43 56.5
t29.5 79z" />
    <glyph glyph-name="a_z" unicode="a&#x7a;" horiz-adv-x="1855" 
d="M836 328q-5 -17 -7 -33.5t-2 -32.5q0 -43 20.5 -59.5t63.5 -16.5q14 0 25 2t20 7q-21 -53 -40 -92t-42 -64.5t-52.5 -38t-69.5 -12.5q-85 0 -137 49.5t-64 140.5q-23 -35 -53.5 -69t-68 -61t-83.5 -43.5t-100 -16.5q-53 0 -102 17t-87 56t-61 102t-23 154q0 70 14 150
t43 160t72.5 153.5t102 130t132.5 90t163 33.5q87 0 126.5 -30t39.5 -74v-15l22 109h295zM647 829q0 9 -4 22.5t-13.5 26t-25.5 21t-41 8.5q-43 0 -81.5 -28t-70.5 -74.5t-57 -105.5t-42.5 -121.5t-26.5 -123t-9 -108.5q0 -59 11 -91t26.5 -47.5t33.5 -18.5t32 -3
q23 0 48.5 11.5t49 34t43 56.5t29.5 79zM979 0l522 913h-115q-24 0 -44.5 -1t-35.5 -4t-23.5 -9.5t-8.5 -17.5q0 -5 3.5 -6t7.5 -4t7.5 -10t3.5 -25q0 -29 -9.5 -49.5t-25 -33.5t-35 -19.5t-40.5 -6.5q-18 0 -34.5 6t-30 17t-21.5 28t-8 39q0 31 16.5 67.5t47 67.5
t74.5 51.5t99 20.5h526l-501 -866q13 -1 31 -3t39 -4.5t42.5 -4t42.5 -1.5q38 0 65 8.5t32 32.5q-20 2 -29.5 14t-9.5 29q0 15 7.5 30.5t21.5 28t35.5 21t49.5 8.5q48 0 69.5 -28t21.5 -70q0 -35 -17 -74t-49 -71t-78.5 -53t-105.5 -21h-543z" />
    <glyph glyph-name="b_s" unicode="bs" horiz-adv-x="1636" 
d="M1722 367q-72 -85 -145 -141.5t-139 -98.5q-27 -39 -61.5 -65.5t-74 -43t-81.5 -23.5t-84 -7q-92 0 -147.5 25t-86.5 64t-41 87.5t-10 95.5q0 45 13 81.5t34 61.5t47 38.5t53 13.5q107 0 107 -86q0 -38 -28 -65.5t-70 -27.5q-17 0 -32.5 5t-23.5 22q0 -72 29.5 -112.5
t89.5 -40.5q34 0 58 9.5t40 31.5t23.5 58.5t7.5 90.5q0 28 -1.5 54t-5 56.5t-7.5 68.5t-9 90.5t-10.5 122.5t-11.5 165q-72 -109 -153 -177t-171 -99q-5 -62 -20 -133t-43.5 -141.5t-72 -135t-104 -114.5t-140 -79.5t-179.5 -29.5q-142 0 -214 69t-72 193q0 29 3 58.5
t11 58.5l219 1026l303 41l-98 -461q31 19 55.5 30.5t44.5 17.5t36.5 7.5t31.5 1.5q50 0 92 -16t74 -52.5t51.5 -95t24.5 -143.5q74 14 152 97t163 227l303 40q6 -133 11.5 -230.5t10.5 -169t9 -121.5t7.5 -88.5t5 -70t1.5 -65.5q0 -42 -6 -76q42 23 79 50.5t66 50.5h86z
M285 328q-6 -26 -6 -47q0 -95 108 -95q44 0 83 38t70 99t52.5 136.5t30.5 150.5q-33 24 -33 82q0 26 7 47.5t19 36.5q-11 47 -35.5 78t-62.5 31q-11 0 -28 -1.5t-35 -6t-33.5 -11.5t-24.5 -18z" />
    <glyph glyph-name="b_s_x" unicode="bsx" horiz-adv-x="2343" 
d="M2429 367q-29 -83 -63.5 -144t-72 -103t-77 -68t-76.5 -40t-71 -19t-62 -5q-52 0 -90 17.5t-66 54t-49 94t-39 137.5q-39 -27 -83 -50.5t-87.5 -44.5t-84.5 -39t-74 -34q-27 -37 -61.5 -62.5t-73.5 -41.5t-80.5 -23.5t-81.5 -7.5q-92 0 -147.5 25t-86.5 64t-41 87.5
t-10 95.5q0 45 13 81.5t34 61.5t47 38.5t53 13.5q107 0 107 -86q0 -38 -28 -65.5t-70 -27.5q-17 0 -32.5 5t-23.5 22q0 -72 29.5 -112.5t89.5 -40.5q34 0 58 9.5t40 31.5t23.5 58.5t7.5 90.5q0 28 -1.5 54t-5 56.5t-7.5 68.5t-9 90.5t-10.5 122.5t-11.5 165
q-72 -109 -153 -177t-171 -99q-5 -62 -20 -133t-43.5 -141.5t-72 -135t-104 -114.5t-140 -79.5t-179.5 -29.5q-142 0 -214 69t-72 193q0 29 3 58.5t11 58.5l219 1026l303 41l-98 -461q31 19 55.5 30.5t44.5 17.5t36.5 7.5t31.5 1.5q50 0 92 -16t74 -52.5t51.5 -95
t24.5 -143.5q74 14 152 97t163 227l303 40q6 -133 11.5 -230.5t10.5 -169t9 -121.5t7.5 -88.5t5 -70t1.5 -65.5q0 -25 -1.5 -47.5t-6.5 -42.5q63 26 131.5 64.5t122.5 82.5l-115 625h289l80 -442q46 49 82 95.5t61 88.5t38 78t13 63v14t-2 11q-11 -2 -19 -3t-16 -1
q-27 0 -45 9t-29.5 24.5t-16.5 36t-5 44.5q0 48 33.5 72.5t81.5 24.5q34 0 60.5 -14.5t43.5 -39t26 -58t9 -71.5q0 -50 -17 -102.5t-53 -111t-91.5 -126t-131.5 -147.5l19 -102q6 -29 12.5 -60.5t19 -58.5t33.5 -44.5t56 -17.5q30 0 58 13.5t52 37.5t43 57.5t31 72.5h86z
M285 328q-6 -26 -6 -47q0 -95 108 -95q44 0 83 38t70 99t52.5 136.5t30.5 150.5q-33 24 -33 82q0 26 7 47.5t19 36.5q-11 47 -35.5 78t-62.5 31q-11 0 -28 -1.5t-35 -6t-33.5 -11.5t-24.5 -18z" />
    <glyph glyph-name="b_s_z" unicode="bs&#x7a;" horiz-adv-x="2372" 
d="M1452 1087q6 -133 11.5 -230.5t10.5 -169t9 -121.5t7.5 -88.5t5 -70t1.5 -65.5q0 -101 -32.5 -168.5t-84.5 -109t-116 -59t-127 -17.5q-92 0 -147.5 25t-86.5 64t-41 87.5t-10 95.5q0 45 13 81.5t34 61.5t47 38.5t53 13.5q107 0 107 -86q0 -38 -28 -65.5t-70 -27.5
q-17 0 -32.5 5t-23.5 22q0 -72 29.5 -112.5t89.5 -40.5q34 0 58 9.5t40 31.5t23.5 58.5t7.5 90.5q0 28 -1.5 54t-5 56.5t-7.5 68.5t-9 90.5t-10.5 122.5t-11.5 165q-72 -109 -153 -177t-171 -99q-5 -62 -20 -133t-43.5 -141.5t-72 -135t-104 -114.5t-140 -79.5t-179.5 -29.5
q-142 0 -214 69t-72 193q0 29 3 58.5t11 58.5l219 1026l303 41l-98 -461q31 19 55.5 30.5t44.5 17.5t36.5 7.5t31.5 1.5q50 0 92 -16t74 -52.5t51.5 -95t24.5 -143.5q74 14 152 97t163 227zM1495 0l522 913h-114q-24 0 -44.5 -1t-36 -4t-24 -9.5t-8.5 -17.5q0 -5 3.5 -6
t7.5 -4t7.5 -10t3.5 -25q0 -29 -9.5 -49.5t-25 -33.5t-35 -19.5t-40.5 -6.5q-18 0 -34.5 6t-30 17t-21.5 28t-8 39q0 31 16.5 67.5t47 67.5t74.5 51.5t99 20.5h527l-502 -866q13 -1 31 -3t39 -4.5t42.5 -4t42.5 -1.5q38 0 65 8.5t32 32.5q-20 2 -29.5 14t-9.5 29
q0 15 7.5 30.5t21.5 28t35.5 21t50.5 8.5q47 0 68.5 -28.5t21.5 -69.5q0 -35 -17 -74t-49 -71t-78.5 -53t-105.5 -21h-543zM285 328q-6 -26 -6 -47q0 -95 108 -95q44 0 83 38t70 99t52.5 136.5t30.5 150.5q-33 24 -33 82q0 26 7 47.5t19 36.5q-11 47 -35.5 78t-62.5 31
q-11 0 -28 -1.5t-35 -6t-33.5 -11.5t-24.5 -18z" />
    <glyph glyph-name="c_x" unicode="cx" horiz-adv-x="1546" 
d="M1632 367q-43 -125 -98.5 -200t-113.5 -115t-111.5 -52t-91.5 -12q-53 0 -91.5 16t-67.5 50.5t-50 88t-37 127.5q-65 -65 -143.5 -117.5t-163 -89t-171.5 -56t-169 -19.5q-75 0 -141 17.5t-116 57.5t-79 104t-29 157q0 55 12 130t38 154.5t68.5 157.5t104 139t142.5 99
t186 38q67 0 111 -16t70 -43t36 -61t10 -70q0 -39 -9 -67t-24 -45.5t-34.5 -26t-40.5 -8.5q-38 0 -72 24q12 32 18.5 62t6.5 59q0 37 -13.5 60.5t-42.5 23.5q-33 0 -65 -29.5t-61.5 -78t-54.5 -110.5t-43.5 -126t-29 -124.5t-10.5 -107.5q0 -57 16 -96t44 -62.5t66 -33.5
t81 -10q55 0 117.5 15t125.5 44t124 73t112 101l-117 635h289l80 -442q46 49 82.5 95.5t61.5 88.5t38 78t13 63v14t-2 11q-11 -2 -18.5 -3t-18.5 -1q-27 0 -45 9.5t-29 24.5t-15.5 34t-4.5 38q0 54 31 79.5t79 25.5q36 0 63 -14t45 -38t27 -56.5t9 -69.5q0 -50 -16.5 -102
t-52 -111.5t-91 -128t-133.5 -152.5l18 -100q6 -29 12.5 -60.5t19.5 -58.5t33.5 -44.5t55.5 -17.5q30 0 58.5 13.5t52.5 37.5t43 57.5t30 72.5h86z" />
    <glyph glyph-name="c_z" unicode="c&#x7a;" horiz-adv-x="1575" 
d="M698 0l523 913h-74q-24 0 -44.5 -1t-36 -4t-24 -9.5t-8.5 -17.5q0 -5 3.5 -6t8 -4t8 -10t3.5 -25q0 -29 -9.5 -49.5t-25.5 -33.5t-35.5 -19.5t-40.5 -6.5q-18 0 -34.5 6t-30 17t-21.5 28t-8 39q0 31 16.5 67.5t47 67.5t74.5 51.5t100 20.5h485l-502 -866q28 0 52.5 -4
t47 -8.5t43.5 -8.5t44 -4q24 0 41.5 11t23.5 42q-20 2 -29.5 14t-9.5 29q0 15 7.5 30.5t21.5 28t35.5 21t50.5 8.5q47 0 68.5 -28.5t21.5 -69.5q0 -35 -17 -74t-49 -71t-78.5 -53t-105.5 -21h-543zM631 291q-16 -89 -50 -147t-81 -93t-104.5 -49t-119.5 -14
q-71 0 -129.5 18.5t-100 57.5t-64.5 100.5t-23 148.5q0 59 12 136.5t38.5 158.5t69 159t103.5 139t142.5 98.5t185.5 37.5q67 0 111 -16t70 -43t36 -61t10 -70q0 -39 -9 -67t-24 -45.5t-34.5 -26t-40.5 -8.5q-38 0 -72 24q12 32 18.5 62t6.5 59q0 37 -13.5 60.5t-42.5 23.5
q-33 0 -65 -29.5t-61.5 -77.5t-54.5 -110t-43.5 -127t-29 -128t-10.5 -114q0 -48 9 -81t25.5 -52.5t39 -28t49.5 -8.5q30 0 63 10t66 26.5t63 36.5t54 40z" />
    <glyph glyph-name="e_x" unicode="ex" horiz-adv-x="1561" 
d="M1647 367q-43 -125 -99 -200t-114 -115t-111.5 -52t-91.5 -12q-51 0 -89 15.5t-67 49.5t-50.5 88t-39.5 131q-62 -64 -138.5 -116t-161 -89.5t-173 -58t-174.5 -20.5q-75 0 -141 17.5t-116 56.5t-79 103t-29 157q0 56 12 131t38 155t69 157.5t104 139t143 99.5t187 38
q69 0 112.5 -16.5t69 -43.5t35 -62.5t9.5 -73.5q0 -89 -39 -165.5t-104.5 -133.5t-151 -92t-178.5 -41q-2 -14 -2.5 -28.5t-0.5 -27.5q0 -57 16 -96t43.5 -62.5t65 -33.5t80.5 -10q55 0 118 15t126.5 44t124.5 73t113 101l-117 635h289l79 -442q46 49 82.5 95.5t61.5 88.5
t38 78t13 63v14t-2 11q-11 -2 -18.5 -3t-18.5 -1q-27 0 -45 9.5t-29 24.5t-15.5 34t-4.5 38q0 54 31 79.5t79 25.5q36 0 63 -14t45 -38t27 -56.5t9 -69.5q0 -50 -16.5 -102t-52 -111.5t-91 -128t-133.5 -152.5l18 -100q6 -29 13 -60.5t19.5 -58.5t33 -44.5t55.5 -17.5
q30 0 58.5 13.5t52.5 37.5t43 57.5t31 72.5h86zM295 512q59 2 113 31.5t95.5 76t66 106.5t24.5 124q0 38 -11 61t-40 23q-39 0 -77 -39t-71 -100.5t-59 -136.5t-41 -146z" />
    <glyph glyph-name="e_z" unicode="e&#x7a;" horiz-adv-x="1614" 
d="M631 291q-16 -89 -50 -147t-81 -93t-104.5 -49t-119.5 -14q-71 0 -129.5 18.5t-100 57.5t-64.5 100.5t-23 148.5q0 59 12 136t38 158t69 159t104 139.5t143 99t187 37.5q68 0 112 -16.5t69 -43.5t34.5 -62.5t9.5 -73.5q0 -89 -39 -165.5t-104.5 -133.5t-150.5 -92
t-177 -41q-2 -17 -3 -32.5t-1 -29.5q0 -49 9.5 -82t27 -52.5t40.5 -27.5t50 -8q30 0 62.5 9t64 24t61 34.5t54.5 41.5zM281 512q59 2 113 31.5t95.5 76t66 106.5t24.5 124q0 38 -11.5 61t-40.5 23q-38 0 -75.5 -38.5t-70 -99.5t-59 -136t-42.5 -148zM737 0l523 913h-115
q-24 0 -44.5 -1t-36 -4t-24 -9.5t-8.5 -17.5q0 -5 3.5 -6t8 -4t8 -10t3.5 -25q0 -29 -9.5 -49.5t-25.5 -33.5t-35.5 -19.5t-40.5 -6.5q-18 0 -34.5 6t-30 17t-21.5 28t-8 39q0 31 16.5 67.5t47 67.5t74.5 51.5t99 20.5h527l-502 -866q13 -1 31 -3t39 -4.5t43 -4t43 -1.5
q37 0 64 8.5t32 32.5q-20 2 -29.5 14t-9.5 29q0 15 7.5 30.5t21.5 28t35.5 21t50.5 8.5q47 0 68.5 -28.5t21.5 -69.5q0 -35 -17 -74t-49 -71t-78.5 -53t-105.5 -21h-543z" />
    <glyph glyph-name="eacute_x" unicode="&#xe9;x" horiz-adv-x="1556" 
d="M1642 367q-29 -83 -63.5 -144t-72 -103t-76.5 -68t-76.5 -40t-71.5 -19t-61 -5q-49 0 -86 16t-65.5 50.5t-49.5 88t-39 129.5q-61 -65 -139 -117.5t-163 -89.5t-172.5 -57t-166.5 -20q-77 0 -144.5 17.5t-118 56.5t-79.5 101t-29 152q0 60 12 136.5t38.5 157.5t69 158.5
t104 138.5t143.5 98.5t188 37.5q69 0 112.5 -16.5t68 -44t34 -64.5t9.5 -77q0 -86 -39 -161t-104.5 -132t-151 -92t-177.5 -41q-2 -17 -3 -33t-1 -33q0 -52 15.5 -88.5t43.5 -59.5t67 -33.5t85 -10.5q52 0 114 15t125.5 44.5t124 73t111.5 100.5l-116 635h288l80 -442
q46 49 82.5 95.5t61.5 88.5t38 78t13 63v14t-2 11q-11 -2 -19 -3t-16 -1q-27 0 -45.5 9t-29.5 24.5t-16 36t-5 44.5q0 48 33 72.5t81 24.5q35 0 61 -14.5t43.5 -39t26.5 -58t9 -71.5q0 -50 -17 -102.5t-53 -111t-91.5 -126t-131.5 -147.5l18 -102q6 -29 13 -60.5t19.5 -58.5
t33 -44.5t55.5 -17.5q30 0 58.5 13.5t52.5 37.5t43 57.5t30 72.5h86zM291 512q59 4 113 33.5t95.5 75.5t66 104t24.5 119q0 43 -10 66.5t-39 23.5q-41 0 -79 -38t-70.5 -99t-58.5 -136t-42 -149zM459 1149l186 387h215l-248 -387h-153z" />
    <glyph glyph-name="ff" unicode="ff" horiz-adv-x="1040" 
d="M918 942l-232 -1106q-22 -110 -64.5 -178t-94.5 -106t-108 -51t-106 -13q-88 0 -142 34.5t-79 94.5q-30 -39 -64.5 -64t-70.5 -39.5t-72.5 -20t-70.5 -5.5q-46 0 -89.5 16t-77.5 45t-54.5 69.5t-20.5 90.5q0 71 27.5 119.5t75.5 83t112.5 58.5t138.5 46l246 1170
q22 110 64.5 178t94.5 106t108 51t106 13q34 0 67.5 -9t62 -25.5t51.5 -40.5t38 -54q31 39 66 64t71 39.5t72.5 20t70.5 5.5q46 0 89.5 -16t77.5 -45t54.5 -69.5t20.5 -90.5q0 -48 -6 -84h-96q2 17 3 29t1 26q0 35 -23.5 52.5t-54.5 17.5q-17 0 -36 -6t-38 -23.5t-36 -49.5
t-29 -83l-37 -168h205l-19 -82h-202zM621 942h-203l-182 -866l210 37zM436 63l-211 -38l-39 -189q-8 -35 -18 -67t-21 -58q14 -25 45.5 -33t73.5 -8q16 0 33 7.5t33.5 26t30.5 49.5t24 77zM672 1186l12 53q2 12 3 22.5t1 22.5q0 35 -23.5 52.5t-54.5 17.5q-17 0 -36 -6
t-38 -23.5t-36 -49.5t-29 -83l-37 -168h203zM-76 -51q-48 -16 -89.5 -35.5t-72 -45t-48 -57.5t-17.5 -73q0 -12 6 -24t17 -21.5t26 -16t33 -6.5q16 0 33 7.5t33.5 26t30.5 49.5t24 77z" />
    <glyph glyph-name="ffi" unicode="ffi" horiz-adv-x="1565" 
d="M1651 367q-29 -83 -64.5 -144t-74 -103t-79 -68t-78.5 -40t-72.5 -19t-61.5 -5q-46 0 -86 14t-70 44t-47 76t-17 111q0 28 4.5 61.5t12.5 72.5l121 575h-246l-234 -1106q-22 -107 -63 -174.5t-91 -106t-104 -53t-102 -14.5q-75 0 -133.5 29t-89.5 80q-30 -33 -63 -54.5
t-66.5 -33.5t-67.5 -16.5t-65 -4.5q-46 0 -89.5 16t-77.5 45t-54.5 69.5t-20.5 90.5q0 71 27.5 119.5t75.5 83t112.5 58.5t138.5 46l246 1170q22 110 64.5 178t94.5 106t108 51t106 13q169 0 252 -107q36 33 74.5 54t78.5 33t79 16t77 4q61 0 126.5 -9t118.5 -35t87.5 -72
t34.5 -120q0 -46 -13.5 -77.5t-36 -51t-52 -28t-60.5 -8.5q-23 0 -45 5t-39 17t-28 33.5t-11 54.5q0 18 4.5 35.5t13.5 32t22 23.5t29 9h10t7 -2q-2 42 -32.5 62t-80.5 20q-49 0 -86 -19.5t-63 -52t-42.5 -74t-25.5 -85.5l-35 -168h543l-147 -696q-5 -17 -7 -33.5t-2 -32.5
q0 -43 20.5 -59.5t63.5 -16.5q30 0 58.5 13.5t52.5 37.5t43 57.5t31 72.5h86zM594 942h-172l-184 -868l180 30zM408 53l-183 -37l-39 -180q-8 -35 -17.5 -67.5t-23.5 -61.5q3 -21 12.5 -33.5t20.5 -19.5t23 -9.5t20 -2.5q21 0 41 10t38 32t33.5 58t26.5 88zM627 1094
q17 85 43.5 146.5t58.5 109.5q-14 17 -33.5 25.5t-48.5 8.5q-43 0 -73.5 -17.5t-51.5 -45t-33 -61.5t-18 -68l-33 -168h174zM-76 -51q-48 -16 -89.5 -35.5t-72 -45t-48 -57.5t-17.5 -73q0 -12 6 -24t17 -21.5t26 -16t33 -6.5q15 0 32.5 7.5t34 26t31 49.5t23.5 77z" />
    <glyph glyph-name="ffl" unicode="ffl" horiz-adv-x="1597" 
d="M1683 367q-43 -125 -100 -200t-117 -115t-116 -52t-97 -12q-46 0 -86 14t-69.5 44t-46.5 76t-17 111q0 54 17 134l213 1005q-21 9 -46 15t-49 10t-43.5 6t-29.5 2q-17 0 -37 -6t-39.5 -23.5t-36.5 -49.5t-27 -83l-45 -219h191l-17 -82h-190l-236 -1106
q-22 -107 -63 -174.5t-91 -106t-104 -53t-102 -14.5q-78 0 -135 28.5t-88 82.5q-30 -33 -63 -54.5t-66.5 -34t-67.5 -17.5t-65 -5q-46 0 -89.5 16t-77.5 45t-54.5 69.5t-20.5 90.5q0 71 27.5 119.5t75.5 83t112.5 58.5t138.5 46l246 1170q22 110 64.5 178t94.5 106t108 51
t106 13q152 0 235 -86q28 25 58 42t61 26.5t61.5 13.5t59.5 4q70 0 137 -12t134 -31.5t134.5 -45t137.5 -52.5l-226 -1065q-5 -17 -6.5 -33.5t-1.5 -32.5q0 -43 20.5 -59.5t63.5 -16.5q30 0 58.5 13.5t52.5 37.5t43 57.5t30 72.5h86zM596 942h-174l-184 -868l180 30zM408 53
l-183 -37l-39 -180q-8 -34 -17.5 -66t-23.5 -61q3 -21 12.5 -34.5t21.5 -20.5t23.5 -9.5t18.5 -2.5q21 0 41 10t38 32t33.5 58t26.5 88zM647 1186q11 56 28.5 99.5t37.5 78.5q-27 20 -66 20q-43 0 -73.5 -17.5t-51.5 -45t-33 -61.5t-18 -68l-33 -168h174zM-76 -51
q-48 -16 -89.5 -35.5t-72 -45t-48 -57.5t-17.5 -73q0 -12 6 -24t17 -21.5t26 -16t33 -6.5q15 0 32.5 7.5t34 26t31 49.5t23.5 77z" />
    <glyph glyph-name="f_f_t" unicode="fft" horiz-adv-x="1597" 
d="M1683 367q-43 -125 -100 -200t-117 -115t-116 -52t-97 -12q-46 0 -86 14t-69.5 44t-46.5 76t-17 111q0 54 17 134l120 575h-276l-236 -1106q-22 -107 -63 -174.5t-91 -106t-104 -53t-102 -14.5q-78 0 -135 28.5t-88 82.5q-30 -33 -63 -54.5t-66.5 -34t-67.5 -17.5t-65 -5
q-46 0 -89.5 16t-77.5 45t-54.5 69.5t-20.5 90.5q0 71 27.5 119.5t75.5 83t112.5 58.5t138.5 46l246 1170q22 110 64.5 178t94.5 106t108 51t106 13q152 0 235 -86q28 25 58 42t61 26.5t61.5 13.5t59.5 4q70 0 137 -12t134 -31.5t134.5 -45t137.5 -52.5l-78 -369h123
l-17 -82h-125l-129 -614q-5 -17 -6.5 -33.5t-1.5 -32.5q0 -43 20.5 -59.5t63.5 -16.5q30 0 58.5 13.5t52.5 37.5t43 57.5t30 72.5h86zM596 942h-174l-184 -868l180 30zM1264 1372q-21 9 -46 15t-49 10t-43.5 6t-29.5 2q-17 0 -37 -6t-39.5 -23.5t-36.5 -49.5t-27 -83
l-45 -219h279zM408 53l-183 -37l-39 -180q-8 -34 -17.5 -66t-23.5 -61q3 -21 12.5 -34.5t21.5 -20.5t23.5 -9.5t18.5 -2.5q21 0 41 10t38 32t33.5 58t26.5 88zM647 1186q11 56 28.5 99.5t37.5 78.5q-27 20 -66 20q-43 0 -73.5 -17.5t-51.5 -45t-33 -61.5t-18 -68l-33 -168
h174zM-76 -51q-48 -16 -89.5 -35.5t-72 -45t-48 -57.5t-17.5 -73q0 -12 6 -24t17 -21.5t26 -16t33 -6.5q15 0 32.5 7.5t34 26t31 49.5t23.5 77z" />
    <glyph glyph-name="fi" unicode="fi" horiz-adv-x="1094" 
d="M158 1094q31 141 85 227.5t119.5 133.5t137 63t137.5 16q61 0 126.5 -9t118.5 -35t87.5 -72t34.5 -120q0 -46 -13.5 -77.5t-36 -51t-52 -28t-60.5 -8.5q-23 0 -45 5t-39 17t-28 33.5t-11 54.5q0 18 4.5 35.5t13.5 32t22 23.5t29 9h10t7 -2q-2 42 -32.5 62t-80.5 20
q-49 0 -86 -19.5t-63 -52t-42.5 -74t-25.5 -85.5l-35 -168h164l-16 -82h-164l-234 -1106q-22 -107 -63 -174.5t-91 -106t-104 -53t-102 -14.5q-56 0 -102.5 16t-80.5 45.5t-52.5 72t-18.5 95.5q0 69 31 116.5t81 81t113.5 57t128.5 44.5zM-84 -51q-49 -15 -90.5 -35.5
t-72 -45.5t-47.5 -54t-17 -62q0 -26 10 -42t23.5 -25t27.5 -12t23 -3q15 0 32 8.5t33 27.5t30 49.5t23 74.5zM1180 367q-29 -83 -64.5 -144t-74 -103t-79 -68t-78.5 -40t-72.5 -19t-61.5 -5q-46 0 -86 14t-70 44t-47 76t-17 111q0 28 4.5 61.5t12.5 72.5l139 657h295
l-147 -696q-5 -17 -7 -33.5t-2 -32.5q0 -43 20.5 -59.5t63.5 -16.5q30 0 58.5 13.5t52.5 37.5t43 57.5t31 72.5h86z" />
    <glyph glyph-name="f_i_x" unicode="fix" horiz-adv-x="1839" 
d="M158 1094q31 141 85 227.5t119.5 133.5t137 63t137.5 16q61 0 126.5 -9t118.5 -35t87.5 -72t34.5 -120q0 -46 -13.5 -77.5t-36 -51t-52 -28t-60.5 -8.5q-23 0 -45 5t-39 17t-28 33.5t-11 54.5q0 18 4.5 35.5t13.5 32t22 23.5t29 9h10t7 -2q-2 42 -32.5 62t-80.5 20
q-49 0 -86 -19.5t-63 -52t-42.5 -74t-25.5 -85.5l-35 -168h164l-16 -82h-164l-234 -1106q-22 -107 -63 -174.5t-91 -106t-104 -53t-102 -14.5q-56 0 -102.5 16t-80.5 45.5t-52.5 72t-18.5 95.5q0 69 31 116.5t81 81t113.5 57t128.5 44.5zM1925 367q-29 -83 -63.5 -144
t-72 -103t-77 -68t-76.5 -40t-71 -19t-62 -5q-49 0 -85.5 16t-64.5 50.5t-48.5 88t-38.5 127.5q-49 -55 -109.5 -106t-128 -90t-139 -62.5t-141.5 -23.5q-47 0 -87 14t-69 43.5t-45.5 75.5t-16.5 110q0 26 4.5 60t12.5 76l139 657h295l-147 -696q-5 -17 -7 -33.5t-2 -32.5
q0 -38 24 -56t66 -18q38 0 81.5 14.5t87 40t84.5 61t73 77.5l-117 643h289l80 -442q46 49 82.5 95.5t61.5 88.5t38 78t13 63v14t-2 11q-11 -2 -19 -3t-16 -1q-27 0 -45.5 9t-30 24.5t-16.5 36t-5 44.5t9 42t25 30.5t36.5 18.5t44.5 6q34 0 60.5 -14.5t43.5 -39t26 -58
t9 -71.5q0 -50 -17 -102.5t-53 -111t-91 -126t-131 -147.5l18 -102q6 -29 12.5 -60.5t19.5 -58.5t33.5 -44.5t55.5 -17.5q30 0 58 13.5t52 37.5t43 57.5t31 72.5h86zM-84 -51q-49 -15 -90.5 -35.5t-72 -45.5t-47.5 -54t-17 -62q0 -26 10 -42t23.5 -25t27.5 -12t23 -3
q15 0 32 8.5t33 27.5t30 49.5t23 74.5z" />
    <glyph glyph-name="f_i_z" unicode="fi&#x7a;" horiz-adv-x="1851" 
d="M-84 -51q-49 -15 -90.5 -35.5t-72 -45.5t-47.5 -54t-17 -62q0 -26 10 -42t23.5 -25t27.5 -12t23 -3q15 0 32 8.5t33 27.5t30 49.5t23 74.5zM158 1094q31 141 85 227.5t119.5 133.5t137 63t137.5 16q61 0 126.5 -9t118.5 -35t87.5 -72t34.5 -120q0 -46 -13.5 -77.5
t-36 -51t-52 -28t-60.5 -8.5q-23 0 -45 5t-39 17t-28 33.5t-11 54.5q0 18 4.5 35.5t13.5 32t22 23.5t29 9h10t7 -2q-2 42 -32.5 62t-80.5 20q-49 0 -86 -19.5t-63 -52t-42.5 -74t-25.5 -85.5l-35 -168h164l-16 -82h-164l-234 -1106q-22 -107 -63 -174.5t-91 -106t-104 -53
t-102 -14.5q-56 0 -102.5 16t-80.5 45.5t-52.5 72t-18.5 95.5q0 69 31 116.5t81 81t113.5 57t128.5 44.5zM686 1024h295l-147 -696q-5 -17 -7 -33.5t-2 -32.5q0 -43 20.5 -59.5t63.5 -16.5q29 0 42 4t24 9q-4 -55 -24.5 -94.5t-51.5 -65.5t-70 -38.5t-79 -12.5q-46 0 -86 14
t-70 44t-47 76t-17 111q0 28 4.5 61.5t12.5 72.5zM975 0l522 913h-115q-24 0 -44.5 -1t-35.5 -4t-23.5 -9.5t-8.5 -17.5q0 -5 3.5 -6t7.5 -4t7.5 -10t3.5 -25q0 -29 -9.5 -49.5t-25 -33.5t-35 -19.5t-40.5 -6.5q-18 0 -35 6t-30.5 17t-21.5 28t-8 39q0 31 16.5 67.5
t47.5 67.5t75 51.5t99 20.5h526l-501 -866q26 -2 69.5 -7.5t85.5 -5.5q37 0 64.5 8.5t32.5 32.5q-20 2 -29.5 14t-9.5 29q0 15 7.5 30.5t21.5 28t35.5 21t49.5 8.5q48 0 69 -28t21 -70q0 -35 -17 -74t-49 -71t-78 -53t-105 -21h-543z" />
    <glyph glyph-name="fl" unicode="fl" horiz-adv-x="1122" 
d="M-88 -51q-48 -16 -89.5 -35.5t-72 -45t-48 -57.5t-17.5 -73q0 -12 6 -24t17 -21.5t26 -16t33 -6.5q15 0 32 7.5t33.5 26t31 49.5t23.5 77zM1208 367q-43 -125 -100 -200t-117 -115t-116 -52t-97 -12q-46 0 -86 14t-69.5 44t-46.5 76t-17 111q0 28 4 61.5t12 72.5
l213 1005q-21 9 -46 15t-48.5 10t-43 6t-29.5 2q-17 0 -37.5 -6t-40 -23.5t-36 -49.5t-26.5 -83l-45 -219h191l-17 -82h-190l-234 -1106q-22 -110 -64.5 -178t-94 -106t-107.5 -51t-106 -13q-46 0 -89.5 16t-77.5 45t-54.5 69.5t-20.5 90.5q0 71 27.5 119.5t75.5 83
t112.5 58.5t138.5 46l246 1170q22 110 64.5 178t95 106t108.5 51t105 13q70 0 137 -12t134 -31.5t134 -45t137 -52.5l-225 -1065q-5 -17 -6.5 -33.5t-1.5 -32.5q0 -43 20.5 -59.5t63.5 -16.5q30 0 58.5 13.5t52.5 37.5t43 57.5t30 72.5h86z" />
    <glyph glyph-name="f_l_x" unicode="flx" horiz-adv-x="1868" 
d="M1954 367q-29 -83 -63.5 -144t-72.5 -103t-77 -68t-76.5 -40t-71.5 -19t-61 -5q-49 0 -86 16t-64.5 50.5t-48.5 88t-39 127.5q-49 -55 -109.5 -106t-127.5 -90t-138.5 -62.5t-142.5 -23.5q-47 0 -86.5 14t-68.5 43.5t-45.5 75.5t-16.5 110q0 26 4 60t12 76l213 1005
q-21 9 -46 15t-48.5 10t-43 6t-29.5 2q-17 0 -37.5 -6t-40 -23.5t-36 -49.5t-26.5 -83l-45 -219h191l-17 -82h-190l-234 -1106q-22 -110 -64.5 -178t-94 -106t-107.5 -51t-106 -13q-46 0 -89.5 16t-77.5 45t-54.5 69.5t-20.5 90.5q0 71 27.5 119.5t75.5 83t112.5 58.5
t138.5 46l246 1170q22 110 64.5 178t95 106t108.5 51t105 13q70 0 137 -12t134 -31.5t134 -45t137 -52.5l-225 -1065q-5 -17 -6.5 -33.5t-1.5 -32.5q0 -38 24 -56t66 -18q37 0 81 14.5t87.5 40t84.5 61t73 77.5l-117 643h289l80 -442q46 49 82 95.5t61 88.5t38 78t13 63v14
t-2 11q-11 -2 -19 -3t-16 -1q-27 0 -45 9t-29.5 24.5t-16.5 36t-5 44.5q0 48 33.5 72.5t81.5 24.5q34 0 60.5 -14.5t43.5 -39t26 -58t9 -71.5q0 -50 -17 -102.5t-53 -111t-91.5 -126t-131.5 -147.5l19 -102q6 -29 12.5 -60.5t19 -58.5t33 -44.5t55.5 -17.5q30 0 58.5 13.5
t52.5 37.5t43 57.5t31 72.5h86zM-88 -51q-48 -16 -89.5 -35.5t-72 -45t-48 -57.5t-17.5 -73q0 -12 6 -24t17 -21.5t26 -16t33 -6.5q16 0 33 7.5t33 26t30 49.5t24 77z" />
    <glyph glyph-name="f_l_z" unicode="fl&#x7a;" horiz-adv-x="1921" 
d="M-88 -51q-48 -16 -89.5 -35.5t-72 -45t-48 -57.5t-17.5 -73q0 -12 6 -24t17 -21.5t26 -16t33 -6.5q15 0 32 7.5t33.5 26t31 49.5t23.5 77zM788 1372q-21 9 -46 15t-48.5 10t-43 6t-29.5 2q-17 0 -37.5 -6t-40 -23.5t-36 -49.5t-26.5 -83l-45 -219h191l-17 -82h-190
l-234 -1106q-22 -110 -64.5 -178t-94 -106t-107.5 -51t-106 -13q-46 0 -89.5 16t-77.5 45t-54.5 69.5t-20.5 90.5q0 71 27.5 119.5t75.5 83t112.5 58.5t138.5 46l246 1170q22 110 64.5 178t95 106t108.5 51t105 13q70 0 137 -12t134 -31.5t134 -45t137 -52.5l-225 -1065
q-5 -17 -6.5 -33.5t-1.5 -32.5q0 -43 20.5 -59.5t63.5 -16.5q29 0 42 4t24 9q-4 -55 -24.5 -94.5t-51.5 -65.5t-70 -38.5t-80 -12.5q-46 0 -86 14t-69.5 44t-46.5 76t-17 111q0 28 4 61.5t12 72.5zM1044 0l523 913h-115q-24 0 -44.5 -1t-35.5 -4t-24 -9.5t-9 -17.5
q0 -5 3.5 -6t8 -4t8 -10t3.5 -25q0 -29 -9.5 -49.5t-25 -33.5t-35.5 -19.5t-41 -6.5q-18 0 -34.5 6t-30 17t-21.5 28t-8 39q0 31 16.5 67.5t47 67.5t74.5 51.5t100 20.5h526l-502 -866q13 -1 31.5 -3t39 -4.5t42.5 -4t43 -1.5q37 0 64 8.5t32 32.5q-20 2 -29.5 14t-9.5 29
q0 15 7.5 30.5t21.5 28t35.5 21t50.5 8.5q47 0 68.5 -28.5t21.5 -69.5q0 -35 -17 -74t-49 -71t-78.5 -53t-105.5 -21h-543z" />
    <glyph glyph-name="f_t" unicode="ft" horiz-adv-x="1122" 
d="M1208 367q-43 -125 -100 -200t-117 -115t-116 -52t-97 -12q-46 0 -86 14t-69.5 44t-46.5 76t-17 111q0 28 4 61.5t12 72.5l121 575h-276l-234 -1106q-22 -110 -64.5 -178t-94 -106t-107.5 -51t-106 -13q-46 0 -89.5 16t-77.5 45t-54.5 69.5t-20.5 90.5q0 71 27.5 119.5
t75.5 83t112.5 58.5t138.5 46l246 1170q22 110 64.5 178t95 106t108.5 51t105 13q70 0 137 -12t134 -31.5t134 -45t137 -52.5l-77 -369h123l-17 -82h-125l-129 -614q-5 -17 -6.5 -33.5t-1.5 -32.5q0 -43 20.5 -59.5t63.5 -16.5q30 0 58.5 13.5t52.5 37.5t43 57.5t30 72.5h86
zM788 1372q-21 9 -46 15t-48.5 10t-43 6t-29.5 2q-17 0 -37.5 -6t-40 -23.5t-36 -49.5t-26.5 -83l-45 -219h279zM-88 -51q-48 -16 -89.5 -35.5t-72 -45t-48 -57.5t-17.5 -73q0 -12 6 -24t17 -21.5t26 -16t33 -6.5q16 0 33 7.5t33 26t30 49.5t24 77z" />
    <glyph glyph-name="f_u" unicode="fu" horiz-adv-x="1581" 
d="M1667 367q-43 -125 -97.5 -200t-111 -115t-109.5 -52t-94 -12q-88 0 -139.5 48.5t-62.5 145.5q-39 -63 -79 -101t-79 -59t-76 -27.5t-69 -6.5q-46 0 -86 14t-70 44t-47 76t-17 111q0 28 4.5 61.5t12.5 72.5l121 575h-250l-236 -1106q-22 -110 -63.5 -178t-92 -106
t-105.5 -51t-105 -13q-46 0 -89.5 16t-77.5 45t-54.5 69.5t-20.5 90.5q0 71 27.5 119.5t75.5 83t112 58.5t137 46l248 1170q22 110 64.5 178t94.5 106t108 51t106 13q46 0 89.5 -16t77 -45t54 -69.5t20.5 -90.5q0 -48 -6 -84h-96q2 17 3 29t1 26q0 35 -23.5 52.5t-54.5 17.5
q-16 0 -36.5 -7t-41 -25.5t-38 -51.5t-27.5 -84l-35 -162h547l-147 -696q-7 -29 -7 -58q0 -35 13.5 -59.5t48.5 -24.5q30 0 55 13.5t45.5 37.5t36 57.5t27.5 72.5l139 657h295l-148 -696q-5 -17 -6.5 -33.5t-1.5 -32.5q0 -43 20.5 -59.5t63.5 -16.5q30 0 55.5 13.5t46 37.5
t36.5 57.5t28 72.5h86zM-88 -51q-48 -16 -89.5 -35.5t-71.5 -45t-47 -57.5t-17 -73q0 -12 6 -24t17 -21.5t26 -16t33 -6.5q16 0 32.5 7.5t32 26t28.5 49.5t23 77z" />
    <glyph glyph-name="f_x" unicode="fx" horiz-adv-x="1358" 
d="M1444 367q-29 -83 -63.5 -144t-72 -103t-77 -68t-76.5 -40t-71 -19t-62 -5q-56 0 -96.5 21.5t-70.5 67t-51.5 117.5t-39.5 173l-4 14q-35 -25 -68.5 -52t-59.5 -56t-41.5 -59.5t-15.5 -61.5q5 2 12 2h15q27 0 43.5 -9t25.5 -23.5t12 -32.5t3 -36q0 -60 -32 -86t-83 -26
q-69 0 -102 39.5t-33 105.5q0 51 26.5 107.5t69.5 111.5t97.5 104.5t109.5 86.5l-82 446h-239l-236 -1106q-22 -110 -63.5 -178t-92 -106t-105.5 -51t-105 -13q-46 0 -89.5 16t-77.5 45t-54.5 69.5t-20.5 90.5q0 71 27.5 119.5t75.5 83t112 58.5t137 46l248 1170
q22 110 64.5 178t94.5 106t108 51t106 13q46 0 89.5 -16t77 -45t54 -69.5t20.5 -90.5q0 -48 -6 -84h-96q2 17 3 29t1 26q0 35 -23.5 52.5t-54.5 17.5q-16 0 -36.5 -7t-41 -25.5t-38 -51.5t-27.5 -84l-35 -162h498l74 -406q97 87 148.5 158t51.5 131v14t-2 11q-11 -2 -19 -3
t-16 -1q-27 0 -45 9t-29.5 24.5t-16.5 36t-5 44.5q0 48 33.5 72.5t81.5 24.5q34 0 60.5 -14.5t43.5 -39t26 -58t9 -71.5q0 -51 -17 -102t-53.5 -106t-93 -115.5t-135.5 -130.5l25 -135q6 -29 12.5 -60.5t19 -58.5t33.5 -44.5t56 -17.5q30 0 58 13.5t52 37.5t43 57.5t31 72.5
h86zM-94 -51q-48 -16 -89.5 -35.5t-71.5 -45t-47 -57.5t-17 -73q0 -12 6 -24t17 -21.5t25.5 -16t32.5 -6.5q16 0 32.5 7.5t32 26t29 49.5t23.5 77z" />
    <glyph glyph-name="g_p" unicode="gp" horiz-adv-x="1997" 
d="M852 -512l109 516q-48 -2 -96.5 -6.5t-102.5 -15.5l-31 -146q-22 -110 -63.5 -178t-92.5 -106t-106.5 -51t-106.5 -13q-47 0 -88.5 12.5t-72.5 37t-49.5 62t-18.5 87.5q0 63 30.5 113t79 89t108 67t118.5 46l23 98q-45 -48 -105.5 -80t-140.5 -32q-53 0 -102 17t-87 56
t-61 102t-23 154q0 70 14 150t43 160t72.5 153.5t102 130t132.5 90t163 33.5q87 0 126.5 -30t39.5 -74v-12l22 106h295l-201 -940q54 12 104 21.5t101 17.5l207 977h295l-33 -154q45 38 103 63t137 25q52 0 97.5 -16.5t79.5 -54t53.5 -99.5t19.5 -153q0 -69 -10 -149.5
t-32.5 -161t-60.5 -155t-94 -131.5t-132 -91.5t-175 -34.5q-102 0 -189 6l-92 -432zM1288 154q23 2 45 2h45q54 0 96 28t74 74.5t54 105.5t36 121.5t20.5 123t6.5 108.5q0 59 -11 93t-26.5 51t-33.5 21.5t-31 4.5q-35 0 -74 -25.5t-68 -75.5zM647 831q0 9 -4 22t-13.5 25
t-25.5 20.5t-41 8.5q-43 0 -81.5 -28t-70.5 -74.5t-57 -105.5t-42.5 -121.5t-26.5 -123t-9 -108.5q0 -59 11 -91t26.5 -47.5t33.5 -18.5t32 -3q21 0 45 10.5t47.5 30.5t42.5 50t29 69zM446 -111q-40 -15 -76 -32.5t-63.5 -38.5t-44 -46.5t-16.5 -56.5q0 -11 4 -23t12.5 -22
t21.5 -16t31 -6q32 0 65.5 44.5t53.5 137.5z" />
    <glyph glyph-name="g_x" unicode="gx" horiz-adv-x="1827" 
d="M1913 367q-29 -83 -63.5 -144t-72 -103t-77 -68t-76.5 -40t-71 -19t-62 -5q-49 0 -86 16t-64.5 50t-48.5 87t-39 127q-56 -62 -118.5 -107.5t-127 -78.5t-127 -56t-118.5 -40l-31 -150q-22 -110 -63.5 -178t-92.5 -106t-106.5 -51t-106.5 -13q-47 0 -88.5 12.5t-72.5 37
t-49.5 62t-18.5 87.5q0 65 30.5 113t78.5 83.5t107.5 60t117.5 42.5l25 116q-23 -24 -49 -44.5t-56.5 -36t-65.5 -24.5t-75 -9q-53 0 -102 17t-87 56t-61 102t-23 154q0 70 14 150t43 160t72.5 153.5t102 130t132.5 90t163 33.5q87 0 126.5 -30t39.5 -74v-15l22 109h295
l-201 -944q52 18 105.5 42.5t108.5 61t112.5 87.5t118.5 122l-115 631h289l80 -442q46 49 82 95.5t61 88.5t38 78t13 63v14t-2 11q-11 -2 -19 -3t-16 -1q-27 0 -45 9t-29.5 24.5t-16.5 36t-5 44.5q0 48 33.5 72.5t81.5 24.5q34 0 60.5 -14.5t43.5 -39t26 -58t9 -71.5
q0 -50 -17 -102.5t-53 -111t-91.5 -126t-131.5 -147.5l19 -102q6 -29 12.5 -60.5t19 -58.5t33 -44.5t55.5 -17.5q30 0 58.5 13.5t52.5 37.5t43 57.5t31 72.5h86zM549 367l98 462q0 9 -4 22.5t-13.5 26t-25.5 21t-41 8.5q-43 0 -81.5 -28t-70.5 -74.5t-57 -105.5
t-42.5 -121.5t-26.5 -123t-9 -108.5q0 -59 11 -91t26.5 -47.5t33.5 -18.5t32 -3q21 0 46 10t48 31t42.5 52t29.5 73zM446 -109q-40 -14 -76 -31.5t-63.5 -39t-44 -48t-16.5 -57.5q0 -11 4 -23t12.5 -22t21.5 -16t31 -6q32 0 65.5 44.5t53.5 137.5z" />
    <glyph glyph-name="g_z" unicode="g&#x7a;" horiz-adv-x="1858" 
d="M489 102q-44 -47 -105 -80.5t-140 -33.5q-53 0 -102 17t-87 56t-61 102t-23 154q0 70 14 150t43 160t72.5 153.5t102 130t132.5 90t163 33.5q87 0 126.5 -30t39.5 -74v-4l20 98h297l-250 -1188q-22 -110 -64.5 -178t-94 -106t-108 -51t-106.5 -13q-46 0 -89.5 16t-77 45
t-54 69.5t-20.5 90.5q0 72 27.5 121t75.5 83t112.5 57.5t138.5 45.5zM645 836q-2 10 -6.5 22t-13.5 23t-24.5 18.5t-39.5 7.5q-43 0 -81.5 -28t-70.5 -74.5t-57 -105.5t-42.5 -121.5t-26.5 -123t-9 -108.5q0 -59 11 -91t26.5 -47.5t33.5 -18.5t32 -3q21 0 44.5 9.5
t46.5 28.5t42 48t31 68zM457 -49q-48 -16 -90 -36t-72.5 -45.5t-48 -58t-17.5 -73.5q0 -12 6 -24t17 -21.5t26 -16t33 -6.5q16 0 33.5 7.5t33.5 26t30 49.5t24 77zM981 0l522 913h-114q-24 0 -44.5 -1t-36 -4t-24 -9.5t-8.5 -17.5q0 -5 3.5 -6t7.5 -4t7.5 -10t3.5 -25
q0 -29 -9.5 -49.5t-25 -33.5t-35 -19.5t-40.5 -6.5q-18 0 -34.5 6t-30 17t-21.5 28t-8 39q0 31 16.5 67.5t47 67.5t74.5 51.5t99 20.5h527l-502 -866q13 -1 31 -3t39 -4.5t42.5 -4t42.5 -1.5q38 0 65 8.5t32 32.5q-20 2 -29.5 14t-9.5 29q0 15 7.5 30.5t21.5 28t35.5 21
t49.5 8.5q48 0 69.5 -28t21.5 -70q0 -35 -17 -74t-49 -71t-78.5 -53t-105.5 -21h-543z" />
    <glyph glyph-name="ij" unicode="ij" horiz-adv-x="1038" 
d="M506 1296q0 -34 -13 -63.5t-35.5 -51t-52 -34t-63.5 -12.5t-63.5 12.5t-51.5 34t-34.5 51t-12.5 63.5t12.5 63.5t34.5 52t51.5 35.5t63.5 13t63.5 -13t52 -35.5t35.5 -52t13 -63.5zM139 1024h295l-147 -696q-5 -17 -6.5 -33.5t-1.5 -32.5q0 -43 20 -59.5t63 -16.5
q29 0 42 4t24 9q-4 -55 -24.5 -94.5t-51.5 -65.5t-70 -38.5t-79 -12.5q-46 0 -86 14t-69.5 44t-46.5 76t-17 111q0 28 4 61.5t12 72.5zM731 -164q-22 -110 -63.5 -178t-92.5 -106t-106.5 -51t-106.5 -13q-47 0 -88.5 12.5t-72.5 37t-49.5 62t-18.5 87.5q0 64 30.5 112.5
t79 85.5t108 63t118.5 44l219 1032h295l-203 -950q47 16 85 38.5t69.5 57t57 82.5t46.5 115h86q-31 -102 -73.5 -170t-90.5 -111.5t-99 -66.5t-99 -35zM1036 1298q0 -34 -13 -63.5t-35 -51t-52 -34t-64 -12.5t-63.5 12.5t-51 34t-34 51t-12.5 63.5t12.5 64t34 52t51 35
t63.5 13t64 -13t52 -35t35 -52t13 -64zM446 -111q-40 -15 -76 -32.5t-63.5 -38.5t-44 -46.5t-16.5 -56.5q0 -11 4 -23t12.5 -22t21.5 -16t31 -6q32 0 65.5 44.5t53.5 137.5z" />
    <glyph glyph-name="i_x" unicode="ix" horiz-adv-x="1292" 
d="M1378 367q-28 -83 -63 -144t-72.5 -103t-76.5 -68t-76.5 -40t-71.5 -19t-62 -5q-49 0 -85.5 16t-64.5 50.5t-48.5 88t-38.5 127.5q-49 -55 -109.5 -106t-128 -90t-139 -62.5t-141.5 -23.5q-47 0 -86.5 14t-68.5 43.5t-45.5 75.5t-16.5 110q0 26 4 60t12 76l139 657h295
l-147 -696q-5 -17 -6.5 -33.5t-1.5 -32.5q0 -38 24 -56t66 -18q37 0 80.5 14.5t87 40t84.5 61t73 77.5l-116 643h288l80 -442q46 49 82.5 95.5t61.5 88.5t38 78t13 63v14t-2 11q-11 -2 -19 -3t-16 -1q-27 0 -45.5 9t-29.5 24.5t-16 36t-5 44.5q0 48 33 72.5t81 24.5
q34 0 60.5 -14.5t44 -39t26.5 -58t9 -71.5q0 -50 -17.5 -102.5t-53.5 -111t-91 -126t-131 -147.5l18 -102q6 -29 13 -60.5t19.5 -58.5t33 -44.5t55.5 -17.5q30 0 58.5 13.5t52.5 37.5t43 57.5t30 72.5h86zM506 1296q0 -34 -13 -63.5t-35.5 -51t-52 -34t-63.5 -12.5
t-63.5 12.5t-51.5 34t-34.5 51t-12.5 63.5t12.5 63.5t34.5 52t51.5 35.5t63.5 13t63.5 -13t52 -35.5t35.5 -52t13 -63.5z" />
    <glyph glyph-name="i_z" unicode="i&#x7a;" horiz-adv-x="1305" 
d="M506 1296q0 -34 -13 -63.5t-35.5 -51t-52 -34t-63.5 -12.5t-63.5 12.5t-51.5 34t-34.5 51t-12.5 63.5t12.5 63.5t34.5 52t51.5 35.5t63.5 13t63.5 -13t52 -35.5t35.5 -52t13 -63.5zM139 1024h295l-147 -696q-5 -17 -6.5 -33.5t-1.5 -32.5q0 -43 20 -59.5t63 -16.5
q29 0 42 4t24 9q-4 -55 -24.5 -94.5t-51.5 -65.5t-70 -38.5t-79 -12.5q-46 0 -86 14t-69.5 44t-46.5 76t-17 111q0 28 4 61.5t12 72.5zM428 0l522 913h-114q-24 0 -44.5 -1t-36 -4t-24 -9.5t-8.5 -17.5q0 -5 3.5 -6t7.5 -4t7.5 -10t3.5 -25q0 -29 -9.5 -49.5t-25 -33.5
t-35 -19.5t-40.5 -6.5q-18 0 -34.5 6t-30 17t-21.5 28t-8 39q0 31 16.5 67.5t47 67.5t74.5 51.5t99 20.5h527l-502 -866q13 -1 31 -3t39 -4.5t42.5 -4t42.5 -1.5q38 0 65 8.5t32 32.5q-20 2 -29.5 14t-9.5 29q0 15 7.5 30.5t21.5 28t35.5 21t49.5 8.5q48 0 69.5 -28
t21.5 -70q0 -35 -17 -74t-49 -71t-78.5 -53t-105.5 -21h-543z" />
    <glyph glyph-name="iacute_x" unicode="&#xed;x" horiz-adv-x="1292" 
d="M1378 367q-28 -83 -63 -144t-72.5 -103t-76.5 -68t-76.5 -40t-71.5 -19t-62 -5q-49 0 -85.5 16t-64.5 50.5t-48.5 88t-38.5 127.5q-49 -55 -109.5 -106t-128 -90t-139 -62.5t-141.5 -23.5q-47 0 -86.5 14t-68.5 43.5t-45.5 75.5t-16.5 110q0 26 4 60t12 76l139 657h295
l-147 -696q-5 -17 -6.5 -33.5t-1.5 -32.5q0 -38 24 -56t66 -18q37 0 80.5 14.5t87 40t84.5 61t73 77.5l-116 643h288l80 -442q46 49 82.5 95.5t61.5 88.5t38 78t13 63v14t-2 11q-11 -2 -19 -3t-16 -1q-27 0 -45.5 9t-29.5 24.5t-16 36t-5 44.5q0 48 33 72.5t81 24.5
q34 0 60.5 -14.5t44 -39t26.5 -58t9 -71.5q0 -50 -17.5 -102.5t-53.5 -111t-91 -126t-131 -147.5l18 -102q6 -29 13 -60.5t19.5 -58.5t33 -44.5t55.5 -17.5q30 0 58.5 13.5t52.5 37.5t43 57.5t30 72.5h86zM229 1149l187 387h215l-248 -387h-154z" />
    <glyph glyph-name="iacute_z" unicode="&#xed;&#x7a;" horiz-adv-x="1305" 
d="M139 1024h295l-147 -696q-5 -17 -6.5 -33.5t-1.5 -32.5q0 -43 20 -59.5t63 -16.5q29 0 42 4t24 9q-4 -55 -24.5 -94.5t-51.5 -65.5t-70 -38.5t-79 -12.5q-46 0 -86 14t-69.5 44t-46.5 76t-17 111q0 28 4 61.5t12 72.5zM428 0l522 913h-114q-24 0 -44.5 -1t-36 -4
t-24 -9.5t-8.5 -17.5q0 -5 3.5 -6t7.5 -4t7.5 -10t3.5 -25q0 -29 -9.5 -49.5t-25 -33.5t-35 -19.5t-40.5 -6.5q-18 0 -34.5 6t-30 17t-21.5 28t-8 39q0 31 16.5 67.5t47 67.5t74.5 51.5t99 20.5h527l-502 -866q13 -1 31 -3t39 -4.5t42.5 -4t42.5 -1.5q38 0 65 8.5t32 32.5
q-20 2 -29.5 14t-9.5 29q0 15 7.5 30.5t21.5 28t35.5 21t49.5 8.5q48 0 69.5 -28t21.5 -70q0 -35 -17 -74t-49 -71t-78.5 -53t-105.5 -21h-543zM227 1149l187 387h215l-248 -387h-154z" />
    <glyph glyph-name="j_x" unicode="jx" horiz-adv-x="1278" 
d="M1364 367q-29 -83 -63.5 -144t-72 -103t-77 -68t-76.5 -40t-71 -19t-62 -5q-49 0 -85.5 16t-64.5 50t-48.5 87t-38.5 127q-56 -62 -119 -107.5t-127.5 -78.5t-127 -56t-118.5 -40l-31 -150q-22 -110 -63.5 -178t-92 -106t-106 -51t-106.5 -13q-47 0 -88.5 12.5t-73 37
t-50 62t-18.5 87.5q0 65 30.5 113t79 83.5t108 60t118.5 42.5l219 1038h295l-201 -944q52 18 105.5 42.5t108.5 61t112.5 87.5t118.5 122l-115 631h289l80 -442q46 49 82 95.5t61 88.5t38 78t13 63v14t-2 11q-11 -2 -18.5 -3t-15.5 -1q-27 0 -45.5 9t-30 24.5t-16.5 36
t-5 44.5q0 48 33.5 72.5t81.5 24.5q34 0 60.5 -14.5t43.5 -39t26 -58t9 -71.5q0 -50 -17 -102.5t-53 -111t-91.5 -126t-131.5 -147.5l19 -102q6 -29 12.5 -60.5t19 -58.5t33.5 -44.5t56 -17.5q30 0 58 13.5t52 37.5t43 57.5t31 72.5h86zM487 1298q0 -34 -13 -63.5t-35 -51
t-51.5 -34t-63.5 -12.5t-63.5 12.5t-51.5 34t-34.5 51t-12.5 63.5t12.5 64t34.5 52t51.5 35t63.5 13t63.5 -13t51.5 -35t35 -52t13 -64zM-100 -109q-40 -14 -77 -31.5t-65 -39t-44.5 -48t-16.5 -57.5q0 -11 4 -23t13 -22t22 -16t31 -6q32 0 65 44.5t53 137.5z" />
    <glyph glyph-name="j_z" unicode="j&#x7a;" horiz-adv-x="1266" 
d="M145 1024h297l-249 -1188q-23 -110 -65 -178t-94 -106t-108 -51t-106 -13q-46 0 -89.5 16t-77.5 45t-54.5 69.5t-20.5 90.5q0 72 28 121t76.5 83t113 57.5t138.5 45.5zM504 1298q0 -34 -13 -63.5t-35.5 -51t-52 -34t-63.5 -12.5t-63.5 12.5t-51.5 34t-34.5 51t-12.5 63.5
t12.5 64t34.5 52t51.5 35t63.5 13t63.5 -13t52 -35t35.5 -52t13 -64zM-80 -49q-49 -16 -91 -35.5t-72.5 -45t-48 -58t-17.5 -74.5q0 -12 6 -24t17 -21.5t26 -16t33 -6.5q16 0 33 7.5t33.5 26t30.5 49.5t24 77zM389 0l522 913h-114q-24 0 -44.5 -1t-36 -4t-24 -9.5
t-8.5 -17.5q0 -5 3.5 -6t8 -4t8 -10t3.5 -25q0 -29 -9.5 -49.5t-25.5 -33.5t-35.5 -19.5t-40.5 -6.5q-18 0 -34.5 6t-30 17t-21.5 28t-8 39q0 31 16.5 67.5t47 67.5t74.5 51.5t99 20.5h527l-502 -866q13 -1 31 -3t39 -4.5t43 -4t43 -1.5q37 0 64 8.5t32 32.5q-20 2 -29.5 14
t-9.5 29q0 15 7.5 30.5t21.5 28t35.5 21t50.5 8.5q47 0 68.5 -28.5t21.5 -69.5q0 -35 -17 -74t-49 -71t-78.5 -53t-105.5 -21h-543z" />
    <glyph glyph-name="l_x" unicode="lx" horiz-adv-x="1292" 
d="M1378 367q-28 -83 -63 -144t-72.5 -103t-76.5 -68t-76.5 -40t-71.5 -19t-62 -5q-49 0 -85.5 16t-64.5 50t-48.5 87t-38.5 127q-50 -56 -110.5 -106.5t-127 -89t-137.5 -61.5t-141 -23q-47 0 -86.5 14t-68.5 43.5t-45.5 75.5t-16.5 110q0 26 4 60t12 76l217 1026l303 41
l-233 -1106q-5 -17 -6.5 -33.5t-1.5 -32.5q0 -38 24 -56t66 -18q39 0 82 13.5t85.5 38.5t83 60.5t74.5 78.5l-118 645h288l80 -442q46 49 82.5 95.5t61.5 88.5t38 78t13 63v14t-2 11q-11 -2 -19 -3t-16 -1q-27 0 -45.5 9t-29.5 24.5t-16 36t-5 44.5q0 48 33 72.5t81 24.5
q34 0 60.5 -14.5t44 -39t26.5 -58t9 -71.5q0 -50 -17.5 -102.5t-53.5 -111t-91 -126t-131 -147.5l18 -102q6 -29 13 -60.5t19.5 -58.5t33 -44.5t55.5 -17.5q30 0 58.5 13.5t52.5 37.5t43 57.5t30 72.5h86z" />
    <glyph glyph-name="l_z" unicode="l&#x7a;" horiz-adv-x="1300" 
d="M215 1397l303 41l-235 -1106q-5 -17 -7 -31.5t-2 -28.5q0 -35 18 -58.5t66 -23.5q29 0 42 4t24 9q-4 -55 -24.5 -95.5t-51.5 -67t-70 -39.5t-79 -13q-46 0 -86 14.5t-69.5 45t-46.5 77.5t-17 113q0 27 4 60.5t12 72.5zM424 0l522 913h-115q-24 0 -44.5 -1t-35.5 -4
t-23.5 -9.5t-8.5 -17.5q0 -5 3.5 -6t7.5 -4t7.5 -10t3.5 -25q0 -29 -9.5 -49.5t-25 -33.5t-35 -19.5t-40.5 -6.5q-18 0 -34.5 6t-30 17t-21.5 28t-8 39q0 31 16.5 67.5t47 67.5t74.5 51.5t99 20.5h526l-501 -866q13 -1 31 -3t39 -4.5t42.5 -4t42.5 -1.5q38 0 65 8.5t32 32.5
q-20 2 -29.5 14t-9.5 29q0 15 7.5 30.5t21.5 28t35.5 21t49.5 8.5q48 0 69.5 -28t21.5 -70q0 -35 -17 -74t-49 -71t-78.5 -53t-105.5 -21h-543z" />
    <glyph glyph-name="m_x" unicode="mx" horiz-adv-x="2302" 
d="M2388 367q-29 -83 -63.5 -144t-72 -103t-77 -68t-76.5 -40t-71 -19t-62 -5q-49 0 -86 16t-65 50.5t-49.5 88t-39.5 127.5q-53 -55 -116 -106t-128.5 -90t-129.5 -62.5t-119 -23.5q-67 0 -111 19.5t-70.5 52t-37 74t-10.5 85.5q0 52 14.5 121.5t31.5 142.5t31.5 141
t14.5 117q0 105 -74 105q-28 0 -52 -15t-44 -40.5t-36 -60t-28 -73.5l-139 -657h-295l150 707q6 24 6 51q0 18 -3 34t-10.5 28.5t-19 20t-29.5 7.5q-30 0 -55.5 -15t-46 -41t-36.5 -61t-28 -74l-139 -657h-295l217 1024h295l-22 -106q33 37 66 59.5t65 35t62 17t57 4.5
q40 0 75 -9.5t62 -30.5t46 -54.5t27 -81.5q37 57 76 91.5t76 52.5t71 24t62 6q49 0 90.5 -13t72 -41t47.5 -72t17 -105q0 -41 -7.5 -88.5t-18 -97t-23.5 -98.5t-23.5 -94t-18 -83.5t-7.5 -67.5q0 -38 21 -62t69 -24q35 0 78 14.5t87.5 40.5t86.5 62t76 78l-117 643h289
l80 -442q46 49 82 95.5t61 88.5t38 78t13 63v14t-2 11q-11 -2 -18.5 -3t-15.5 -1q-27 0 -45.5 9t-30 24.5t-16.5 36t-5 44.5q0 48 33.5 72.5t81.5 24.5q34 0 60.5 -14.5t43.5 -39t26 -58t9 -71.5q0 -50 -17 -102.5t-53 -111t-91.5 -126t-131.5 -147.5l19 -102
q6 -29 12.5 -60.5t19 -58.5t33.5 -44.5t56 -17.5q30 0 58 13.5t52 37.5t43 57.5t31 72.5h86z" />
    <glyph glyph-name="m_z" unicode="m&#x7a;" horiz-adv-x="2304" 
d="M428 0l150 707q6 24 6 51q0 18 -3 34t-10.5 28.5t-19 20t-29.5 7.5q-30 0 -55.5 -15t-46 -41t-36.5 -61t-28 -74l-139 -657h-295l217 1024h295l-22 -106q33 37 66 59.5t65 35t62 17t57 4.5q40 0 75 -9.5t62 -30.5t46 -54.5t27 -81.5q37 57 76 91.5t76 52.5t71 24t62 6
q49 0 90.5 -13t72 -41t47.5 -72t17 -105q0 -41 -7.5 -88.5t-18 -97t-23.5 -98.5t-23.5 -94t-18 -83.5t-7.5 -67.5q0 -38 17.5 -62t64.5 -24q49 0 68 13q-7 -56 -28 -95.5t-51.5 -65.5t-68 -38t-78.5 -12q-59 0 -98.5 19.5t-63.5 52t-34 74t-10 85.5q0 52 14.5 121.5
t31.5 142.5t31.5 141t14.5 117q0 105 -74 105q-28 0 -52 -15t-44 -40.5t-36 -60t-28 -73.5l-139 -657h-295zM1427 0l523 913h-115q-24 0 -44.5 -1t-35.5 -4t-24 -9.5t-9 -17.5q0 -5 3.5 -6t8 -4t8 -10t3.5 -25q0 -29 -9.5 -49.5t-25 -33.5t-35.5 -19.5t-41 -6.5
q-18 0 -34.5 6t-30 17t-21.5 28t-8 39q0 31 16.5 67.5t47 67.5t74.5 51.5t100 20.5h526l-502 -866q13 -1 31.5 -3t39 -4.5t42.5 -4t43 -1.5q37 0 64 8.5t32 32.5q-20 2 -29.5 14t-9.5 29q0 15 7.5 30.5t21.5 28t35.5 21t50.5 8.5q47 0 68.5 -28.5t21.5 -69.5q0 -35 -17 -74
t-49 -71t-78.5 -53t-105.5 -21h-543z" />
    <glyph glyph-name="n_z" unicode="n&#x7a;" horiz-adv-x="1806" 
d="M-78 0l217 1024h295l-22 -106q33 37 65.5 59.5t63.5 34.5t58.5 16t51.5 4q49 0 91 -13t72.5 -41t47.5 -72t17 -105q0 -41 -7.5 -88.5t-18.5 -97t-23.5 -98.5t-23.5 -94t-18.5 -83.5t-7.5 -67.5q0 -38 17.5 -62t64.5 -24q51 0 68 13q-7 -56 -28 -95.5t-51 -65.5t-68 -38
t-78 -12q-59 0 -99 19.5t-64 52t-34 74t-10 85.5q0 52 14.5 121.5t31.5 142.5t31.5 141t14.5 117q0 105 -74 105q-28 0 -52 -15t-44 -40.5t-36 -60t-28 -73.5l-139 -657h-295zM930 0l522 913h-115q-24 0 -44.5 -1t-35.5 -4t-23.5 -9.5t-8.5 -17.5q0 -5 3.5 -6t7.5 -4
t7.5 -10t3.5 -25q0 -29 -9.5 -49.5t-25 -33.5t-35 -19.5t-40.5 -6.5q-18 0 -35 6t-30.5 17t-21.5 28t-8 39q0 31 16.5 67.5t47.5 67.5t75 51.5t99 20.5h526l-501 -866q26 -2 69.5 -7.5t85.5 -5.5q37 0 64 8.5t32 32.5q-20 2 -29 14t-9 29q0 15 7 30.5t21.5 28t35.5 21
t50 8.5q48 0 69 -28t21 -70q0 -35 -17 -74t-49 -71t-78 -53t-105 -21h-543z" />
    <glyph glyph-name="o_ae" unicode="o&#xe6;" horiz-adv-x="2230" 
d="M2300 367q-43 -69 -97.5 -137t-123.5 -122t-154.5 -87t-189.5 -33q-56 0 -104.5 11t-87.5 35t-66.5 61t-42.5 89q-19 -36 -44 -71t-59 -63t-77.5 -45t-98.5 -17q-52 0 -101 11t-87 41t-61 82t-23 134q0 94 34.5 159t96.5 104.5t148 57t188 17.5q31 0 54 -1.5t40 -6.5
q20 45 32.5 93t12.5 91q0 30 -7 56t-23.5 45.5t-43 30.5t-65.5 11q-59 0 -103 -13.5t-82 -35.5t-74 -50.5t-79 -58.5t-96 -60t-125 -54q-9 -150 -49.5 -270t-105.5 -204t-150.5 -129.5t-182.5 -45.5q-71 0 -131.5 17.5t-104 56t-68 100t-24.5 149.5q0 60 12 136.5
t38.5 157.5t69 158.5t104.5 138.5t144 98.5t187 37.5q253 0 263 -309q62 24 112 56t94.5 65.5t86.5 65.5t88.5 57.5t100.5 41t122 15.5q105 0 179.5 -19.5t125.5 -64.5q54 38 121.5 61t148.5 23q68 0 111.5 -15t68 -41.5t34 -62t9.5 -75.5q0 -86 -39 -161t-104.5 -132
t-150.5 -92t-177 -41q-2 -17 -3 -33t-1 -33q0 -57 9 -93.5t25 -57.5t38.5 -29t50.5 -8q75 0 128.5 15t97 42t81 65t80.5 85h70zM616 604q-29 6 -42 31t-13 67q0 44 17.5 71t46.5 38q-5 60 -23 83.5t-55 23.5t-70.5 -28.5t-63 -75.5t-54 -107.5t-42 -124.5t-27 -126.5
t-9.5 -113.5t5.5 -83t17.5 -50.5t32 -25.5t49 -7q37 0 74 33t68.5 90.5t55 135.5t33.5 169zM1739 512q59 4 113 33.5t95.5 75.5t66 104t24.5 119q0 43 -10 66.5t-39 23.5q-41 0 -79 -38t-70.5 -99t-58.5 -136t-42 -149zM1430 467q-11 0 -22 1t-22 1q-40 0 -78.5 -11
t-69 -33.5t-49 -58t-18.5 -83.5q0 -32 11 -51.5t27.5 -29.5t34.5 -13t32 -3q19 0 40.5 13t42 45t39 86t32.5 137z" />
    <glyph glyph-name="o_s" unicode="os" horiz-adv-x="1610" 
d="M1696 367q-73 -85 -146 -141.5t-139 -98.5q-27 -39 -61.5 -65.5t-73.5 -43t-81.5 -23.5t-84.5 -7q-92 0 -147.5 25t-86.5 64t-41 87.5t-10 95.5q0 45 13 81.5t34 61.5t47.5 38.5t53.5 13.5q106 0 106 -86q0 -38 -28 -65.5t-70 -27.5q-17 0 -32 5t-23 22q0 -72 29 -112.5
t89 -40.5q34 0 58.5 9.5t40.5 31.5t23.5 58.5t7.5 90.5q0 28 -2 54t-5 56.5t-7.5 68.5t-9.5 90.5t-10.5 122.5t-11.5 165q-75 -116 -161 -185t-183 -98q-10 -144 -51.5 -259.5t-106.5 -196t-149 -123.5t-178 -43q-71 0 -131.5 17.5t-104 56t-68 100t-24.5 149.5
q0 60 12 136.5t38.5 157.5t69 158.5t104 138.5t143.5 98.5t188 37.5q259 0 262 -321q79 5 162.5 89t171.5 237l303 40q6 -133 11.5 -230.5t10.5 -169t9 -121.5t7.5 -88.5t5 -70t1.5 -65.5q0 -42 -6 -76q42 23 79.5 50.5t66.5 50.5h86zM612 600q-49 18 -49 92q0 79 58 107
q-5 66 -22.5 92.5t-55.5 26.5q-36 0 -70 -28.5t-64 -75.5t-54.5 -107.5t-42 -124.5t-27 -126.5t-9.5 -113.5t5.5 -83t18 -50.5t32.5 -25.5t49 -7q37 0 73.5 32.5t67.5 89.5t54.5 134.5t35.5 167.5z" />
    <glyph glyph-name="o_s_x" unicode="osx" horiz-adv-x="2318" 
d="M2404 367q-29 -83 -63.5 -144t-72 -103t-76.5 -68t-76.5 -40t-71.5 -19t-62 -5q-52 0 -89.5 17.5t-65.5 54t-49 94t-39 137.5q-39 -27 -83.5 -50.5t-88 -44.5t-84.5 -39t-74 -34q-27 -37 -61.5 -62.5t-73 -41.5t-80 -23.5t-82.5 -7.5q-92 0 -147.5 25t-86.5 64t-41 87.5
t-10 95.5q0 45 13 81.5t34 61.5t47.5 38.5t53.5 13.5q106 0 106 -86q0 -38 -28 -65.5t-70 -27.5q-17 0 -32 5t-23 22q0 -72 29.5 -112.5t89.5 -40.5q34 0 58 9.5t40 31.5t23.5 58.5t7.5 90.5q0 28 -2 54t-5 56.5t-7.5 68.5t-9.5 90.5t-10.5 122.5t-11.5 165
q-75 -116 -161 -185t-183 -98q-10 -144 -51.5 -259.5t-106.5 -196t-149 -123.5t-178 -43q-71 0 -131.5 17.5t-104 56t-68 100t-24.5 149.5q0 60 12 136.5t38.5 157.5t69 158.5t104 138.5t143.5 98.5t188 37.5q259 0 263 -321q78 5 161.5 89t171.5 237l303 40
q6 -133 11.5 -230.5t10.5 -169t9.5 -121.5t7.5 -88.5t5 -70t2 -65.5q0 -50 -9 -90q31 13 65 29.5t67 35t64 39.5t58 43l-114 625h288l80 -442q46 49 82.5 95.5t61.5 88.5t38 78t13 63v14t-2 11q-11 -2 -19 -3t-16 -1q-27 0 -45.5 9t-29.5 24.5t-16 36t-5 44.5q0 48 33 72.5
t81 24.5q35 0 61 -14.5t43.5 -39t26.5 -58t9 -71.5q0 -50 -17 -102.5t-53 -111t-91.5 -126t-131.5 -147.5l18 -102q6 -29 13 -60.5t19.5 -58.5t33 -44.5t55.5 -17.5q30 0 58.5 13.5t52.5 37.5t43 57.5t30 72.5h86zM614 600q-49 18 -49 92q0 79 58 107q-5 66 -22.5 92.5
t-55.5 26.5q-37 0 -70.5 -28.5t-63 -75.5t-54 -107.5t-42 -124.5t-27 -126.5t-9.5 -113.5t5.5 -83t17.5 -50.5t32 -25.5t49 -7q37 0 73.5 32.5t67.5 89.5t54.5 134.5t35.5 167.5z" />
    <glyph glyph-name="o_s_z" unicode="os&#x7a;" horiz-adv-x="2333" 
d="M1425 1087q6 -133 11.5 -230.5t10.5 -169t9 -121.5t7.5 -88.5t5 -70t1.5 -65.5q0 -101 -32.5 -168.5t-84.5 -109t-116 -59t-127 -17.5q-92 0 -147.5 25t-86.5 64t-41 87.5t-10 95.5q0 45 13 81.5t34 61.5t47.5 38.5t53.5 13.5q106 0 106 -86q0 -38 -28 -65.5t-70 -27.5
q-17 0 -32 5t-23 22q0 -72 29 -112.5t89 -40.5q34 0 58.5 9.5t40.5 31.5t23.5 58.5t7.5 90.5q0 28 -2 54t-5 56.5t-7.5 68.5t-9.5 90.5t-10.5 122.5t-11.5 165q-75 -116 -161 -185t-183 -98q-10 -144 -51.5 -259.5t-106.5 -196t-149 -123.5t-178 -43q-71 0 -131.5 17.5
t-104 56t-68 100t-24.5 149.5q0 60 12 136.5t38.5 157.5t69 158.5t104 138.5t143.5 98.5t188 37.5q259 0 262 -321q79 5 162.5 89t171.5 237zM612 600q-49 18 -49 92q0 79 58 107q-5 66 -22.5 92.5t-55.5 26.5q-36 0 -70 -28.5t-64 -75.5t-54.5 -107.5t-42 -124.5
t-27 -126.5t-9.5 -113.5t5.5 -83t18 -50.5t32.5 -25.5t49 -7q37 0 73.5 32.5t67.5 89.5t54.5 134.5t35.5 167.5zM1456 0l522 913h-114q-24 0 -44.5 -1t-36 -4t-24 -9.5t-8.5 -17.5q0 -5 3.5 -6t8 -4t8 -10t3.5 -25q0 -29 -9.5 -49.5t-25.5 -33.5t-35.5 -19.5t-40.5 -6.5
q-18 0 -34.5 6t-30 17t-21.5 28t-8 39q0 31 16.5 67.5t47 67.5t74.5 51.5t99 20.5h527l-502 -866q13 -1 31 -3t39 -4.5t43 -4t43 -1.5q37 0 64 8.5t32 32.5q-20 2 -29.5 14t-9.5 29q0 15 7.5 30.5t21.5 28t35.5 21t50.5 8.5q47 0 68.5 -28.5t21.5 -69.5q0 -35 -17 -74
t-49 -71t-78.5 -53t-105.5 -21h-543z" />
    <glyph glyph-name="o_x" unicode="ox" horiz-adv-x="1743" 
d="M1827 367q-29 -83 -63.5 -144t-72 -103t-77 -68t-76.5 -40t-71 -19t-62 -5q-56 0 -96.5 21.5t-70.5 67t-51.5 117.5t-39.5 173l-4 14q-35 -25 -68.5 -52t-59.5 -56t-41.5 -59.5t-15.5 -61.5q5 2 12 2h15q27 0 43.5 -9t25.5 -23.5t12 -32.5t3 -36q0 -60 -32 -86t-83 -26
q-69 0 -102 39.5t-33 105.5q0 51 26.5 107.5t69.5 111.5t97.5 104.5t109.5 86.5l-57 317q-127 -151 -277 -197q-12 -144 -55 -259.5t-108 -196.5t-149.5 -124.5t-178.5 -43.5q-72 0 -132 17.5t-103.5 56t-68 100t-24.5 149.5q0 60 12.5 136.5t40 157.5t71 158.5t106 138.5
t144.5 98.5t187 37.5q260 0 263 -321q60 6 122.5 59t128.5 146l-18 98h289l74 -406q97 87 148.5 158t51.5 131v14t-2 11q-11 -2 -19 -3t-16 -1q-27 0 -45 9t-29.5 24.5t-16.5 36t-5 44.5q0 48 33.5 72.5t81.5 24.5q34 0 60.5 -14.5t43.5 -39t26 -58t9 -71.5q0 -51 -17 -102
t-53.5 -106t-93 -115.5t-135.5 -130.5l25 -135q6 -29 12.5 -60.5t19 -58.5t33 -44.5t55.5 -17.5q30 0 58.5 13.5t52.5 37.5t43 57.5t31 72.5h86zM616 600q-55 15 -55 92q0 44 17.5 71t46.5 38q-5 66 -22.5 91.5t-55.5 25.5q-37 0 -71 -28.5t-64.5 -75.5t-56 -107.5
t-43.5 -124.5t-28 -126.5t-10 -113.5t5.5 -83t18 -50.5t32.5 -25.5t49 -7q37 0 74.5 32.5t69.5 89.5t56.5 134.5t36.5 167.5z" />
    <glyph glyph-name="oacute_s" unicode="&#xf3;s" horiz-adv-x="1612" 
d="M449 1149l186 387h215l-248 -387h-153zM1698 367q-72 -85 -145.5 -141.5t-139.5 -98.5q-27 -39 -61.5 -65.5t-73.5 -43t-81.5 -23.5t-84.5 -7q-92 0 -147.5 25t-86.5 64t-41 87.5t-10 95.5q0 45 13 81.5t34 61.5t47.5 38.5t53.5 13.5q106 0 106 -86q0 -38 -28 -65.5
t-70 -27.5q-17 0 -32 5t-23 22q0 -72 29.5 -112.5t89.5 -40.5q34 0 58 9.5t40 31.5t23.5 58.5t7.5 90.5q0 28 -2 54t-5 56.5t-7.5 68.5t-9.5 90.5t-10.5 122.5t-11.5 165q-75 -116 -161 -185t-183 -98q-10 -144 -51.5 -259.5t-106.5 -196t-149 -123.5t-178 -43
q-71 0 -131.5 17.5t-104 56t-68 100t-24.5 149.5q0 60 12 136.5t38.5 157.5t69 158.5t104 138.5t143.5 98.5t188 37.5q259 0 263 -321q78 5 161.5 89t171.5 237l303 40q6 -133 11.5 -230.5t10.5 -169t9.5 -121.5t7.5 -88.5t5 -70t2 -65.5q0 -22 -2 -40.5t-5 -35.5
q42 23 79.5 50.5t66.5 50.5h86zM614 600q-49 18 -49 92q0 79 58 107q-5 66 -22.5 92.5t-55.5 26.5q-37 0 -70.5 -28.5t-63 -75.5t-54 -107.5t-42 -124.5t-27 -126.5t-9.5 -113.5t5.5 -83t17.5 -50.5t32 -25.5t49 -7q37 0 73.5 32.5t67.5 89.5t54.5 134.5t35.5 167.5z" />
    <glyph glyph-name="oacute_s_x" unicode="&#xf3;sx" horiz-adv-x="2337" 
d="M1430 1087q5 -133 10.5 -230.5t10.5 -169t9.5 -121.5t7.5 -88.5t5 -70t2 -65.5q0 -101 -33 -168.5t-84.5 -109t-116 -59t-127.5 -17.5q-92 0 -147.5 25t-86.5 64t-41 87.5t-10 95.5q0 45 13 81.5t34 61.5t47.5 38.5t53.5 13.5q106 0 106 -86q0 -38 -28 -65.5t-70 -27.5
q-17 0 -32 5t-23 22q0 -72 29.5 -112.5t89.5 -40.5q34 0 58 9.5t40 31.5t23.5 58.5t7.5 90.5q0 28 -2 54t-5 56.5t-7.5 68.5t-9.5 90.5t-10.5 122.5t-10.5 165q-76 -116 -161.5 -185t-183.5 -98q-10 -144 -51.5 -259.5t-106.5 -196t-149 -123.5t-178 -43q-71 0 -131.5 17.5
t-104 56t-68 100t-24.5 149.5q0 60 12 136.5t38.5 157.5t69 158.5t104.5 138.5t144 98.5t187 37.5q260 0 263 -321q78 5 161.5 89t171.5 237zM616 600q-49 18 -49 92q0 79 58 107q-5 66 -22.5 92.5t-55.5 26.5q-37 0 -70.5 -28.5t-63 -75.5t-54 -107.5t-42 -124.5
t-27 -126.5t-9.5 -113.5t5.5 -83t17.5 -50.5t32 -25.5t49 -7q37 0 73.5 32.5t67.5 89.5t54.5 134.5t35.5 167.5zM1460 0l522 913h-114q-24 0 -44.5 -1t-36 -4t-24 -9.5t-8.5 -17.5q0 -5 3.5 -6t8 -4t8 -10t3.5 -25q0 -29 -9.5 -49.5t-25.5 -33.5t-35.5 -19.5t-40.5 -6.5
q-18 0 -34.5 6t-30 17t-21.5 28t-8 39q0 31 16.5 67.5t47 67.5t74.5 51.5t99 20.5h527l-502 -866q13 -1 31 -3t39 -4.5t43 -4t43 -1.5q37 0 64 8.5t32 32.5q-20 2 -29.5 14t-9.5 29q0 15 7.5 30.5t21.5 28t35.5 21t50.5 8.5q47 0 68.5 -28.5t21.5 -69.5q0 -35 -17 -74
t-49 -71t-78.5 -53t-105.5 -21h-543zM451 1149l186 387h215l-248 -387h-153z" />
    <glyph glyph-name="oacute_s_z" unicode="&#xf3;s&#x7a;" horiz-adv-x="2335" 
d="M1427 1087q6 -133 11.5 -230.5t10.5 -169t9.5 -121.5t7.5 -88.5t5 -70t2 -65.5q0 -101 -33 -168.5t-84.5 -109t-116 -59t-127.5 -17.5q-92 0 -147.5 25t-86.5 64t-41 87.5t-10 95.5q0 45 13 81.5t34 61.5t47.5 38.5t53.5 13.5q106 0 106 -86q0 -38 -28 -65.5t-70 -27.5
q-17 0 -32 5t-23 22q0 -72 29.5 -112.5t89.5 -40.5q34 0 58 9.5t40 31.5t23.5 58.5t7.5 90.5q0 28 -2 54t-5 56.5t-7.5 68.5t-9.5 90.5t-10.5 122.5t-11.5 165q-75 -116 -161 -185t-183 -98q-10 -144 -51.5 -259.5t-106.5 -196t-149 -123.5t-178 -43q-71 0 -131.5 17.5
t-104 56t-68 100t-24.5 149.5q0 60 12 136.5t38.5 157.5t69 158.5t104 138.5t143.5 98.5t188 37.5q259 0 263 -321q78 5 161.5 89t171.5 237zM614 600q-49 18 -49 92q0 79 58 107q-5 66 -22.5 92.5t-55.5 26.5q-37 0 -70.5 -28.5t-63 -75.5t-54 -107.5t-42 -124.5
t-27 -126.5t-9.5 -113.5t5.5 -83t17.5 -50.5t32 -25.5t49 -7q37 0 73.5 32.5t67.5 89.5t54.5 134.5t35.5 167.5zM1458 0l522 913h-114q-24 0 -44.5 -1t-36 -4t-24 -9.5t-8.5 -17.5q0 -5 3.5 -6t8 -4t8 -10t3.5 -25q0 -29 -9.5 -49.5t-25.5 -33.5t-35.5 -19.5t-40.5 -6.5
q-18 0 -34.5 6t-30 17t-21.5 28t-8 39q0 31 16.5 67.5t47 67.5t74.5 51.5t99 20.5h527l-502 -866q13 -1 31 -3t39 -4.5t43 -4t43 -1.5q37 0 64 8.5t32 32.5q-20 2 -29.5 14t-9.5 29q0 15 7.5 30.5t21.5 28t35.5 21t50.5 8.5q47 0 68.5 -28.5t21.5 -69.5q0 -35 -17 -74
t-49 -71t-78.5 -53t-105.5 -21h-543zM449 1149l186 387h215l-248 -387h-153z" />
    <glyph glyph-name="oacute_x" unicode="&#xf3;x" horiz-adv-x="1745" 
d="M1829 367q-29 -83 -63.5 -144t-72 -103t-77 -68t-76.5 -40t-71 -19t-62 -5q-56 0 -96.5 21.5t-70.5 67t-51.5 117.5t-39.5 173l-4 14q-35 -25 -68.5 -52t-59 -56t-41 -59.5t-15.5 -61.5q5 2 11.5 2h14.5q27 0 43.5 -9t25.5 -23.5t12 -32.5t3 -36q0 -60 -32 -86t-83 -26
q-69 0 -102 39.5t-33 105.5q0 51 26.5 107.5t69.5 111.5t97.5 104.5t109.5 86.5l-57 317q-127 -151 -276 -197q-12 -144 -55 -259.5t-108.5 -196.5t-150 -124.5t-178.5 -43.5q-71 0 -131.5 17.5t-104 56t-68 100t-24.5 149.5q0 60 12.5 136.5t40 157.5t71 158.5t106 138.5
t144.5 98.5t187 37.5q260 0 263 -321q60 6 122.5 59t129.5 146l-19 98h289l74 -406q97 87 148.5 158t51.5 131v14t-2 11q-11 -2 -19 -3t-16 -1q-27 0 -45 9t-29.5 24.5t-16.5 36t-5 44.5q0 48 33.5 72.5t81.5 24.5q34 0 60.5 -14.5t43.5 -39t26 -58t9 -71.5q0 -51 -17 -102
t-53.5 -106t-93 -115.5t-135.5 -130.5l25 -135q6 -29 12.5 -60.5t19 -58.5t33.5 -44.5t56 -17.5q30 0 58 13.5t52 37.5t43 57.5t31 72.5h86zM618 600q-55 15 -55 92q0 44 17.5 71t46.5 38q-5 66 -22.5 91.5t-55.5 25.5q-37 0 -71 -28.5t-64.5 -75.5t-56 -107.5t-43.5 -124.5
t-28 -126.5t-10 -113.5t5.5 -83t18 -50.5t32.5 -25.5t49 -7q37 0 74.5 32.5t69.5 89.5t56.5 134.5t36.5 167.5zM446 1149l187 387h215l-248 -387h-154z" />
    <glyph glyph-name="r_x" unicode="rx" horiz-adv-x="1606" 
d="M1692 367q-43 -125 -98.5 -200t-112.5 -115t-111 -52t-94 -12q-56 0 -96 21.5t-70 67t-53 117.5t-45 173l-4 14q-36 -25 -69 -52t-59 -56t-41.5 -59.5t-15.5 -61.5q5 2 12 2h15q27 0 43.5 -9t25.5 -23.5t12 -32.5t3 -36q0 -60 -32 -86t-83 -26q-69 0 -102 39.5t-33 105.5
q0 52 26 108t68 110t95.5 102.5t109.5 85.5l-119 532h289l92 -414q99 91 154 164t55 133v14t-2 11q-11 -2 -19 -3t-16 -1q-27 0 -45 9t-29.5 24.5t-16.5 36t-5 44.5q0 48 33.5 72.5t81.5 24.5q34 0 60.5 -14.5t43.5 -39t26 -58t9 -71.5q0 -51 -17.5 -102t-54.5 -106
t-94.5 -116.5t-138.5 -133.5l30 -131q6 -29 13 -60.5t20 -58.5t33.5 -44.5t54.5 -17.5q30 0 58.5 13.5t52.5 37.5t43 57.5t31 72.5h86zM-78 0l217 1024h295l-26 -127q27 24 55 47t58.5 40.5t63.5 28.5t70 11q35 0 61.5 -13t44.5 -34t27 -49t9 -58q0 -27 -9 -53.5
t-27.5 -47.5t-46.5 -34.5t-65 -13.5q-29 0 -44.5 10t-23.5 25t-11.5 32.5t-7.5 32.5t-10.5 25t-21.5 10q-47 0 -79 -21.5t-70 -56.5l-164 -778h-295z" />
    <glyph glyph-name="r_z" unicode="r&#x7a;" horiz-adv-x="1339" 
d="M463 0l520 907h-190q2 -5 2 -12v-18q0 -33 -10 -61.5t-28.5 -49.5t-46 -33t-61.5 -12q-29 0 -44.5 10t-23.5 25t-11.5 32.5t-7.5 32.5t-10.5 25t-21.5 10q-47 0 -79 -21.5t-70 -56.5l-164 -778h-295l217 1024h295l-26 -127q27 24 55 47t58.5 40.5t63.5 28.5t70 11h684
l-501 -866q28 0 52.5 -4t46.5 -8.5t43.5 -8.5t43.5 -4q25 0 42 11t24 42q-20 2 -29.5 14t-9.5 29q0 15 7.5 30.5t21.5 28t35.5 21t49.5 8.5q48 0 69 -28t21 -70q0 -35 -17 -74t-49 -71t-78 -53t-105 -21h-543z" />
    <glyph glyph-name="s_x" unicode="sx" horiz-adv-x="1489" 
d="M1575 367q-29 -83 -63.5 -144t-72 -103t-77 -68t-76.5 -40t-71 -19t-62 -5q-52 0 -90 17.5t-66 54t-49 94t-39 137.5q-42 -30 -91 -55.5t-97 -47.5t-91.5 -41t-74.5 -36q-32 -34 -71.5 -57.5t-82 -38t-86 -21t-82.5 -6.5q-77 0 -133.5 23.5t-93.5 61t-54.5 84t-17.5 93.5
q0 36 9.5 66.5t24.5 54.5t34.5 41.5t40.5 27.5q86 154 145 304.5t107 302.5l303 40q6 -133 11.5 -230.5t10.5 -169t9 -121.5t7.5 -88.5t5 -70t1.5 -65.5q0 -23 -2.5 -46t-7.5 -46q63 26 132.5 64t123.5 85l-115 625h289l80 -442q46 49 82 95.5t61 88.5t38 78t13 63v14t-2 11
q-11 -2 -19 -3t-16 -1q-27 0 -45 9t-29.5 24.5t-16.5 36t-5 44.5q0 48 33.5 72.5t81.5 24.5q34 0 60.5 -14.5t43.5 -39t26 -58t9 -71.5q0 -50 -17 -102.5t-53 -111t-91.5 -126t-131.5 -147.5l19 -102q6 -29 12.5 -60.5t19 -58.5t33.5 -44.5t56 -17.5q30 0 58 13.5t52 37.5
t43 57.5t31 72.5h86zM43 293q0 -72 28.5 -107.5t96.5 -35.5q34 0 66 9.5t57 32t40 58.5t15 90q0 26 -1.5 50.5t-3.5 52t-5.5 61.5t-8 79t-9.5 104t-11 138q-31 -100 -73 -194t-93 -193q20 -11 33.5 -28t13.5 -43q0 -19 -6 -37t-18 -32.5t-28.5 -23t-37.5 -8.5q-17 0 -32 5
t-23 22z" />
    <glyph glyph-name="s_z" unicode="s&#x7a;" horiz-adv-x="1524" 
d="M598 1087q6 -133 11.5 -230.5t10.5 -169t9 -121.5t7.5 -88.5t5 -70t1.5 -65.5q0 -67 -18.5 -119.5t-50 -91.5t-73 -66.5t-87 -44.5t-92.5 -24.5t-89 -7.5q-77 0 -133.5 23.5t-93.5 61t-54.5 84t-17.5 93.5q0 36 9.5 66.5t24.5 54.5t34.5 41.5t40.5 27.5q86 154 145 304.5
t107 302.5zM43 293q0 -72 28.5 -107.5t96.5 -35.5q34 0 66 9.5t57 32t40 58.5t15 90q0 26 -1.5 50.5t-3.5 52t-5.5 61.5t-8 79t-9.5 104t-11 138q-31 -100 -73 -194t-93 -193q20 -11 33.5 -28t13.5 -43q0 -19 -6 -37t-18 -32.5t-28.5 -23t-37.5 -8.5q-17 0 -32 5t-23 22z
M647 0l522 913h-114q-24 0 -44.5 -1t-36 -4t-24 -9.5t-8.5 -17.5q0 -5 3.5 -6t8 -4t8 -10t3.5 -25q0 -29 -9.5 -49.5t-25.5 -33.5t-35.5 -19.5t-40.5 -6.5q-18 0 -34.5 6t-30 17t-21.5 28t-8 39q0 31 16.5 67.5t47 67.5t74.5 51.5t99 20.5h527l-502 -866q13 -1 31 -3
t39 -4.5t43 -4t43 -1.5q37 0 64 8.5t32 32.5q-20 2 -29.5 14t-9.5 29q0 15 7.5 30.5t21.5 28t35.5 21t50.5 8.5q47 0 68.5 -28.5t21.5 -69.5q0 -35 -17 -74t-49 -71t-78.5 -53t-105.5 -21h-543z" />
    <glyph glyph-name="t_x" unicode="tx" horiz-adv-x="1292" 
d="M1378 367q-28 -83 -63 -144t-72.5 -103t-76.5 -68t-76.5 -40t-71.5 -19t-62 -5q-49 0 -85.5 16t-64.5 50t-48.5 87t-38.5 127q-50 -56 -110.5 -106.5t-127 -89t-137.5 -61.5t-141 -23q-47 0 -86.5 14t-68.5 43.5t-45.5 75.5t-16.5 110q0 26 4 60t12 76l123 575h-68l17 82
h67l62 283l303 41l-70 -324h430l80 -442q46 49 82.5 95.5t61.5 88.5t38 78t13 63v14t-2 11q-11 -2 -19 -3t-16 -1q-27 0 -45.5 9t-29.5 24.5t-16 36t-5 44.5q0 48 33 72.5t81 24.5q34 0 60.5 -14.5t44 -39t26.5 -58t9 -71.5q0 -50 -17.5 -102.5t-53.5 -111t-91 -126
t-131 -147.5l18 -102q6 -29 13 -60.5t19.5 -58.5t33 -44.5t55.5 -17.5q30 0 58.5 13.5t52.5 37.5t43 57.5t30 72.5h86zM592 942h-172l-131 -614q-5 -17 -6.5 -33.5t-1.5 -32.5q0 -38 24 -56t66 -18q39 0 82 13.5t85.5 38.5t83 60.5t74.5 78.5z" />
    <glyph glyph-name="t_z" unicode="t&#x7a;" horiz-adv-x="1442" 
d="M131 942h-68l17 82h67l62 283l303 41q-5 -20 -10 -43.5t-10 -49.5q-11 -43 -23.5 -102.5t-26.5 -128.5h123l-16 -82h-123l-131 -614q-5 -20 -7.5 -38.5t-2.5 -33.5q0 -32 14.5 -53t56.5 -21q11 0 26 0.5t28 5.5q-23 -66 -50 -105.5t-55 -60.5t-56.5 -27.5t-55.5 -6.5
q-55 0 -94 17.5t-63.5 48.5t-36 73.5t-11.5 91.5q0 53 12 109zM565 0l522 913h-114q-24 0 -44.5 -1t-36 -4t-24 -9.5t-8.5 -17.5q0 -5 3.5 -6t8 -4t8 -10t3.5 -25q0 -29 -9.5 -49.5t-25.5 -33.5t-35.5 -19.5t-40.5 -6.5q-18 0 -34.5 6t-30 17t-21.5 28t-8 39q0 31 16.5 67.5
t47 67.5t74.5 51.5t99 20.5h527l-502 -866q13 -1 31 -3t39 -4.5t43 -4t43 -1.5q37 0 64 8.5t32 32.5q-20 2 -29.5 14t-9.5 29q0 15 7.5 30.5t21.5 28t35.5 21t50.5 8.5q47 0 68.5 -28.5t21.5 -69.5q0 -35 -17 -74t-49 -71t-78.5 -53t-105.5 -21h-543z" />
    <glyph glyph-name="u_v" unicode="uv" horiz-adv-x="1890" 
d="M428 0l23 104q-33 -37 -66 -59.5t-64.5 -35t-61 -17t-56.5 -4.5q-46 0 -86 14t-69.5 44t-46.5 76t-17 111q0 28 4 61.5t12 72.5l139 657h295l-147 -696q-6 -26 -6 -52q0 -18 3 -34t10 -28.5t18.5 -20t29.5 -7.5q30 0 55 13.5t45.5 37.5t36 57.5t27.5 72.5l139 657h293
l-217 -1024h-293zM1724 858q-19 -8 -43 -8q-22 0 -38.5 10t-27 26t-15.5 36.5t-5 42.5q0 16 9 33.5t24.5 32.5t37 24.5t46.5 9.5q33 0 57.5 -14t41 -38.5t24.5 -58t8 -73.5q0 -80 -14 -177.5t-43.5 -196.5t-75 -192.5t-109.5 -166t-147 -116.5t-186 -44q-119 0 -186.5 59
t-67.5 176q0 46 12 105l121 585l-53 27l16 84h360l-149 -696q-5 -23 -8.5 -41t-3.5 -35q0 -29 16 -47.5t61 -18.5t88 31.5t80.5 83t68.5 118.5t53.5 138t35 140.5t12.5 127.5v33z" />
    <glyph glyph-name="u_x" unicode="ux" horiz-adv-x="1798" 
d="M1884 367q-29 -83 -63.5 -144t-72 -103t-77 -68t-76.5 -40t-71 -19t-62 -5q-48 0 -84.5 15.5t-64.5 48.5t-49 85t-39 125q-117 -147 -237.5 -210.5t-244.5 -63.5q-43 0 -82 13.5t-70 38.5t-53 61.5t-30 82.5q-39 -64 -79.5 -102.5t-79.5 -59.5t-76 -27.5t-70 -6.5
q-46 0 -86 14.5t-69.5 44.5t-46.5 77t-17 112q0 26 4 59t12 72l139 657h295l-147 -696q-6 -26 -6 -52q0 -18 3 -34t10 -28.5t18.5 -20t29.5 -7.5q30 0 55 13.5t45.5 37.5t36 57.5t27.5 72.5l139 657h295l-147 -696q-7 -27 -7 -52q0 -38 19 -64t69 -26q41 0 85 15.5t87.5 42
t83.5 61.5t72 74l-119 645h289l80 -442q46 49 82.5 95.5t61.5 88.5t38 78t13 63v14t-2 11q-11 -2 -19 -3t-16 -1q-27 0 -45.5 9t-30 24.5t-16.5 36t-5 44.5t9 42t25 30.5t36.5 18.5t44.5 6q34 0 60.5 -14.5t43.5 -39t26 -58t9 -71.5q0 -50 -17 -102.5t-53 -111t-91 -126
t-131 -147.5l18 -102q6 -29 12.5 -60.5t19.5 -58.5t33.5 -44.5t55.5 -17.5q30 0 58 13.5t52 37.5t43 57.5t31 72.5h86z" />
    <glyph glyph-name="y_p" unicode="yp" horiz-adv-x="1954" 
d="M809 -512l109 516q-48 -2 -96.5 -6.5t-102.5 -15.5l-31 -146q-22 -110 -63.5 -178t-92.5 -106t-106.5 -51t-106.5 -13q-47 0 -88.5 12.5t-72.5 37t-49.5 62t-18.5 87.5q0 63 30.5 113t79 89t108 67t118.5 46l23 100q-33 -36 -66 -58.5t-64 -34.5t-60 -16.5t-56 -4.5
q-46 0 -86 14t-69.5 44t-46.5 76t-17 111q0 28 4 61.5t12 72.5l139 657h295l-147 -696q-6 -26 -6 -52q0 -18 3 -34t10 -28.5t18.5 -20t29.5 -7.5q28 0 52.5 12.5t44.5 35t35.5 53.5t27.5 67l143 670h295l-201 -940q54 12 104 21.5t101 17.5l207 977h295l-33 -154
q45 38 103 63t137 25q52 0 97.5 -16.5t79.5 -54t53.5 -99.5t19.5 -153q0 -69 -10 -149.5t-32.5 -161t-60.5 -155t-94 -131.5t-132 -91.5t-175 -34.5q-102 0 -189 6l-92 -432zM1245 154q23 2 45 2h45q54 0 96 28t74 74.5t54 105.5t36 121.5t20.5 123t6.5 108.5q0 59 -11 93
t-26.5 51t-33.5 21.5t-31 4.5q-35 0 -74 -25.5t-68 -75.5zM403 -111q-40 -15 -76 -32.5t-63.5 -38.5t-44 -46.5t-16.5 -56.5q0 -11 4 -23t12.5 -22t21.5 -16t31 -6q32 0 65.5 44.5t53.5 137.5z" />
    <glyph glyph-name="y_x" unicode="yx" horiz-adv-x="1784" 
d="M1870 367q-29 -83 -63.5 -143.5t-72 -102.5t-77 -67.5t-76.5 -40t-71 -19t-62 -4.5q-49 0 -86 16t-64.5 49.5t-48.5 86t-39 126.5q-56 -62 -118.5 -107.5t-127 -78.5t-127 -56t-118.5 -40l-31 -150q-22 -110 -63.5 -178t-92.5 -106t-106.5 -51t-106.5 -13
q-47 0 -88.5 12.5t-72.5 37t-49.5 62t-18.5 87.5q0 65 30.5 113t78.5 83.5t107.5 60t117.5 42.5l27 118q-33 -37 -66 -59.5t-64.5 -34.5t-61 -16t-56.5 -4q-46 0 -86 14t-69.5 43t-46.5 75t-17 111q0 28 4 61.5t12 72.5l139 657h295l-147 -696q-6 -26 -6 -52q0 -18 3 -34
t10 -28.5t18.5 -20t29.5 -7.5q30 0 55 13.5t45.5 37.5t36 57.5t27.5 72.5l139 657h295l-201 -944q52 18 105.5 42.5t108.5 61t112.5 87.5t118.5 122l-115 631h289l80 -442q46 49 82 95.5t61 88.5t38 78t13 63v14t-2 11q-11 -2 -19 -3t-16 -1q-27 0 -45 9t-29.5 24.5
t-16.5 36t-5 44.5q0 48 33.5 72.5t81.5 24.5q34 0 60.5 -14.5t43.5 -39t26 -58t9 -71.5q0 -50 -17 -102.5t-53 -111t-91.5 -126t-131.5 -147.5l19 -102q6 -29 12.5 -60.5t19 -58.5t33 -44.5t55.5 -17.5q30 0 58.5 13.5t52.5 37.5t43 57.5t31 72.5h86zM403 -109
q-40 -14 -76 -31.5t-63.5 -39t-44 -48t-16.5 -57.5q0 -11 4 -23t12.5 -22t21.5 -16t31 -6q32 0 65.5 44.5t53.5 137.5z" />
    <glyph glyph-name="y_z" unicode="y&#x7a;" horiz-adv-x="1819" 
d="M453 106q-33 -38 -66 -61t-65 -35.5t-62 -17t-57 -4.5q-46 0 -86 14t-69.5 44t-46.5 76t-17 111q0 28 4 61.5t12 72.5l139 657h295l-147 -696q-6 -26 -6 -52q0 -18 3 -34t10 -28.5t18.5 -20t29.5 -7.5q30 0 55 13.5t45.5 37.5t36 57.5t27.5 72.5l139 657h297l-250 -1188
q-22 -110 -64.5 -178t-94 -106t-108 -51t-106.5 -13q-46 0 -89.5 16t-77 45t-54 69.5t-20.5 90.5q0 72 27.5 121t75.5 83t112.5 57.5t138.5 45.5zM418 -49q-48 -16 -90 -36t-72.5 -45.5t-48 -58t-17.5 -73.5q0 -12 6 -24t17 -21.5t26 -16t33 -6.5q15 0 32.5 7.5t34 26
t30.5 49.5t24 77zM942 0l522 913h-114q-24 0 -44.5 -1t-36 -4t-24 -9.5t-8.5 -17.5q0 -5 3.5 -6t8 -4t8 -10t3.5 -25q0 -29 -9.5 -49.5t-25.5 -33.5t-35.5 -19.5t-40.5 -6.5q-18 0 -34.5 6t-30 17t-21.5 28t-8 39q0 31 16.5 67.5t47 67.5t74.5 51.5t99 20.5h527l-502 -866
q13 -1 31 -3t39 -4.5t43 -4t43 -1.5q37 0 64 8.5t32 32.5q-20 2 -29.5 14t-9.5 29q0 15 7.5 30.5t21.5 28t35.5 21t50.5 8.5q47 0 68.5 -28.5t21.5 -69.5q0 -35 -17 -74t-49 -71t-78.5 -53t-105.5 -21h-543z" />
    <glyph glyph-name="afii10065_afii10087" unicode="&#x430;&#x445;" horiz-adv-x="1841" 
d="M1927 367q-29 -83 -63.5 -144t-72 -103t-77 -68t-76.5 -40t-71 -19t-62 -5q-48 0 -84.5 15.5t-64.5 48.5t-49 85t-39 125q-117 -147 -237.5 -210.5t-244.5 -63.5q-43 0 -81.5 12.5t-69.5 37t-52.5 60.5t-29.5 82q-24 -36 -54.5 -70.5t-68 -61.5t-83.5 -43.5t-101 -16.5
q-53 0 -102 17t-87 56t-61 102t-23 154q0 70 14 150t43 160t72.5 153.5t102 130t132.5 90t163 33.5q87 0 126.5 -30t39.5 -74v-15l22 109h295l-147 -696q-7 -27 -7 -52q0 -38 19 -64t70 -26q40 0 84.5 15.5t87.5 42t83 61.5t72 74l-119 645h289l80 -442q46 49 82.5 95.5
t61.5 88.5t38 78t13 63v14t-2 11q-11 -2 -19 -3t-16 -1q-27 0 -45.5 9t-30 24.5t-16.5 36t-5 44.5t9 42t25 30.5t36.5 18.5t44.5 6q34 0 60.5 -14.5t43.5 -39t26 -58t9 -71.5q0 -50 -17 -102.5t-53 -111t-91 -126t-131 -147.5l18 -102q6 -29 12.5 -60.5t19.5 -58.5
t33.5 -44.5t55.5 -17.5q30 0 58 13.5t52 37.5t43 57.5t31 72.5h86zM647 829q0 9 -4 22.5t-13.5 26t-25.5 21t-41 8.5q-43 0 -81.5 -28t-70.5 -74.5t-57 -105.5t-42.5 -121.5t-26.5 -123t-9 -108.5q0 -59 11 -91t26.5 -47.5t33.5 -18.5t32 -3q23 0 48.5 11.5t49 34t43 56.5
t29.5 79z" />
    <glyph glyph-name="afii10065_afii10089" unicode="&#x430;&#x447;" horiz-adv-x="2034" 
d="M836 328q-5 -17 -7 -33.5t-2 -32.5q0 -43 20.5 -59.5t63.5 -16.5q14 0 25 2t20 7q-21 -53 -40 -92t-42 -64.5t-52.5 -38t-69.5 -12.5q-85 0 -137 49.5t-64 140.5q-23 -35 -53.5 -69t-68 -61t-83.5 -43.5t-100 -16.5q-53 0 -102 17t-87 56t-61 102t-23 154q0 70 14 150
t43 160t72.5 153.5t102 130t132.5 90t163 33.5q87 0 126.5 -30t39.5 -74v-15l22 109h295zM2120 367q-43 -125 -97.5 -200t-111 -115t-109.5 -52t-94 -12q-46 0 -86 14t-69.5 44t-46.5 76t-17 111q0 28 4 61.5t12 72.5l11 51q-33 -36 -66 -58.5t-64 -35t-60 -17t-56 -4.5
q-46 0 -86 14t-69.5 44t-46.5 76.5t-17 111.5q0 28 4 61.5t12 71.5l72 342h295l-80 -381q-6 -30 -6 -57q0 -35 13 -59.5t48 -24.5q30 0 56 13t47 37t36.5 57t24.5 73l72 342h294l-147 -696q-5 -17 -6.5 -33.5t-1.5 -32.5q0 -43 20 -59.5t64 -16.5q30 0 55.5 13.5t46 37.5
t36.5 57.5t28 72.5h86zM647 829q0 9 -4 22.5t-13.5 26t-25.5 21t-41 8.5q-43 0 -81.5 -28t-70.5 -74.5t-57 -105.5t-42.5 -121.5t-26.5 -123t-9 -108.5q0 -59 11 -91t26.5 -47.5t33.5 -18.5t32 -3q23 0 48.5 11.5t49 34t43 56.5t29.5 79z" />
    <glyph glyph-name="afii10066_afii10068" unicode="&#x431;&#x433;" horiz-adv-x="1671" 
d="M1757 367q-49 -78 -106.5 -147t-126.5 -120.5t-151 -81.5t-179 -30q-73 0 -131.5 13.5t-100 41.5t-63.5 71.5t-22 104.5q0 76 29 130t72 95t93.5 74t93.5 67.5t72 75.5t29 99q0 45 -23.5 70.5t-71.5 25.5q-35 0 -76 -20t-87 -65.5t-98 -120t-109 -183.5q-27 -51 -55 -106
t-60 -108t-69.5 -100.5t-84 -83t-103.5 -56.5t-128 -21q-77 0 -138 20.5t-103 62.5t-64.5 107.5t-22.5 155.5q0 116 36.5 229t108 202.5t175.5 144.5t239 55q11 0 19 -1t16 -1q-41 49 -85 91t-80.5 82.5t-60.5 82.5t-24 92q0 78 53 114.5t169 36.5h311h91.5t58 8.5t35 29
t22.5 61.5h90q-25 -118 -52 -191t-66 -113.5t-93.5 -54.5t-134.5 -14h-197q-11 0 -18.5 -4t-7.5 -21q0 -8 15.5 -27t39 -49t51.5 -72t52 -96t40.5 -121t18.5 -147q45 82 96 153t112.5 123t135.5 81.5t166 29.5q55 0 104 -13t86 -41t58.5 -72t21.5 -105q0 -84 -28.5 -143.5
t-71.5 -103.5t-93.5 -78t-93.5 -66t-71.5 -68t-28.5 -84q0 -60 39.5 -84t105.5 -24q45 0 88 10.5t85.5 35t87 64t94.5 97.5h69zM379 176q46 0 82.5 32.5t64 83.5t46.5 113t30.5 121t17 108.5t5.5 74.5q0 40 -5 66.5t-15 41.5t-24.5 21t-33.5 6q-49 0 -88.5 -31t-70 -79.5
t-52.5 -108t-36.5 -116.5t-21 -106t-6.5 -75q0 -45 6 -74.5t19 -47t33 -24t49 -6.5z" />
    <glyph glyph-name="afii10066_afii10072" unicode="&#x431;&#x436;" horiz-adv-x="2583" 
d="M2669 367q-25 -71 -65 -139t-94.5 -121.5t-122.5 -86t-149 -32.5q-70 0 -125.5 23t-94 65.5t-59 102.5t-20.5 134q0 42 3 86.5t14 92.5h-117l-102 -492h-275l105 492h-117q-18 -90 -53.5 -180t-89 -162t-126.5 -117t-167 -45q-62 0 -103 16.5t-65 43t-33.5 60t-9.5 68.5
q0 75 30.5 112.5t73.5 37.5q36 0 72 -25q-21 -71 -21 -121q0 -38 12.5 -61t35.5 -23q27 0 54 26t51.5 70.5t45.5 103t36.5 123t24.5 130.5t9 127q0 56 -11 96.5t-30 67t-44 39t-52 12.5q-44 0 -82.5 -27.5t-72.5 -72.5t-63 -101.5t-53 -114t-43.5 -111t-34.5 -91.5
q-33 -82 -75 -152t-95.5 -121t-120 -79.5t-149.5 -28.5q-77 0 -138 20.5t-103 62.5t-64.5 107.5t-22.5 155.5q0 116 36.5 229t108 202.5t175.5 144.5t239 55q11 0 19 -1t16 -1q-41 49 -85 91t-80.5 82.5t-60.5 82.5t-24 92q0 78 53 114.5t169 36.5h311h91.5t58 8.5t35 29
t22.5 61.5h90q-25 -118 -52 -191t-66 -113.5t-93.5 -54.5t-134.5 -14h-197q-11 0 -18.5 -4t-7.5 -21q0 -7 14 -25t35.5 -46t47 -66t49 -84t42 -100t25.5 -115q33 63 71.5 119.5t85.5 99t104 67.5t126 25q70 0 126 -23t94 -65.5t58.5 -102.5t20.5 -134q0 -23 -1.5 -49
t-5.5 -54h123l86 410h275l-86 -410h114q25 81 62 158t89 137t118.5 96.5t150.5 36.5q62 0 103 -16.5t65 -43t33.5 -60.5t9.5 -68q0 -75 -30.5 -112t-73.5 -37q-17 0 -36 6t-36 18q21 70 21 121q0 38 -12.5 61t-35.5 23q-27 0 -54 -26t-51.5 -70.5t-45.5 -103t-36.5 -123
t-24.5 -131t-9 -126.5q0 -112 42 -163.5t110 -51.5q72 0 137.5 55.5t104.5 172.5h86zM379 176q46 0 82.5 32.5t64 83.5t46.5 113t30.5 121t17 108.5t5.5 74.5q0 40 -5 66.5t-15 41.5t-24.5 21t-33.5 6q-49 0 -88.5 -31t-70 -79.5t-52.5 -108t-36.5 -116.5t-21 -106t-6.5 -75
q0 -45 6 -74.5t19 -47t33 -24t49 -6.5z" />
    <glyph glyph-name="afii10066_afii10095" unicode="&#x431;&#x44d;" horiz-adv-x="1761" 
d="M1100 492l26 122h246q2 20 3 39t1 39q0 52 -10.5 86.5t-31 54.5t-51 28.5t-69.5 8.5q-47 0 -94 -25.5t-93 -70t-90.5 -104t-86.5 -127t-81.5 -139.5t-74.5 -142q-30 -59 -70.5 -108.5t-90.5 -85.5t-108.5 -56t-123.5 -20q-77 0 -138 20.5t-103 62.5t-64.5 107.5
t-22.5 155.5q0 116 36.5 229t108 202.5t175.5 144.5t239 55q11 0 19 -1t16 -1q-41 49 -85 91t-80.5 82.5t-60.5 82.5t-24 92q0 78 53 114.5t169 36.5h311h91.5t58 8.5t35 29t22.5 61.5h90q-25 -118 -52 -191t-66 -113.5t-93.5 -54.5t-134.5 -14h-197q-11 0 -18.5 -4
t-7.5 -21q0 -8 17 -29.5t41.5 -55t53.5 -78t53 -98.5t39 -116t13 -131q39 70 89.5 138.5t116.5 123t150.5 88t191.5 33.5q77 0 139 -20t106 -61t67.5 -104t23.5 -150q0 -56 -14 -131.5t-44 -155.5t-77 -157.5t-113 -138.5t-151.5 -98.5t-192.5 -37.5q-141 0 -209.5 58.5
t-68.5 158.5q0 43 9.5 75t26 53.5t38 32.5t45.5 11q17 0 36.5 -5t39.5 -24q-14 -37 -20.5 -72t-6.5 -67q0 -113 113 -113q43 0 83.5 33t75 88t61.5 126.5t44 148.5h-254zM379 176q46 0 82.5 32.5t64 83.5t46.5 113t30.5 121t17 108.5t5.5 74.5q0 40 -5 66.5t-15 41.5
t-24.5 21t-33.5 6q-49 0 -88.5 -31t-70 -79.5t-52.5 -108t-36.5 -116.5t-21 -106t-6.5 -75q0 -45 6 -74.5t19 -47t33 -24t49 -6.5z" />
    <glyph glyph-name="afii10066_afii10100" unicode="&#x431;&#x453;" horiz-adv-x="1671" 
d="M1757 367q-49 -78 -106.5 -147t-126.5 -120.5t-151 -81.5t-179 -30q-73 0 -131.5 13.5t-100 41.5t-63.5 71.5t-22 104.5q0 76 29 130t72 95t93.5 74t93.5 67.5t72 75.5t29 99q0 45 -23.5 70.5t-71.5 25.5q-35 0 -76 -20t-87 -65.5t-98 -120t-109 -183.5q-27 -51 -55 -106
t-60 -108t-69.5 -100.5t-84 -83t-103.5 -56.5t-128 -21q-77 0 -138 20.5t-103 62.5t-64.5 107.5t-22.5 155.5q0 116 36.5 229t108 202.5t175.5 144.5t239 55q11 0 19 -1t16 -1q-41 49 -85 91t-80.5 82.5t-60.5 82.5t-24 92q0 78 53 114.5t169 36.5h311h91.5t58 8.5t35 29
t22.5 61.5h90q-25 -118 -52 -191t-66 -113.5t-93.5 -54.5t-134.5 -14h-197q-11 0 -18.5 -4t-7.5 -21q0 -8 15.5 -27t39 -49t51.5 -72t52 -96t40.5 -121t18.5 -147q45 82 96 153t112.5 123t135.5 81.5t166 29.5q55 0 104 -13t86 -41t58.5 -72t21.5 -105q0 -84 -28.5 -143.5
t-71.5 -103.5t-93.5 -78t-93.5 -66t-71.5 -68t-28.5 -84q0 -60 39.5 -84t105.5 -24q45 0 88 10.5t85.5 35t87 64t94.5 97.5h69zM379 176q46 0 82.5 32.5t64 83.5t46.5 113t30.5 121t17 108.5t5.5 74.5q0 40 -5 66.5t-15 41.5t-24.5 21t-33.5 6q-49 0 -88.5 -31t-70 -79.5
t-52.5 -108t-36.5 -116.5t-21 -106t-6.5 -75q0 -45 6 -74.5t19 -47t33 -24t49 -6.5zM1217 1149l186 387h215l-248 -387h-153z" />
    <glyph glyph-name="afii10066_afii10103" unicode="&#x431;&#x456;" horiz-adv-x="1427" 
d="M604 1192q-11 0 -18.5 -4t-7.5 -21q0 -8 16 -28t40 -51t52.5 -73t52.5 -94.5t40 -116.5t16 -138q0 -75 -15 -154t-43.5 -154t-71 -141.5t-97.5 -116.5t-122 -79t-145 -29q-77 0 -138 20.5t-103 62.5t-64.5 107.5t-22.5 155.5q0 116 36.5 229t108 202.5t175.5 144.5
t239 55q11 0 19 -1t16 -1q-41 49 -85 91t-80.5 82.5t-60.5 82.5t-24 92q0 78 53 114.5t169 36.5h209h91.5t57.5 8.5t34.5 29t22.5 61.5h90q-24 -118 -51.5 -191t-66 -113.5t-93.5 -54.5t-135 -14h-94zM379 176q46 0 82.5 32.5t64 83.5t46.5 113t30.5 121t17 108.5t5.5 74.5
q0 40 -5 66.5t-15 41.5t-24.5 21t-33.5 6q-49 0 -88.5 -31t-70 -79.5t-52.5 -108t-36.5 -116.5t-21 -106t-6.5 -75q0 -45 6 -74.5t19 -47t33 -24t49 -6.5zM1386 1296q0 -34 -13 -63.5t-35 -51t-51.5 -34t-63.5 -12.5t-63.5 12.5t-51.5 34t-34.5 51t-12.5 63.5t12.5 63.5
t34.5 52t51.5 35.5t63.5 13t63.5 -13t51.5 -35.5t35 -52t13 -63.5zM1513 367q-43 -125 -100 -200t-117 -115t-116 -52t-97 -12q-46 0 -86 14t-69.5 44t-46.5 76t-17 111q0 54 17 134l139 657h295l-148 -696q-5 -17 -6.5 -33.5t-1.5 -32.5q0 -43 20.5 -59.5t63.5 -16.5
q30 0 58.5 13.5t52.5 37.5t43 57.5t30 72.5h86z" />
    <glyph glyph-name="afii10066_afii10104" unicode="&#x431;&#x457;" horiz-adv-x="1427" 
d="M604 1192q-11 0 -18.5 -4t-7.5 -21q0 -8 16 -28t40 -51t52.5 -73t52.5 -94.5t40 -116.5t16 -138q0 -75 -15 -154t-43.5 -154t-71 -141.5t-97.5 -116.5t-122 -79t-145 -29q-77 0 -138 20.5t-103 62.5t-64.5 107.5t-22.5 155.5q0 116 36.5 229t108 202.5t175.5 144.5
t239 55q11 0 19 -1t16 -1q-41 49 -85 91t-80.5 82.5t-60.5 82.5t-24 92q0 78 53 114.5t169 36.5h172h91.5t58 8.5t35 29t22.5 61.5h90q-25 -118 -52 -191t-66 -113.5t-94 -54.5t-134 -14h-58zM379 176q46 0 82.5 32.5t64 83.5t46.5 113t30.5 121t17 108.5t5.5 74.5
q0 40 -5 66.5t-15 41.5t-24.5 21t-33.5 6q-49 0 -88.5 -31t-70 -79.5t-52.5 -108t-36.5 -116.5t-21 -106t-6.5 -75q0 -45 6 -74.5t19 -47t33 -24t49 -6.5zM1513 367q-43 -125 -100 -200t-117 -115t-116 -52t-97 -12q-46 0 -86 14t-69.5 44t-46.5 76t-17 111q0 54 17 134
l139 657h295l-148 -696q-5 -17 -6.5 -33.5t-1.5 -32.5q0 -43 20.5 -59.5t63.5 -16.5q30 0 58.5 13.5t52.5 37.5t43 57.5t30 72.5h86zM1245 1298q0 -27 -10 -49.5t-27 -39t-40 -26t-48 -9.5q-27 0 -49.5 9.5t-39.5 26t-26.5 39t-9.5 49.5q0 25 9.5 48t26.5 40t39.5 27
t49.5 10q25 0 48 -10t40 -27t27 -40t10 -48zM1552 1298q0 -27 -10 -49.5t-27 -39t-40 -26t-48 -9.5q-54 0 -89 35t-35 89q0 25 9.5 48t26 40t39 27t49.5 10q25 0 48 -10t40 -27t27 -40t10 -48z" />
    <glyph glyph-name="afii10066_afii10105" unicode="&#x431;&#x458;" horiz-adv-x="1370" 
d="M604 1192q-11 0 -18.5 -4t-7.5 -21q0 -8 16 -28t40 -51t52.5 -73t52.5 -94.5t40 -116.5t16 -138q0 -75 -15 -154t-43.5 -154t-71 -141.5t-97.5 -116.5t-122 -79t-145 -29q-77 0 -138 20.5t-103 62.5t-64.5 107.5t-22.5 155.5q0 116 36.5 229t108 202.5t175.5 144.5
t239 55q11 0 19 -1t16 -1q-41 49 -85 91t-80.5 82.5t-60.5 82.5t-24 92q0 78 53 114.5t169 36.5h209h91.5t57.5 8.5t34.5 29t22.5 61.5h90q-24 -118 -51.5 -191t-66 -113.5t-93.5 -54.5t-135 -14h-94zM1063 -164q-22 -110 -63.5 -178t-92.5 -106t-106.5 -51t-106.5 -13
q-47 0 -88.5 12.5t-73 37t-49.5 62t-18 87.5q0 64 30.5 113t78.5 85.5t107.5 62.5t117.5 44l221 1032h295l-203 -950q47 16 85 38.5t69.5 57t57 82.5t46.5 115h86q-31 -102 -73.5 -170t-90.5 -111.5t-99 -66.5t-99 -35zM379 176q46 0 82.5 32.5t64 83.5t46.5 113t30.5 121
t17 108.5t5.5 74.5q0 40 -5 66.5t-15 41.5t-24.5 21t-33.5 6q-49 0 -88.5 -31t-70 -79.5t-52.5 -108t-36.5 -116.5t-21 -106t-6.5 -75q0 -45 6 -74.5t19 -47t33 -24t49 -6.5zM1368 1298q0 -34 -13 -63.5t-35.5 -51t-52 -34t-63.5 -12.5t-63.5 12.5t-51.5 34t-34.5 51
t-12.5 63.5t12.5 64t34.5 52t51.5 35t63.5 13t63.5 -13t52 -35t35.5 -52t13 -64zM778 -111q-40 -15 -76 -32.5t-63.5 -38.5t-44 -46.5t-16.5 -56.5q0 -11 4 -23t12.5 -22t21.5 -16t31 -6q32 0 65.5 44.5t53.5 137.5z" />
    <glyph glyph-name="afii10066_afii10110" unicode="&#x431;&#x45e;" horiz-adv-x="1876" 
d="M1569 -164q-23 -110 -64 -178t-92 -106t-106.5 -51t-106.5 -13q-47 0 -88.5 12.5t-73 37t-49.5 62t-18 87.5q0 64 30.5 113t78.5 85.5t107.5 62.5t117.5 44l24 110q-33 -36 -65.5 -58.5t-63.5 -34.5t-60.5 -16.5t-56.5 -4.5q-46 0 -86 14t-69.5 44t-46.5 76t-17 111
q0 54 17 134l139 657h295l-148 -696q-6 -26 -6 -52q0 -18 3 -34t10.5 -28.5t19 -20t29.5 -7.5q28 0 52 12.5t44 35t36 53.5t27 67l144 670h295l-203 -950q47 16 85 38.5t69.5 57t57 82.5t46.5 115h86q-31 -102 -73.5 -170t-91 -111.5t-99.5 -66.5t-99 -35zM604 1192
q-11 0 -18.5 -4t-7.5 -21q0 -8 16 -28t40 -51t52.5 -73t52.5 -94.5t40 -116.5t16 -138q0 -75 -15 -154t-43.5 -154t-71 -141.5t-97.5 -116.5t-122 -79t-145 -29q-77 0 -138 20.5t-103 62.5t-64.5 107.5t-22.5 155.5q0 116 36.5 229t108 202.5t175.5 144.5t239 55q11 0 19 -1
t16 -1q-41 49 -85 91t-80.5 82.5t-60.5 82.5t-24 92q0 78 53 114.5t169 36.5h270h91.5t58 8.5t35 29t22.5 61.5h90q-25 -118 -52 -191t-66 -113.5t-93.5 -54.5t-134.5 -14h-156zM379 176q46 0 82.5 32.5t64 83.5t46.5 113t30.5 121t17 108.5t5.5 74.5q0 40 -5 66.5t-15 41.5
t-24.5 21t-33.5 6q-49 0 -88.5 -31t-70 -79.5t-52.5 -108t-36.5 -116.5t-21 -106t-6.5 -75q0 -45 6 -74.5t19 -47t33 -24t49 -6.5zM1845 1473q-35 -102 -79.5 -169t-98.5 -107t-118 -56.5t-136 -16.5q-128 0 -197 47.5t-69 128.5q0 67 37 108.5t100 41.5q60 0 93.5 -28.5
t33.5 -82.5q0 -6 -1 -17.5t-6 -25.5t-14.5 -28.5t-27.5 -26.5q15 -5 35.5 -6.5t46.5 -1.5q43 0 87.5 11t86.5 38.5t78 74t63 116.5h86zM1284 -111q-40 -15 -76.5 -32.5t-64 -38.5t-44 -46.5t-16.5 -56.5q0 -11 4.5 -23t13 -22t21.5 -16t31 -6q32 0 65.5 44.5t53.5 137.5z
" />
    <glyph glyph-name="afii10066_afii10071" unicode="&#x431;&#x451;" horiz-adv-x="1667" 
d="M604 1192q-11 0 -18.5 -4t-7.5 -21q0 -8 16 -28t40 -51t52.5 -73t52.5 -94.5t40 -116.5t16 -138q0 -75 -15 -154t-43.5 -154t-71 -141.5t-97.5 -116.5t-122 -79t-145 -29q-77 0 -138 20.5t-103 62.5t-64.5 107.5t-22.5 155.5q0 116 36.5 229t108 202.5t175.5 144.5
t239 55q11 0 19 -1t16 -1q-41 49 -85 91t-80.5 82.5t-60.5 82.5t-24 92q0 78 53 114.5t169 36.5h249h92t58 8.5t34.5 29t22.5 61.5h90q-24 -118 -51.5 -191t-66 -113.5t-93.5 -54.5t-135 -14h-135zM1737 367q-43 -72 -98.5 -140t-125 -121t-154 -85.5t-185.5 -32.5
q-73 0 -132 18.5t-101 57.5t-64.5 100.5t-22.5 148.5q0 59 12 136t38 158t69 159t104 139.5t143 99t187 37.5q68 0 112 -16.5t69 -43.5t34.5 -62.5t9.5 -73.5q0 -89 -39 -165.5t-104.5 -133.5t-150.5 -92t-177 -41q-2 -23 -3 -43.5t-1 -38.5q0 -52 9 -85.5t27.5 -52.5
t46.5 -26.5t65 -7.5q60 0 109.5 16t92.5 44t82 66t78 81h70zM379 176q46 0 82.5 32.5t64 83.5t46.5 113t30.5 121t17 108.5t5.5 74.5q0 40 -5 66.5t-15 41.5t-24.5 21t-33.5 6q-49 0 -88.5 -31t-70 -79.5t-52.5 -108t-36.5 -116.5t-21 -106t-6.5 -75q0 -45 6 -74.5t19 -47
t33 -24t49 -6.5zM1178 512q58 4 111.5 33t95 75.5t66 106t24.5 123.5q0 38 -11.5 61t-40.5 23q-38 0 -75.5 -37.5t-70.5 -97.5t-58.5 -135.5t-40.5 -151.5zM1743 1298q0 -27 -10 -49.5t-27 -39t-40 -26t-48 -9.5q-27 0 -50 9.5t-39.5 26t-26 39t-9.5 49.5q0 25 9.5 48t26 40
t39.5 27t50 10q25 0 48 -10t40 -27t27 -40t10 -48zM1374 1298q0 -27 -10 -49.5t-27 -39t-40 -26t-48 -9.5q-27 0 -49.5 9.5t-39.5 26t-26.5 39t-9.5 49.5q0 25 9.5 48t26.5 40t39.5 27t49.5 10q25 0 48 -10t40 -27t27 -40t10 -48z" />
    <glyph glyph-name="afii10066_afii10075" unicode="&#x431;&#x439;" horiz-adv-x="1915" 
d="M604 1192q-11 0 -18.5 -4t-7.5 -21q0 -8 16 -28t40 -51t52.5 -73t52.5 -94.5t40 -116.5t16 -138q0 -75 -15 -154t-43.5 -154t-71 -141.5t-97.5 -116.5t-122 -79t-145 -29q-77 0 -138 20.5t-103 62.5t-64.5 107.5t-22.5 155.5q0 116 36.5 229t108 202.5t175.5 144.5
t239 55q11 0 19 -1t16 -1q-41 49 -85 91t-80.5 82.5t-60.5 82.5t-24 92q0 78 53 114.5t169 36.5h270h91.5t58 8.5t35 29t22.5 61.5h90q-25 -118 -52 -191t-66 -113.5t-93.5 -54.5t-134.5 -14h-156zM379 176q46 0 82.5 32.5t64 83.5t46.5 113t30.5 121t17 108.5t5.5 74.5
q0 40 -5 66.5t-15 41.5t-24.5 21t-33.5 6q-49 0 -88.5 -31t-70 -79.5t-52.5 -108t-36.5 -116.5t-21 -106t-6.5 -75q0 -45 6 -74.5t19 -47t33 -24t49 -6.5zM1845 1473q-35 -102 -79.5 -169t-98.5 -107t-118 -56.5t-136 -16.5q-128 0 -197 47.5t-69 128.5q0 67 37 108.5
t100 41.5q60 0 93.5 -28.5t33.5 -82.5q0 -6 -1 -17.5t-6 -25.5t-14.5 -28.5t-27.5 -26.5q15 -5 35.5 -6.5t46.5 -1.5q43 0 87.5 11t86.5 38.5t78 74t63 116.5h86zM2001 367q-43 -125 -97.5 -200t-111 -115t-109.5 -52t-94 -12q-88 0 -140 48.5t-63 145.5q-38 -63 -78 -101
t-79.5 -59t-76.5 -27.5t-69 -6.5q-46 0 -86 14t-69.5 44t-46.5 76t-17 111q0 54 17 134l139 657h295l-148 -696q-6 -32 -6 -58q0 -35 13.5 -59.5t48.5 -24.5q30 0 55 13.5t45 37.5t36 57.5t27 72.5l140 657h295l-148 -696q-5 -17 -6.5 -33.5t-1.5 -32.5q0 -43 20.5 -59.5
t63.5 -16.5q30 0 55.5 13.5t46 37.5t36.5 57.5t28 72.5h86z" />
    <glyph glyph-name="afii10067_afii10068" unicode="&#x432;&#x433;" horiz-adv-x="1714" 
d="M1784 367q-49 -78 -106.5 -147t-126.5 -120.5t-151 -81.5t-179 -30q-73 0 -132 13.5t-100 41.5t-63.5 71.5t-22.5 104.5q0 76 29 130t72 95t93.5 74t93.5 67.5t72 75.5t29 99q0 45 -22 70.5t-64 25.5q-38 0 -81.5 -16.5t-95 -45t-114 -67t-139.5 -82.5q23 -60 23 -135
q0 -101 -33 -194.5t-96 -165.5t-153.5 -115t-205.5 -43q-88 0 -152 27.5t-106 76.5t-62 116.5t-20 147.5q0 55 12.5 135t35.5 173.5t57 194t76 197t93 183.5t108.5 152.5t121 104t131.5 38.5q51 0 93 -15.5t71 -49t45 -87t16 -129.5q0 -65 -16 -132t-41 -131t-54 -122.5
t-56 -105.5q17 -8 32.5 -19.5t30.5 -25.5q41 23 85.5 55.5t92 68.5t99.5 71t107.5 63t115 45.5t123.5 17.5q55 0 101.5 -15.5t80 -45.5t52 -73t18.5 -97q0 -84 -28.5 -143.5t-72 -103.5t-93.5 -78t-93.5 -66t-72 -68t-28.5 -84q0 -60 40 -84t106 -24q45 0 87.5 10.5t85.5 35
t87.5 64t93.5 97.5h70zM594 575q-17 -6 -31 -9t-43 -3q-48 0 -77 26.5t-29 74.5q0 33 11 55.5t30 36.5t45 21t57 9q27 49 52.5 109t46 123.5t32.5 127t12 120.5q0 63 -16 87.5t-51 24.5q-33 0 -66 -35t-64 -94.5t-60 -137.5t-54.5 -163.5t-46 -174t-35.5 -168t-23 -145
t-8 -106.5q0 -40 7 -72.5t22 -56t38.5 -36.5t57.5 -13q50 0 89.5 26t66.5 67.5t41 92.5t14 101q0 76 -18 112z" />
    <glyph glyph-name="afii10067_afii10100" unicode="&#x432;&#x453;" horiz-adv-x="1714" 
d="M1784 367q-49 -78 -106.5 -147t-126.5 -120.5t-151 -81.5t-179 -30q-73 0 -132 13.5t-100 41.5t-63.5 71.5t-22.5 104.5q0 76 29 130t72 95t93.5 74t93.5 67.5t72 75.5t29 99q0 45 -22 70.5t-64 25.5q-38 0 -81.5 -16.5t-95 -45t-114 -67t-139.5 -82.5q23 -60 23 -135
q0 -101 -33 -194.5t-96 -165.5t-153.5 -115t-205.5 -43q-88 0 -152 27.5t-106 76.5t-62 116.5t-20 147.5q0 55 12.5 135t35.5 173.5t57 194t76 197t93 183.5t108.5 152.5t121 104t131.5 38.5q51 0 93 -15.5t71 -49t45 -87t16 -129.5q0 -65 -16 -132t-41 -131t-54 -122.5
t-56 -105.5q17 -8 32.5 -19.5t30.5 -25.5q41 23 85.5 55.5t92 68.5t99.5 71t107.5 63t115 45.5t123.5 17.5q55 0 101.5 -15.5t80 -45.5t52 -73t18.5 -97q0 -84 -28.5 -143.5t-72 -103.5t-93.5 -78t-93.5 -66t-72 -68t-28.5 -84q0 -60 40 -84t106 -24q45 0 87.5 10.5t85.5 35
t87.5 64t93.5 97.5h70zM594 575q-17 -6 -31 -9t-43 -3q-48 0 -77 26.5t-29 74.5q0 33 11 55.5t30 36.5t45 21t57 9q27 49 52.5 109t46 123.5t32.5 127t12 120.5q0 63 -16 87.5t-51 24.5q-33 0 -66 -35t-64 -94.5t-60 -137.5t-54.5 -163.5t-46 -174t-35.5 -168t-23 -145
t-8 -106.5q0 -40 7 -72.5t22 -56t38.5 -36.5t57.5 -13q50 0 89.5 26t66.5 67.5t41 92.5t14 101q0 76 -18 112zM1243 1149l187 387h215l-248 -387h-154z" />
    <glyph glyph-name="afii10067_afii10072" unicode="&#x432;&#x436;" horiz-adv-x="2619" 
d="M2705 367q-24 -71 -64 -139t-94.5 -121.5t-122.5 -86t-149 -32.5q-70 0 -125.5 23t-94 65.5t-59 102.5t-20.5 134q0 42 3 86.5t14 92.5h-117l-102 -492h-275l105 492h-117q-18 -90 -53.5 -180t-89.5 -162t-127 -117t-166 -45q-62 0 -103 16.5t-65 43t-33.5 60t-9.5 68.5
q0 75 30.5 112.5t73.5 37.5q36 0 72 -25q-11 -35 -16 -65t-5 -56q0 -38 12 -61t35 -23q27 0 54 26t52 70.5t46 103t36.5 123t24.5 130.5t9 127q0 59 -7 100t-21.5 66.5t-35 37t-47.5 11.5q-32 0 -72.5 -13t-89 -41.5t-103.5 -75.5t-114 -114q11 -29 18 -62t7 -75
q0 -101 -33 -194.5t-96 -165.5t-153.5 -115t-205.5 -43q-88 0 -152 27.5t-106 76.5t-62 116.5t-20 147.5q0 55 12.5 135t35.5 173.5t57 194t76 197t93 183.5t108.5 152.5t121 104t131.5 38.5q51 0 93 -15.5t71 -49t45 -87t16 -129.5q0 -65 -16 -132t-41 -131t-54 -122.5
t-56 -105.5q33 -15 61 -43q81 97 152.5 159.5t134.5 97.5t118.5 48.5t104.5 13.5q59 0 110 -23t88.5 -65.5t58.5 -102.5t21 -134q0 -48 -6 -103h123l86 410h275l-86 -410h114q25 81 62 158t89 137t118.5 96.5t150.5 36.5q62 0 103 -16.5t65 -43t33.5 -60.5t9.5 -68
q0 -75 -30.5 -112t-73.5 -37q-17 0 -36 6t-36 18q11 35 15.5 65t4.5 56q0 38 -12 61t-35 23q-27 0 -54 -26t-51.5 -70.5t-45.5 -103t-36.5 -123t-24.5 -131t-9 -126.5q0 -112 42 -163.5t110 -51.5q36 0 71 13.5t66.5 42t58 71t45.5 101.5h86zM594 575q-17 -6 -31 -9t-43 -3
q-48 0 -77 26.5t-29 74.5q0 33 11 55.5t30 36.5t45 21t57 9q27 49 52.5 109t46 123.5t32.5 127t12 120.5q0 63 -16 87.5t-51 24.5q-33 0 -66 -35t-64 -94.5t-60 -137.5t-54.5 -163.5t-46 -174t-35.5 -168t-23 -145t-8 -106.5q0 -40 7 -72.5t22 -56t38.5 -36.5t57.5 -13
q50 0 89.5 26t66.5 67.5t41 92.5t14 101q0 76 -18 112z" />
    <glyph glyph-name="afii10067_afii10073" unicode="&#x432;&#x437;" horiz-adv-x="1688" 
d="M1774 367q-31 -105 -75.5 -174t-95 -113t-103.5 -67.5t-101 -35.5q-2 -116 -31 -207t-79.5 -153.5t-121 -95.5t-155.5 -33q-47 0 -88.5 12.5t-73 37t-50 62t-18.5 87.5q0 62 28.5 110t74.5 84.5t103.5 62.5t115.5 44q-6 217 -148 217h-63l27 123h59q55 0 101.5 28
t80 77.5t52 117.5t18.5 149q0 30 -4.5 58t-16.5 50t-32.5 35t-51.5 13q-37 0 -77 -16.5t-84.5 -44t-93.5 -64.5t-103 -78q15 -34 23 -69.5t8 -73.5q0 -101 -33 -194.5t-96 -165.5t-153.5 -115t-205.5 -43q-88 0 -152 27.5t-106 76.5t-62 116.5t-20 147.5q0 55 12.5 135
t35.5 173.5t57 194t76 197t93 183.5t108.5 152.5t121 104t131.5 38.5q51 0 93 -15.5t71 -49t45 -87t16 -129.5q0 -65 -16 -132t-41 -131t-54 -122.5t-56 -105.5q14 -6 26 -15.5t25 -21.5q26 22 59 54t71 67t82 69.5t93.5 61.5t103.5 44t113 17q78 0 135 -24.5t94.5 -68
t55.5 -103t18 -129.5q0 -67 -18 -125.5t-46 -107.5t-63.5 -88t-71 -67t-67 -44.5t-51.5 -20.5q24 -8 49 -26t48.5 -44t42 -60t28.5 -75q55 16 99 38.5t80 57.5t64.5 86.5t53.5 125.5h86zM594 575q-17 -6 -31 -9t-43 -3q-48 0 -77 26.5t-29 74.5q0 33 11 55.5t30 36.5t45 21
t57 9q27 49 52.5 109t46 123.5t32.5 127t12 120.5q0 63 -16 87.5t-51 24.5q-33 0 -66 -35t-64 -94.5t-60 -137.5t-54.5 -163.5t-46 -174t-35.5 -168t-23 -145t-8 -106.5q0 -40 7 -72.5t22 -56t38.5 -36.5t57.5 -13q50 0 89.5 26t66.5 67.5t41 92.5t14 101q0 76 -18 112z
M1098 -111q-40 -14 -77 -31t-65 -38.5t-44.5 -47.5t-16.5 -57q0 -29 17.5 -48t52.5 -19q22 0 43 19.5t39 52.5t31.5 77t19.5 92z" />
    <glyph glyph-name="afii10067_afii10087" unicode="&#x432;&#x445;" horiz-adv-x="1743" 
d="M1829 367q-41 -119 -94.5 -193.5t-110.5 -115.5t-112.5 -55.5t-100.5 -14.5q-46 0 -85 20t-70.5 63.5t-55.5 110.5t-39 162l-282 -344h-148l414 467l-33 229q-8 52 -16.5 85t-17.5 52t-18.5 26t-21.5 7q-21 0 -41.5 -8.5t-50 -32t-72.5 -64.5t-108 -106q33 -71 33 -145
q0 -101 -33 -194.5t-96 -165.5t-153.5 -115t-205.5 -43q-88 0 -152 27.5t-106 76.5t-62 116.5t-20 147.5q0 55 12.5 135t35.5 173.5t57 194t76 197t93 183.5t108.5 152.5t121 104t131.5 38.5q51 0 93 -15.5t71 -49t45 -87t16 -129.5q0 -65 -16 -132t-41 -131t-54 -122.5
t-56 -105.5q14 -6 26 -15.5t25 -21.5q57 51 110 105.5t107 98.5t112.5 72.5t126.5 28.5q61 0 99.5 -23.5t61 -59t32.5 -78.5t14 -82l23 -183q97 107 146.5 183.5t54.5 138.5q-11 -2 -19 -3t-16 -1q-27 0 -45.5 9t-30 24.5t-16.5 36t-5 44.5q0 27 11.5 46t31 31.5t44.5 18
t53 5.5t49.5 -16.5t36 -43t21.5 -60t7 -67.5q0 -49 -19 -97.5t-57.5 -103.5t-96.5 -120.5t-136 -149.5l17 -118q6 -50 16.5 -84.5t26 -55.5t36.5 -30t48 -9q30 0 58 13.5t52 37.5t43 57.5t31 72.5h86zM594 575q-17 -6 -31 -9t-43 -3q-48 0 -77 26.5t-29 74.5q0 33 11 55.5
t30 36.5t45 21t57 9q27 49 52.5 109t46 123.5t32.5 127t12 120.5q0 63 -16 87.5t-51 24.5q-33 0 -66 -35t-64 -94.5t-60 -137.5t-54.5 -163.5t-46 -174t-35.5 -168t-23 -145t-8 -106.5q0 -40 7 -72.5t22 -56t38.5 -36.5t57.5 -13q50 0 89.5 26t66.5 67.5t41 92.5t14 101
q0 76 -18 112z" />
    <glyph glyph-name="afii10068_afii10073" unicode="&#x433;&#x437;" horiz-adv-x="1720" 
d="M1806 367q-31 -105 -75.5 -174t-95 -113t-103 -67.5t-100.5 -35.5q-3 -116 -31.5 -207t-79.5 -153.5t-121.5 -95.5t-155.5 -33q-47 0 -88.5 12.5t-72.5 37t-49.5 62t-18.5 87.5q0 62 28.5 110t74.5 84.5t103.5 62.5t115.5 44q-6 217 -148 217h-63l26 123h60
q55 0 101.5 27.5t80 75.5t52 112t18.5 137q0 30 -5 61t-18 56.5t-35.5 42t-56.5 16.5q-48 0 -88.5 -26t-80.5 -78t-82 -128.5t-93 -177.5q-49 -95 -99 -178.5t-113 -145.5t-144.5 -98t-194.5 -36q-65 0 -119 13.5t-94 41.5t-62 71.5t-22 104.5q0 57 18.5 101.5t49 79.5
t69.5 63.5t80 54t80 50.5t69.5 53.5t49 62t18.5 76.5q0 45 -23 70.5t-71 25.5q-66 0 -120 -50.5t-101 -162.5h-99q31 88 70.5 161t93 126t123 82.5t160.5 29.5q54 0 104 -13t88.5 -41t61 -72t22.5 -105q0 -84 -32 -143.5t-80 -103.5t-104 -78t-104 -66t-80 -68t-32 -84
q0 -30 10.5 -50.5t27.5 -33.5t40 -18.5t47 -5.5q58 0 105 25.5t87 69.5t74.5 102.5t67.5 123.5q37 71 70.5 140.5t69 131.5t76 115t90 91.5t111 60.5t140.5 22q65 0 118.5 -21.5t91.5 -63t58.5 -102t20.5 -138.5q0 -67 -18 -125.5t-46.5 -107.5t-64 -88t-70.5 -67t-67 -44.5
t-52 -20.5q24 -8 49.5 -26t48.5 -44t41.5 -60t28.5 -75q55 16 99.5 38.5t80 57.5t64.5 86.5t53 125.5h86zM1130 -111q-40 -14 -76.5 -31t-64.5 -38.5t-44.5 -47.5t-16.5 -57q0 -29 17 -48t52 -19q22 0 43.5 19.5t39.5 52.5t31 77t19 92z" />
    <glyph glyph-name="afii10068_afii10087" unicode="&#x433;&#x445;" horiz-adv-x="1516" 
d="M1602 367q-43 -125 -98.5 -200t-112.5 -115t-111 -52t-94 -12q-53 0 -92.5 19.5t-69 61t-52 106t-42.5 153.5q-73 -69 -149.5 -131t-159 -108.5t-172 -73.5t-187.5 -27q-68 0 -124 13.5t-96 41.5t-62.5 71.5t-22.5 104.5q0 57 18.5 101.5t49 79.5t69.5 63.5t80 54
t80 50.5t69.5 53.5t49 62t18.5 76.5q0 45 -23 70.5t-71 25.5q-66 0 -120 -50.5t-101 -162.5h-99q31 88 70.5 161t93 126t123 82.5t160.5 29.5q54 0 104 -13t88.5 -41t61 -72t22.5 -105q0 -84 -32 -143.5t-80 -103.5t-104 -78t-104 -66t-80 -68t-32 -84q0 -60 40 -84t106 -24
q63 0 125.5 23.5t124 62t122 88t119.5 102.5l-131 588h289l92 -414q99 91 154 164t55 133v14t-2 11q-11 -2 -19 -3t-16 -1q-27 0 -45.5 9t-29.5 24.5t-16 36t-5 44.5q0 48 33.5 72.5t81.5 24.5q34 0 60.5 -14.5t43.5 -39t26 -58t9 -71.5q0 -51 -17.5 -102t-54.5 -106
t-94.5 -116.5t-138.5 -133.5l30 -131q6 -29 13 -60.5t20 -58.5t33.5 -44.5t54.5 -17.5q30 0 58.5 13.5t52.5 37.5t43 57.5t31 72.5h86z" />
    <glyph glyph-name="afii10068_afii10089" unicode="&#x433;&#x447;" horiz-adv-x="1802" 
d="M1888 367q-29 -83 -63 -144t-70.5 -103t-74.5 -68t-74 -40t-69 -19t-60 -5q-46 0 -86 14t-70 44t-47 76t-17 111q0 28 4.5 61.5t12.5 72.5l10 51q-33 -36 -65.5 -58.5t-63.5 -35t-60.5 -17t-56.5 -4.5q-68 0 -120 29.5t-78 95.5q-45 -87 -106.5 -166.5t-134.5 -140
t-155.5 -97t-169.5 -36.5q-76 0 -135 13.5t-99.5 41.5t-61.5 71.5t-21 104.5q0 57 18.5 101.5t49 79.5t69.5 63.5t80 54t80 50.5t69.5 53.5t49 62t18.5 76.5q0 45 -23 70.5t-71 25.5q-66 0 -120 -50.5t-101 -162.5h-99q31 88 70.5 161t93 126t123 82.5t160.5 29.5
q54 0 104 -13t88.5 -41t61 -72t22.5 -105q0 -84 -32 -143.5t-80 -103.5t-104 -78t-104 -66t-80 -68t-32 -84q0 -60 39 -84t107 -24q51 0 112.5 37.5t120 104.5t107 157.5t75.5 197.5l7 25l71 342h295l-80 -381q-6 -30 -6 -57q0 -35 13 -59.5t49 -24.5q30 0 56 13t47 37
t36.5 57t23.5 73l72 342h295l-147 -696q-5 -17 -7 -33.5t-2 -32.5q0 -43 20.5 -59.5t63.5 -16.5q30 0 55.5 13.5t46.5 37.5t37 57.5t27 72.5h86z" />
    <glyph glyph-name="afii10100_afii10073" unicode="&#x453;&#x437;" horiz-adv-x="1720" 
d="M1806 367q-31 -105 -75.5 -174t-95 -113t-103 -67.5t-100.5 -35.5q-3 -116 -31.5 -207t-79.5 -153.5t-121.5 -95.5t-155.5 -33q-47 0 -88.5 12.5t-72.5 37t-49.5 62t-18.5 87.5q0 62 28.5 110t74.5 84.5t103.5 62.5t115.5 44q-6 217 -148 217h-63l26 123h60
q55 0 101.5 27.5t80 75.5t52 112t18.5 137q0 30 -5 61t-18 56.5t-35.5 42t-56.5 16.5q-48 0 -88.5 -26t-80.5 -78t-82 -128.5t-93 -177.5q-49 -95 -99 -178.5t-113 -145.5t-144.5 -98t-194.5 -36q-65 0 -119 13.5t-94 41.5t-62 71.5t-22 104.5q0 57 18.5 101.5t49 79.5
t69.5 63.5t80 54t80 50.5t69.5 53.5t49 62t18.5 76.5q0 45 -23 70.5t-71 25.5q-66 0 -120 -50.5t-101 -162.5h-99q31 88 70.5 161t93 126t123 82.5t160.5 29.5q54 0 104 -13t88.5 -41t61 -72t22.5 -105q0 -84 -32 -143.5t-80 -103.5t-104 -78t-104 -66t-80 -68t-32 -84
q0 -30 10.5 -50.5t27.5 -33.5t40 -18.5t47 -5.5q58 0 105 25.5t87 69.5t74.5 102.5t67.5 123.5q37 71 70.5 140.5t69 131.5t76 115t90 91.5t111 60.5t140.5 22q65 0 118.5 -21.5t91.5 -63t58.5 -102t20.5 -138.5q0 -67 -18 -125.5t-46.5 -107.5t-64 -88t-70.5 -67t-67 -44.5
t-52 -20.5q24 -8 49.5 -26t48.5 -44t41.5 -60t28.5 -75q55 16 99.5 38.5t80 57.5t64.5 86.5t53 125.5h86zM1130 -111q-40 -14 -76.5 -31t-64.5 -38.5t-44.5 -47.5t-16.5 -57q0 -29 17 -48t52 -19q22 0 43.5 19.5t39.5 52.5t31 77t19 92zM420 1149l186 387h215l-248 -387
h-153z" />
    <glyph glyph-name="afii10100_afii10087" unicode="&#x453;&#x445;" horiz-adv-x="1516" 
d="M1602 367q-43 -125 -98.5 -200t-112.5 -115t-111 -52t-94 -12q-53 0 -92.5 19.5t-69 61t-52 106t-42.5 153.5q-73 -69 -149.5 -131t-159 -108.5t-172 -73.5t-187.5 -27q-68 0 -124 13.5t-96 41.5t-62.5 71.5t-22.5 104.5q0 57 18.5 101.5t49 79.5t69.5 63.5t80 54
t80 50.5t69.5 53.5t49 62t18.5 76.5q0 45 -23 70.5t-71 25.5q-66 0 -120 -50.5t-101 -162.5h-99q31 88 70.5 161t93 126t123 82.5t160.5 29.5q54 0 104 -13t88.5 -41t61 -72t22.5 -105q0 -84 -32 -143.5t-80 -103.5t-104 -78t-104 -66t-80 -68t-32 -84q0 -60 40 -84t106 -24
q63 0 125.5 23.5t124 62t122 88t119.5 102.5l-131 588h289l92 -414q99 91 154 164t55 133v14t-2 11q-11 -2 -19 -3t-16 -1q-27 0 -45.5 9t-29.5 24.5t-16 36t-5 44.5q0 48 33.5 72.5t81.5 24.5q34 0 60.5 -14.5t43.5 -39t26 -58t9 -71.5q0 -51 -17.5 -102t-54.5 -106
t-94.5 -116.5t-138.5 -133.5l30 -131q6 -29 13 -60.5t20 -58.5t33.5 -44.5t54.5 -17.5q30 0 58.5 13.5t52.5 37.5t43 57.5t31 72.5h86zM420 1149l186 387h215l-248 -387h-153z" />
    <glyph glyph-name="afii10100_afii10089" unicode="&#x453;&#x447;" horiz-adv-x="1802" 
d="M1888 367q-29 -83 -63 -144t-70.5 -103t-74.5 -68t-74 -40t-69 -19t-60 -5q-46 0 -86 14t-70 44t-47 76t-17 111q0 28 4.5 61.5t12.5 72.5l10 51q-33 -36 -65.5 -58.5t-63.5 -35t-60.5 -17t-56.5 -4.5q-68 0 -120 29.5t-78 95.5q-45 -87 -106.5 -166.5t-134.5 -140
t-155.5 -97t-169.5 -36.5q-76 0 -135 13.5t-99.5 41.5t-61.5 71.5t-21 104.5q0 57 18.5 101.5t49 79.5t69.5 63.5t80 54t80 50.5t69.5 53.5t49 62t18.5 76.5q0 45 -23 70.5t-71 25.5q-66 0 -120 -50.5t-101 -162.5h-99q31 88 70.5 161t93 126t123 82.5t160.5 29.5
q54 0 104 -13t88.5 -41t61 -72t22.5 -105q0 -84 -32 -143.5t-80 -103.5t-104 -78t-104 -66t-80 -68t-32 -84q0 -60 39 -84t107 -24q51 0 112.5 37.5t120 104.5t107 157.5t75.5 197.5l78 367h295l-80 -381q-6 -30 -6 -57q0 -35 13 -59.5t49 -24.5q30 0 56 13.5t47 37.5
t36.5 57t23.5 72l72 342h295l-147 -696q-5 -17 -7 -33.5t-2 -32.5q0 -43 20.5 -59.5t63.5 -16.5q30 0 55.5 13.5t46.5 37.5t37 57.5t27 72.5h86zM420 1149l186 387h215l-248 -387h-153z" />
    <glyph glyph-name="afii10069_afii10089" unicode="&#x434;&#x447;" horiz-adv-x="2068" 
d="M2154 367q-29 -83 -63 -144t-70.5 -103t-74.5 -68t-74 -40t-69 -19t-60 -5q-46 0 -86 14t-69.5 44t-46.5 76t-17 111q0 28 4 61.5t12 72.5l10 51q-33 -36 -65.5 -58.5t-63.5 -35t-60 -17t-56 -4.5q-56 0 -102 20.5t-77 63.5q-24 -104 -66 -175t-92 -117t-104 -72
t-102 -39l-31 -148q-22 -110 -63.5 -178t-92.5 -106t-106.5 -51t-106.5 -13q-47 0 -88.5 12.5t-72.5 37t-49.5 62t-18.5 87.5q0 64 30.5 113t78.5 85.5t107.5 62.5t117.5 44l25 108q-45 -48 -105.5 -80t-140.5 -32q-53 0 -102 17t-87 56t-61 102t-23 154q0 70 14 150t43 160
t72.5 153.5t102 130t132.5 90t163 33.5q87 0 126.5 -30t39.5 -74v-12l22 106h295l-203 -950q51 18 93.5 45.5t76.5 69t59.5 99.5t41.5 138l123 598h294l-79 -381q-7 -28 -7 -57q0 -35 13.5 -59.5t48.5 -24.5q30 0 56 13.5t47 37.5t36.5 57t24.5 72l71 342h295l-147 -696
q-5 -17 -6.5 -33.5t-1.5 -32.5q0 -43 20 -59.5t64 -16.5q30 0 55 13.5t46 37.5t37 57.5t27 72.5h86zM647 831q0 9 -4 22t-13.5 25t-25.5 20.5t-41 8.5q-43 0 -81.5 -28t-70.5 -74.5t-57 -105.5t-42.5 -121.5t-26.5 -123t-9 -108.5q0 -59 11 -91t26.5 -47.5t33.5 -18.5t32 -3
q21 0 45 10.5t47.5 30.5t42.5 50t29 69zM446 -111q-40 -15 -76 -32.5t-63.5 -38.5t-44 -46.5t-16.5 -56.5q0 -11 4 -23t12.5 -22t21.5 -16t31 -6q32 0 65.5 44.5t53.5 137.5z" />
    <glyph glyph-name="afii10069_afii10105" unicode="&#x434;&#x458;" horiz-adv-x="1528" 
d="M1221 -164q-23 -110 -64.5 -178t-93 -106t-107 -51t-106.5 -13q-87 0 -139.5 33.5t-77.5 87.5q-30 -36 -63.5 -59.5t-68.5 -37t-70.5 -19t-68.5 -5.5q-47 0 -88.5 12.5t-72.5 37t-49.5 62t-18.5 87.5q0 61 26 106.5t71 79t105 55.5t128 37l29 137q-23 -24 -49 -44.5
t-56.5 -36t-65.5 -24.5t-75 -9q-53 0 -102 17t-87 56t-61 102t-23 154q0 70 14 150t43 160t72.5 153.5t102 130t132.5 90t163 33.5q87 0 126.5 -30t39.5 -74v-15l22 109h295l-217 -1016q25 2 48 3.5t46 6.5l105 11l213 995h295l-201 -940q46 15 86 38.5t72.5 57t57.5 79.5
t40 108h86q-25 -89 -60.5 -152.5t-81 -107t-100.5 -70.5t-119 -43zM549 367l98 462q0 9 -4 22.5t-13.5 26t-25.5 21t-41 8.5q-43 0 -81.5 -28t-70.5 -74.5t-57 -105.5t-42.5 -121.5t-26.5 -123t-9 -108.5q0 -59 11 -91t26.5 -47.5t33.5 -18.5t32 -3q21 0 46 10t48 31
t42.5 52t29.5 73zM1526 1298q0 -34 -13 -63.5t-35.5 -51t-52 -34t-63.5 -12.5t-63.5 12.5t-51.5 34t-34.5 51t-12.5 63.5t12.5 64t34.5 52t51.5 35t63.5 13t63.5 -13t52 -35t35.5 -52t13 -64zM948 -53q-23 -2 -46 -3.5t-46 -6.5l-106 -11l-19 -90q-8 -38 -19 -70t-24 -61
q34 -35 90 -35q27 0 49.5 7.5t40.5 26t32 49.5t24 77zM444 -123q-44 -12 -80 -27t-62.5 -34.5t-41 -44.5t-14.5 -56q0 -24 17 -45.5t52 -21.5q32 0 65.5 44.5t53.5 137.5z" />
    <glyph glyph-name="afii10071_afii10073" unicode="&#x451;&#x437;" horiz-adv-x="1794" 
d="M1880 367q-31 -105 -75.5 -174t-95 -113t-103.5 -67.5t-101 -35.5q-2 -116 -31 -207t-79.5 -153.5t-121 -95.5t-155.5 -33q-47 0 -88.5 12.5t-73 37t-49.5 62t-18 87.5q0 62 28.5 110t74.5 84.5t103.5 62.5t114.5 44q-6 217 -147 217h-64l27 123h59q55 0 101.5 27.5
t80 75.5t52 112t18.5 137q0 30 -5 61t-18.5 56.5t-38 42t-63.5 16.5q-46 0 -85.5 -17t-76 -55t-71.5 -100t-72 -152q-28 -66 -59.5 -132t-70.5 -126.5t-86.5 -112.5t-106.5 -90.5t-131 -60.5t-160 -22q-73 0 -132 18.5t-101 57.5t-64.5 100.5t-22.5 148.5q0 59 12 136
t38 158t69 159t104 139.5t143 99t187 37.5q69 0 112.5 -16.5t69 -43.5t35 -62.5t9.5 -73.5q0 -89 -39 -165.5t-104.5 -133.5t-150.5 -92t-177 -41q-2 -23 -3.5 -43.5t-1.5 -38.5q0 -52 9.5 -85.5t28 -52.5t46 -26.5t64.5 -7.5q86 0 147.5 32t107.5 85.5t81 124t67 147.5
q29 66 56.5 128t58 117t66 100.5t81 78.5t103 51t131.5 18t134 -21.5t102 -63t65 -102t23 -138.5q0 -67 -18 -125.5t-46.5 -107.5t-64 -88t-70.5 -67t-67 -44.5t-52 -20.5q24 -8 49.5 -26t48.5 -44t41.5 -60t28.5 -75q55 16 99.5 38.5t80 57.5t64.5 86.5t53 125.5h86z
M297 512q58 4 112 33t95 75.5t65.5 106t24.5 123.5q0 38 -11 61t-40 23q-39 0 -76.5 -37.5t-70.5 -97.5t-58.5 -135.5t-40.5 -151.5zM862 1298q0 -27 -10 -49.5t-27 -39t-40 -26t-48 -9.5q-27 0 -49.5 9.5t-39.5 26t-26.5 39t-9.5 49.5q0 25 9.5 48t26.5 40t39.5 27t49.5 10
q25 0 48 -10t40 -27t27 -40t10 -48zM494 1298q0 -27 -10 -49.5t-27.5 -39t-40 -26t-47.5 -9.5q-27 0 -50 9.5t-39.5 26t-26 39t-9.5 49.5q0 25 9.5 48t26 40t39.5 27t50 10q25 0 47.5 -10t40 -27t27.5 -40t10 -48zM1204 -111q-40 -14 -76.5 -31t-64.5 -38.5t-45 -47.5
t-17 -57q0 -29 17.5 -48t52.5 -19q22 0 43.5 19.5t39.5 52.5t31 77t19 92z" />
    <glyph glyph-name="afii10070_afii10089" unicode="&#x435;&#x447;" horiz-adv-x="1821" 
d="M1907 367q-43 -125 -97.5 -200t-111 -115t-109.5 -52t-94 -12q-46 0 -86 14t-69.5 44t-46.5 76t-17 111q0 28 4 61.5t12 72.5l11 51q-33 -36 -66 -58.5t-64 -35t-60 -17t-56 -4.5q-68 0 -120.5 29.5t-78.5 95.5q-43 -81 -102.5 -160t-132 -141.5t-156 -100.5t-174.5 -38
q-73 0 -132 18.5t-101 57.5t-64.5 100.5t-22.5 148.5q0 59 12 136t38 158t69 159t104 139.5t143 99t187 37.5q69 0 112.5 -16.5t69 -43.5t35 -62.5t9.5 -73.5q0 -89 -39 -165.5t-104.5 -133.5t-150.5 -92t-177 -41q-2 -23 -3.5 -43.5t-1.5 -38.5q0 -52 9.5 -85.5t27.5 -52.5
t44 -26.5t59 -7.5q59 0 126.5 41t129.5 112t111 166t71 203l72 342h295l-80 -381q-6 -30 -6 -57q0 -35 13 -59.5t48 -24.5q30 0 56 13.5t47 37.5t36.5 57t24.5 72l72 342h294l-147 -696q-5 -17 -6.5 -33.5t-1.5 -32.5q0 -43 20 -59.5t64 -16.5q30 0 55.5 13.5t46 37.5
t36.5 57.5t28 72.5h86zM297 512q58 4 112 33t95 75.5t65.5 106t24.5 123.5q0 38 -11 61t-40 23q-39 0 -76.5 -37.5t-70.5 -97.5t-58.5 -135.5t-40.5 -151.5z" />
    <glyph glyph-name="afii10071_afii10089" unicode="&#x451;&#x447;" horiz-adv-x="1821" 
d="M1907 367q-43 -125 -97.5 -200t-111 -115t-109.5 -52t-94 -12q-46 0 -86 14t-69.5 44t-46.5 76t-17 111q0 28 4 61.5t12 72.5l11 51q-33 -36 -66 -58.5t-64 -35t-60 -17t-56 -4.5q-68 0 -120.5 29.5t-78.5 95.5q-43 -81 -102.5 -160t-132 -141.5t-156 -100.5t-174.5 -38
q-73 0 -132 18.5t-101 57.5t-64.5 100.5t-22.5 148.5q0 59 12 136t38 158t69 159t104 139.5t143 99t187 37.5q69 0 112.5 -16.5t69 -43.5t35 -62.5t9.5 -73.5q0 -89 -39 -165.5t-104.5 -133.5t-150.5 -92t-177 -41q-2 -23 -3.5 -43.5t-1.5 -38.5q0 -52 9.5 -85.5t27.5 -52.5
t44 -26.5t59 -7.5q55 0 106 26t96.5 69t84 98.5t69 113.5t51.5 114t31 101l72 342h295l-80 -381q-6 -30 -6 -57q0 -35 13 -59.5t48 -24.5q30 0 56 13.5t47 37.5t36.5 57t24.5 72l72 342h294l-147 -696q-5 -17 -6.5 -33.5t-1.5 -32.5q0 -43 20 -59.5t64 -16.5q30 0 55.5 13.5
t46 37.5t36.5 57.5t28 72.5h86zM297 512q58 4 112 33t95 75.5t65.5 106t24.5 123.5q0 38 -11 61t-40 23q-39 0 -76.5 -37.5t-70.5 -97.5t-58.5 -135.5t-40.5 -151.5zM494 1298q0 -27 -10 -49.5t-27.5 -39t-40 -26t-47.5 -9.5q-27 0 -50 9.5t-39.5 26t-26 39t-9.5 49.5
q0 25 9.5 48t26 40t39.5 27t50 10q25 0 47.5 -10t40 -27t27.5 -40t10 -48zM862 1298q0 -27 -10 -49.5t-27 -39t-40 -26t-48 -9.5q-27 0 -49.5 9.5t-39.5 26t-26.5 39t-9.5 49.5q0 25 9.5 48t26.5 40t39.5 27t49.5 10q25 0 48 -10t40 -27t27 -40t10 -48z" />
    <glyph glyph-name="afii10072_afii10089" unicode="&#x436;&#x447;" horiz-adv-x="2851" 
d="M2927 367q-43 -125 -97.5 -200t-111 -115t-110 -52t-93.5 -12q-46 0 -86 14t-69.5 44t-46.5 76t-17 111q0 28 4 61.5t12 72.5l10 51q-33 -36 -65.5 -58.5t-63.5 -35t-60 -17t-56 -4.5q-66 0 -117.5 27.5t-77.5 87.5q-20 -49 -47 -99.5t-60 -98.5t-72.5 -90t-86.5 -73.5
t-100.5 -50t-114.5 -18.5q-70 0 -125.5 23t-94 65.5t-59 102.5t-20.5 134q0 42 2.5 86.5t13.5 92.5h-117l-102 -492h-274l104 492h-115q-18 -90 -53.5 -180t-90.5 -162t-130 -117t-172 -45q-69 0 -116 18.5t-75.5 49t-40.5 69.5t-12 80q0 43 10 75t26.5 53.5t38.5 32.5
t46 11q17 0 37 -6t37 -23q-14 -37 -20.5 -70.5t-6.5 -64.5q0 -33 7 -55.5t17.5 -36t24 -19.5t25.5 -6q29 0 56.5 26t52.5 70.5t46 103t36 123t23.5 130.5t8.5 127q0 112 -31.5 163.5t-93.5 51.5q-60 0 -94.5 -40t-63.5 -114h-106q21 70 49.5 126.5t69 96t95 61t126.5 21.5
q70 0 126 -23t94 -65.5t58.5 -102.5t20.5 -134q0 -51 -6 -103h123l86 410h274l-86 -410h115q24 81 61.5 158t89 137t118.5 96.5t151 36.5q62 0 103 -16.5t65 -43t33.5 -60.5t9.5 -68q0 -75 -30.5 -112t-74.5 -37q-17 0 -36 6t-36 18q11 35 16 65t5 56q0 38 -12 61t-35 23
q-27 0 -54 -26t-51.5 -70.5t-45.5 -103t-36.5 -123t-24.5 -131t-9 -126.5q0 -112 41.5 -163.5t109.5 -51.5q34 0 70.5 21t72.5 59t71 89.5t65 112t53.5 128t38.5 137.5l72 338h295l-80 -381q-3 -15 -5 -29t-2 -28q0 -35 13.5 -59.5t48.5 -24.5q60 0 102.5 48.5t59.5 127.5
l73 346h295l-147 -696q-5 -17 -6.5 -33.5t-1.5 -32.5q0 -43 20 -59.5t64 -16.5q30 0 55.5 13.5t46 37.5t36.5 57.5t28 72.5h86z" />
    <glyph glyph-name="afii10074_afii10089" unicode="&#x438;&#x447;" horiz-adv-x="2068" 
d="M2154 367q-29 -83 -63 -144t-70.5 -103t-74.5 -68t-74 -40t-69 -19t-60 -5q-46 0 -86 14t-69.5 44t-46.5 76t-17 111q0 28 4 61.5t12 72.5l10 51q-33 -36 -65.5 -58.5t-63.5 -35t-60 -17t-56 -4.5q-56 0 -103 20.5t-76 65.5q-26 -83 -64 -156t-89 -127.5t-117 -86
t-147 -31.5q-88 0 -140 48.5t-63 145.5q-39 -63 -79 -101t-79 -59t-76 -27.5t-69 -6.5q-46 0 -86 14t-69.5 44t-46.5 76t-17 111q0 28 4 61.5t12 72.5l139 657h295l-147 -696q-6 -32 -6 -58q0 -35 13 -59.5t48 -24.5q30 0 55 13.5t45.5 37.5t36 57.5t27.5 72.5l139 657h295
l-147 -696q-5 -17 -7 -33.5t-2 -32.5q0 -43 20.5 -59.5t63.5 -16.5q41 0 73 30t56.5 77.5t41.5 105.5t29.5 114t21 103.5t14.5 73.5l70 334h294l-79 -381q-7 -28 -7 -57q0 -35 13.5 -59.5t48.5 -24.5q30 0 56 13t47 37t36.5 57t24.5 73l71 342h295l-147 -696
q-5 -17 -6.5 -33.5t-1.5 -32.5q0 -43 20 -59.5t64 -16.5q30 0 55 13.5t46 37.5t37 57.5t27 72.5h86z" />
    <glyph glyph-name="afii10075_afii10089" unicode="&#x439;&#x447;" horiz-adv-x="2068" 
d="M2154 367q-29 -83 -63 -144t-70.5 -103t-74.5 -68t-74 -40t-69 -19t-60 -5q-46 0 -86 14t-69.5 44t-46.5 76t-17 111q0 28 4 61.5t12 72.5l10 51q-33 -36 -65.5 -58.5t-63.5 -35t-60 -17t-56 -4.5q-56 0 -103 20.5t-76 65.5q-26 -83 -64 -156t-89 -127.5t-117 -86
t-147 -31.5q-88 0 -140 48.5t-63 145.5q-39 -63 -79 -101t-79 -59t-76 -27.5t-69 -6.5q-46 0 -86 14t-69.5 44t-46.5 76t-17 111q0 28 4 61.5t12 72.5l139 657h295l-147 -696q-6 -32 -6 -58q0 -35 13 -59.5t48 -24.5q30 0 55 13.5t45.5 37.5t36 57.5t27.5 72.5l139 657h295
l-147 -696q-5 -17 -7 -33.5t-2 -32.5q0 -43 20.5 -59.5t63.5 -16.5q40 0 71.5 29.5t56 75.5t42 103t30 113t20.5 103.5t14 75.5l72 338h294l-79 -381q-7 -28 -7 -57q0 -35 13.5 -59.5t48.5 -24.5q60 0 102.5 48.5t59.5 127.5l73 346h295l-147 -696q-5 -17 -6.5 -33.5
t-1.5 -32.5q0 -43 20 -59.5t64 -16.5q30 0 55 13.5t46 37.5t37 57.5t27 72.5h86zM965 1473q-35 -102 -80 -169t-99 -107t-118 -56.5t-136 -16.5q-128 0 -197 47.5t-69 128.5q0 67 37 108.5t100 41.5q60 0 93.5 -28.5t33.5 -82.5q0 -6 -1 -17.5t-6 -25.5t-14.5 -28.5
t-27.5 -26.5q16 -5 36 -6.5t46 -1.5q43 0 87.5 11t86.5 38.5t78.5 74t63.5 116.5h86z" />
    <glyph glyph-name="afii10070_afii10073" unicode="&#x435;&#x437;" horiz-adv-x="1794" 
d="M1880 367q-31 -105 -75.5 -174t-95 -113t-103.5 -67.5t-101 -35.5q-2 -116 -31 -207t-79.5 -153.5t-121 -95.5t-155.5 -33q-47 0 -88.5 12.5t-73 37t-49.5 62t-18 87.5q0 62 28.5 110t74.5 84.5t103.5 62.5t114.5 44q-6 217 -147 217h-64l27 123h59q55 0 101.5 27.5
t80 75.5t52 112t18.5 137q0 30 -5 61t-18.5 56.5t-38 42t-63.5 16.5q-46 0 -85.5 -17t-76 -55t-71.5 -100t-72 -152q-28 -66 -59.5 -132t-70.5 -126.5t-86.5 -112.5t-106.5 -90.5t-131 -60.5t-160 -22q-73 0 -132 18.5t-101 57.5t-64.5 100.5t-22.5 148.5q0 59 12 136
t38 158t69 159t104 139.5t143 99t187 37.5q69 0 112.5 -16.5t69 -43.5t35 -62.5t9.5 -73.5q0 -89 -39 -165.5t-104.5 -133.5t-150.5 -92t-177 -41q-2 -23 -3.5 -43.5t-1.5 -38.5q0 -52 9.5 -85.5t28 -52.5t46 -26.5t64.5 -7.5q86 0 147.5 32t107.5 85.5t81 124t67 147.5
q29 66 56.5 128t58 117t66 100.5t81 78.5t103 51t131.5 18t134 -21.5t102 -63t65 -102t23 -138.5q0 -67 -18 -125.5t-46.5 -107.5t-64 -88t-70.5 -67t-67 -44.5t-52 -20.5q24 -8 49.5 -26t48.5 -44t41.5 -60t28.5 -75q55 16 99.5 38.5t80 57.5t64.5 86.5t53 125.5h86z
M297 512q58 4 112 33t95 75.5t65.5 106t24.5 123.5q0 38 -11 61t-40 23q-39 0 -76.5 -37.5t-70.5 -97.5t-58.5 -135.5t-40.5 -151.5zM1204 -111q-40 -14 -76.5 -31t-64.5 -38.5t-45 -47.5t-17 -57q0 -29 17.5 -48t52.5 -19q22 0 43.5 19.5t39.5 52.5t31 77t19 92z" />
    <glyph glyph-name="afii10076_afii10089" unicode="&#x43a;&#x447;" horiz-adv-x="2081" 
d="M2181 367q-43 -125 -97.5 -200t-111 -115t-109.5 -52t-94 -12q-46 0 -86 14t-69.5 44t-46.5 76t-17 111q0 54 17 134l10 51q-33 -36 -65.5 -58.5t-63.5 -35t-60.5 -17t-56.5 -4.5q-60 0 -108.5 23.5t-77.5 72.5q-37 -126 -84 -206t-100 -125.5t-110 -62.5t-112 -17
q-125 0 -186 61.5t-61 165.5q0 25 3.5 52t8 53t8.5 49t4 41q0 98 -78 98q-15 0 -28 -4.5t-28 -14t-33 -24t-42 -33.5l-90 -432h-295l219 1024h295l-88 -406q73 73 128 132.5t98.5 106.5t78.5 82t67.5 58t66 34t73.5 11q72 0 106.5 -39t34.5 -96q0 -62 -33.5 -97.5
t-95.5 -35.5q-30 0 -52 9.5t-35.5 25t-19.5 34t-5 36.5q-35 -21 -65 -48t-58.5 -57.5t-57.5 -63.5t-61 -65q23 5 45.5 6.5t40.5 1.5q55 0 92.5 -12.5t60.5 -36.5t32.5 -59.5t9.5 -81.5q0 -24 -4 -48.5t-8.5 -49t-8.5 -50.5t-4 -53q0 -76 88 -76q28 0 60.5 12.5t65.5 57
t66 132t64 237.5l82 399h295l-80 -381q-6 -30 -6 -57q0 -35 13 -59.5t48 -24.5q30 0 56.5 13t47.5 37t36.5 57t23.5 73l72 342h295l-148 -696q-5 -17 -6.5 -33.5t-1.5 -32.5q0 -43 20.5 -59.5t63.5 -16.5q30 0 55.5 13.5t46 37.5t36.5 57.5t28 72.5h86z" />
    <glyph glyph-name="afii10109_afii10089" unicode="&#x45c;&#x447;" horiz-adv-x="2081" 
d="M2181 367q-43 -125 -97.5 -200t-111 -115t-109.5 -52t-94 -12q-46 0 -86 14t-69.5 44t-46.5 76t-17 111q0 54 17 134l10 51q-33 -36 -65.5 -58.5t-63.5 -35t-60.5 -17t-56.5 -4.5q-60 0 -108.5 23.5t-77.5 72.5q-37 -128 -84.5 -208.5t-101.5 -125.5t-110.5 -61
t-111.5 -16q-123 0 -184 61.5t-61 165.5q0 25 3.5 52t8 53t8.5 49t4 41q0 98 -78 98q-15 0 -28 -4.5t-28 -14t-33 -24t-42 -33.5l-90 -432h-295l219 1024h295l-88 -406q73 73 128 132.5t98.5 106.5t78.5 82t67.5 58t66 34t73.5 11q72 0 106.5 -39t34.5 -96
q0 -62 -33.5 -97.5t-95.5 -35.5q-30 0 -52 9.5t-35.5 25t-19.5 34t-5 36.5q-35 -21 -65 -48t-58.5 -57.5t-57.5 -63.5t-61 -65q23 5 45.5 6.5t40.5 1.5q55 0 92.5 -12.5t60.5 -36.5t32.5 -59.5t9.5 -81.5q0 -24 -4 -48.5t-8.5 -49t-8.5 -50.5t-4 -53q0 -76 88 -76
q28 0 60.5 12.5t65.5 57t66 132t64 237.5l82 399h295l-80 -381q-6 -30 -6 -57q0 -35 13 -59.5t48 -24.5q30 0 56.5 13.5t47.5 37.5t36.5 57t23.5 72l72 342h295l-148 -696q-5 -17 -6.5 -33.5t-1.5 -32.5q0 -43 20.5 -59.5t63.5 -16.5q30 0 55.5 13.5t46 37.5t36.5 57.5
t28 72.5h86zM475 1149l187 387h215l-248 -387h-154z" />
    <glyph glyph-name="afii10077_afii10089" unicode="&#x43b;&#x447;" horiz-adv-x="2173" 
d="M2259 367q-43 -125 -97.5 -200t-111 -115t-109.5 -52t-94 -12q-46 0 -86 14t-69.5 44t-46.5 76t-17 111q0 54 17 134l10 51q-33 -36 -65.5 -58.5t-63.5 -35t-60.5 -17t-56.5 -4.5q-56 0 -101.5 20.5t-76.5 63.5q-33 -104 -79 -179.5t-97.5 -124.5t-105 -72t-101.5 -23
q-62 0 -107.5 18t-75.5 48t-44.5 69.5t-14.5 81.5q0 43 11 111t34 167l90 406q-53 0 -91.5 -21.5t-68 -68.5t-53 -122t-45.5 -181q-27 -124 -51.5 -218.5t-60 -159t-88.5 -97.5t-136 -33q-58 0 -100.5 19t-70 51.5t-41 75t-13.5 89.5q0 72 33.5 116t93.5 44q48 0 77.5 -29.5
t29.5 -77.5q0 -50 -25 -74.5t-57 -19.5q2 -11 6 -22.5t12.5 -21t23 -15.5t38.5 -6q51 0 81.5 33t50.5 88t34 127.5t32 150.5q37 160 76.5 259t87 154.5t106.5 75t136 19.5h289l-109 -508q-23 -99 -36 -158.5t-13 -85.5q0 -86 82 -86q48 0 83 40t60.5 105t45.5 147.5
t38 168.5l80 377h295l-80 -381q-6 -30 -6 -57q0 -35 13 -59.5t48 -24.5q30 0 56.5 13.5t47.5 37.5t36.5 57t23.5 72l72 342h295l-148 -696q-5 -17 -6.5 -33.5t-1.5 -32.5q0 -43 20.5 -59.5t63.5 -16.5q30 0 55.5 13.5t46 37.5t36.5 57.5t28 72.5h86z" />
    <glyph glyph-name="afii10078_afii10089" unicode="&#x43c;&#x447;" horiz-adv-x="2613" 
d="M2699 367q-29 -83 -63 -144t-70.5 -103t-74.5 -68t-74 -40t-69 -19t-60 -5q-46 0 -86 14t-70 44t-47 76t-17 111q0 28 4.5 61.5t12.5 72.5l10 51q-33 -36 -65.5 -58.5t-63.5 -35t-60.5 -17t-56.5 -4.5q-55 0 -101 20.5t-77 63.5q-33 -104 -79 -179.5t-97.5 -124.5
t-105 -72t-101.5 -23q-62 0 -107.5 18t-75 48t-44 69.5t-14.5 81.5q0 43 11 111t34 167l30 138l-303 -621h-287l-36 625l-27 -129q-25 -122 -48.5 -217t-57.5 -159.5t-85 -98t-131 -33.5q-58 0 -100.5 21.5t-70 55.5t-41 75.5t-13.5 82.5q0 72 33.5 113t93.5 41
q48 0 77.5 -29.5t29.5 -77.5q0 -50 -25 -74.5t-57 -19.5q-1 -12 2 -25.5t12 -25t25 -19.5t41 -8q54 0 87.5 35.5t55.5 94t37 134t31 154.5l108 508h287l43 -786l381 786h303l-109 -508q-23 -99 -36 -158.5t-13 -85.5q0 -86 82 -86q48 0 83 40t60.5 105t45.5 147.5t38 168.5
l80 377h295l-80 -381q-6 -30 -6 -57q0 -35 13.5 -59.5t48.5 -24.5q30 0 56 13t47 37t36.5 57t23.5 73l72 342h295l-147 -696q-5 -17 -7 -33.5t-2 -32.5q0 -43 20.5 -59.5t63.5 -16.5q30 0 55.5 13.5t46.5 37.5t37 57.5t27 72.5h86z" />
    <glyph glyph-name="afii10079_afii10089" unicode="&#x43d;&#x447;" horiz-adv-x="2071" 
d="M2157 367q-43 -125 -97.5 -200t-111 -115t-110 -52t-93.5 -12q-46 0 -86 14t-69.5 44t-46.5 76t-17 111q0 28 4 61.5t12 72.5l10 51q-33 -36 -65.5 -58.5t-63.5 -35t-60 -17t-56 -4.5q-56 0 -103 20.5t-76 65.5q-30 -96 -70.5 -170.5t-90 -126t-106.5 -78t-118 -26.5
q-62 0 -107.5 18t-75 48t-44 69.5t-14.5 81.5t13.5 115.5t33.5 171.5h-227l-105 -492h-295l217 1024h295l-88 -410h229l93 410h274l-108 -508q-23 -99 -36.5 -158.5t-13.5 -85.5q0 -86 82 -86q48 0 81 33t58.5 93.5t46.5 145t44 187.5l80 379h294l-79 -381q-7 -28 -7 -57
q0 -35 13.5 -59.5t48.5 -24.5q30 0 56 13.5t47 37.5t36.5 57t24.5 72l71 342h295l-147 -696q-5 -17 -6.5 -33.5t-1.5 -32.5q0 -43 20 -59.5t64 -16.5q30 0 55.5 13.5t46 37.5t36.5 57.5t28 72.5h86z" />
    <glyph glyph-name="afii10080_afii10068" unicode="&#x43e;&#x433;" horiz-adv-x="1647" 
d="M1737 367q-49 -78 -106.5 -147t-126.5 -120.5t-151 -81.5t-179 -30q-73 0 -132 13.5t-100 41.5t-63.5 71.5t-22.5 104.5q0 57 18.5 101.5t49 79.5t69.5 63.5t80 54t80 50.5t69.5 53.5t49 62t18.5 76.5q0 45 -23 70.5t-71 25.5q-41 0 -88 -26t-98 -63.5t-106.5 -81
t-112.5 -77.5h-3q-12 -142 -54.5 -256t-107.5 -194t-149 -123t-178 -43q-71 0 -131.5 17.5t-104 56t-68 100t-24.5 149.5q0 60 12.5 136.5t40 157.5t71 158.5t106 138.5t144.5 98.5t187 37.5q263 0 263 -327v-2q30 26 64.5 60.5t73.5 71t82.5 72t92.5 63.5t102.5 45
t112.5 17q54 0 104 -13t88.5 -41t61 -72t22.5 -105q0 -84 -32 -143.5t-80 -103.5t-104 -78t-104 -66t-80 -68t-32 -84q0 -60 40 -84t106 -24q45 0 87.5 10.5t85.5 35t87.5 64t93.5 97.5h70zM618 602q-32 8 -43.5 31.5t-11.5 54.5q0 43 17.5 70.5t46.5 40.5q-2 33 -7 55.5
t-14 37t-22.5 20.5t-34.5 6q-37 0 -71 -28.5t-64.5 -75.5t-56 -107.5t-43.5 -124.5t-28 -126.5t-10 -113.5t5.5 -83t18 -50.5t32.5 -25.5t49 -7q37 0 74.5 33t69.5 90t56.5 135t36.5 168z" />
    <glyph glyph-name="afii10080_afii10100" unicode="&#x43e;&#x453;" horiz-adv-x="1647" 
d="M1737 367q-49 -78 -106.5 -147t-126.5 -120.5t-151 -81.5t-179 -30q-73 0 -132 13.5t-100 41.5t-63.5 71.5t-22.5 104.5q0 57 18.5 101.5t49 79.5t69.5 63.5t80 54t80 50.5t69.5 53.5t49 62t18.5 76.5q0 45 -23 70.5t-71 25.5q-41 0 -88 -26t-98 -63.5t-106.5 -81
t-112.5 -77.5h-3q-12 -142 -54.5 -256t-107.5 -194t-149 -123t-178 -43q-71 0 -131.5 17.5t-104 56t-68 100t-24.5 149.5q0 60 12.5 136.5t40 157.5t71 158.5t106 138.5t144.5 98.5t187 37.5q263 0 263 -327v-2q30 26 64.5 60.5t73.5 71t82.5 72t92.5 63.5t102.5 45
t112.5 17q54 0 104 -13t88.5 -41t61 -72t22.5 -105q0 -84 -32 -143.5t-80 -103.5t-104 -78t-104 -66t-80 -68t-32 -84q0 -60 40 -84t106 -24q45 0 87.5 10.5t85.5 35t87.5 64t93.5 97.5h70zM618 602q-32 8 -43.5 31.5t-11.5 54.5q0 43 17.5 70.5t46.5 40.5q-2 33 -7 55.5
t-14 37t-22.5 20.5t-34.5 6q-37 0 -71 -28.5t-64.5 -75.5t-56 -107.5t-43.5 -124.5t-28 -126.5t-10 -113.5t5.5 -83t18 -50.5t32.5 -25.5t49 -7q37 0 74.5 33t69.5 90t56.5 135t36.5 168zM1298 1149l187 387h215l-248 -387h-154z" />
    <glyph glyph-name="afii10096_afii10068" unicode="&#x44e;&#x433;" horiz-adv-x="2150" 
d="M2220 367q-49 -78 -106.5 -147t-126.5 -120.5t-151 -81.5t-179 -30q-73 0 -132 13.5t-100 41.5t-63.5 71.5t-22.5 104.5q0 57 18.5 101.5t49.5 79.5t70 63.5t79.5 54t79.5 50.5t70 53.5t49.5 62t18.5 76.5q0 45 -23.5 70.5t-71.5 25.5q-41 0 -87.5 -26t-98 -63.5
t-107 -81t-112.5 -77.5h-2q-12 -142 -55 -256t-108 -194t-149 -123t-178 -43q-71 0 -131 17.5t-103.5 56t-68 100t-24.5 149.5q0 78 18 177h-154l-102 -492h-295l217 1024h295l-86 -410h160q27 80 71 157t106.5 137t144.5 97t186 37q262 0 262 -327v-2q30 26 64.5 60.5
t74 71t83 72t92 63.5t102 45t112.5 17q55 0 105 -13t88 -41t61 -72t23 -105q0 -84 -32 -143.5t-80 -103.5t-104 -78t-104 -66t-80 -68t-32 -84q0 -60 39.5 -84t105.5 -24q45 0 87.5 10.5t85.5 35t87.5 64t93.5 97.5h70zM1102 602q-32 8 -43.5 31.5t-11.5 54.5q0 43 17 70.5
t46 40.5q-2 33 -7 55.5t-14 37t-22.5 20.5t-34.5 6q-36 0 -70.5 -28.5t-64.5 -75.5t-55.5 -107.5t-43.5 -124.5t-28 -126.5t-10 -113.5t5.5 -83t17.5 -50.5t32 -25.5t49 -7q38 0 75 33t69.5 90t57 135t36.5 168z" />
    <glyph glyph-name="afii10096_afii10100" unicode="&#x44e;&#x453;" horiz-adv-x="2150" 
d="M2220 367q-49 -78 -106.5 -147t-126.5 -120.5t-151 -81.5t-179 -30q-73 0 -132 13.5t-100 41.5t-63.5 71.5t-22.5 104.5q0 57 18.5 101.5t49.5 79.5t70 63.5t79.5 54t79.5 50.5t70 53.5t49.5 62t18.5 76.5q0 45 -23.5 70.5t-71.5 25.5q-41 0 -87.5 -26t-98 -63.5
t-107 -81t-112.5 -77.5h-2q-12 -142 -55 -256t-108 -194t-149 -123t-178 -43q-71 0 -131 17.5t-103.5 56t-68 100t-24.5 149.5q0 78 18 177h-154l-102 -492h-295l217 1024h295l-86 -410h160q27 80 71 157t106.5 137t144.5 97t186 37q262 0 262 -327v-2q30 26 64.5 60.5
t74 71t83 72t92 63.5t102 45t112.5 17q55 0 105 -13t88 -41t61 -72t23 -105q0 -84 -32 -143.5t-80 -103.5t-104 -78t-104 -66t-80 -68t-32 -84q0 -60 39.5 -84t105.5 -24q45 0 87.5 10.5t85.5 35t87.5 64t93.5 97.5h70zM1102 602q-32 8 -43.5 31.5t-11.5 54.5q0 43 17 70.5
t46 40.5q-2 33 -7 55.5t-14 37t-22.5 20.5t-34.5 6q-36 0 -70.5 -28.5t-64.5 -75.5t-55.5 -107.5t-43.5 -124.5t-28 -126.5t-10 -113.5t5.5 -83t17.5 -50.5t32 -25.5t49 -7q38 0 75 33t69.5 90t57 135t36.5 168zM1782 1149l186 387h215l-248 -387h-153z" />
    <glyph glyph-name="afii10080_afii10072" unicode="&#x43e;&#x436;" horiz-adv-x="2603" 
d="M2689 367q-25 -71 -65 -139t-94 -121.5t-122 -86t-149 -32.5q-70 0 -125.5 23t-94 65.5t-59 102.5t-20.5 134q0 42 2.5 86.5t13.5 92.5h-116l-103 -492h-274l104 492h-117q-18 -90 -53.5 -180t-89 -162t-126.5 -117t-167 -45q-74 0 -123 18.5t-77.5 49t-40 69.5t-11.5 80
q0 86 35.5 129t89.5 43q19 0 35 -6t35 -23q-14 -37 -20.5 -72t-6.5 -67q0 -57 22.5 -85t51.5 -28t57 26t53 70.5t45.5 103t35.5 123t23.5 130.5t8.5 127q0 59 -7 100t-21 66.5t-34.5 37t-47.5 11.5q-32 0 -67 -18t-76.5 -53.5t-91.5 -88.5t-111 -123h-3q-12 -142 -54.5 -256
t-107.5 -194t-149 -123t-178 -43q-71 0 -131.5 17.5t-104 56t-68 100t-24.5 149.5q0 60 12.5 136.5t40 157.5t71 158.5t106 138.5t144.5 98.5t187 37.5q253 0 263 -309q71 103 128 164t107 93.5t96 42t95 9.5q57 0 107.5 -22t88 -63.5t59 -102t21.5 -137.5q0 -48 -6 -103
h123l86 410h274l-86 -410h115q24 81 61.5 158t89 137t118.5 96.5t151 36.5q62 0 103 -16.5t65 -43t33.5 -60.5t9.5 -68q0 -75 -30.5 -112t-74.5 -37q-17 0 -35.5 6t-35.5 18q11 35 15.5 65t4.5 56q0 38 -12 61t-35 23q-27 0 -54 -26t-51.5 -70.5t-45.5 -103t-36.5 -123
t-24.5 -131t-9 -126.5q0 -112 41.5 -163.5t109.5 -51.5q36 0 71.5 13.5t67 42t58 71t45.5 101.5h86zM618 602q-32 8 -43.5 31.5t-11.5 54.5q0 43 17.5 70.5t46.5 40.5q-2 33 -7 55.5t-14 37t-22.5 20.5t-34.5 6q-37 0 -71 -28.5t-64.5 -75.5t-56 -107.5t-43.5 -124.5
t-28 -126.5t-10 -113.5t5.5 -83t18 -50.5t32.5 -25.5t49 -7q37 0 74.5 33t69.5 90t56.5 135t36.5 168z" />
    <glyph glyph-name="afii10096_afii10072" unicode="&#x44e;&#x436;" horiz-adv-x="3086" 
d="M3172 367q-24 -71 -64 -139t-94.5 -121.5t-122.5 -86t-149 -32.5q-70 0 -125.5 23t-94 65.5t-59 102.5t-20.5 134q0 42 3 86.5t14 92.5h-117l-102 -492h-275l105 492h-117q-18 -90 -53.5 -180t-89.5 -162t-127 -117t-166 -45q-75 0 -123.5 18.5t-77 49t-40 69.5t-11.5 80
q0 86 35.5 129t89.5 43q18 0 34.5 -6t34.5 -23q-14 -37 -20 -72t-6 -67q0 -57 22 -85t51 -28t57 26t53 70.5t46 103t36 123t23.5 130.5t8.5 127q0 59 -7 100t-21.5 66.5t-35 37t-47.5 11.5q-32 0 -66.5 -18t-76.5 -53.5t-92 -88.5t-111 -123h-2q-12 -142 -55 -256t-108 -194
t-149 -123t-178 -43q-71 0 -131 17.5t-103.5 56t-68 100t-24.5 149.5q0 78 18 177h-154l-102 -492h-295l217 1024h295l-86 -410h160q27 80 71 157t106.5 137t144.5 97t186 37q253 0 262 -309q71 103 128 164t107 93.5t96 42t95 9.5q58 0 108 -22t87.5 -63.5t59 -102
t21.5 -137.5q0 -48 -6 -103h123l86 410h275l-86 -410h114q25 81 62 158t89 137t118.5 96.5t150.5 36.5q62 0 103 -16.5t65 -43t33.5 -60.5t9.5 -68q0 -75 -30.5 -112t-73.5 -37q-17 0 -36 6t-36 18q11 35 15.5 65t4.5 56q0 38 -12 61t-35 23q-27 0 -54 -26t-51.5 -70.5
t-45.5 -103t-36.5 -123t-24.5 -131t-9 -126.5q0 -112 42 -163.5t110 -51.5q36 0 71 13.5t66.5 42t58 71t45.5 101.5h86zM1102 602q-32 8 -43.5 31.5t-11.5 54.5q0 43 17 70.5t46 40.5q-2 33 -7 55.5t-14 37t-22.5 20.5t-34.5 6q-36 0 -70.5 -28.5t-64.5 -75.5t-55.5 -107.5
t-43.5 -124.5t-28 -126.5t-10 -113.5t5.5 -83t17.5 -50.5t32 -25.5t49 -7q38 0 75 33t69.5 90t57 135t36.5 168z" />
    <glyph glyph-name="afii10080_afii10073" unicode="&#x43e;&#x437;" horiz-adv-x="1714" 
d="M1800 367q-31 -105 -75.5 -174t-95 -113t-103.5 -67.5t-101 -35.5q-2 -116 -31 -207t-79.5 -153.5t-121 -95.5t-155.5 -33q-47 0 -88.5 12.5t-73 37t-49.5 62t-18 87.5q0 62 28.5 110t74.5 84.5t103.5 62.5t114.5 44q-6 217 -147 217h-63l26 123h60q55 0 101 27.5
t79.5 75.5t52 112t18.5 137q0 30 -5 61t-18.5 56.5t-36 42t-56.5 16.5q-43 0 -84.5 -22.5t-84.5 -58.5t-87.5 -80t-93.5 -87h-3q-12 -142 -54.5 -256t-107.5 -194t-149 -123t-178 -43q-71 0 -131.5 17.5t-104 56t-68 100t-24.5 149.5q0 60 12.5 136.5t40 157.5t71 158.5
t106 138.5t144.5 98.5t187 37.5q257 0 263 -317q54 60 104 117t104.5 101.5t117.5 71.5t143 27q65 0 120.5 -21.5t96 -63t63.5 -102t23 -138.5q0 -67 -18 -125.5t-46.5 -107.5t-64 -88t-70.5 -67t-67 -44.5t-52 -20.5q24 -8 49.5 -26t48.5 -44t41.5 -60t28.5 -75
q55 16 99.5 38.5t80 57.5t64.5 86.5t53 125.5h86zM618 602q-32 8 -43.5 31.5t-11.5 54.5q0 43 17.5 70.5t46.5 40.5q-2 33 -7 55.5t-14 37t-22.5 20.5t-34.5 6q-37 0 -71 -28.5t-64.5 -75.5t-56 -107.5t-43.5 -124.5t-28 -126.5t-10 -113.5t5.5 -83t18 -50.5t32.5 -25.5
t49 -7q37 0 74.5 33t69.5 90t56.5 135t36.5 168zM1124 -111q-40 -14 -76.5 -31t-64.5 -38.5t-44.5 -47.5t-16.5 -57q0 -29 17 -48t52 -19q22 0 43.5 19.5t39.5 52.5t31 77t19 92z" />
    <glyph glyph-name="afii10096_afii10073" unicode="&#x44e;&#x437;" horiz-adv-x="2198" 
d="M2284 367q-31 -105 -75.5 -174t-95 -113t-103.5 -67.5t-101 -35.5q-2 -116 -31 -207t-79.5 -153.5t-121 -95.5t-155.5 -33q-47 0 -88.5 12.5t-73 37t-50 62t-18.5 87.5q0 62 28.5 110t74.5 84.5t103.5 62.5t115.5 44q-6 217 -148 217h-63l27 123h59q55 0 101.5 27.5
t80 75.5t52 112t18.5 137q0 30 -5.5 61t-18.5 56.5t-36 42t-57 16.5q-43 0 -84.5 -22.5t-84.5 -58.5t-87.5 -80t-93.5 -87h-2q-12 -142 -55 -256t-108 -194t-149 -123t-178 -43q-71 0 -131 17.5t-103.5 56t-68 100t-24.5 149.5q0 78 18 177h-154l-102 -492h-295l217 1024
h295l-86 -410h160q27 80 71 157t106.5 137t144.5 97t186 37q256 0 262 -317q54 60 104 117t104.5 101.5t117.5 71.5t143 27q65 0 120.5 -21.5t96 -63t63.5 -102t23 -138.5q0 -67 -18 -125.5t-46 -107.5t-63.5 -88t-71 -67t-67 -44.5t-51.5 -20.5q24 -8 49 -26t48.5 -44
t42 -60t28.5 -75q55 16 99 38.5t80 57.5t64.5 86.5t53.5 125.5h86zM1102 602q-32 8 -43.5 31.5t-11.5 54.5q0 43 17 70.5t46 40.5q-2 33 -7 55.5t-14 37t-22.5 20.5t-34.5 6q-36 0 -70.5 -28.5t-64.5 -75.5t-55.5 -107.5t-43.5 -124.5t-28 -126.5t-10 -113.5t5.5 -83
t17.5 -50.5t32 -25.5t49 -7q38 0 75 33t69.5 90t57 135t36.5 168zM1608 -111q-40 -14 -77 -31t-65 -38.5t-44.5 -47.5t-16.5 -57q0 -29 17 -48t53 -19q22 0 43 19.5t39 52.5t31.5 77t19.5 92z" />
    <glyph glyph-name="afii10080_afii10077" unicode="&#x43e;&#x43b;" horiz-adv-x="2032" 
d="M2118 367q-129 -379 -381 -379q-62 0 -107.5 18t-75.5 48t-44.5 69.5t-14.5 81.5q0 43 11 111t34 167l90 406q-54 0 -92 -22t-67.5 -69.5t-52.5 -122t-46 -179.5q-26 -122 -49.5 -217t-59 -159.5t-89 -98t-138.5 -33.5q-48 0 -84.5 12.5t-62.5 34t-42.5 50.5t-25.5 62
q-52 -32 -117 -60.5t-134.5 -49.5t-139.5 -33t-131 -12q-71 0 -131.5 17.5t-104 56t-68 100t-24.5 149.5q0 60 12.5 136.5t40 157.5t71 158.5t106 138.5t144.5 98.5t187 37.5q263 0 263 -327q0 -187 -48 -329t-129 -239q51 17 103 39.5t90 46.5q5 69 37.5 109.5t89.5 40.5
q48 0 77 -29.5t29 -77.5q0 -50 -24.5 -74.5t-56.5 -19.5q1 -11 4.5 -22.5t12 -21t23.5 -15.5t39 -6q50 0 81 33t51.5 88t35 127.5t31.5 150.5q33 160 72.5 259t88 154.5t106 75t126.5 19.5h301l-108 -508q-23 -99 -36 -158.5t-13 -85.5q0 -86 82 -86q31 0 53.5 10.5t42 33
t37.5 56.5t39 81h86zM381 176q45 0 89.5 46t80 125t57 183.5t21.5 221.5q0 85 -16.5 125.5t-63.5 40.5q-37 0 -71 -28.5t-64.5 -75.5t-56 -107.5t-43.5 -124.5t-28 -126.5t-10 -113.5t5.5 -83t18 -50.5t32.5 -25.5t49 -7z" />
    <glyph glyph-name="afii10096_afii10077" unicode="&#x44e;&#x43b;" horiz-adv-x="2515" 
d="M864 176q45 0 89.5 46t80 125t57 183.5t21.5 221.5q0 86 -16 126t-64 40q-36 0 -70.5 -28.5t-64.5 -75.5t-55.5 -107.5t-43.5 -124.5t-28 -126.5t-10 -113.5t5.5 -83t17.5 -50.5t32 -25.5t49 -7zM2601 367q-129 -379 -381 -379q-62 0 -107.5 18t-75.5 48t-44.5 69.5
t-14.5 81.5q0 43 11 111t34 167l91 406q-54 0 -92.5 -22t-68 -69.5t-52.5 -122t-46 -179.5q-26 -122 -49.5 -217t-58.5 -159.5t-88.5 -98t-138.5 -33.5q-48 0 -84.5 12.5t-63 34t-43 50.5t-24.5 62q-53 -32 -118 -60.5t-134.5 -49.5t-139.5 -33t-131 -12q-71 0 -131 17.5
t-103.5 56t-68 100t-24.5 149.5q0 78 18 177h-154l-102 -492h-295l217 1024h295l-86 -410h160q27 80 71 157t106.5 137t144.5 97t186 37q262 0 262 -327q0 -187 -48 -329t-128 -239q51 17 102.5 39.5t89.5 46.5q5 69 37.5 109.5t89.5 40.5q48 0 77.5 -29.5t29.5 -77.5
q0 -50 -25 -74.5t-57 -19.5q1 -11 4.5 -22.5t12.5 -21t24 -15.5t39 -6q50 0 81 33t51 88t34.5 127.5t31.5 150.5q33 160 72.5 259t88 154.5t106.5 75t127 19.5h301l-109 -508q-23 -99 -36 -158.5t-13 -85.5q0 -86 82 -86q31 0 54 10.5t42.5 33t37 56.5t38.5 81h86z" />
    <glyph glyph-name="afii10080_afii10106" unicode="&#x43e;&#x459;" horiz-adv-x="2415" 
d="M1630 889q-54 0 -92 -22t-67.5 -69.5t-52.5 -122t-46 -179.5q-26 -122 -49.5 -217t-59 -159.5t-89 -98t-138.5 -33.5q-48 0 -85 12t-63.5 33.5t-43 50t-25.5 61.5q-52 -32 -117 -60t-134 -48.5t-138.5 -32.5t-130.5 -12q-71 0 -131.5 17.5t-104 56t-68 100t-24.5 149.5
q0 60 12.5 136.5t40 157.5t71 158.5t106 138.5t144.5 98.5t187 37.5q263 0 263 -327q0 -187 -48 -329t-129 -239q51 17 103 39.5t90 46.5q5 67 37.5 108.5t89.5 41.5q48 0 77 -29.5t29 -77.5q0 -50 -24.5 -74.5t-56.5 -19.5q1 -11 4.5 -22.5t12 -21t23.5 -15.5t39 -6
q50 0 81 33t51.5 88t35 127.5t31.5 150.5q33 160 72.5 259t88 154.5t106 75t126.5 19.5h301l-71 -332q36 15 64.5 23t52.5 12t45 5t42 1q61 0 110.5 -18.5t83.5 -53t52.5 -85.5t18.5 -115q0 -43 -12.5 -95t-39.5 -104.5t-69 -101.5t-101 -87.5t-136 -61.5t-173 -23
q-70 0 -125.5 18t-94.5 51.5t-60 82t-21 110.5q0 29 3.5 58.5t11.5 58.5zM381 176q45 0 89.5 46t80 125t57 183.5t21.5 221.5q0 85 -16.5 125.5t-63.5 40.5q-37 0 -71 -28.5t-64.5 -75.5t-56 -107.5t-43.5 -124.5t-28 -126.5t-10 -113.5t5.5 -83t18 -50.5t32.5 -25.5t49 -7z
M1782 303q-5 -12 -5.5 -29t-0.5 -28q0 -84 88 -84q40 0 76 27.5t63.5 70t44 93t16.5 96.5q0 60 -27 96.5t-83 36.5q-11 0 -27.5 -3.5t-34.5 -8.5t-34 -11.5t-25 -13.5z" />
    <glyph glyph-name="afii10096_afii10106" unicode="&#x44e;&#x459;" horiz-adv-x="2898" 
d="M2114 889q-54 0 -92.5 -22t-68 -69.5t-52.5 -122t-46 -179.5q-26 -122 -49.5 -217t-58.5 -159.5t-88.5 -98t-138.5 -33.5q-48 0 -85 12t-63.5 33.5t-43.5 50t-25 61.5q-53 -32 -117.5 -60t-134 -48.5t-139 -32.5t-130.5 -12q-71 0 -131 17.5t-103.5 56t-68 100
t-24.5 149.5q0 78 18 177h-154l-102 -492h-295l217 1024h295l-86 -410h160q27 80 71 157t106.5 137t144.5 97t186 37q262 0 262 -327q0 -187 -48 -329t-128 -239q51 17 102.5 39.5t89.5 46.5q5 67 37.5 108.5t89.5 41.5q48 0 77.5 -29.5t29.5 -77.5q0 -50 -25 -74.5
t-57 -19.5q1 -11 4.5 -22.5t12.5 -21t24 -15.5t39 -6q50 0 81 33t51 88t34.5 127.5t31.5 150.5q33 160 72.5 259t88 154.5t106.5 75t127 19.5h301l-72 -332q36 15 65 23t53 12t45 5t42 1q124 0 194 -71t70 -201q0 -43 -12.5 -95t-39.5 -104.5t-69 -101.5t-100.5 -87.5
t-135.5 -61.5t-173 -23q-70 0 -126 18t-95 51.5t-59.5 82t-20.5 110.5q0 29 3 58.5t11 58.5zM864 176q45 0 89.5 46t80 125t57 183.5t21.5 221.5q0 86 -16 126t-64 40q-36 0 -70.5 -28.5t-64.5 -75.5t-55.5 -107.5t-43.5 -124.5t-28 -126.5t-10 -113.5t5.5 -83t17.5 -50.5
t32 -25.5t49 -7zM2265 303q-5 -12 -5.5 -29t-0.5 -28q0 -84 88 -84q40 0 76.5 27.5t64 70t44 93t16.5 96.5q0 60 -27.5 96.5t-83.5 36.5q-11 0 -27.5 -3.5t-34.5 -8.5t-34 -11.5t-25 -13.5z" />
    <glyph glyph-name="afii10080_afii10078" unicode="&#x43e;&#x43c;" horiz-adv-x="2472" 
d="M2558 367q-129 -379 -381 -379q-62 0 -107.5 18t-75.5 48t-44.5 69.5t-14.5 81.5t11 109t32 163l33 146l-303 -623h-287l-37 625l-26 -129q-25 -122 -48.5 -217t-57.5 -159.5t-85 -98t-131 -33.5q-45 0 -80.5 12.5t-62 34t-44.5 50.5t-28 62q-52 -32 -117 -60.5
t-134.5 -49.5t-139.5 -33t-131 -12q-71 0 -131.5 17.5t-104 56t-68 100t-24.5 149.5q0 60 12.5 136.5t40 157.5t71 158.5t106 138.5t144.5 98.5t187 37.5q263 0 263 -327q0 -187 -48 -329t-129 -239q51 17 103 39.5t90 46.5q2 69 34.5 106.5t92.5 37.5q48 0 77 -29.5
t29 -77.5q0 -50 -24.5 -74.5t-56.5 -19.5q-1 -12 2 -25.5t12 -25t25 -19.5t40 -8q37 0 64 16.5t47 45t34 68t25 86t20.5 98t20.5 104.5l109 508h287l43 -786l381 786h303l-109 -508q-23 -99 -36 -158.5t-13 -85.5q0 -86 82 -86q31 0 54 10.5t42.5 33t37 56.5t38.5 81h86z
M381 176q45 0 89.5 46t80 125t57 183.5t21.5 221.5q0 85 -16.5 125.5t-63.5 40.5q-37 0 -71 -28.5t-64.5 -75.5t-56 -107.5t-43.5 -124.5t-28 -126.5t-10 -113.5t5.5 -83t18 -50.5t32.5 -25.5t49 -7z" />
    <glyph glyph-name="afii10096_afii10078" unicode="&#x44e;&#x43c;" horiz-adv-x="2955" 
d="M3041 367q-129 -379 -381 -379q-62 0 -107.5 18t-75 48t-44 69.5t-14.5 81.5q0 84 43 272l32 146l-303 -623h-286l-37 625l-27 -129q-24 -122 -47.5 -217t-57.5 -159.5t-85 -98t-131 -33.5q-45 0 -81 12.5t-62.5 34t-44 50.5t-27.5 62q-53 -32 -118 -60.5t-134.5 -49.5
t-139.5 -33t-131 -12q-71 0 -131 17.5t-103.5 56t-68 100t-24.5 149.5q0 78 18 177h-154l-102 -492h-295l217 1024h295l-86 -410h160q27 80 71 157t106.5 137t144.5 97t186 37q262 0 262 -327q0 -187 -48 -329t-128 -239q51 17 102.5 39.5t89.5 46.5q2 69 34.5 106.5
t92.5 37.5q48 0 77.5 -29.5t29.5 -77.5q0 -50 -25 -74.5t-57 -19.5q-1 -12 2 -25.5t12 -25t25 -19.5t41 -8q55 0 89 35.5t55.5 94t36 134t30.5 154.5l108 508h287l43 -786l381 786h303l-109 -508q-23 -99 -36 -158.5t-13 -85.5q0 -86 82 -86q31 0 54 10.5t42.5 33t37 56.5
t38.5 81h86zM864 176q45 0 89.5 46t80 125t57 183.5t21.5 221.5q0 86 -16 126t-64 40q-36 0 -70.5 -28.5t-64.5 -75.5t-55.5 -107.5t-43.5 -124.5t-28 -126.5t-10 -113.5t5.5 -83t17.5 -50.5t32 -25.5t49 -7z" />
    <glyph glyph-name="afii10096_afii10087" unicode="&#x44e;&#x445;" horiz-adv-x="2228" 
d="M2312 367q-29 -83 -63.5 -144t-72 -103t-76.5 -68t-76.5 -40t-71.5 -19t-62 -5q-56 0 -96.5 21.5t-70 67t-51.5 117.5t-40 173l-4 14q-35 -25 -68.5 -52t-59 -56t-41 -59.5t-15.5 -61.5q5 2 11.5 2h14.5q27 0 43.5 -9t25.5 -23.5t12 -32.5t3 -36q0 -60 -31.5 -86
t-82.5 -26q-69 0 -102 39.5t-33 105.5q0 51 26.5 107.5t69.5 111.5t97 104.5t110 86.5l-58 317q-127 -151 -276 -197q-12 -144 -55 -259.5t-108.5 -196.5t-150 -124.5t-178.5 -43.5q-71 0 -131 17.5t-103.5 56t-68 100t-24.5 149.5q0 78 18 177h-154l-102 -492h-295
l217 1024h295l-86 -410h160q27 80 71 157t106.5 137t144.5 97t186 37q259 0 262 -321q60 6 123 59t129 146l-19 98h289l74 -406q97 87 149 158t52 131v14t-2 11q-11 -2 -19 -3t-16 -1q-27 0 -45.5 9t-29.5 24.5t-16 36t-5 44.5q0 48 33 72.5t81 24.5q34 0 60.5 -14.5
t43.5 -39t26 -58t9 -71.5q0 -51 -17 -102t-53.5 -106t-93 -115.5t-135.5 -130.5l25 -135q6 -29 12.5 -60.5t19.5 -58.5t33.5 -44.5t55.5 -17.5q30 0 58 13.5t52 37.5t43 57.5t31 72.5h86zM1102 600q-55 15 -55 92q0 44 17 71t46 38q-5 66 -22.5 91.5t-55.5 25.5
q-36 0 -70.5 -28.5t-64.5 -75.5t-55.5 -107.5t-43.5 -124.5t-28 -126.5t-10 -113.5t5.5 -83t17.5 -50.5t32 -25.5t49 -7q38 0 75 32.5t69.5 89.5t57 134.5t36.5 167.5z" />
    <glyph glyph-name="afii10080_afii10095" unicode="&#x43e;&#x44d;" horiz-adv-x="1776" 
d="M1114 492l27 122h245q2 20 3.5 39t1.5 39q0 52 -10 86.5t-31 54.5t-52.5 28.5t-74.5 8.5q-46 0 -100 -29.5t-110 -71.5t-113 -86.5t-109 -74.5h-3q-12 -142 -54.5 -256t-107.5 -194t-149 -123t-178 -43q-71 0 -131.5 17.5t-104 56t-68 100t-24.5 149.5q0 60 12.5 136.5
t40 157.5t71 158.5t106 138.5t144.5 98.5t187 37.5q263 0 263 -327v-2q25 18 57.5 49t72 67.5t86 74.5t100.5 68.5t115.5 50t129.5 19.5q77 0 139.5 -20t106.5 -61t68 -104t24 -150q0 -56 -14 -131.5t-44 -155.5t-77.5 -157.5t-113 -138.5t-151 -98.5t-192.5 -37.5
q-142 0 -210.5 58.5t-68.5 158.5q0 43 9.5 75t26 53.5t38 32.5t45.5 11q17 0 36.5 -5t39.5 -24q-14 -37 -20.5 -72t-6.5 -67q0 -113 113 -113q44 0 84.5 33t74.5 88t61 126.5t44 148.5h-254zM618 602q-32 8 -43.5 31.5t-11.5 54.5q0 43 17.5 70.5t46.5 40.5q-2 33 -7 55.5
t-14 37t-22.5 20.5t-34.5 6q-37 0 -71 -28.5t-64.5 -75.5t-56 -107.5t-43.5 -124.5t-28 -126.5t-10 -113.5t5.5 -83t18 -50.5t32.5 -25.5t49 -7q37 0 74.5 33t69.5 90t56.5 135t36.5 168z" />
    <glyph glyph-name="afii10096_afii10095" unicode="&#x44e;&#x44d;" horiz-adv-x="2259" 
d="M1597 492l27 122h246q2 20 3 39t1 39q0 52 -10 86.5t-31 54.5t-52.5 28.5t-74.5 8.5q-46 0 -100 -29.5t-110 -71.5t-113 -86.5t-109 -74.5h-2q-12 -142 -55 -256t-108 -194t-149 -123t-178 -43q-71 0 -131 17.5t-103.5 56t-68 100t-24.5 149.5q0 78 18 177h-154
l-102 -492h-295l217 1024h295l-86 -410h160q27 80 71 157t106.5 137t144.5 97t186 37q262 0 262 -327v-2q25 18 57.5 49t72 67.5t86.5 74.5t101 68.5t115 50t129 19.5q77 0 139.5 -20t106.5 -61t68 -104t24 -150q0 -56 -14 -131.5t-44 -155.5t-77.5 -157.5t-113 -138.5
t-151 -98.5t-192.5 -37.5q-141 0 -209.5 58.5t-68.5 158.5q0 43 9.5 75t26 53.5t37.5 32.5t45 11q17 0 36.5 -5t39.5 -24q-14 -37 -20 -72t-6 -67q0 -113 112 -113q44 0 84.5 33t74.5 88t61 126.5t44 148.5h-254zM1102 602q-32 8 -43.5 31.5t-11.5 54.5q0 43 17 70.5
t46 40.5q-2 33 -7 55.5t-14 37t-22.5 20.5t-34.5 6q-36 0 -70.5 -28.5t-64.5 -75.5t-55.5 -107.5t-43.5 -124.5t-28 -126.5t-10 -113.5t5.5 -83t17.5 -50.5t32 -25.5t49 -7q38 0 75 33t69.5 90t57 135t36.5 168z" />
    <glyph glyph-name="afii10081_afii10089" unicode="&#x43f;&#x447;" horiz-adv-x="2068" 
d="M2154 367q-29 -83 -63 -144t-70.5 -103t-74.5 -68t-74 -40t-69 -19t-60 -5q-46 0 -86 14t-69.5 44t-46.5 76t-17 111q0 28 4 61.5t12 72.5l10 51q-33 -36 -65.5 -58.5t-63.5 -35t-60 -17t-56 -4.5q-56 0 -102 20.5t-77 65.5q-60 -198 -154.5 -299.5t-232.5 -101.5
q-68 0 -114 19.5t-74 52t-40.5 74t-12.5 85.5q0 52 14.5 121.5t31.5 142.5t31.5 141t14.5 117q0 105 -74 105q-28 0 -52 -15t-44 -40.5t-36 -60t-28 -73.5l-139 -657h-295l217 1024h295l-22 -106q33 37 65.5 59.5t63.5 34.5t58.5 16t51.5 4q49 0 91 -13t72.5 -41t47.5 -72
t17 -105q0 -41 -7.5 -88.5t-18.5 -97t-23.5 -98.5t-23.5 -94t-18.5 -83.5t-7.5 -67.5q0 -38 17.5 -62t64.5 -24q51 0 85.5 34t59.5 95.5t44.5 146.5t42.5 187l80 375h294l-79 -381q-7 -28 -7 -57q0 -35 13.5 -59.5t48.5 -24.5q30 0 56 13.5t47 37.5t36.5 57t24.5 72l71 342
h295l-147 -696q-5 -17 -6.5 -33.5t-1.5 -32.5q0 -43 20 -59.5t64 -16.5q30 0 55 13.5t46 37.5t37 57.5t27 72.5h86z" />
    <glyph glyph-name="afii10083_afii10073" unicode="&#x441;&#x437;" horiz-adv-x="1794" 
d="M1880 367q-31 -105 -75.5 -174t-95 -113t-103.5 -67.5t-101 -35.5q-2 -116 -31 -207t-79.5 -153.5t-121 -95.5t-155.5 -33q-47 0 -88.5 12.5t-73 37t-49.5 62t-18 87.5q0 62 28.5 110t74.5 84.5t103.5 62.5t114.5 44q-6 217 -147 217h-64l27 123h59q55 0 101.5 27.5
t80 75.5t52 112t18.5 137q0 30 -5 61t-18.5 56.5t-38 42t-63.5 16.5q-46 0 -85.5 -17t-76 -55t-71.5 -100t-72 -152q-28 -66 -59.5 -132t-70.5 -126.5t-86.5 -112.5t-106.5 -90.5t-131 -60.5t-160 -22q-73 0 -132 18.5t-101 57.5t-64.5 100.5t-22.5 148.5q0 59 12 136.5
t38.5 158.5t69 159t104 139t142.5 98.5t185 37.5q68 0 112 -16.5t70 -43t36 -60.5t10 -68q0 -38 -8.5 -65.5t-23.5 -46.5t-35 -28t-42 -9q-35 0 -72 24q25 66 25 121q0 38 -14 61t-43 23q-32 0 -64 -29t-61.5 -77t-54.5 -110t-43.5 -129t-29 -133.5t-10.5 -123.5
q0 -52 9.5 -85.5t28 -52.5t46 -26.5t64.5 -7.5q86 0 147.5 32t107.5 85.5t81 124t67 147.5q29 66 56.5 128t58 117t66 100.5t81 78.5t103 51t131.5 18t134 -21.5t102 -63t65 -102t23 -138.5q0 -67 -18 -125.5t-46.5 -107.5t-64 -88t-70.5 -67t-67 -44.5t-52 -20.5
q24 -8 49.5 -26t48.5 -44t41.5 -60t28.5 -75q55 16 99.5 38.5t80 57.5t64.5 86.5t53 125.5h86zM1204 -111q-40 -14 -76.5 -31t-64.5 -38.5t-45 -47.5t-17 -57q0 -29 17.5 -48t52.5 -19q22 0 43.5 19.5t39.5 52.5t31 77t19 92z" />
    <glyph glyph-name="afii10085_afii10105" unicode="&#x443;&#x458;" horiz-adv-x="1485" 
d="M1178 -164q-23 -110 -64.5 -178t-93 -106t-107 -51t-106.5 -13q-87 0 -139.5 33.5t-77.5 87.5q-30 -36 -63.5 -59.5t-68.5 -37t-70.5 -19t-68.5 -5.5q-47 0 -88.5 12.5t-72.5 37t-49.5 62t-18.5 87.5q0 61 26 106.5t71 79t105 55.5t128 37l31 139q-33 -37 -66 -59.5
t-64.5 -35t-61 -17t-56.5 -4.5q-46 0 -86 14t-69.5 44t-46.5 76t-17 111q0 28 4 61.5t12 72.5l139 657h295l-147 -696q-6 -26 -6 -52q0 -18 3 -34t10 -28.5t18.5 -20t29.5 -7.5q30 0 55 13.5t45.5 37.5t36 57.5t27.5 72.5l139 657h295l-217 -1016l199 21l213 995h295
l-201 -940q46 15 86 38.5t72.5 57t57.5 79.5t40 108h86q-25 -89 -60.5 -152.5t-81 -107t-100.5 -70.5t-119 -43zM1483 1298q0 -34 -13 -63.5t-35.5 -51t-52 -34t-63.5 -12.5t-63.5 12.5t-51.5 34t-34.5 51t-12.5 63.5t12.5 64t34.5 52t51.5 35t63.5 13t63.5 -13t52 -35
t35.5 -52t13 -64zM905 -53l-198 -21l-19 -90q-8 -38 -19 -70t-24 -61q34 -35 90 -35q27 0 49.5 7.5t40.5 26t32 49.5t24 77zM401 -123q-44 -12 -80 -27t-62.5 -34.5t-41 -44.5t-14.5 -56q0 -24 17 -45.5t52 -21.5q32 0 65.5 44.5t53.5 137.5z" />
    <glyph glyph-name="afii10101_afii10073" unicode="&#x454;&#x437;" horiz-adv-x="1794" 
d="M1880 367q-31 -105 -75.5 -174t-95 -113t-103.5 -67.5t-101 -35.5q-2 -116 -31 -207t-79.5 -153.5t-121 -95.5t-155.5 -33q-47 0 -88.5 12.5t-73 37t-49.5 62t-18 87.5q0 62 28.5 110t74.5 84.5t103.5 62.5t114.5 44q-6 217 -147 217h-64l27 123h59q55 0 101.5 27.5
t80 75.5t52 112t18.5 137q0 30 -5 61t-18.5 56.5t-38 42t-63.5 16.5q-46 0 -85.5 -17t-76 -55t-71.5 -100t-72 -152q-28 -66 -59.5 -132t-70.5 -126.5t-86.5 -112.5t-106.5 -90.5t-131 -60.5t-160 -22q-73 0 -132 18.5t-101 57.5t-64.5 100.5t-22.5 148.5q0 59 12 136.5
t38.5 158.5t69 159t104 139t142.5 98.5t185 37.5q68 0 112 -16.5t70 -43t36 -60.5t10 -68q0 -38 -8.5 -65.5t-23.5 -46.5t-35 -28t-42 -9q-35 0 -72 24q25 66 25 121q0 38 -14 61t-43 23q-31 0 -61.5 -26.5t-58.5 -70.5t-52.5 -102t-42.5 -121h243l-26 -122h-248
q-8 -44 -12.5 -84.5t-4.5 -75.5q0 -52 9.5 -85.5t28 -52.5t46 -26.5t64.5 -7.5q86 0 147.5 32t107.5 85.5t81 124t67 147.5q29 66 56.5 128t58 117t66 100.5t81 78.5t103 51t131.5 18t134 -21.5t102 -63t65 -102t23 -138.5q0 -67 -18 -125.5t-46.5 -107.5t-64 -88t-70.5 -67
t-67 -44.5t-52 -20.5q24 -8 49.5 -26t48.5 -44t41.5 -60t28.5 -75q55 16 99.5 38.5t80 57.5t64.5 86.5t53 125.5h86zM1204 -111q-40 -14 -76.5 -31t-64.5 -38.5t-45 -47.5t-17 -57q0 -29 17.5 -48t52.5 -19q22 0 43.5 19.5t39.5 52.5t31 77t19 92z" />
    <glyph glyph-name="afii10101_afii10087" unicode="&#x454;&#x445;" horiz-adv-x="1546" 
d="M1632 367q-43 -125 -98.5 -200t-113.5 -115t-111.5 -52t-91.5 -12q-53 0 -91.5 16t-67.5 50.5t-50 88t-37 127.5q-65 -65 -143.5 -117.5t-163 -89t-171.5 -56t-169 -19.5q-75 0 -141 17.5t-116 57.5t-79 104t-29 157q0 55 12 130t38 154.5t68.5 157.5t104 139t142.5 99
t186 38q67 0 111 -16t70 -43t36 -61t10 -70q0 -39 -9 -67t-24 -45.5t-34.5 -26t-40.5 -8.5q-38 0 -72 24q12 32 18.5 62t6.5 59q0 37 -13.5 60.5t-42.5 23.5q-31 0 -62 -27t-60 -72t-54 -102.5t-43 -118.5h260l-26 -122h-265q-8 -38 -11 -71.5t-3 -62.5q0 -57 16 -96
t44 -62.5t66 -33.5t81 -10q55 0 117.5 15t125.5 44t124 73t112 101l-117 635h289l80 -442q46 49 82.5 95.5t61.5 88.5t38 78t13 63v14t-2 11q-11 -2 -18.5 -3t-18.5 -1q-27 0 -45 9.5t-29 24.5t-15.5 34t-4.5 38q0 54 31 79.5t79 25.5q36 0 63 -14t45 -38t27 -56.5t9 -69.5
q0 -50 -16.5 -102t-52 -111.5t-91 -128t-133.5 -152.5l18 -100q6 -29 12.5 -60.5t19.5 -58.5t33.5 -44.5t55.5 -17.5q30 0 58.5 13.5t52.5 37.5t43 57.5t30 72.5h86z" />
    <glyph glyph-name="afii10083_afii10089" unicode="&#x441;&#x447;" horiz-adv-x="1821" 
d="M1907 367q-43 -125 -97.5 -200t-111 -115t-109.5 -52t-94 -12q-46 0 -86 14t-69.5 44t-46.5 76t-17 111q0 28 4 61.5t12 72.5l11 51q-33 -36 -66 -58.5t-64 -35t-60 -17t-56 -4.5q-68 0 -120.5 29.5t-78.5 95.5q-43 -81 -102.5 -160t-132 -141.5t-156 -100.5t-174.5 -38
q-73 0 -132 18.5t-101 57.5t-64.5 100.5t-22.5 148.5q0 59 12 136.5t38.5 158.5t69 159t104 139t142.5 98.5t185 37.5q68 0 112 -16.5t70 -43t36 -60.5t10 -68q0 -38 -8.5 -65.5t-23.5 -46.5t-35 -28t-42 -9q-35 0 -72 24q25 66 25 121q0 38 -14 61t-43 23q-32 0 -64 -29
t-61.5 -77t-54.5 -110t-43.5 -129t-29 -133.5t-10.5 -123.5q0 -52 9.5 -85.5t27.5 -52.5t44 -26.5t59 -7.5q39 0 82 18.5t86.5 52t85.5 80.5t77.5 104.5t62.5 124t42 138.5l74 346h295l-80 -381q-6 -30 -6 -57q0 -35 13 -59.5t48 -24.5q30 0 56 13t47 37t36.5 57t24.5 73
l72 342h294l-147 -696q-5 -17 -6.5 -33.5t-1.5 -32.5q0 -43 20 -59.5t64 -16.5q30 0 55.5 13.5t46 37.5t36.5 57.5t28 72.5h86z" />
    <glyph glyph-name="afii10101_afii10089" unicode="&#x454;&#x447;" horiz-adv-x="1821" 
d="M1907 367q-43 -125 -97.5 -200t-111 -115t-109.5 -52t-94 -12q-46 0 -86 14t-69.5 44t-46.5 76t-17 111q0 28 4 61.5t12 72.5l11 51q-33 -36 -66 -58.5t-64 -35t-60 -17t-56 -4.5q-68 0 -120.5 29.5t-78.5 95.5q-43 -81 -102.5 -160t-132 -141.5t-156 -100.5t-174.5 -38
q-73 0 -132 18.5t-101 57.5t-64.5 100.5t-22.5 148.5q0 59 12 136.5t38.5 158.5t69 159t104 139t142.5 98.5t185 37.5q68 0 112 -16.5t70 -43t36 -60.5t10 -68q0 -38 -8.5 -65.5t-23.5 -46.5t-35 -28t-42 -9q-35 0 -72 24q25 66 25 121q0 38 -14 61t-43 23
q-31 0 -61.5 -26.5t-58.5 -70.5t-52.5 -102t-42.5 -121h243l-26 -122h-248q-8 -44 -12.5 -84.5t-4.5 -75.5q0 -52 9.5 -85.5t27.5 -52.5t44 -26.5t59 -7.5q61 0 128.5 42t129 114t110.5 168.5t72 205.5l70 334h295l-80 -381q-6 -30 -6 -57q0 -35 13 -59.5t48 -24.5
q30 0 56 13t47 37t36.5 57t24.5 73l72 342h294l-147 -696q-5 -17 -6.5 -33.5t-1.5 -32.5q0 -43 20 -59.5t64 -16.5q30 0 55.5 13.5t46 37.5t36.5 57.5t28 72.5h86z" />
    <glyph glyph-name="afii10084_afii10089" unicode="&#x442;&#x447;" horiz-adv-x="2574" 
d="M2660 367q-28 -83 -62.5 -144t-71 -103t-74.5 -68t-74 -40t-69 -19t-60 -5q-46 0 -86 14t-69.5 44t-46.5 76t-17 111q0 28 4 61.5t12 72.5l10 51q-33 -36 -65.5 -58.5t-63.5 -35t-60.5 -17t-56.5 -4.5q-55 0 -101 20.5t-77 65.5q-60 -198 -155 -299.5t-232 -101.5
q-68 0 -114 19.5t-74 52t-40.5 74t-12.5 85.5q0 52 14.5 121.5t31.5 142.5t31.5 141t14.5 117q0 105 -74 105q-28 0 -52 -15t-44 -40.5t-36 -60t-28 -73.5l-139 -657h-295l150 707q6 24 6 51q0 18 -3 34t-10.5 28.5t-19 20t-29.5 7.5q-30 0 -55.5 -15t-46 -41t-36.5 -61
t-28 -74l-139 -657h-295l217 1024h295l-22 -106q33 37 66 59.5t65 35t62 17t57 4.5q40 0 75 -9.5t62 -30.5t46 -54.5t27 -81.5q37 57 76 91.5t76 52.5t71 24t62 6q49 0 90.5 -13t72 -41t47.5 -72t17 -105q0 -41 -7.5 -88.5t-18 -97t-23.5 -98.5t-23.5 -94t-18 -83.5
t-7.5 -67.5q0 -38 17.5 -62t64.5 -24q52 0 87 36t61.5 102t47.5 159t46 207l69 334h295l-80 -381q-6 -30 -6 -57q0 -35 13.5 -59.5t48.5 -24.5q30 0 56 13.5t47 37.5t36.5 57t24.5 72l71 342h295l-147 -696q-9 -35 -9 -66q0 -43 20.5 -59.5t63.5 -16.5q30 0 55.5 13.5
t46.5 37.5t37 57.5t27 72.5h86z" />
    <glyph glyph-name="afii10083_afii10092" unicode="&#x441;&#x44a;" horiz-adv-x="1722" 
d="M1364 926q-16 -27 -33.5 -58t-34.5 -64t-32 -67t-27 -67q48 31 102.5 47t110.5 16q45 0 88.5 -14.5t77 -46t54 -80t20.5 -115.5q0 -112 -44 -202.5t-118 -154t-171.5 -98t-205.5 -34.5q-65 0 -121.5 16t-98 48.5t-65.5 82t-24 117.5q0 14 -0.5 27.5t4.5 27.5
q-51 -62 -111 -119.5t-128 -101.5t-144.5 -71t-161.5 -27q-78 0 -139 18.5t-103 58t-64 101t-22 147.5q0 59 12 136.5t38.5 158.5t69 159t104 139t142.5 98.5t185 37.5q68 0 112 -16.5t70 -43t36 -60.5t10 -68q0 -38 -8.5 -65.5t-23.5 -46.5t-35 -28t-42 -9q-35 0 -72 24
q25 66 25 121q0 38 -14 61t-43 23q-32 0 -64 -29t-61.5 -77t-54.5 -110t-43.5 -129t-29 -133.5t-10.5 -123.5q0 -52 9 -85.5t28 -52.5t49 -26.5t72 -7.5q72 0 139.5 35.5t133.5 96t130.5 140.5t129.5 168q54 85 120 163t127 150h-100q-24 0 -44.5 -1t-35.5 -4t-24 -9.5
t-9 -17.5q0 -5 3.5 -6t8 -4t8 -10t3.5 -25q0 -29 -9.5 -49.5t-25 -33.5t-35.5 -19.5t-41 -6.5q-18 0 -34.5 6t-30 17t-21.5 28t-8 39q0 39 16.5 76.5t47 66.5t74.5 46.5t100 17.5h368zM1200 547q-21 -54 -34 -95t-20.5 -73.5t-10 -59.5t-2.5 -53q0 -104 81 -104
q45 0 83 30.5t65.5 76.5t43 100t15.5 100q0 36 -9 58t-23.5 34.5t-32 16.5t-35.5 4q-35 0 -65.5 -9t-55.5 -26z" />
    <glyph glyph-name="afii10110_afii10105" unicode="&#x45e;&#x458;" horiz-adv-x="1485" 
d="M1178 -164q-23 -110 -64.5 -178t-93 -106t-107 -51t-106.5 -13q-87 0 -139.5 33.5t-77.5 87.5q-30 -36 -63.5 -59.5t-68.5 -37t-70.5 -19t-68.5 -5.5q-47 0 -88.5 12.5t-72.5 37t-49.5 62t-18.5 87.5q0 61 26 106.5t71 79t105 55.5t128 37l31 139q-33 -37 -66 -59.5
t-64.5 -35t-61 -17t-56.5 -4.5q-46 0 -86 14t-69.5 44t-46.5 76t-17 111q0 28 4 61.5t12 72.5l139 657h295l-147 -696q-6 -26 -6 -52q0 -18 3 -34t10 -28.5t18.5 -20t29.5 -7.5q30 0 55 13.5t45.5 37.5t36 57.5t27.5 72.5l139 657h295l-217 -1016q25 2 48 3.5t46 6.5l105 11
l213 995h295l-201 -940q46 15 86 38.5t72.5 57t57.5 79.5t40 108h86q-25 -89 -60.5 -152.5t-81 -107t-100.5 -70.5t-119 -43zM965 1473q-35 -102 -80 -169t-99 -107t-118 -56.5t-136 -16.5q-128 0 -197 47.5t-69 128.5q0 67 37 108.5t100 41.5q60 0 93.5 -28.5t33.5 -82.5
q0 -6 -1 -17.5t-6 -25.5t-14.5 -28.5t-27.5 -26.5q16 -5 36 -6.5t46 -1.5q43 0 87.5 11t86.5 38.5t78.5 74t63.5 116.5h86zM1483 1298q0 -34 -13 -63.5t-35.5 -51t-52 -34t-63.5 -12.5t-63.5 12.5t-51.5 34t-34.5 51t-12.5 63.5t12.5 64t34.5 52t51.5 35t63.5 13t63.5 -13
t52 -35t35.5 -52t13 -64zM905 -53q-23 -2 -46 -3.5t-46 -6.5l-106 -11l-19 -90q-8 -38 -19 -70t-24 -61q34 -35 90 -35q27 0 49.5 7.5t40.5 26t32 49.5t24 77zM401 -123q-44 -12 -80 -27t-62.5 -34.5t-41 -44.5t-14.5 -56q0 -24 17 -45.5t52 -21.5q32 0 65.5 44.5
t53.5 137.5z" />
    <glyph glyph-name="afii10085_afii10089" unicode="&#x443;&#x447;" horiz-adv-x="2025" 
d="M2111 367q-29 -83 -63 -144t-70.5 -103t-74.5 -68t-74 -40t-69 -19t-60 -5q-46 0 -86 14t-69.5 44t-46.5 76t-17 111q0 28 4 61.5t12 72.5l10 51q-33 -36 -65.5 -58.5t-63.5 -35t-60 -17t-56 -4.5q-56 0 -102 20.5t-77 63.5q-24 -104 -66 -175t-92 -117t-104 -72
t-102 -39l-31 -148q-22 -110 -63.5 -178t-92.5 -106t-106.5 -51t-106.5 -13q-47 0 -88.5 12.5t-72.5 37t-49.5 62t-18.5 87.5q0 64 30.5 113t78.5 85.5t107.5 62.5t117.5 44l25 110q-33 -36 -66 -58.5t-64 -34.5t-60 -16.5t-56 -4.5q-46 0 -86 14t-69.5 44t-46.5 76t-17 111
q0 28 4 61.5t12 72.5l139 657h295l-147 -696q-6 -26 -6 -52q0 -18 3 -34t10 -28.5t18.5 -20t29.5 -7.5q28 0 52.5 12.5t44.5 35t35.5 53.5t27.5 67l143 670h295l-203 -950q51 18 93.5 45.5t76.5 69t59.5 99.5t41.5 138l122 598h295l-79 -381q-7 -28 -7 -57q0 -35 13.5 -59.5
t48.5 -24.5q60 0 102.5 48.5t59.5 127.5l73 346h295l-147 -696q-5 -17 -6.5 -33.5t-1.5 -32.5q0 -43 20 -59.5t64 -16.5q30 0 55 13.5t46 37.5t37 57.5t27 72.5h86zM403 -111q-40 -15 -76 -32.5t-63.5 -38.5t-44 -46.5t-16.5 -56.5q0 -11 4 -23t12.5 -22t21.5 -16t31 -6
q32 0 65.5 44.5t53.5 137.5z" />
    <glyph glyph-name="afii10110_afii10089" unicode="&#x45e;&#x447;" horiz-adv-x="2025" 
d="M2111 367q-29 -83 -63 -144t-70.5 -103t-74.5 -68t-74 -40t-69 -19t-60 -5q-46 0 -86 14t-69.5 44t-46.5 76t-17 111q0 28 4 61.5t12 72.5l10 51q-33 -36 -65.5 -58.5t-63.5 -35t-60 -17t-56 -4.5q-56 0 -102 20.5t-77 63.5q-24 -104 -66 -175t-92 -117t-104 -72
t-102 -39l-31 -148q-22 -110 -63.5 -178t-92.5 -106t-106.5 -51t-106.5 -13q-47 0 -88.5 12.5t-72.5 37t-49.5 62t-18.5 87.5q0 64 30.5 113t78.5 85.5t107.5 62.5t117.5 44l25 110q-33 -36 -66 -58.5t-64 -34.5t-60 -16.5t-56 -4.5q-46 0 -86 14t-69.5 44t-46.5 76t-17 111
q0 28 4 61.5t12 72.5l139 657h295l-147 -696q-6 -26 -6 -52q0 -18 3 -34t10 -28.5t18.5 -20t29.5 -7.5q28 0 52.5 12.5t44.5 35t35.5 53.5t27.5 67l143 670h295l-203 -950q51 18 93.5 45.5t76.5 69t59.5 99.5t41.5 138l122 598h295l-79 -381q-7 -28 -7 -57q0 -35 13.5 -59.5
t48.5 -24.5q30 0 56 13t47 37t36.5 57t24.5 73l71 342h295l-147 -696q-5 -17 -6.5 -33.5t-1.5 -32.5q0 -43 20 -59.5t64 -16.5q30 0 55 13.5t46 37.5t37 57.5t27 72.5h86zM965 1473q-35 -102 -80 -169t-99 -107t-118 -56.5t-136 -16.5q-128 0 -197 47.5t-69 128.5
q0 67 37 108.5t100 41.5q60 0 93.5 -28.5t33.5 -82.5q0 -6 -1 -17.5t-6 -25.5t-14.5 -28.5t-27.5 -26.5q16 -5 36 -6.5t46 -1.5q43 0 87.5 11t86.5 38.5t78.5 74t63.5 116.5h86zM403 -111q-40 -15 -76 -32.5t-63.5 -38.5t-44 -46.5t-16.5 -56.5q0 -11 4 -23t12.5 -22
t21.5 -16t31 -6q32 0 65.5 44.5t53.5 137.5z" />
    <glyph glyph-name="afii10087_afii10089" unicode="&#x445;&#x447;" horiz-adv-x="2103" 
d="M2189 367q-29 -83 -63 -144t-70.5 -103t-74.5 -68t-74 -40t-69 -19t-60 -5q-46 0 -86 14t-69.5 44t-46.5 76t-17 111q0 28 4 61.5t12 72.5l10 51q-33 -36 -65.5 -58.5t-63.5 -35t-60.5 -17t-56.5 -4.5q-55 0 -102 20.5t-76 65.5q-29 -92 -67 -166t-88 -126t-111.5 -80.5
t-136.5 -28.5q-53 0 -96.5 20t-77 63.5t-58 110.5t-39.5 162l-282 -344h-148l414 467l-33 229q-8 52 -16.5 85t-17.5 52t-20 26t-24 7q-30 0 -66 -30.5t-73.5 -92.5t-72.5 -155.5t-62 -220.5h-86q17 76 40 154.5t53.5 153t69.5 140t87 114t106 77t127 28.5q61 0 102 -23.5
t66.5 -59t37.5 -78.5t16 -82l18 -156q87 97 130 167.5t48 127.5q-11 -2 -19 -3t-16 -1q-27 0 -45 9t-29.5 24.5t-16.5 36t-5 44.5q0 27 11.5 46t30.5 31.5t44.5 18t52.5 5.5q28 0 50 -16.5t36 -43t21.5 -60t7.5 -67.5q0 -48 -17.5 -95t-53 -99t-89 -113t-125.5 -139l19 -143
q6 -50 16.5 -84.5t26 -55.5t36.5 -30t48 -9q53 0 90 33.5t64 94t47.5 143.5t41.5 182l80 385h295l-80 -381q-6 -30 -6 -57q0 -35 13.5 -59.5t48.5 -24.5q30 0 56 13.5t47 37.5t36.5 57t23.5 72l72 342h295l-147 -696q-5 -17 -7 -33.5t-2 -32.5q0 -43 20.5 -59.5t63.5 -16.5
q30 0 55.5 13.5t46.5 37.5t37 57.5t27 72.5h86z" />
    <glyph glyph-name="afii10087_afii10092" unicode="&#x445;&#x44a;" horiz-adv-x="2060" 
d="M1653 926q-16 -27 -33.5 -58t-34.5 -64t-32.5 -67t-26.5 -67q48 31 102.5 47t110.5 16q45 0 88 -14.5t76.5 -46t54 -80t20.5 -115.5q0 -112 -44 -202.5t-118 -154t-171.5 -98t-204.5 -34.5q-64 0 -118.5 14.5t-96 44t-66.5 75t-29 107.5q-81 -112 -176 -176.5t-206 -64.5
q-52 0 -93.5 20t-73.5 63.5t-55.5 110.5t-38.5 162l-282 -344h-148l414 467l-33 229q-8 52 -16.5 85t-17.5 52t-20 26t-24 7q-30 0 -66 -30.5t-73.5 -92.5t-72.5 -155.5t-62 -220.5h-86q17 76 40 154.5t53.5 153t69.5 140t87 114t106 77t127 28.5q61 0 102 -23.5t66.5 -59
t37.5 -78.5t16 -82l18 -156q87 97 130 167.5t48 127.5q-11 -2 -19 -3t-16 -1q-27 0 -45 9t-29.5 24.5t-16.5 36t-5 44.5q0 27 11.5 46t30.5 31.5t44.5 18t52.5 5.5q28 0 50 -16.5t36 -43t21.5 -60t7.5 -67.5q0 -48 -17.5 -95t-53 -99t-89 -113t-125.5 -139l19 -143
q6 -50 16.5 -84.5t26 -55.5t36.5 -30t48 -9q30 0 61.5 16.5t62.5 44t60 62.5t54.5 71.5t46.5 72t36 63.5q28 53 63.5 105.5t74.5 102.5t79.5 97.5t79.5 91.5h-100q-24 0 -44.5 -1t-36 -4t-24 -9.5t-8.5 -17.5q0 -5 3.5 -6t8 -4t8 -10t3.5 -25q0 -29 -9.5 -49.5t-25.5 -33.5
t-35.5 -19.5t-40.5 -6.5q-18 0 -34.5 6t-30 17t-21.5 28t-8 39q0 39 16.5 76.5t47 66.5t74.5 46.5t100 17.5h368zM1489 547q-21 -54 -34 -95t-20.5 -73.5t-10.5 -59.5t-3 -53q0 -104 82 -104q45 0 83 30.5t65.5 76.5t43 100t15.5 100q0 36 -9 58t-23.5 34.5t-32 16.5
t-35.5 4q-35 0 -65.5 -9t-55.5 -26z" />
    <glyph glyph-name="afii10089_afii10089" unicode="&#x447;&#x447;" horiz-adv-x="2068" 
d="M2154 367q-29 -83 -63 -144t-70.5 -103t-74.5 -68t-74 -40t-69 -19t-60 -5q-46 0 -86 14t-69.5 44t-46.5 76t-17 111q0 28 4 61.5t12 72.5l10 51q-33 -36 -65.5 -58.5t-63.5 -35t-60 -17t-56 -4.5q-56 0 -103 20.5t-76 65.5q-26 -83 -64 -156t-89 -127.5t-117 -86
t-147 -31.5q-47 0 -87 15.5t-69.5 45.5t-46.5 74.5t-17 103.5q0 20 3 59t14 81l10 51q-33 -36 -65.5 -58.5t-63.5 -35t-60.5 -17t-56.5 -4.5q-46 0 -86 14t-69.5 44t-46.5 76.5t-17 111.5q0 54 17 133l71 342h295l-80 -381q-6 -30 -6 -57q0 -35 13 -59.5t49 -24.5
q30 0 55 13.5t45 37.5t36 57t27 72l72 342h295l-147 -696q-5 -17 -7 -33.5t-2 -32.5q0 -43 20.5 -59.5t63.5 -16.5q41 0 73 30t56.5 77.5t41.5 105.5t29.5 114t21 103.5t14.5 73.5l70 334h294l-79 -381q-7 -28 -7 -57q0 -35 13.5 -59.5t48.5 -24.5q30 0 56 13t47 37t36.5 57
t24.5 73l71 342h295l-147 -696q-5 -17 -6.5 -33.5t-1.5 -32.5q0 -43 20 -59.5t64 -16.5q30 0 55 13.5t46 37.5t37 57.5t27 72.5h86z" />
    <glyph glyph-name="afii10090_afii10089" unicode="&#x448;&#x447;" horiz-adv-x="2574" 
d="M2660 367q-28 -83 -62.5 -144t-71 -103t-74.5 -68t-74 -40t-69 -19t-60 -5q-46 0 -86 14t-69.5 44t-46.5 76t-17 111q0 28 4 61.5t12 72.5l10 51q-33 -36 -65.5 -58.5t-63.5 -35t-60.5 -17t-56.5 -4.5q-55 0 -102 20.5t-76 65.5q-26 -83 -64 -156t-89.5 -127.5t-117 -86
t-147.5 -31.5q-88 0 -139.5 48.5t-62.5 145.5q-39 -63 -79 -101t-79 -59t-76 -27.5t-69 -6.5q-88 0 -140 48.5t-63 145.5q-39 -63 -79 -101t-79 -59t-76 -27.5t-69 -6.5q-46 0 -86 14t-69.5 44t-46.5 76t-17 111q0 28 4 61.5t12 72.5l139 657h295l-147 -696q-6 -32 -6 -58
q0 -35 13 -59.5t48 -24.5q30 0 55 13.5t45.5 37.5t36 57.5t27.5 72.5l139 657h295l-147 -696q-7 -29 -7 -58q0 -35 13.5 -59.5t48.5 -24.5q30 0 55 13.5t45.5 37.5t36 57.5t27.5 72.5l139 657h295l-148 -696q-5 -17 -6.5 -33.5t-1.5 -32.5q0 -43 20.5 -59.5t63.5 -16.5
q41 0 73 30t56.5 77.5t41.5 105.5t29.5 114t21 103.5t14.5 73.5l69 334h295l-80 -381q-6 -30 -6 -57q0 -35 13.5 -59.5t48.5 -24.5q30 0 56 13.5t47 37.5t36.5 57t24.5 72l71 342h295l-147 -696q-9 -35 -9 -66q0 -43 20.5 -59.5t63.5 -16.5q30 0 55.5 13.5t46.5 37.5
t37 57.5t27 72.5h86z" />
    <glyph glyph-name="afii10093_afii10089" unicode="&#x44b;&#x447;" horiz-adv-x="2370" 
d="M2456 367q-43 -125 -97.5 -200t-111 -115t-110 -52t-93.5 -12q-46 0 -86 14t-69.5 44t-46.5 76t-17 111q0 28 4 61.5t12 72.5l10 51q-33 -36 -65.5 -58.5t-63.5 -35t-60 -17t-56 -4.5q-56 0 -101 19.5t-75 62.5q-23 -80 -57.5 -151t-82 -125t-109 -86.5t-137.5 -34.5
q-64 4 -109 23.5t-73.5 50t-41.5 69t-13 80.5q0 13 1 27.5t5 38.5t11 62t20 98t31.5 145.5t44.5 205.5q-56 -35 -113 -68t-117 -65q49 -76 49 -204q0 -43 -11.5 -94t-36 -102.5t-61.5 -99.5t-87.5 -85t-116 -59.5t-145.5 -22.5q-141 0 -217 69t-76 193q0 29 3 58.5t11 58.5
l135 657h283l-152 -721q-5 -12 -5.5 -29t-0.5 -28q0 -84 92 -84q42 0 81.5 26.5t70 72.5t49 108t18.5 133q0 26 -7.5 45t-22.5 33q-11 -8 -27 -13.5t-33 -5.5q-15 0 -31 5t-29 15.5t-21.5 27t-8.5 40.5t10 41.5t26.5 29.5t37 17.5t41.5 5.5q46 0 84 -12q76 34 140 69.5
t125.5 72.5t124 74.5t136.5 76.5h127l-108 -508q-23 -99 -36.5 -158.5t-13.5 -85.5q0 -86 82 -86q41 0 73 30t56.5 77.5t41.5 105.5t29.5 114t21 103.5t14.5 73.5l70 334h294l-79 -381q-3 -15 -5 -29t-2 -28q0 -35 13.5 -59.5t48.5 -24.5q30 0 56 13.5t47 37.5t36.5 57
t24.5 72l71 342h295l-147 -696q-5 -17 -6.5 -33.5t-1.5 -32.5q0 -43 20 -59.5t64 -16.5q30 0 55.5 13.5t46 37.5t36.5 57.5t28 72.5h86z" />
    <glyph glyph-name="afii10103_afii10089" unicode="&#x456;&#x447;" horiz-adv-x="1563" 
d="M1649 367q-43 -125 -97.5 -200t-111 -115t-109.5 -52t-94 -12q-46 0 -86 14t-69.5 44t-46.5 76t-17 111q0 28 4 61.5t12 72.5l10 51q-33 -36 -65.5 -58.5t-63.5 -35t-60 -17t-56 -4.5q-56 0 -102.5 20.5t-75.5 65.5q-26 -83 -64 -156t-89.5 -127.5t-117.5 -86t-147 -31.5
q-53 0 -93.5 17t-68.5 48.5t-42.5 76t-14.5 99.5q0 12 1.5 29.5t3.5 36.5t5 38t6 34l139 657h295l-147 -696q-5 -17 -6.5 -33.5t-1.5 -32.5q0 -43 20 -59.5t63 -16.5q41 0 73 30t56.5 77.5t41.5 105.5t29.5 114t21 103.5t14.5 73.5l70 334h295l-80 -381q-6 -30 -6 -57
q0 -35 13 -59.5t48 -24.5q30 0 56 13.5t47 37.5t36.5 57t24.5 72l72 342h294l-147 -696q-5 -17 -6.5 -33.5t-1.5 -32.5q0 -43 20 -59.5t64 -16.5q30 0 55.5 13.5t46 37.5t36.5 57.5t28 72.5h86zM506 1296q0 -34 -13 -63.5t-35.5 -51t-52 -34t-63.5 -12.5t-63.5 12.5
t-51.5 34t-34.5 51t-12.5 63.5t12.5 63.5t34.5 52t51.5 35.5t63.5 13t63.5 -13t52 -35.5t35.5 -52t13 -63.5z" />
    <glyph glyph-name="afii10104_afii10089" unicode="&#x457;&#x447;" horiz-adv-x="1563" 
d="M1649 367q-43 -125 -97.5 -200t-111 -115t-109.5 -52t-94 -12q-46 0 -86 14t-69.5 44t-46.5 76t-17 111q0 28 4 61.5t12 72.5l10 51q-33 -36 -65.5 -58.5t-63.5 -35t-60 -17t-56 -4.5q-56 0 -102.5 20.5t-75.5 65.5q-26 -83 -64 -156t-89.5 -127.5t-117.5 -86t-147 -31.5
q-53 0 -93.5 17t-68.5 48.5t-42.5 76t-14.5 99.5q0 12 1.5 29.5t3.5 36.5t5 38t6 34l139 657h295l-147 -696q-5 -17 -6.5 -33.5t-1.5 -32.5q0 -43 20 -59.5t63 -16.5q41 0 73 30t56.5 77.5t41.5 105.5t29.5 114t21 103.5t14.5 73.5l70 334h295l-80 -381q-6 -30 -6 -57
q0 -35 13 -59.5t48 -24.5q30 0 56 13t47 37t36.5 57t24.5 73l72 342h294l-147 -696q-5 -17 -6.5 -33.5t-1.5 -32.5q0 -43 20 -59.5t64 -16.5q30 0 55.5 13.5t46 37.5t36.5 57.5t28 72.5h86zM651 1298q0 -27 -10 -49.5t-27 -39t-40 -26t-48 -9.5q-27 0 -49.5 9.5t-39.5 26
t-26.5 39t-9.5 49.5q0 25 9.5 48t26.5 40t39.5 27t49.5 10q25 0 48 -10t40 -27t27 -40t10 -48zM283 1298q0 -27 -10 -49.5t-27.5 -39t-40 -26t-47.5 -9.5q-27 0 -50 9.5t-39.5 26t-26 39t-9.5 49.5q0 25 9.5 48t26 40t39.5 27t50 10q25 0 47.5 -10t40 -27t27.5 -40t10 -48z
" />
    <glyph glyph-name="afii10104_afii10104" unicode="&#x457;&#x457;" horiz-adv-x="1112" 
d="M1180 367q-29 -83 -64.5 -144t-74 -103t-79 -68t-78.5 -40t-72.5 -19t-61.5 -5q-40 0 -75.5 10.5t-64 32.5t-48 56.5t-27.5 82.5q-42 -59 -88 -94.5t-90 -55t-83.5 -26t-70.5 -6.5q-46 0 -86 14t-69.5 44t-46.5 76t-17 111q0 28 4 61.5t12 72.5l139 657h295l-147 -696
q-5 -17 -6.5 -33.5t-1.5 -32.5q0 -43 20 -59.5t63 -16.5q30 0 58.5 13.5t52.5 37.5t43 57.5t31 72.5l139 657h295l-147 -696q-5 -17 -7 -33.5t-2 -32.5q0 -43 20.5 -59.5t63.5 -16.5q30 0 58.5 13.5t52.5 37.5t43 57.5t31 72.5h86zM1198 1298q0 -27 -10 -49.5t-27 -39
t-40 -26t-48 -9.5q-27 0 -50 9.5t-39.5 26t-26 39t-9.5 49.5q0 25 9.5 48t26 40t39.5 27t50 10q25 0 48 -10t40 -27t27 -40t10 -48zM893 1298q0 -27 -10 -49.5t-27 -39t-40 -26t-48 -9.5q-27 0 -50 9.5t-39.5 26t-26 39t-9.5 49.5q0 25 9.5 48t26 40t39.5 27t50 10
q25 0 48 -10t40 -27t27 -40t10 -48zM588 1298q0 -27 -10 -49.5t-27.5 -39t-40 -26t-47.5 -9.5q-27 0 -50 9.5t-39.5 26t-26 39t-9.5 49.5q0 25 9.5 48t26 40t39.5 27t50 10q25 0 47.5 -10t40 -27t27.5 -40t10 -48zM283 1298q0 -27 -10 -49.5t-27.5 -39t-40 -26t-47.5 -9.5
q-27 0 -50 9.5t-39.5 26t-26 39t-9.5 49.5q0 25 9.5 48t26 40t39.5 27t50 10q25 0 47.5 -10t40 -27t27.5 -40t10 -48z" />
    <glyph glyph-name="afii10108_afii10105" unicode="&#x45b;&#x458;" horiz-adv-x="1479" 
d="M1171 -164q-22 -110 -63.5 -178t-93 -106t-107 -51t-106.5 -13q-85 0 -138 32.5t-79 86.5q-29 -36 -60.5 -59t-65 -36.5t-67.5 -18.5t-67 -5q-46 0 -87 12.5t-71.5 37t-48 62t-17.5 87.5q0 63 26 109t71 79t105 55t128 37q30 141 51.5 241t36 168t23 108.5t13 64t6 34
t1.5 17.5q0 105 -74 105q-27 0 -51.5 -15t-44.5 -40.5t-36.5 -60t-28.5 -73.5l-109 -516h-295l217 1024h-110l22 111h113l55 258l303 41l-63 -299h256l-25 -111h-256l-53 -248q33 37 66 59.5t64 35t59.5 16.5t52.5 4q49 0 90.5 -13t72 -41.5t47.5 -72.5t17 -105
q0 -12 -0.5 -21.5t-4 -30.5t-11.5 -59t-22.5 -106.5t-37 -173.5t-55.5 -260q25 2 47 3.5t45 6.5l104 11l213 995h295l-198 -940q46 16 85.5 39t72 57t57 79.5t39.5 107.5h86q-25 -89 -60.5 -152.5t-81 -107t-100.5 -70.5t-119 -43zM1477 1298q0 -34 -13 -63.5t-35.5 -51
t-52 -34t-63.5 -12.5t-63.5 12.5t-51.5 34t-34.5 51t-12.5 63.5t12.5 64t34.5 52t51.5 35t63.5 13t63.5 -13t52 -35t35.5 -52t13 -64zM899 -53q-23 -2 -46 -3.5t-46 -6.5l-107 -11l-18 -90q-11 -38 -20 -71t-21 -62q14 -17 38 -25t50 -8q27 0 49.5 7.5t40.5 26t31.5 49.5
t23.5 77zM412 -121q-44 -12 -80.5 -26.5t-63 -34t-41 -45t-14.5 -58.5q0 -24 17.5 -45.5t52.5 -21.5q32 0 65 44.5t53 137.5z" />
    <glyph glyph-name="afii10108_afii10089" unicode="&#x45b;&#x447;" horiz-adv-x="2028" 
d="M2099 367q-29 -83 -63 -144t-70.5 -103t-74.5 -68t-74 -40t-69 -19t-60 -5q-46 0 -86 14t-70 44t-47 76t-17 111q0 28 4.5 61.5t12.5 72.5l10 51q-33 -36 -65.5 -58.5t-63.5 -35t-60.5 -17t-56.5 -4.5q-55 0 -101 20.5t-77 63.5q-24 -104 -65.5 -175t-91.5 -117
t-103.5 -72t-101.5 -39l-33 -148q-25 -110 -64 -178t-86 -106t-100.5 -51t-106.5 -13q-45 0 -85 12.5t-69.5 37t-47 62t-17.5 87.5q0 67 31.5 118t81 88.5t110 63t117.5 41.5q30 137 51 233t34.5 161t20.5 103t10.5 59t4 30t0.5 16q0 105 -74 105q-27 0 -51.5 -15
t-44.5 -40.5t-36.5 -60t-28.5 -73.5l-109 -516h-295l217 1024h-110l22 111h113l55 258l303 41l-63 -299h256l-25 -111h-256l-53 -248q33 37 66 59.5t64 35t59.5 16.5t52.5 4q49 0 90.5 -13t72 -41.5t47.5 -72.5t17 -105q0 -11 -1 -24.5t-5.5 -37.5t-12 -62.5t-21 -99.5
t-33 -148.5t-46.5 -208.5q49 18 90.5 45.5t74.5 68.5t58 98.5t41 135.5l123 598h295l-80 -381q-6 -30 -6 -57q0 -35 13 -59.5t49 -24.5q30 0 56 13.5t47 37.5t36.5 57t23.5 72l72 342h295l-147 -696q-5 -17 -7 -33.5t-2 -32.5q0 -43 20.5 -59.5t63.5 -16.5q30 0 55.5 13.5
t46 37.5t36.5 57.5t28 72.5h86zM403 -170q4 20 7 37t8 31q-39 -15 -76 -33t-65 -40.5t-45 -49.5t-17 -60q0 -11 4.5 -23t13 -22t21.5 -16t31 -6q32 0 65 44.5t53 137.5z" />
    <glyph glyph-name="afii10105_afii10105" unicode="&#x458;&#x458;" horiz-adv-x="983" 
d="M676 -164q-23 -110 -64.5 -178t-93 -106t-107 -51t-106.5 -13q-87 0 -139.5 33.5t-77.5 87.5q-30 -36 -63.5 -59.5t-68.5 -37t-70 -19t-68 -5.5q-47 0 -88.5 12.5t-73 37t-50 62t-18.5 87.5q0 61 26.5 106.5t72 79t105.5 55.5t128 37l223 1059h295l-217 -1016
q25 2 48 3.5t46 6.5l105 11l213 995h295l-201 -940q46 15 86 38.5t72.5 57t57.5 79.5t40 108h86q-24 -89 -59.5 -152.5t-81 -107t-100.5 -70.5t-119 -43zM981 1298q0 -34 -13 -63.5t-35.5 -51t-52 -34t-63.5 -12.5t-63.5 12.5t-51.5 34t-34.5 51t-12.5 63.5t12.5 64t34.5 52
t51.5 35t63.5 13t63.5 -13t52 -35t35.5 -52t13 -64zM489 1298q0 -34 -13 -63.5t-35 -51t-51.5 -34t-63.5 -12.5t-63.5 12.5t-51.5 34t-34.5 51t-12.5 63.5t12.5 64t34.5 52t51.5 35t63.5 13t63.5 -13t51.5 -35t35 -52t13 -64zM403 -53q-23 -2 -46 -3.5t-46 -6.5l-106 -11
l-19 -90q-8 -38 -19 -70t-24 -61q34 -35 90 -35q27 0 49.5 7.5t40.5 26t32 49.5t24 77zM-100 -123q-43 -12 -79.5 -27t-63 -34.5t-41.5 -44.5t-15 -56q0 -24 17.5 -45.5t52.5 -21.5q32 0 65 44.5t53 137.5z" />
    <glyph glyph-name="afii10105_afii10089" unicode="&#x458;&#x447;" horiz-adv-x="1522" 
d="M1608 367q-43 -125 -97.5 -200t-111 -115t-109.5 -52t-94 -12q-46 0 -86 14t-69.5 44t-46.5 76t-17 111q0 28 4 61.5t12 72.5l11 51q-33 -36 -66 -58.5t-64 -35t-60 -17t-56 -4.5q-56 0 -101.5 20.5t-76.5 63.5q-25 -104 -67 -175t-92 -117t-104 -72t-102 -39l-31 -148
q-22 -110 -63.5 -178t-92 -106t-106 -51t-106.5 -13q-47 0 -88.5 12.5t-73 37t-50 62t-18.5 87.5q0 64 30.5 112.5t79 85.5t108.5 63t118 44l219 1032h295l-203 -950q51 18 93.5 45.5t76.5 69t59.5 99.5t41.5 138l123 598h295l-80 -381q-6 -30 -6 -57q0 -35 13 -59.5
t48 -24.5q30 0 56 13t47 37t36.5 57t24.5 73l72 342h294l-147 -696q-5 -17 -6.5 -33.5t-1.5 -32.5q0 -43 20 -59.5t64 -16.5q30 0 55.5 13.5t46 37.5t36.5 57.5t28 72.5h86zM489 1298q0 -34 -13 -63.5t-35 -51t-51.5 -34t-63.5 -12.5t-63.5 12.5t-51.5 34t-34.5 51
t-12.5 63.5t12.5 64t34.5 52t51.5 35t63.5 13t63.5 -13t51.5 -35t35 -52t13 -64zM-100 -111q-40 -15 -76.5 -32.5t-64 -38.5t-44 -46.5t-16.5 -56.5q0 -11 4 -23t13 -22t22 -16t31 -6q32 0 65 44.5t53 137.5z" />
    <glyph glyph-name="afii10073_afii10073" unicode="&#x437;&#x437;" horiz-adv-x="1720" 
d="M1806 367q-31 -105 -75.5 -174t-95 -113t-103 -67.5t-100.5 -35.5q-3 -117 -31.5 -208t-79.5 -153.5t-121.5 -95t-155.5 -32.5q-47 0 -88.5 12.5t-72.5 37t-49.5 62t-18.5 87.5q0 62 28.5 110t74.5 84.5t103.5 62.5t115.5 44q-5 112 -40.5 164.5t-107.5 52.5h-63l26 123
h60q55 0 101.5 27.5t80 75.5t52 112t18.5 137q0 30 -5 61t-18.5 56.5t-38 42t-63.5 16.5q-50 0 -91.5 -26.5t-79 -77.5t-73 -125t-72.5 -168q-45 -114 -98.5 -202t-123 -148t-159.5 -90.5t-209 -30.5q-77 0 -133.5 23.5t-93.5 61t-54.5 84t-17.5 93.5q0 36 9.5 66.5
t24.5 54.5t34.5 41.5t40.5 27.5q86 154 145 304.5t107 302.5l303 40q6 -133 11.5 -230.5t10.5 -169t9 -121.5t7.5 -88.5t5 -70t1.5 -65.5q0 -20 -1.5 -40t-6.5 -40q8 9 20 29.5t26.5 48.5t29.5 61.5t30 69.5q53 129 98 234.5t99.5 180t127.5 115.5t183 41q74 0 134 -21.5
t102 -63t65 -102t23 -138.5q0 -67 -18 -125.5t-46.5 -107.5t-64 -88t-70.5 -67t-67 -44.5t-52 -20.5q24 -9 49.5 -27t48.5 -44t41.5 -59.5t28.5 -74.5q55 16 100.5 38.5t81.5 57.5t64.5 86.5t50.5 125.5h86zM43 293q0 -72 28.5 -107.5t96.5 -35.5q34 0 66 9.5t57 32t40 58.5
t15 90q0 26 -1.5 50.5t-3.5 52t-5.5 61.5t-8 79t-9.5 104t-11 138q-31 -100 -73 -194t-93 -193q20 -11 33.5 -28t13.5 -43q0 -19 -6 -37t-18 -32.5t-28.5 -23t-37.5 -8.5q-17 0 -32 5t-23 22zM1130 -111q-40 -14 -76.5 -31t-64.5 -38.5t-44.5 -47.5t-16.5 -57q0 -29 17 -48
t52 -19q22 0 43.5 19.5t39.5 52.5t31 77t19 92z" />
    <glyph glyph-name="afii10073_afii10087" unicode="&#x437;&#x445;" horiz-adv-x="1489" 
d="M1575 367q-29 -83 -63.5 -144t-72 -103t-77 -68t-76.5 -40t-71 -19t-62 -5q-52 0 -90 17.5t-66 54t-49 94t-39 137.5q-42 -30 -91 -55.5t-97 -47.5t-91.5 -41t-74.5 -36q-32 -34 -71.5 -57.5t-82 -38t-86 -21t-82.5 -6.5q-77 0 -133.5 23.5t-93.5 61t-54.5 84t-17.5 93.5
q0 36 9.5 66.5t24.5 54.5t34.5 41.5t40.5 27.5q86 154 145 304.5t107 302.5l303 40q6 -133 11.5 -230.5t10.5 -169t9 -121.5t7.5 -88.5t5 -70t1.5 -65.5q0 -23 -2.5 -46t-7.5 -46q63 26 132.5 64t123.5 85l-115 625h289l80 -442q46 49 82 95.5t61 88.5t38 78t13 63v14t-2 11
q-11 -2 -19 -3t-16 -1q-27 0 -45 9t-29.5 24.5t-16.5 36t-5 44.5q0 48 33.5 72.5t81.5 24.5q34 0 60.5 -14.5t43.5 -39t26 -58t9 -71.5q0 -50 -17 -102.5t-53 -111t-91.5 -126t-131.5 -147.5l19 -102q6 -29 12.5 -60.5t19 -58.5t33.5 -44.5t56 -17.5q30 0 58 13.5t52 37.5
t43 57.5t31 72.5h86zM43 293q0 -72 28.5 -107.5t96.5 -35.5q34 0 66 9.5t57 32t40 58.5t15 90q0 26 -1.5 50.5t-3.5 52t-5.5 61.5t-8 79t-9.5 104t-11 138q-31 -100 -73 -194t-93 -193q20 -11 33.5 -28t13.5 -43q0 -19 -6 -37t-18 -32.5t-28.5 -23t-37.5 -8.5q-17 0 -32 5
t-23 22z" />
    <glyph glyph-name="afii10073_afii10089" unicode="&#x437;&#x447;" horiz-adv-x="1862" 
d="M1948 367q-43 -125 -97.5 -200t-111 -115t-109.5 -52t-94 -12q-46 0 -86 14t-69.5 44t-46.5 76t-17 111q0 28 4 61.5t12 72.5l10 51q-33 -36 -65.5 -58.5t-63.5 -35t-60 -17t-56 -4.5q-73 0 -126.5 33.5t-78.5 107.5q-31 -72 -74.5 -130t-93 -102.5t-101.5 -76.5
t-100 -53q-32 -26 -68 -43.5t-74 -29t-76 -16.5t-73 -5q-77 0 -133.5 23.5t-93.5 61t-54.5 84t-17.5 93.5q0 36 9.5 66.5t24.5 54.5t34.5 41.5t40.5 27.5q86 154 145 304.5t107 302.5l303 40q6 -133 11.5 -230.5t10.5 -169t9 -121.5t7.5 -88.5t5 -70t1.5 -65.5
q0 -23 -2.5 -46t-7.5 -46q47 34 90 89t78.5 117t60.5 124.5t35 111.5l70 332h295l-80 -381q-6 -30 -6 -57q0 -35 13 -59.5t48 -24.5q30 0 56 13.5t47 37.5t36.5 57t24.5 72l72 342h294l-147 -696q-5 -17 -6.5 -33.5t-1.5 -32.5q0 -43 20 -59.5t64 -16.5q30 0 55.5 13.5
t46 37.5t36.5 57.5t28 72.5h86zM43 293q0 -72 28.5 -107.5t96.5 -35.5q34 0 66 9.5t57 32t40 58.5t15 90q0 26 -1.5 50.5t-3.5 52t-5.5 61.5t-8 79t-9.5 104t-11 138q-31 -100 -73 -194t-93 -193q20 -11 33.5 -28t13.5 -43q0 -19 -6 -37t-18 -32.5t-28.5 -23t-37.5 -8.5
q-17 0 -32 5t-23 22z" />
    <glyph glyph-name="afii10193_afii10089" unicode="&#x45f;&#x447;" horiz-adv-x="2068" 
d="M2154 367q-29 -83 -63 -144t-70.5 -103t-74.5 -68t-74 -40t-69 -19t-60 -5q-46 0 -86 14t-69.5 44t-46.5 76t-17 111q0 28 4 61.5t12 72.5l10 51q-33 -36 -65.5 -58.5t-63.5 -35t-60 -17t-56 -4.5q-56 0 -103 20.5t-76 65.5q-26 -83 -64 -156t-89 -127.5t-117 -86
t-147 -31.5q-88 0 -140 48.5t-63 145.5q-39 -63 -79 -101t-79 -59t-76 -27.5t-69 -6.5q-46 0 -86 14t-69.5 44t-46.5 76t-17 111q0 28 4 61.5t12 72.5l139 657h295l-147 -696q-6 -32 -6 -58q0 -35 13 -59.5t48 -24.5q30 0 55 13.5t45.5 37.5t36 57.5t27.5 72.5l139 657h295
l-147 -696q-5 -17 -7 -33.5t-2 -32.5q0 -43 20.5 -59.5t63.5 -16.5q41 0 73 30t56.5 77.5t41.5 105.5t29.5 114t21 103.5t14.5 73.5l70 334h294l-79 -381q-7 -28 -7 -57q0 -35 13.5 -59.5t48.5 -24.5q30 0 56 13.5t47 37.5t36.5 57t24.5 72l71 342h295l-147 -696
q-5 -17 -6.5 -33.5t-1.5 -32.5q0 -43 20 -59.5t64 -16.5q30 0 55 13.5t46 37.5t37 57.5t27 72.5h86zM381 -512q12 12 19.5 30.5t7.5 32.5q0 30 -15.5 51t-34 43.5t-34 51.5t-15.5 74q0 120 109 229h104q-12 -12 -19 -29.5t-7 -31.5q0 -26 15.5 -48t34.5 -47.5t34.5 -57.5
t15.5 -77q-2 -57 -32.5 -113.5t-78.5 -107.5h-104z" />
    <glyph glyph-name="afii10095_afii10073" unicode="&#x44d;&#x437;" horiz-adv-x="1714" 
d="M1800 367q-31 -105 -75.5 -174t-95 -113t-103.5 -67.5t-101 -35.5q-2 -116 -31 -207t-79.5 -153.5t-121 -95.5t-155.5 -33q-47 0 -88.5 12.5t-73 37t-49.5 62t-18 87.5q0 62 28.5 110t74.5 84.5t103.5 62.5t114.5 44q-6 217 -147 217h-63l26 123h60q55 0 101 27.5
t79.5 75.5t52 112t18.5 137q0 30 -5 61t-18.5 56.5t-36 42t-56.5 16.5q-44 0 -86 -22.5t-84.5 -58.5t-88 -80t-96.5 -87q-10 -62 -30.5 -131.5t-54 -138.5t-80 -132.5t-108 -111.5t-139 -77t-171.5 -29q-142 0 -210.5 58.5t-68.5 158.5q0 43 9.5 75t26 53.5t38 32.5t45.5 11
q17 0 36.5 -5t39.5 -24q-14 -37 -20.5 -72t-6.5 -67q0 -113 113 -113q47 0 91 33t81 88t66 126.5t46 148.5h-274l27 122h266q2 20 3 39t1 39q0 93 -42.5 135.5t-135.5 42.5q-66 0 -112.5 -33.5t-84.5 -99.5h-104q28 68 64.5 124t86 96.5t116.5 62.5t157 22q74 0 135 -18.5
t105.5 -57.5t69.5 -99t28 -142q54 60 104 117t104.5 101.5t117.5 71.5t143 27q65 0 120.5 -21.5t96 -63t63.5 -102t23 -138.5q0 -67 -18 -125.5t-46.5 -107.5t-64 -88t-70.5 -67t-67 -44.5t-52 -20.5q24 -8 49.5 -26t48.5 -44t41.5 -60t28.5 -75q55 16 99.5 38.5t80 57.5
t64.5 86.5t53 125.5h86zM1124 -111q-40 -14 -76.5 -31t-64.5 -38.5t-44.5 -47.5t-16.5 -57q0 -29 17 -48t52 -19q22 0 43.5 19.5t39.5 52.5t31 77t19 92z" />
    <glyph glyph-name="afii10097_afii10089" unicode="&#x44f;&#x447;" horiz-adv-x="2109" 
d="M2195 367q-28 -83 -62.5 -144t-71 -103t-74.5 -68t-74 -40t-69 -19t-60 -5q-46 0 -86 14t-69.5 44t-46.5 76t-17 111q0 28 4 61.5t12 72.5l10 51q-33 -36 -65.5 -58.5t-63.5 -35t-60 -17t-56 -4.5q-56 0 -101 19.5t-76 62.5q-24 -82 -59 -154.5t-82.5 -126.5t-108.5 -85
t-139 -31q-117 0 -176 58t-59 169q0 50 12 104l25 115q-56 -12 -117 -12q-25 -105 -50 -185.5t-59.5 -136t-83 -84t-120.5 -28.5q-58 0 -101 19t-71.5 50.5t-43 73.5t-14.5 88q0 72 33.5 118t93.5 46q48 0 77.5 -29.5t29.5 -77.5q0 -50 -25 -74.5t-57 -19.5q1 -11 5 -22.5
t13 -21t24 -15.5t38 -6q36 0 61.5 22t45 63t35.5 99t32 131q-43 9 -79 28t-61.5 48t-40 69t-14.5 93q0 71 27 135.5t89.5 113t166 77t256.5 28.5h311l-149 -696q-5 -17 -7 -33.5t-2 -32.5q0 -43 20.5 -59.5t63.5 -16.5q41 0 73 29.5t56 76t41 103.5t29.5 113t21 104.5
t15.5 77.5l69 334h295l-79 -381q-7 -28 -7 -57q0 -35 13.5 -59.5t48.5 -24.5q30 0 56 13.5t47 37.5t36.5 57t24.5 72l71 342h295l-147 -696q-5 -17 -6.5 -33.5t-1.5 -32.5q0 -43 20 -59.5t64 -16.5q30 0 55 13.5t46 37.5t37 57.5t27 72.5h86zM684 913h-49
q-61 0 -106.5 -17.5t-76 -49t-46 -75t-15.5 -95.5q0 -45 11.5 -75.5t31.5 -49t47 -26t58 -7.5q18 0 33.5 -0.5t27.5 4.5z" />
    <glyph glyph-name="afii10022_afii10073" unicode="&#x415;&#x437;" horiz-adv-x="1925" 
d="M2011 367q-31 -105 -75.5 -174t-95 -113t-103.5 -67.5t-101 -35.5q-2 -116 -31 -207t-79.5 -153.5t-121 -95.5t-155.5 -33q-47 0 -88.5 12.5t-73 37t-49.5 62t-18 87.5q0 62 28.5 110t74.5 84.5t103.5 62.5t114.5 44q-6 217 -147 217h-64l27 123h60q55 0 101 27.5
t79.5 75.5t52 112t18.5 137q0 30 -5 61t-18.5 56.5t-38 42t-63.5 16.5q-46 0 -85.5 -17t-76 -55t-71.5 -100t-72 -152q-48 -117 -105.5 -221t-134 -181t-176 -122t-231.5 -45q-99 0 -170.5 29.5t-117 79.5t-67.5 115t-22 137q0 81 26 165t74.5 157.5t119 129t159.5 78.5
q-66 48 -95.5 112.5t-29.5 133.5q0 79 33.5 157.5t93 141.5t142 102t180.5 39q61 0 114.5 -16.5t93.5 -48.5t62.5 -80t22.5 -111q0 -46 -12 -85t-33 -67.5t-48.5 -44.5t-58.5 -16q-56 0 -96 55q18 6 34.5 25t29 44t19.5 54t7 56q0 31 -10 53t-25.5 35.5t-36 19.5t-41.5 6
q-46 0 -84.5 -25t-66 -65.5t-43 -92.5t-15.5 -106q0 -45 11.5 -88t36.5 -79.5t64.5 -64t94.5 -42.5q-55 -12 -103.5 -40t-89 -66.5t-72.5 -85.5t-54.5 -97.5t-34.5 -101.5t-12 -98q0 -43 11 -81t34 -66t60 -44t89 -16q81 0 139 29.5t102 82t79.5 123.5t72.5 154
q29 66 56.5 128t58 117t66 100.5t81 78.5t103 51t131.5 18t134 -21.5t102 -63t65 -102t23 -138.5q0 -67 -18 -125.5t-46.5 -107.5t-64 -88t-70.5 -67t-67 -44.5t-52 -20.5q24 -8 49.5 -26t48.5 -44t41.5 -60t28.5 -75q55 16 99.5 38.5t80 57.5t64.5 86.5t53 125.5h86z
M1335 -111q-40 -14 -76.5 -31t-64.5 -38.5t-44.5 -47.5t-16.5 -57q0 -29 17 -48t52 -19q22 0 43.5 19.5t39.5 52.5t31 77t19 92z" />
    <glyph glyph-name="afii10022_afii10087" unicode="&#x415;&#x445;" horiz-adv-x="1632" 
d="M1718 367q-28 -83 -63 -144t-72.5 -103t-76.5 -68t-76.5 -40t-71.5 -19t-62 -5q-49 0 -85.5 15.5t-63.5 48.5t-47.5 84t-38.5 122q-56 -65 -133 -119t-165 -92t-181 -59t-179 -21q-80 0 -150.5 20t-123.5 62.5t-84 110.5t-31 164q0 81 26 165t74.5 157.5t119 129
t159.5 78.5q-66 48 -95.5 112.5t-29.5 133.5q0 79 33.5 157.5t93 141.5t142 102t180.5 39q61 0 114.5 -16.5t93.5 -48.5t62.5 -80t22.5 -111q0 -46 -12 -85t-33 -67.5t-48.5 -44.5t-58.5 -16q-56 0 -96 55q18 6 34.5 25t29 44t19.5 54t7 56q0 31 -10 53t-25.5 35.5t-36 19.5
t-41.5 6q-46 0 -84.5 -25t-66 -65.5t-43 -92.5t-15.5 -106q0 -45 11.5 -88t36.5 -79.5t64.5 -64t94.5 -42.5q-55 -12 -103.5 -40t-89 -66.5t-72.5 -85.5t-54.5 -97.5t-34.5 -101.5t-12 -98q0 -56 15.5 -95.5t43.5 -64.5t66.5 -37t83.5 -12q56 0 117 16.5t121 46.5
t115.5 71.5t100.5 92.5l-102 561h289l65 -364q46 49 82.5 95.5t61.5 88.5t38 78t13 63v14t-2 11q-11 -2 -19 -3t-16 -1q-27 0 -45.5 9t-29.5 24.5t-16 36t-5 44.5q0 48 33 72.5t81 24.5q34 0 60.5 -14.5t44 -39t26.5 -58t9 -71.5q0 -50 -17.5 -102.5t-53.5 -111t-91 -126
t-131 -147.5l18 -102q6 -29 12.5 -60.5t19.5 -58.5t33.5 -44.5t55.5 -17.5q30 0 58.5 13.5t52.5 37.5t43 57.5t30 72.5h86z" />
    <glyph glyph-name="afii10023_afii10073" unicode="&#x401;&#x437;" horiz-adv-x="1925" 
d="M2011 367q-31 -105 -75.5 -174t-95 -113t-103.5 -67.5t-101 -35.5q-2 -116 -31 -207t-79.5 -153.5t-121 -95.5t-155.5 -33q-47 0 -88.5 12.5t-73 37t-49.5 62t-18 87.5q0 62 28.5 110t74.5 84.5t103.5 62.5t114.5 44q-6 217 -147 217h-64l27 123h60q55 0 101 27.5
t79.5 75.5t52 112t18.5 137q0 30 -5 61t-18.5 56.5t-38 42t-63.5 16.5q-46 0 -85.5 -17t-76 -55t-71.5 -100t-72 -152q-48 -117 -105.5 -221t-134 -181t-176 -122t-231.5 -45q-99 0 -170.5 29.5t-117 79.5t-67.5 115t-22 137q0 81 26 165t74.5 157.5t119 129t159.5 78.5
q-66 48 -95.5 112.5t-29.5 133.5q0 79 33.5 157.5t93 141.5t142 102t180.5 39q61 0 114.5 -16.5t93.5 -48.5t62.5 -80t22.5 -111q0 -46 -12 -85t-33 -67.5t-48.5 -44.5t-58.5 -16q-56 0 -96 55q18 6 34.5 25t29 44t19.5 54t7 56q0 31 -10 53t-25.5 35.5t-36 19.5t-41.5 6
q-46 0 -84.5 -25t-66 -65.5t-43 -92.5t-15.5 -106q0 -45 11.5 -88t36.5 -79.5t64.5 -64t94.5 -42.5q-55 -12 -103.5 -40t-89 -66.5t-72.5 -85.5t-54.5 -97.5t-34.5 -101.5t-12 -98q0 -43 11 -81t34 -66t60 -44t89 -16q81 0 139 29.5t102 82t79.5 123.5t72.5 154
q29 66 56.5 128t58 117t66 100.5t81 78.5t103 51t131.5 18t134 -21.5t102 -63t65 -102t23 -138.5q0 -67 -18 -125.5t-46.5 -107.5t-64 -88t-70.5 -67t-67 -44.5t-52 -20.5q24 -8 49.5 -26t48.5 -44t41.5 -60t28.5 -75q55 16 99.5 38.5t80 57.5t64.5 86.5t53 125.5h86z
M1335 -111q-40 -14 -76.5 -31t-64.5 -38.5t-44.5 -47.5t-16.5 -57q0 -29 17 -48t52 -19q22 0 43.5 19.5t39.5 52.5t31 77t19 92zM737 1810q0 -27 -10 -49.5t-27 -39t-40 -26t-48 -9.5q-27 0 -49.5 9.5t-39.5 26t-26.5 39t-9.5 49.5q0 25 9.5 48t26.5 40t39.5 27t49.5 10
q25 0 48 -10t40 -27t27 -40t10 -48zM1106 1810q0 -27 -10 -49.5t-27 -39t-40 -26t-48 -9.5q-27 0 -50 9.5t-39.5 26t-26 39t-9.5 49.5q0 25 9.5 48t26 40t39.5 27t50 10q25 0 48 -10t40 -27t27 -40t10 -48z" />
    <glyph glyph-name="afii10023_afii10087" unicode="&#x401;&#x445;" horiz-adv-x="1632" 
d="M1718 367q-28 -83 -63 -144t-72.5 -103t-76.5 -68t-76.5 -40t-71.5 -19t-62 -5q-49 0 -85.5 15.5t-63.5 48.5t-47.5 84t-38.5 122q-56 -65 -133 -119t-165 -92t-181 -59t-179 -21q-80 0 -150.5 20t-123.5 62.5t-84 110.5t-31 164q0 81 26 165t74.5 157.5t119 129
t159.5 78.5q-66 48 -95.5 112.5t-29.5 133.5q0 79 33.5 157.5t93 141.5t142 102t180.5 39q61 0 114.5 -16.5t93.5 -48.5t62.5 -80t22.5 -111q0 -46 -12 -85t-33 -67.5t-48.5 -44.5t-58.5 -16q-56 0 -96 55q18 6 34.5 25t29 44t19.5 54t7 56q0 31 -10 53t-25.5 35.5t-36 19.5
t-41.5 6q-46 0 -84.5 -25t-66 -65.5t-43 -92.5t-15.5 -106q0 -45 11.5 -88t36.5 -79.5t64.5 -64t94.5 -42.5q-55 -12 -103.5 -40t-89 -66.5t-72.5 -85.5t-54.5 -97.5t-34.5 -101.5t-12 -98q0 -56 15.5 -95.5t43.5 -64.5t66.5 -37t83.5 -12q56 0 117 16.5t121 46.5
t115.5 71.5t100.5 92.5l-102 561h289l65 -364q46 49 82.5 95.5t61.5 88.5t38 78t13 63v14t-2 11q-11 -2 -19 -3t-16 -1q-27 0 -45.5 9t-29.5 24.5t-16 36t-5 44.5q0 48 33 72.5t81 24.5q34 0 60.5 -14.5t44 -39t26.5 -58t9 -71.5q0 -50 -17.5 -102.5t-53.5 -111t-91 -126
t-131 -147.5l18 -102q6 -29 12.5 -60.5t19.5 -58.5t33.5 -44.5t55.5 -17.5q30 0 58.5 13.5t52.5 37.5t43 57.5t30 72.5h86zM737 1810q0 -27 -10 -49.5t-27 -39t-40 -26t-48 -9.5q-27 0 -49.5 9.5t-39.5 26t-26.5 39t-9.5 49.5q0 25 9.5 48t26.5 40t39.5 27t49.5 10
q25 0 48 -10t40 -27t27 -40t10 -48zM1106 1810q0 -27 -10 -49.5t-27 -39t-40 -26t-48 -9.5q-27 0 -50 9.5t-39.5 26t-26 39t-9.5 49.5q0 25 9.5 48t26 40t39.5 27t50 10q25 0 48 -10t40 -27t27 -40t10 -48z" />
    <glyph glyph-name="afii10035_afii10073" unicode="&#x421;&#x437;" horiz-adv-x="1993" 
d="M2079 367q-31 -105 -75.5 -174t-95 -113t-103.5 -67.5t-101 -35.5q-2 -116 -31 -207t-79.5 -153.5t-121 -95.5t-155.5 -33q-47 0 -88.5 12.5t-73 37t-50 62t-18.5 87.5q0 62 28.5 110t74.5 84.5t103.5 62.5t115.5 44q-6 217 -147 217h-64l27 123h59q55 0 101.5 27.5
t80 75.5t52 112t18.5 137q0 30 -5 61t-18.5 56.5t-38 42t-63.5 16.5q-45 0 -85.5 -16.5t-77.5 -54.5t-72 -100t-70 -153q-49 -132 -117.5 -237t-149.5 -177.5t-171 -111.5t-181 -39q-114 0 -198 27t-139.5 87t-83 156t-27.5 234q0 70 8.5 152.5t27.5 170.5t48.5 177
t71.5 171.5t97 154.5t124 125t153 83.5t185 30.5q71 0 133.5 -15.5t109 -48.5t73 -85t26.5 -125q0 -41 -7.5 -75.5t-25 -60t-45 -39.5t-66.5 -14q-24 0 -55.5 9t-60.5 44q18 9 35 28.5t30 45t21 55.5t8 60q0 24 -6.5 47t-21.5 40t-39 27.5t-58 10.5q-57 0 -110.5 -42
t-101 -113.5t-87 -166.5t-67.5 -201t-44 -218t-16 -216q0 -71 10.5 -129.5t38 -100.5t75 -65.5t122.5 -23.5q62 0 115.5 22.5t102 69.5t93.5 119.5t90 173.5q29 66 56.5 128t58 117t66 100.5t81 78.5t103 51t131.5 18q73 0 133 -21.5t102 -63t65 -102t23 -138.5
q0 -67 -18 -125.5t-46 -107.5t-63.5 -88t-71 -67t-67 -44.5t-51.5 -20.5q24 -8 49 -26t48.5 -44t42 -60t28.5 -75q55 16 99 38.5t80 57.5t64.5 86.5t53.5 125.5h86zM1403 -111q-40 -14 -77 -31t-65 -38.5t-44.5 -47.5t-16.5 -57q0 -29 17.5 -48t52.5 -19q22 0 43 19.5
t39 52.5t31.5 77t19.5 92z" />
    <glyph glyph-name="afii10035_afii10087" unicode="&#x421;&#x445;" horiz-adv-x="1667" 
d="M1753 367q-29 -83 -63.5 -144t-72 -103t-77 -68t-76.5 -40t-71 -19t-62 -5q-49 0 -85.5 15t-63.5 48t-47.5 84.5t-38.5 124.5q-69 -81 -154.5 -136.5t-172.5 -90.5t-166.5 -50.5t-135.5 -15.5q-108 0 -188 27t-133.5 87t-80 156t-26.5 234q0 70 8.5 152.5t27.5 170.5
t48.5 177t71.5 171.5t97 154.5t124 125t153 83.5t185 30.5q71 0 133.5 -15.5t109 -48.5t73 -85t26.5 -125q0 -41 -7.5 -75.5t-25 -60t-45 -39.5t-66.5 -14q-24 0 -55.5 9t-60.5 44q18 9 35 28.5t30 45t21 55.5t8 60q0 24 -6.5 47t-21.5 40t-39 27.5t-58 10.5
q-57 0 -110.5 -42t-101 -113.5t-87 -166.5t-67.5 -201t-44 -218t-16 -216q0 -71 10.5 -129.5t38 -100.5t75 -65.5t122.5 -23.5q64 0 126.5 17.5t119.5 47.5t107 70.5t91 87.5l-102 559h288l66 -364q46 49 82.5 95.5t61.5 88.5t38 78t13 63q0 8 -0.5 14t-2.5 11
q-11 -2 -18.5 -3t-15.5 -1q-27 0 -45.5 9t-30 24.5t-16.5 36t-5 44.5t9 42t25 30.5t36.5 18.5t44.5 6q34 0 60.5 -14.5t43.5 -39t26 -58t9 -71.5q0 -50 -17 -102.5t-53 -111t-91.5 -126t-131.5 -147.5l19 -102q6 -29 12.5 -60.5t19.5 -58.5t33.5 -44.5t55.5 -17.5
q30 0 58 13.5t52 37.5t43 57.5t31 72.5h86z" />
    <glyph glyph-name="afii10053_afii10073" unicode="&#x404;&#x437;" horiz-adv-x="1993" 
d="M2079 367q-31 -105 -75.5 -174t-95 -113t-103.5 -67.5t-101 -35.5q-2 -116 -31 -207t-79.5 -153.5t-121 -95.5t-155.5 -33q-47 0 -88.5 12.5t-73 37t-50 62t-18.5 87.5q0 62 28.5 110t74.5 84.5t103.5 62.5t115.5 44q-6 217 -147 217h-64l27 123h59q55 0 101.5 27.5
t80 75.5t52 112t18.5 137q0 30 -5 61t-18.5 56.5t-38 42t-63.5 16.5q-45 0 -85.5 -16.5t-77.5 -54.5t-72 -100t-70 -153q-49 -132 -117.5 -237t-149.5 -177.5t-171 -111.5t-181 -39q-114 0 -198 27t-139.5 87t-83 156t-27.5 234q0 70 8.5 152.5t27.5 170.5t48.5 177
t71.5 171.5t97 154.5t124 125t153 83.5t185 30.5q71 0 133.5 -15.5t109 -48.5t73 -85t26.5 -125q0 -41 -7.5 -75.5t-25 -60t-45 -39.5t-66.5 -14q-24 0 -55.5 9t-60.5 44q18 9 35 28.5t30 45t21 55.5t8 60q0 24 -6.5 47t-21.5 40t-39 27.5t-58 10.5q-56 0 -109.5 -42
t-101 -113t-87 -165t-67.5 -198h391l-32 -152h-393q-13 -72 -20 -145t-7 -142q0 -71 10.5 -129.5t38 -100.5t75 -65.5t122.5 -23.5q62 0 115.5 22.5t102 69.5t93.5 119.5t90 173.5q29 66 56.5 128t58 117t66 100.5t81 78.5t103 51t131.5 18q73 0 133 -21.5t102 -63t65 -102
t23 -138.5q0 -67 -18 -125.5t-46 -107.5t-63.5 -88t-71 -67t-67 -44.5t-51.5 -20.5q24 -8 49 -26t48.5 -44t42 -60t28.5 -75q55 16 99 38.5t80 57.5t64.5 86.5t53.5 125.5h86zM1403 -111q-40 -14 -77 -31t-65 -38.5t-44.5 -47.5t-16.5 -57q0 -29 17.5 -48t52.5 -19
q22 0 43 19.5t39 52.5t31.5 77t19.5 92z" />
    <glyph glyph-name="afii10053_afii10087" unicode="&#x404;&#x445;" horiz-adv-x="1667" 
d="M1753 367q-29 -83 -63.5 -144t-72 -103t-77 -68t-76.5 -40t-71 -19t-62 -5q-49 0 -85.5 15t-63.5 48t-47.5 84.5t-38.5 124.5q-69 -81 -154.5 -136.5t-172.5 -90.5t-166.5 -50.5t-135.5 -15.5q-108 0 -188 27t-133.5 87t-80 156t-26.5 234q0 70 8.5 152.5t27.5 170.5
t48.5 177t71.5 171.5t97 154.5t124 125t153 83.5t185 30.5q71 0 133.5 -15.5t109 -48.5t73 -85t26.5 -125q0 -41 -7.5 -75.5t-25 -60t-45 -39.5t-66.5 -14q-24 0 -55.5 9t-60.5 44q18 9 35 28.5t30 45t21 55.5t8 60q0 24 -6.5 47t-21.5 40t-39 27.5t-58 10.5
q-56 0 -109.5 -42t-101 -113t-87 -165t-67.5 -198h391l-32 -152h-393q-13 -72 -20 -145t-7 -142q0 -71 10.5 -129.5t38 -100.5t75 -65.5t122.5 -23.5q64 0 126.5 17.5t119.5 47.5t107 70.5t91 87.5l-102 559h288l66 -364q46 49 82.5 95.5t61.5 88.5t38 78t13 63q0 8 -0.5 14
t-2.5 11q-11 -2 -18.5 -3t-15.5 -1q-27 0 -45.5 9t-30 24.5t-16.5 36t-5 44.5t9 42t25 30.5t36.5 18.5t44.5 6q34 0 60.5 -14.5t43.5 -39t26 -58t9 -71.5q0 -50 -17 -102.5t-53 -111t-91.5 -126t-131.5 -147.5l19 -102q6 -29 12.5 -60.5t19.5 -58.5t33.5 -44.5t55.5 -17.5
q30 0 58 13.5t52 37.5t43 57.5t31 72.5h86z" />
    <glyph glyph-name="afii10070_afii10087" unicode="&#x435;&#x445;" horiz-adv-x="1561" 
d="M1647 367q-43 -125 -99 -200t-114 -115t-111.5 -52t-91.5 -12q-51 0 -89 15.5t-67 49.5t-50.5 88t-39.5 131q-62 -64 -138.5 -116t-161 -89.5t-173 -58t-174.5 -20.5q-75 0 -141 17.5t-116 56.5t-79 103t-29 157q0 56 12 131t38 155t69 157.5t104 139t143 99.5t187 38
q69 0 112.5 -16.5t69 -43.5t35 -62.5t9.5 -73.5q0 -89 -39 -165.5t-104.5 -133.5t-151 -92t-178.5 -41q-2 -14 -2.5 -28.5t-0.5 -27.5q0 -57 16 -96t43.5 -62.5t65 -33.5t80.5 -10q55 0 118 15t126.5 44t124.5 73t113 101l-117 635h289l79 -442q46 49 82.5 95.5t61.5 88.5
t38 78t13 63v14t-2 11q-11 -2 -18.5 -3t-18.5 -1q-27 0 -45 9.5t-29 24.5t-15.5 34t-4.5 38q0 54 31 79.5t79 25.5q36 0 63 -14t45 -38t27 -56.5t9 -69.5q0 -50 -16.5 -102t-52 -111.5t-91 -128t-133.5 -152.5l18 -100q6 -29 13 -60.5t19.5 -58.5t33 -44.5t55.5 -17.5
q30 0 58.5 13.5t52.5 37.5t43 57.5t31 72.5h86zM295 512q59 2 113 31.5t95.5 76t66 106.5t24.5 124q0 38 -11 61t-40 23q-39 0 -77 -39t-71 -100.5t-59 -136.5t-41 -146z" />
    <glyph glyph-name="afii10071_afii10087" unicode="&#x451;&#x445;" horiz-adv-x="1561" 
d="M1647 367q-43 -125 -99 -200t-114 -115t-111.5 -52t-91.5 -12q-51 0 -89 15.5t-67 49.5t-50.5 88t-39.5 131q-62 -64 -138.5 -116t-161 -89.5t-173 -58t-174.5 -20.5q-75 0 -141 17.5t-116 56.5t-79 103t-29 157q0 56 12 131t38 155t69 157.5t104 139t143 99.5t187 38
q69 0 112.5 -16.5t69 -43.5t35 -62.5t9.5 -73.5q0 -89 -39 -165.5t-104.5 -133.5t-151 -92t-178.5 -41q-2 -14 -2.5 -28.5t-0.5 -27.5q0 -57 16 -96t43.5 -62.5t65 -33.5t80.5 -10q55 0 118 15t126.5 44t124.5 73t113 101l-117 635h289l79 -442q46 49 82.5 95.5t61.5 88.5
t38 78t13 63v14t-2 11q-11 -2 -18.5 -3t-18.5 -1q-27 0 -45 9.5t-29 24.5t-15.5 34t-4.5 38q0 54 31 79.5t79 25.5q36 0 63 -14t45 -38t27 -56.5t9 -69.5q0 -50 -16.5 -102t-52 -111.5t-91 -128t-133.5 -152.5l18 -100q6 -29 13 -60.5t19.5 -58.5t33 -44.5t55.5 -17.5
q30 0 58.5 13.5t52.5 37.5t43 57.5t31 72.5h86zM295 512q59 2 113 31.5t95.5 76t66 106.5t24.5 124q0 38 -11 61t-40 23q-39 0 -77 -39t-71 -100.5t-59 -136.5t-41 -146zM494 1298q0 -27 -10 -49.5t-27.5 -39t-40 -26t-47.5 -9.5q-27 0 -50 9.5t-39.5 26t-26 39t-9.5 49.5
q0 25 9.5 48t26 40t39.5 27t50 10q25 0 47.5 -10t40 -27t27.5 -40t10 -48zM862 1298q0 -27 -10 -49.5t-27 -39t-40 -26t-48 -9.5q-27 0 -49.5 9.5t-39.5 26t-26.5 39t-9.5 49.5q0 25 9.5 48t26.5 40t39.5 27t49.5 10q25 0 48 -10t40 -27t27 -40t10 -48z" />
    <glyph glyph-name="afii10080_afii10087" unicode="&#x43e;&#x445;" horiz-adv-x="1741" 
d="M1827 367q-29 -83 -63.5 -144t-72 -103t-77 -68t-76.5 -40t-71 -19t-62 -5q-56 0 -96.5 21.5t-70.5 67t-51.5 117.5t-39.5 173l-4 14q-35 -25 -68.5 -52t-59.5 -56t-41.5 -59.5t-15.5 -61.5q5 2 12 2h15q27 0 43.5 -9t25.5 -23.5t12 -32.5t3 -36q0 -60 -32 -86t-83 -26
q-69 0 -102 39.5t-33 105.5q0 51 26.5 107.5t69.5 111.5t97.5 104.5t109.5 86.5l-57 317q-127 -151 -277 -197q-12 -144 -55 -259.5t-108 -196.5t-149.5 -124.5t-178.5 -43.5q-72 0 -132 17.5t-103.5 56t-68 100t-24.5 149.5q0 60 12.5 136.5t40 157.5t71 158.5t106 138.5
t144.5 98.5t187 37.5q260 0 263 -321q60 6 122.5 59t128.5 146l-18 98h289l74 -406q97 87 148.5 158t51.5 131v14t-2 11q-11 -2 -19 -3t-16 -1q-27 0 -45 9t-29.5 24.5t-16.5 36t-5 44.5q0 48 33.5 72.5t81.5 24.5q34 0 60.5 -14.5t43.5 -39t26 -58t9 -71.5q0 -51 -17 -102
t-53.5 -106t-93 -115.5t-135.5 -130.5l25 -135q6 -29 12.5 -60.5t19 -58.5t33 -44.5t55.5 -17.5q30 0 58.5 13.5t52.5 37.5t43 57.5t31 72.5h86zM616 600q-55 15 -55 92q0 44 17.5 71t46.5 38q-5 66 -22.5 91.5t-55.5 25.5q-37 0 -71 -28.5t-64.5 -75.5t-56 -107.5
t-43.5 -124.5t-28 -126.5t-10 -113.5t5.5 -83t18 -50.5t32.5 -25.5t49 -7q37 0 74.5 32.5t69.5 89.5t56.5 134.5t36.5 167.5z" />
    <glyph glyph-name="afii10082_afii10073" unicode="&#x440;&#x437;" horiz-adv-x="1823" 
d="M1909 367q-31 -105 -75.5 -174t-95 -113t-103.5 -67.5t-101 -35.5q-2 -116 -31 -207t-79.5 -153.5t-121 -95.5t-155.5 -33q-47 0 -88.5 12.5t-73 37t-49.5 62t-18 87.5q0 62 28.5 110t74 84.5t103 62.5t115.5 44q-6 217 -147 217h-64l27 123h59q55 0 101.5 27.5t80 75.5
t52 112t18.5 137q0 30 -5.5 61t-18.5 56.5t-36 42t-57 16.5q-41 0 -83 -22.5t-84.5 -57.5t-87 -78t-91.5 -84q-6 -68 -20.5 -141t-40.5 -142.5t-65 -131.5t-92.5 -109t-123.5 -74.5t-158 -27.5q-39 0 -68 6t-49.5 16t-34 23.5t-22.5 27.5l-106 -499l-309 -74l342 1612h295
l-33 -154q45 38 103 63t136 25q51 0 95.5 -15.5t78 -51t54 -94t22.5 -144.5q51 58 101 114t104.5 100t118 71.5t141.5 27.5q65 0 120.5 -21.5t96 -63t63.5 -102t23 -138.5q0 -67 -18 -125.5t-46 -107.5t-63.5 -88t-71 -67t-67 -44.5t-51.5 -20.5q24 -8 49 -26t48.5 -44
t42 -60t28.5 -75q55 16 99 38.5t80 57.5t64.5 86.5t53.5 125.5h86zM262 213q6 -17 24.5 -32t53.5 -15q54 0 96 27.5t74 73t54 103.5t36 119t20.5 120.5t6.5 107.5q0 59 -11 93t-26.5 51t-33.5 21.5t-32 4.5q-35 0 -73.5 -25.5t-67.5 -75.5zM1233 -111q-40 -14 -77 -31
t-65 -38.5t-44.5 -47.5t-16.5 -57q0 -29 17.5 -48t52.5 -19q22 0 43.5 19.5t39.5 52.5t31 77t19 92z" />
    <glyph glyph-name="afii10083_afii10087" unicode="&#x441;&#x445;" horiz-adv-x="1546" 
d="M1632 367q-43 -125 -98.5 -200t-113.5 -115t-111.5 -52t-91.5 -12q-53 0 -91.5 16t-67.5 50.5t-50 88t-37 127.5q-65 -65 -143.5 -117.5t-163 -89t-171.5 -56t-169 -19.5q-75 0 -141 17.5t-116 57.5t-79 104t-29 157q0 55 12 130t38 154.5t68.5 157.5t104 139t142.5 99
t186 38q67 0 111 -16t70 -43t36 -61t10 -70q0 -39 -9 -67t-24 -45.5t-34.5 -26t-40.5 -8.5q-38 0 -72 24q12 32 18.5 62t6.5 59q0 37 -13.5 60.5t-42.5 23.5q-33 0 -65 -29.5t-61.5 -78t-54.5 -110.5t-43.5 -126t-29 -124.5t-10.5 -107.5q0 -57 16 -96t44 -62.5t66 -33.5
t81 -10q55 0 117.5 15t125.5 44t124 73t112 101l-117 635h289l80 -442q46 49 82.5 95.5t61.5 88.5t38 78t13 63v14t-2 11q-11 -2 -18.5 -3t-18.5 -1q-27 0 -45 9.5t-29 24.5t-15.5 34t-4.5 38q0 54 31 79.5t79 25.5q36 0 63 -14t45 -38t27 -56.5t9 -69.5q0 -50 -16.5 -102
t-52 -111.5t-91 -128t-133.5 -152.5l18 -100q6 -29 12.5 -60.5t19.5 -58.5t33.5 -44.5t55.5 -17.5q30 0 58.5 13.5t52.5 37.5t43 57.5t30 72.5h86z" />
    <glyph glyph-name="afii10086_afii10073" unicode="&#x444;&#x437;" horiz-adv-x="2351" 
d="M2437 367q-31 -105 -75.5 -174t-95 -113t-103.5 -67.5t-101 -35.5q-2 -116 -31 -207t-79.5 -153.5t-121 -95.5t-155.5 -33q-47 0 -88.5 12.5t-73 37t-49.5 62t-18 87.5q0 62 28.5 110t74.5 84.5t103.5 62.5t114.5 44q-6 217 -147 217h-64l27 123h59q55 0 101.5 27.5
t80 75.5t52 112t18.5 137q0 30 -5 61t-18.5 56.5t-36 42t-56.5 16.5q-43 0 -84.5 -22.5t-84.5 -58.5t-88 -80t-94 -87h-2q-10 -125 -43 -237.5t-94 -197.5t-152.5 -135t-217.5 -50q-124 0 -166 73l-107 -499l-289 -74l136 612q-105 -112 -238 -112q-65 0 -117 19t-89 59.5
t-57 102.5t-20 148q0 231 129 461q31 55 72.5 102t92.5 81.5t109.5 53.5t123.5 19q168 0 168 -112l102 471l283 41l-111 -488q51 45 110.5 66.5t129.5 21.5q243 0 250 -309h2q54 60 104 117t104.5 101.5t117.5 71.5t143 27q65 0 120.5 -21.5t96 -63t63.5 -102t23 -138.5
q0 -67 -18 -125.5t-46.5 -107.5t-64 -88t-70.5 -67t-67 -44.5t-52 -20.5q24 -8 49.5 -26t48.5 -44t41.5 -60t28.5 -75q55 16 99.5 38.5t80 57.5t64.5 86.5t53 125.5h86zM784 213q4 -12 14 -20.5t23.5 -14.5t29 -9t30.5 -3q69 0 122.5 47t90.5 124.5t56 176.5t19 203
q0 86 -31.5 128t-82.5 42q-42 0 -81.5 -25t-68.5 -76zM645 838q-12 69 -90 69q-73 0 -145 -102q-36 -53 -61 -110t-42 -120q-24 -96 -30 -162.5t-1.5 -109.5t15.5 -66t22 -32q16 -16 46 -18t63.5 12.5t64.5 47t50 85.5zM1761 -111q-40 -14 -76.5 -31t-64.5 -38.5
t-44.5 -47.5t-16.5 -57q0 -29 17 -48t52 -19q22 0 43.5 19.5t39.5 52.5t31 77t19 92z" />
    <glyph glyph-name=".notdef" horiz-adv-x="1659" 
d="M547 2048h1112l-549 -2560h-1110zM96 -430h948l517 2396h-949zM961 1094q0 57 -23.5 87.5t-65.5 30.5q-43 0 -71.5 -30t-28.5 -78q0 -32 17 -60.5t45 -42.5v-8q-23 -23 -49.5 -32t-49.5 -9q-43 0 -68.5 30.5t-25.5 80.5q0 46 20.5 86t57 69.5t86 46.5t106.5 17
q109 0 168.5 -48.5t59.5 -133.5q0 -56 -25 -99.5t-63 -80.5t-82 -71t-82 -72t-63 -84t-25 -107h-86q0 64 18.5 112.5t46 87.5t59.5 73t59.5 69t46 75t18.5 91zM809 389q0 -38 -22.5 -60t-59.5 -22q-38 0 -60 22t-22 60q0 37 22 59.5t60 22.5q37 0 59.5 -22.5t22.5 -59.5z
" />
    <glyph glyph-name="space" unicode=" " horiz-adv-x="444" 
 />
    <glyph glyph-name="exclam" unicode="!" horiz-adv-x="526" 
d="M201 473l156 1024l315 43l-297 -1067h-174zM392 152q0 -34 -12.5 -64t-34.5 -52t-51.5 -35t-63.5 -13t-63.5 13t-52 35t-35.5 52t-13 64t13 63t35.5 51t52 34.5t63.5 12.5t63.5 -12.5t51.5 -34.5t34.5 -51t12.5 -63z" />
    <glyph glyph-name="numbersign" unicode="#" horiz-adv-x="1350" 
d="M241 1008h211l75 371h150l-76 -371h265l75 371h150l-76 -371h199l-31 -158h-200l-51 -252h194l-31 -158h-195l-77 -382h-149l77 382h-265l-77 -382h-149l77 382h-215l31 158h216l51 252h-210zM518 598h265l51 252h-265z" />
    <glyph glyph-name="ampersand" unicode="&#x26;" horiz-adv-x="1397" 
d="M1162 558q-23 -6 -43 -8.5t-40 -3.5q-15 -132 -67.5 -239.5t-135 -184t-192 -118t-238.5 -41.5q-97 0 -174 25t-131 72.5t-83 115t-29 152.5q0 86 29.5 169.5t81 154t120.5 123t148 75.5v8q-33 27 -55 54.5t-36 58.5t-20 67t-6 80q0 84 35.5 160.5t96.5 134.5t142.5 92.5
t173.5 34.5q70 0 129 -21t101.5 -59t66 -90t23.5 -113q0 -42 -11.5 -77t-32 -60t-49.5 -39t-63 -14q-38 0 -70 16.5t-55 46.5q37 23 60.5 70t23.5 100q0 57 -28.5 90t-77.5 33q-42 0 -80 -24t-67 -65t-46.5 -94.5t-17.5 -111.5q0 -103 55 -173t152 -95v-8
q-74 -14 -140.5 -58.5t-117 -109t-80 -142t-29.5 -157.5q0 -106 53.5 -165.5t147.5 -59.5q67 0 132.5 28t120 79t94.5 122t55 157q-23 -1 -45.5 -3.5t-48.5 -9.5q-54 -19 -96 -47.5t-65 -62.5l-5 -1q-14 17 -23 35.5t-15 37.5q-13 45 -5 85.5t31.5 74t59.5 58.5t78 39
q33 10 68.5 14.5t70.5 7.5t69.5 6t65.5 10q24 8 49.5 21t48 29t41 32.5t29.5 32.5h5q17 -17 27.5 -36t16.5 -39q13 -43 3 -85.5t-36 -79t-65 -64.5t-85 -43z" />
    <glyph glyph-name="parenleft" unicode="(" horiz-adv-x="895" 
d="M1089 1481q-81 -48 -152.5 -121t-132.5 -166.5t-110 -203.5t-83 -232t-52.5 -252.5t-18.5 -263.5q0 -196 39 -366.5t115 -301.5l-68 -59q-77 77 -136.5 170t-100 197t-61.5 218.5t-21 235.5q0 195 54 380t152.5 345.5t238 289.5t310.5 212z" />
    <glyph glyph-name="parenright" unicode=")" horiz-adv-x="846" 
d="M-140 -403q80 47 152 120.5t133 166.5t110 203t83 232t52.5 252.5t18.5 264.5q0 196 -39 366t-115 301l68 60q77 -78 136.5 -170.5t100 -197t61.5 -219t21 -235.5q0 -195 -54 -380t-152.5 -345.5t-238 -289t-310.5 -211.5z" />
    <glyph glyph-name="asterisk" unicode="*" horiz-adv-x="1055" 
d="M583 1253q60 74 108.5 105.5t91.5 31.5q47 0 75 -32.5t28 -83.5q0 -7 -1 -14t-3 -13l-265 -86q75 -14 123 -30t75.5 -35t37.5 -40.5t10 -46.5q0 -17 -3 -31.5t-11.5 -29t-23 -30t-36.5 -34.5l-206 183q15 -56 24.5 -101.5t9.5 -83.5q0 -129 -110 -129q-17 0 -38.5 4.5
t-47.5 12.5l51 297q-60 -74 -106.5 -103.5t-88.5 -29.5q-46 0 -74 32.5t-28 83.5v14t2 13l260 84q-76 13 -124.5 29t-76 34.5t-37.5 40t-10 45.5q0 17 3.5 32t12.5 29.5t23.5 30t36.5 33.5l207 -182q-17 56 -26 101.5t-9 82.5q0 129 109 129q18 0 40 -4t48 -12z" />
    <glyph glyph-name="comma" unicode="," horiz-adv-x="442" 
d="M84 -258q-18 12 -18 35q0 27 16.5 49t36.5 43t36.5 43t16.5 51q0 11 -6.5 21.5t-20.5 19.5q-42 26 -69 62.5t-27 87.5q0 34 12.5 63.5t34.5 51.5t51.5 35t63.5 13q68 0 103.5 -43.5t35.5 -111.5q0 -45 -18 -100.5t-52 -112t-83.5 -110.5t-112.5 -97z" />
    <glyph glyph-name="hyphen" unicode="-" horiz-adv-x="594" 
d="M39 455l37 161h409l-34 -161h-412z" />
    <glyph glyph-name="period" unicode="." horiz-adv-x="539" 
d="M389 154q0 -34 -13 -63.5t-35.5 -51.5t-52 -34.5t-63.5 -12.5t-63.5 12.5t-51.5 34.5t-34.5 51.5t-12.5 63.5t12.5 63.5t34.5 51.5t51.5 35t63.5 13t63.5 -13t52 -35t35.5 -51.5t13 -63.5z" />
    <glyph glyph-name="slash" unicode="/" horiz-adv-x="637" 
d="M23 -512l434 2048h147l-434 -2048h-147z" />
    <glyph glyph-name="zero" unicode="0" horiz-adv-x="1118" 
d="M456 -21q-120 0 -200 40t-127 109t-66.5 162.5t-19.5 200.5q0 141 22.5 274.5t65.5 251t104.5 215t139 167.5t169.5 109t196 39q101 0 175.5 -35.5t123 -100t72 -155.5t23.5 -202q0 -75 -8.5 -160.5t-26.5 -175t-46.5 -179.5t-68.5 -172t-92 -153t-117.5 -123t-145 -82
t-173.5 -30zM737 1425q-49 0 -96.5 -41.5t-90.5 -113t-80 -167.5t-63.5 -205.5t-42 -226.5t-15.5 -231q0 -58 5.5 -113t20 -98t40.5 -69t68 -26q50 0 97.5 40.5t89 111t76 166t59 206t38 230t13.5 238.5q0 60 -7 114t-21.5 95.5t-37 65.5t-53.5 24z" />
    <glyph glyph-name="one" unicode="1" horiz-adv-x="649" 
d="M43 0l270 1278h-194l24 94q42 0 94 4t116 20.5t141 48t170 87.5l-326 -1532h-295z" />
    <glyph glyph-name="two" unicode="2" horiz-adv-x="1008" 
d="M889 350q26 -72 26 -127q0 -56 -22.5 -101.5t-60.5 -78t-87.5 -50.5t-103.5 -18q-49 0 -99 13t-102 28t-106.5 28t-111.5 13q-53 0 -108.5 -13t-118.5 -46h-8q-12 49 -12 96q1 72 30.5 139t78 130t110 124.5t125 123.5t125 126t109.5 132.5t77 142.5t29 157
q0 55 -8.5 101.5t-27.5 80t-48 52.5t-69 19q-36 0 -66 -13t-51 -35.5t-33 -53t-12 -64.5q0 -75 29 -127.5t69 -76.5v-8q-35 -32 -76 -50.5t-79 -18.5q-30 0 -57 14t-47 41t-32 66.5t-12 90.5q0 61 28 123.5t82 113t134.5 82t185.5 31.5q87 0 160 -25.5t126 -73.5
t82.5 -117.5t29.5 -157.5q0 -74 -25.5 -138t-69 -122t-100.5 -111t-119.5 -103t-127 -98.5t-123 -98.5t-107 -102t-79.5 -109q34 9 64 12t61 3q51 0 97.5 -7t89.5 -16t81.5 -16t73.5 -7q52 0 99.5 22.5t100.5 81.5z" />
    <glyph glyph-name="three" unicode="3" horiz-adv-x="1053" 
d="M739 854q68 -22 116.5 -57t80 -79t46.5 -95.5t15 -106.5q0 -62 -18.5 -125t-53.5 -121.5t-85.5 -109.5t-114.5 -89t-141 -59.5t-164 -21.5q-30 0 -71.5 4t-87 16.5t-90 35.5t-80 61.5t-57.5 95t-22 135.5q0 64 15.5 118t47 93t77.5 60.5t108 21.5q28 0 54.5 -5
t47.5 -17.5t36.5 -32.5t21.5 -50q-59 -4 -94.5 -27.5t-54.5 -56t-25 -69.5t-6 -68q0 -46 14.5 -80.5t38.5 -58t55.5 -35.5t66.5 -12q46 0 93 21t85.5 64.5t62.5 109t24 155.5q0 58 -16 116.5t-49 110.5t-84.5 94t-122.5 66q86 25 151.5 70t109.5 100.5t66.5 115t22.5 113.5
q0 36 -9.5 67t-29 53.5t-49 35t-68.5 12.5q-37 0 -67 -11.5t-51 -32t-32.5 -50t-11.5 -65.5q0 -21 4 -44t13.5 -43.5t24.5 -36.5t36 -22q-38 -35 -78 -52t-78 -17q-30 0 -57 11.5t-47 33.5t-31.5 54.5t-11.5 74.5q0 70 33 127t90 98t134.5 63.5t166.5 22.5q94 0 165.5 -24.5
t119.5 -66t72 -95.5t24 -113q0 -51 -17.5 -103.5t-52.5 -102t-87.5 -94.5t-123.5 -81z" />
    <glyph glyph-name="four" unicode="4" horiz-adv-x="975" 
d="M536 441q-64 18 -130 36.5t-138 18.5q-52 0 -108.5 -7.5t-112.5 -35.5h-8l-43 80v10q86 103 166.5 208.5t143 211.5t100.5 210.5t38 205.5q0 32 -4 64t-12 63q23 7 50.5 10t51.5 3q48 0 84 -13.5t61 -37.5t37.5 -56.5t12.5 -69.5q0 -50 -23.5 -108.5t-63.5 -120.5
t-92 -125.5t-108.5 -122.5t-114 -112t-108.5 -93l2 -6q34 14 83.5 25.5t98.5 11.5q48 0 103.5 -10t109.5 -20l166 478h131l-101 -476q33 13 65.5 36.5t64.5 60.5l6 -4q17 -29 25 -57t8 -55q0 -41 -16.5 -77.5t-46 -65.5t-70 -49.5t-87.5 -29.5l-89 -422h-285z" />
    <glyph glyph-name="five" unicode="5" horiz-adv-x="1059" 
d="M404 -10q-182 0 -277.5 77.5t-95.5 220.5q0 64 19.5 117t54.5 91t83.5 58.5t107.5 20.5q125 0 146 -104q-84 -10 -134 -60t-50 -130q0 -73 42.5 -113.5t114.5 -40.5q60 0 110 28t85.5 78.5t55.5 119.5t20 152q0 144 -59 220t-166 76q-57 0 -122 -22.5t-146 -70.5l-28 20
l159 775q90 -11 176 -19t167 -8q88 0 175 13t182 45q2 -17 3 -34t1 -34q0 -49 -12.5 -92t-40 -75.5t-72.5 -51t-110 -18.5q-41 0 -88 6.5t-93.5 15t-88.5 17t-72 12.5l-82 -371q131 64 254 64q83 0 150 -29.5t114 -84t72.5 -133t25.5 -175.5q0 -126 -42 -229t-118 -177
t-183.5 -114.5t-237.5 -40.5z" />
    <glyph glyph-name="six" unicode="6" horiz-adv-x="1023" 
d="M676 931q70 0 128 -24t99 -70t64 -111.5t23 -148.5q0 -76 -19.5 -149t-55 -138.5t-85 -120t-109.5 -94.5t-128.5 -62.5t-141.5 -22.5q-107 0 -186 30.5t-130.5 95.5t-76.5 167.5t-25 246.5q0 140 25.5 268.5t71.5 240t111 203t144.5 156.5t171 100.5t191.5 35.5
q67 0 122 -16.5t94 -47t60 -73.5t21 -95q0 -39 -11.5 -73.5t-31.5 -60t-47.5 -40t-59.5 -14.5q-34 0 -63 18t-41 47q33 17 50 50.5t17 68.5q0 22 -6.5 43t-20 37t-33.5 25.5t-47 9.5q-63 0 -125 -51t-116 -141t-96 -214t-64 -270l7 2q37 96 121 144t198 48zM332 448
q0 -81 11.5 -137.5t32.5 -92.5t51 -52t67 -16q43 0 85 32t75.5 88.5t54 133.5t20.5 167q0 59 -12.5 100t-34 66.5t-51.5 37t-66 11.5q-63 0 -107 -24t-72 -68t-41 -106.5t-13 -139.5z" />
    <glyph glyph-name="seven" unicode="7" horiz-adv-x="950" 
d="M1068 1518q0 -34 -26 -88t-68.5 -123.5t-96.5 -151.5t-110.5 -171.5t-110.5 -184.5t-96.5 -190t-68.5 -188t-26 -179q0 -54 10 -109t27 -103q-37 -20 -73.5 -29t-70.5 -9q-47 0 -85 17t-64.5 49t-41 78t-14.5 104q0 79 26 159.5t68 159t96.5 153.5t110.5 145t110.5 133
t96.5 116t68 95t26 71q-38 -11 -70 -19t-67 -8q-34 0 -66.5 7t-64.5 15.5t-65.5 15.5t-70.5 7q-61 0 -107.5 -24.5t-94.5 -81.5l-6 2q-14 31 -20.5 63t-6.5 62q0 54 20.5 98t58 75t89.5 48t114 17q52 0 97 -10.5t90.5 -22.5t94 -22.5t108.5 -10.5q55 0 125 10.5t151 32.5z
" />
    <glyph glyph-name="eight" unicode="8" horiz-adv-x="1022" 
d="M-4 378q0 72 22.5 135.5t70 119t121 104.5t175.5 94q-37 38 -70 78t-58.5 82t-40.5 88t-15 96q0 78 33.5 146t92.5 119t139.5 80.5t175.5 29.5q82 0 152.5 -20.5t122 -58t81 -89.5t31.5 -116q0 -103 -74 -194.5t-227 -175.5q48 -44 94.5 -90.5t83.5 -99t60 -112.5
t25 -131q0 -96 -40.5 -182t-111.5 -150.5t-168 -102.5t-210 -40q-101 0 -185.5 27.5t-146 78.5t-97 123t-36.5 161zM687 385q-1 52 -19.5 99.5t-48.5 92t-69 87t-81 84.5q-98 -67 -150.5 -162t-52.5 -206q0 -57 14.5 -103.5t40.5 -79.5t61.5 -50.5t78.5 -17.5
q49 0 90.5 20.5t71.5 55.5t47 81.5t17 98.5zM491 1248q0 -39 12 -75t32.5 -69t47.5 -64.5t59 -62.5q39 34 69.5 73t52.5 81t33.5 84.5t11.5 82.5q0 72 -36.5 113t-99.5 41q-40 0 -73.5 -15.5t-57.5 -42.5t-37.5 -64.5t-13.5 -81.5z" />
    <glyph glyph-name="nine" unicode="9" horiz-adv-x="1001" 
d="M370 617q-71 0 -129 24t-99 70t-64 111.5t-23 148.5q0 76 21 147.5t59 134.5t91 115.5t116.5 90t135.5 58t149 20.5q190 0 285.5 -135t95.5 -404q0 -140 -24 -269t-68 -240.5t-106 -202.5t-138 -156t-164 -100.5t-184 -35.5q-68 0 -123 16.5t-93.5 47t-59.5 73t-21 95.5
q0 39 11 73.5t31 60.5t46.5 41t58.5 15q37 0 66 -18.5t39 -47.5q-32 -18 -49.5 -50.5t-17.5 -66.5q0 -39 25 -69.5t78 -30.5q64 0 124.5 51.5t111 142.5t88 215t56.5 269l-7 -2q-37 -96 -121 -144t-197 -48zM715 1143q0 36 -4.5 80.5t-19.5 84.5t-45 67t-81 27
q-53 0 -99 -37.5t-79.5 -98t-52.5 -136.5t-19 -153q0 -56 10.5 -96t30 -65.5t45.5 -37.5t58 -12q70 0 119 28t79.5 78t44 119t13.5 152z" />
    <glyph glyph-name="colon" unicode=":" horiz-adv-x="547" 
d="M410 276q0 -34 -13 -63.5t-35.5 -51t-52 -34t-63.5 -12.5t-63.5 12.5t-51.5 34t-34.5 51t-12.5 63.5t12.5 64t34.5 52t51.5 35t63.5 13t63.5 -13t52 -35t35.5 -52t13 -64zM512 768q0 -34 -13 -63.5t-35.5 -51.5t-52 -34.5t-63.5 -12.5t-63.5 12.5t-51.5 34.5t-34.5 51.5
t-12.5 63.5t12.5 63.5t34.5 52t51.5 35.5t63.5 13t63.5 -13t52 -35.5t35.5 -52t13 -63.5z" />
    <glyph glyph-name="semicolon" unicode=";" horiz-adv-x="565" 
d="M518 678q0 -34 -13 -63.5t-35.5 -51.5t-52 -34.5t-63.5 -12.5t-63.5 12.5t-51 34.5t-34 51.5t-12.5 63.5t12.5 63.5t34 52t51 35.5t63.5 13t63.5 -13t52 -35.5t35.5 -52t13 -63.5zM129 -225q-18 12 -18 35q0 27 16.5 49t36.5 43t36.5 43t16.5 51q0 11 -6.5 21.5
t-20.5 19.5q-42 26 -69 62t-27 87q0 34 12.5 63.5t34.5 52t51.5 35.5t63.5 13q68 0 103.5 -43.5t35.5 -111.5q0 -45 -18 -100.5t-52 -112t-83.5 -110.5t-112.5 -97z" />
    <glyph glyph-name="equal" unicode="=" horiz-adv-x="1055" 
d="M156 647l49 230h753l-47 -230h-755zM66 207l49 229h753l-47 -229h-755z" />
    <glyph glyph-name="question" unicode="?" horiz-adv-x="903" 
d="M603 1270q0 90 -36 138t-101 48q-34 0 -63 -13t-50 -35.5t-33 -53t-12 -66.5q0 -52 26.5 -97t71.5 -65v-8q-37 -34 -77.5 -51.5t-77.5 -17.5q-33 0 -60.5 12.5t-47 35t-30 54t-10.5 70.5q0 73 32.5 135.5t89.5 108.5t134.5 72t167.5 26q83 0 149 -19.5t112.5 -56t71 -89
t24.5 -118.5t-23 -120t-60.5 -100.5t-85.5 -88.5t-97.5 -83t-97.5 -84t-85.5 -92t-60.5 -107.5t-23 -129.5h-135q0 76 16.5 137t44 112.5t62 95t71 84t71 80t62 83t44 93.5t16.5 110zM421 164q0 -34 -12.5 -63.5t-34.5 -52t-51.5 -35.5t-63.5 -13t-63.5 13t-52 35.5
t-35.5 52t-13 63.5t13 63.5t35.5 51.5t52 34.5t63.5 12.5t63.5 -12.5t51.5 -34.5t34.5 -51.5t12.5 -63.5z" />
    <glyph glyph-name="at" unicode="@" horiz-adv-x="1410" 
d="M962 33q0 -43 -22.5 -77.5t-60 -61.5t-86.5 -46t-101.5 -31.5t-105.5 -18.5t-98 -6q-104 0 -196 25.5t-161 85.5t-109.5 160t-40.5 249q0 127 30 246t85 224t132.5 191.5t172 149t203.5 97t228 34.5q108 0 199 -29.5t158 -88.5t104.5 -147t37.5 -205q0 -78 -17 -152
t-46.5 -139.5t-71 -120.5t-90 -95t-103.5 -62t-112 -22q-68 0 -109.5 32.5t-45.5 95.5q-55 -72 -112.5 -110t-123.5 -38q-78 0 -121.5 53t-43.5 157q0 60 15 122t41 119t62 107t77 86.5t86.5 58t91.5 21.5q32 0 55.5 -12.5t52.5 -43.5l33 51l155 -15l-95 -361
q-11 -42 -19.5 -78t-8.5 -63q0 -11 1.5 -22.5t6 -20.5t12.5 -15t20 -6q30 0 69.5 38t75 102.5t60 149.5t24.5 178q0 160 -78 243t-225 83q-89 0 -174.5 -30t-161 -83.5t-139 -127t-109 -160.5t-71 -183.5t-25.5 -196.5q0 -97 21 -166.5t63 -114t104.5 -65.5t144.5 -21
q62 0 121.5 12.5t112 36t96.5 57.5t77 77q23 -11 39 -37t16 -70zM799 764q-12 11 -22.5 15.5t-21.5 4.5q-38 0 -77 -37.5t-71.5 -94.5t-53 -124.5t-20.5 -128.5q0 -45 13 -65.5t42 -20.5q15 0 30.5 5t30.5 13.5t27 20t20 25.5z" />
    <glyph glyph-name="A" unicode="A" horiz-adv-x="1368" 
d="M801 0l157 743q-78 36 -142.5 52t-131.5 22q-58 -125 -106.5 -257t-84 -256.5t-55.5 -233.5t-20 -189q0 -49 8.5 -74.5t19.5 -39.5q-41 0 -88.5 4t-89 24.5t-69 64.5t-27.5 124q0 68 21.5 163t61.5 204.5t95 229t123 236.5q-97 -6 -158.5 -29.5t-81.5 -76.5
q8 0 17.5 -20.5t9.5 -43.5q0 -37 -33.5 -58.5t-81.5 -21.5q-27 0 -50 7.5t-40 22t-27 37t-10 52.5q0 52 31.5 98t87.5 80t132.5 54t166.5 20q42 0 107 -6q78 123 165 232.5t179 192t185 131t183 48.5q36 0 80.5 -6t81.5 -23l-321 -1507h-295zM1096 1391q-46 -25 -93.5 -71.5
t-94 -110t-92.5 -141t-89 -163.5q62 -12 126 -29.5t124 -41.5z" />
    <glyph glyph-name="B" unicode="B" horiz-adv-x="1313" 
d="M205 0l278 1303l303 40l-96 -454h12q61 0 114.5 30t93.5 78t63.5 107t23.5 117q0 43 -15 82.5t-47 70.5t-83.5 49.5t-124.5 18.5q-60 0 -121.5 -13.5t-118 -41t-106.5 -68.5t-86.5 -96.5t-58 -125t-21.5 -153.5q0 -39 4.5 -63.5t10 -39t10 -22.5t4.5 -14
q-104 0 -161.5 42t-57.5 146q0 71 28 138.5t78.5 128t120 111t152 87.5t175 57.5t189.5 20.5q113 0 195 -27.5t135.5 -72.5t79.5 -104t26 -122q0 -46 -13 -92t-39 -88t-64.5 -79.5t-88.5 -65.5q66 -12 112 -43.5t75 -76t42 -98.5t13 -112q0 -49 -9.5 -112t-30.5 -128.5
t-55 -128.5t-84 -112t-116.5 -79t-152.5 -30q-33 0 -69 6t-65.5 23t-49 46.5t-19.5 76.5q0 26 6 55t20 64q39 -42 71 -58t67 -16q56 0 94.5 35.5t62.5 90t34.5 119.5t10.5 123q0 53 -9.5 100.5t-32 83t-59.5 56.5t-93 21q-13 0 -39 -1t-55 -6l-168 -784h-295z" />
    <glyph glyph-name="C" unicode="C" horiz-adv-x="1018" 
d="M1071 348q-41 -103 -111 -175.5t-151.5 -118t-166 -66.5t-155.5 -21q-114 0 -198 27t-139.5 87t-83 156t-27.5 234q0 70 8.5 152.5t27.5 170.5t48.5 177t71.5 171.5t97 154.5t124 125t153 83.5t185 30.5q71 0 133.5 -15.5t109 -48.5t73 -85t26.5 -125q0 -41 -7.5 -75.5
t-25 -60t-45 -39.5t-66.5 -14q-24 0 -55.5 9t-60.5 44q18 9 35 28.5t30 45t21 55.5t8 60q0 24 -6.5 47t-21.5 40t-39 27.5t-58 10.5q-57 0 -110.5 -42t-101 -113.5t-87 -166.5t-67.5 -201t-44 -218t-16 -216q0 -71 10.5 -129.5t38 -100.5t75 -65.5t122.5 -23.5q121 0 224 54
t175 151z" />
    </font>
</defs>
</svg>
