<?xml version="1.0" standalone="no"?>
<!DOCTYPE svg PUBLIC "-//W3C//DTD SVG 1.1//EN" "http://www.w3.org/Graphics/SVG/1.1/DTD/svg11.dtd" >
<svg xmlns="http://www.w3.org/2000/svg" xmlns:xlink="http://www.w3.org/1999/xlink" version="1.1">
<metadata>
Created by FontForge 20170731 at Tue Aug 21 15:08:31 2012
 By Aleksey,,,
Copyright 2010, 2012 Monotype Imaging Hong Kong Ltd. and Monotype Imaging Inc. All rights reserved.
</metadata>
<defs>
<font id="MStiffHeiPRC-Bold" horiz-adv-x="1000" vert-adv-y="1000" >
  <font-face 
    font-family="MStiffHei PRC Bold"
    font-weight="400"
    font-stretch="normal"
    units-per-em="1000"
    panose-1="0 0 5 0 0 0 0 0 0 0"
    ascent="800"
    descent="-200"
    x-height="536"
    cap-height="762"
    bbox="-88 -207 1037 971"
    underline-thickness="50"
    underline-position="-150"
    unicode-range="U+0020-241FE"
  />
<missing-glyph 
 />
    <glyph glyph-name=".notdef" 
 />
    <glyph glyph-name=".null" horiz-adv-x="0" vert-adv-y="0" 
 />
    <glyph glyph-name="nonmarkingreturn" horiz-adv-x="333" 
 />
    <glyph glyph-name="space" unicode=" " horiz-adv-x="278" 
 />
    <glyph glyph-name="space" horiz-adv-x="278" 
 />
    <glyph glyph-name="space" horiz-adv-x="278" 
 />
    <glyph glyph-name="space" horiz-adv-x="278" 
 />
    <glyph glyph-name="space" horiz-adv-x="278" 
 />
    <glyph glyph-name="space" horiz-adv-x="278" 
 />
    <glyph glyph-name="space" horiz-adv-x="278" 
 />
    <glyph glyph-name="space" horiz-adv-x="278" 
 />
    <glyph glyph-name="space" horiz-adv-x="278" 
 />
    <glyph glyph-name="space" horiz-adv-x="278" 
 />
    <glyph glyph-name="space" horiz-adv-x="278" 
 />
    <glyph glyph-name="space" horiz-adv-x="278" 
 />
    <glyph glyph-name="space" horiz-adv-x="278" 
 />
    <glyph glyph-name="space" horiz-adv-x="278" 
 />
    <glyph glyph-name="space" horiz-adv-x="278" 
 />
    <glyph glyph-name="space" horiz-adv-x="278" 
 />
    <glyph glyph-name="space" horiz-adv-x="278" 
 />
    <glyph glyph-name="space" horiz-adv-x="278" 
 />
    <glyph glyph-name="space" horiz-adv-x="278" 
 />
    <glyph glyph-name="space" unicode="&#xd;" horiz-adv-x="278" 
 />
    <glyph glyph-name="space" horiz-adv-x="278" 
 />
    <glyph glyph-name="space" horiz-adv-x="278" 
 />
    <glyph glyph-name="space" unicode="&#xa;" horiz-adv-x="278" 
 />
    <glyph glyph-name="space" unicode="&#x9;" horiz-adv-x="278" 
 />
    <glyph glyph-name="space" horiz-adv-x="278" 
 />
    <glyph glyph-name="space" horiz-adv-x="278" 
 />
    <glyph glyph-name="space" horiz-adv-x="278" 
 />
    <glyph glyph-name="space" horiz-adv-x="278" 
 />
    <glyph glyph-name="space" horiz-adv-x="278" 
 />
    <glyph glyph-name="space" horiz-adv-x="278" 
 />
    <glyph glyph-name="space" horiz-adv-x="278" 
 />
    <glyph glyph-name="space" horiz-adv-x="278" 
 />
    <glyph glyph-name="space" horiz-adv-x="278" 
 />
    <glyph glyph-name="exclam" unicode="!" horiz-adv-x="370" 
d="M114 228v536h142v-536h-142zM114 0v142h142v-142h-142z" />
    <glyph glyph-name="quotedbl" unicode="&#x22;" horiz-adv-x="500" 
d="M384 501h-87l-15 263h117zM203 501h-87l-15 263h117z" />
    <glyph glyph-name="numbersign" unicode="#" horiz-adv-x="772" 
d="M692 499l-113 -6l-20 -191l118 6l-7 -101l-122 -6l-19 -189l-108 12l18 171l-142 -7l-18 -176l-108 12l16 159l-114 -6l7 101l118 6l19 191l-122 -6l7 101l126 6l18 177l108 -13l-16 -158l141 7l17 164l108 -13l-15 -146l110 6zM327 481l-19 -192l141 8l20 191z" />
    <glyph glyph-name="dollar" unicode="$" horiz-adv-x="750" 
d="M417 681v-243h257v-437h-257v-53h-81v53h-240l-39 81h279v275h-256v405h256v57h81v-57h261v-81h-261zM336 681h-114v-243h114v243zM532 357h-115v-275h115v275z" />
    <glyph glyph-name="percent" unicode="%" horiz-adv-x="896" 
d="M476 0v386l-238 -404h-51l227 385h-334v395h340v-385l241 409h51l-231 -391h335v-395h-340zM688 315h-84v-235h84v235zM292 682h-84v-235h84v235z" />
    <glyph glyph-name="ampersand" unicode="&#x26;" horiz-adv-x="814" 
d="M765 1h-151l-67 63l-55 -63h-413v288l131 93l-98 92v288h445v-292l-139 -99l116 -110l69 80h182l-150 -175l89 -84h80zM415 681h-161v-156l67 -64l94 67v153zM306 291l-85 -60v-149h159l66 77z" />
    <glyph glyph-name="quotesingle" unicode="'" horiz-adv-x="370" 
d="M227 501h-84l-20 263h124z" />
    <glyph glyph-name="parenleft" unicode="(" horiz-adv-x="460" 
d="M249 -123q-44 44 -79 99t-60 115t-38 121.5t-13 118.5t13 118.5t38 121.5t60 115.5t79 99.5h171q-48 -54 -87.5 -112.5t-67.5 -117t-43.5 -115.5t-15.5 -109t15.5 -109.5t43.5 -116t67.5 -117t87.5 -112.5h-171z" />
    <glyph glyph-name="parenright" unicode=")" horiz-adv-x="460" 
d="M400 331q0 -57 -13 -118.5t-38 -121.5t-60 -115t-79 -99h-171q48 54 87.5 112.5t67.5 117t43.5 116t15.5 109.5t-15.5 109t-43.5 115.5t-67.5 117t-87.5 112.5h171q44 -44 79 -99.5t60 -115.5t38 -121.5t13 -118.5z" />
    <glyph glyph-name="asterisk" unicode="*" horiz-adv-x="470" 
d="M419 556q-32 -6 -65 -12t-66 -10q11 -9 24.5 -22.5t26.5 -27.5t24 -27t15 -19l-81 -58l-28.5 47.5t-17 29.5t-10 20t-8.5 18q-3 -7 -7 -16t-11 -21.5t-18 -31.5t-29 -48l-82 62q20 21 34 35.5t24.5 25t19 18t18.5 15.5q-15 2 -34.5 5.5t-39 7.5t-35 8t-21.5 5l32 95
q8 -3 22 -9.5t31 -15t34.5 -17.5t30.5 -18q-5 20 -10 50.5t-7 82.5h98q0 -5 -1 -18.5t-3 -31.5t-5 -40t-8 -43q14 8 41.5 21t81.5 36l30 -96v0z" />
    <glyph glyph-name="plus" unicode="+" horiz-adv-x="626" 
d="M385 284v-187h-143v187h-187v143h187v187h143v-187h187v-143h-187z" />
    <glyph glyph-name="comma" unicode="," horiz-adv-x="370" 
d="M160 -91h-50l100 171h-100v150h150v-150z" />
    <glyph glyph-name="hyphen" unicode="-" horiz-adv-x="333" 
d="M19 216v101h296v-101h-296z" />
    <glyph glyph-name="period" unicode="." horiz-adv-x="370" 
d="M101 73v157h169v-157h-169z" />
    <glyph glyph-name="slash" unicode="/" horiz-adv-x="300" 
d="M111 -24h-101l178 740h103z" />
    <glyph glyph-name="zero" unicode="0" horiz-adv-x="730" 
d="M79 0v762h572v-762h-572zM509 681h-288v-600h288v600z" />
    <glyph glyph-name="one" unicode="1" horiz-adv-x="730" 
d="M300 1v681h-178v81h320v-762h-142z" />
    <glyph glyph-name="two" unicode="2" horiz-adv-x="730" 
d="M634 0h-565v81l426 377v224h-421v81h563v-369l-353 -313h389z" />
    <glyph glyph-name="three" unicode="3" horiz-adv-x="730" 
d="M67 0v81h432v265h-328v81h318v255h-413v81h555v-310l-88 -66l98 -68v-319h-574z" />
    <glyph glyph-name="four" unicode="4" horiz-adv-x="730" 
d="M570 140v-140h-142v140h-385v81l406 542h121v-542h105v-81h-105zM428 591l-273 -370h273v370z" />
    <glyph glyph-name="five" unicode="5" horiz-adv-x="730" 
d="M222 682v-221h424v-461h-552l-38 81h448v299h-424v383h142v-66l60 66h370v-81h-430z" />
    <glyph glyph-name="six" unicode="6" horiz-adv-x="730" 
d="M221 682v-203h426v-478h-568v762h572v-81h-430zM505 398h-284v-316h284v316z" />
    <glyph glyph-name="seven" unicode="7" horiz-adv-x="730" 
d="M351 0h-152l300 681h-427v82h574v-92z" />
    <glyph glyph-name="eight" unicode="8" horiz-adv-x="730" 
d="M79 0v333l99 67l-87 67v296h548v-296l-87 -67l99 -67v-333h-572zM497 682h-264v-242h264v242zM509 359h-288v-278h288v278z" />
    <glyph glyph-name="nine" unicode="9" horiz-adv-x="730" 
d="M115 0l-39 81h437v188h-426v494h568v-763h-540zM513 682h-284v-332h284v332z" />
    <glyph glyph-name="colon" unicode=":" horiz-adv-x="370" 
d="M110 425v150h150v-150h-150zM110 49v150h150v-150h-150z" />
    <glyph glyph-name="semicolon" unicode=";" horiz-adv-x="370" 
d="M110 445v150h150v-150h-150zM160 -92h-50l100 171h-100v150h150v-150z" />
    <glyph glyph-name="less" unicode="&#x3c;" horiz-adv-x="660" 
d="M57 316v111l545 234v-148l-352 -143l352 -139v-148z" />
    <glyph glyph-name="equal" unicode="=" horiz-adv-x="660" 
d="M60 430v100h540v-100h-540zM60 209v101h540v-101h-540z" />
    <glyph glyph-name="greater" unicode="&#x3e;" horiz-adv-x="660" 
d="M57 83v148l352 139l-352 143v148l545 -234v-111z" />
    <glyph glyph-name="question" unicode="?" horiz-adv-x="600" 
d="M321 310v-103h-142v195l210 68v212h-346v81h488v-385zM179 0v142h142v-142h-142z" />
    <glyph glyph-name="at" unicode="@" horiz-adv-x="920" 
d="M823 1h-744v761h756v-604h-331v66l-60 -66h-175v443h175l60 -66v66h134v-362h63v442h-488v-599h649zM504 520h-101v-281h101v281z" />
    <glyph glyph-name="A" unicode="A" horiz-adv-x="840" 
d="M675 0l-62 196h-386l-62 -196h-157l239 762h346l239 -762h-157zM461 681h-82l-127 -404h336z" />
    <glyph glyph-name="B" unicode="B" horiz-adv-x="820" 
d="M282 0l-60 66v-66h-142v762h142v-66l60 66h455v-305l-103 -68l116 -68v-321h-468zM595 681h-373v-252h373v252zM608 348h-386v-267h386v267z" />
    <glyph glyph-name="C" unicode="C" horiz-adv-x="814" 
d="M737 0h-658v763h678v-81h-536v-601h555z" />
    <glyph glyph-name="D" unicode="D" horiz-adv-x="838" 
d="M282 0l-60 66v-66h-142v763h142v-66l60 66h474v-763h-474zM614 682h-392v-601h392v601z" />
    <glyph glyph-name="E" unicode="E" horiz-adv-x="730" 
d="M655 0h-576v763h600v-81h-458v-252h438v-81h-438v-268h473z" />
    <glyph glyph-name="F" unicode="F" horiz-adv-x="696" 
d="M222 682v-251h405v-81h-405v-350h-142v763h569v-81h-427z" />
    <glyph glyph-name="G" unicode="G" horiz-adv-x="832" 
d="M614 0v66l-60 -66h-474v763h672v-81h-530v-601h392v305h-211v81h353v-467h-142z" />
    <glyph glyph-name="H" unicode="H" horiz-adv-x="830" 
d="M605 0v350h-384v-350h-142v763h142v-332h384v332h142v-763h-142z" />
    <glyph glyph-name="I" unicode="I" horiz-adv-x="378" 
d="M118 0v763h142v-763h-142z" />
    <glyph glyph-name="J" unicode="J" horiz-adv-x="526" 
d="M44 0l-39 81h296v682h142v-763h-399z" />
    <glyph glyph-name="K" unicode="K" horiz-adv-x="794" 
d="M614 0l-260 346h-133v-346h-142v763h142v-336h133l252 336h165l-283 -376l293 -387h-167z" />
    <glyph glyph-name="L" unicode="L" horiz-adv-x="630" 
d="M585 0h-505v763h142v-682h402z" />
    <glyph glyph-name="M" unicode="M" horiz-adv-x="982" 
d="M761 0v586l-206 -586h-128l-206 586v-586h-142v763h223l189 -537l189 537h223v-763h-142z" />
    <glyph glyph-name="N" unicode="N" horiz-adv-x="840" 
d="M616 0l-392 531v-531h-142v763h142l392 -531v531h142v-763h-142z" />
    <glyph glyph-name="O" unicode="O" horiz-adv-x="840" 
d="M82 0v762h676v-762h-676zM616 681h-392v-600h392v600z" />
    <glyph glyph-name="P" unicode="P" horiz-adv-x="712" 
d="M281 298l-60 66v-363h-142v762h142v-66l60 66h401v-465h-401zM540 682h-319v-303h319v303z" />
    <glyph glyph-name="Q" unicode="Q" horiz-adv-x="836" 
d="M580 1l140 -125h-203l-140 125h-297v761h676v-761h-176zM614 681h-392v-599h392v599z" />
    <glyph glyph-name="R" unicode="R" horiz-adv-x="766" 
d="M577 0l-210 318h-86l-60 66v-384h-142v763h142v-66l60 66h398v-445h-142l210 -318h-170zM537 682h-316v-283h316v283z" />
    <glyph glyph-name="S" unicode="S" horiz-adv-x="816" 
d="M227 681v-260h504v-421h-635l-38 81h531v259h-504v422h649v-81h-507z" />
    <glyph glyph-name="T" unicode="T" horiz-adv-x="726" 
d="M434 682v-682h-142v682h-281v81h704v-81h-281z" />
    <glyph glyph-name="U" unicode="U" horiz-adv-x="840" 
d="M82 0v763h142v-682h392v682h142v-763h-676z" />
    <glyph glyph-name="V" unicode="V" horiz-adv-x="760" 
d="M472 0h-184l-278 763h156l214 -590l214 590h156z" />
    <glyph glyph-name="W" unicode="W" horiz-adv-x="936" 
d="M754 0h-165l-121 495l-121 -495h-165l-176 763h155l114 -508l121 508h144l121 -508l114 508h155z" />
    <glyph glyph-name="X" unicode="X" horiz-adv-x="820" 
d="M620 0l-210 270l-210 -270h-176l298 384l-294 379h176l206 -266l207 266h176l-295 -379l298 -384h-176z" />
    <glyph glyph-name="Y" unicode="Y" horiz-adv-x="794" 
d="M468 266v-266h-142v266l-314 497h164l221 -352l221 352h164z" />
    <glyph glyph-name="Z" unicode="Z" horiz-adv-x="812" 
d="M714 0h-636v81l465 601h-453v81h631v-81l-465 -601h497z" />
    <glyph glyph-name="bracketleft" unicode="[" horiz-adv-x="460" 
d="M69 -123v909h346v-140h-204v-629h204v-140h-346z" />
    <glyph glyph-name="backslash" unicode="\" horiz-adv-x="300" 
d="M188 -24l-178 740h101l180 -740h-103z" />
    <glyph glyph-name="bracketright" unicode="]" horiz-adv-x="460" 
d="M45 -123v140h204v629h-204v140h346v-909h-346z" />
    <glyph glyph-name="asciicircum" unicode="^" horiz-adv-x="625" 
d="M408 370l-95 240l-96 -240h-156l192 394h122l189 -394h-156z" />
    <glyph glyph-name="underscore" unicode="_" horiz-adv-x="500" 
d="M-6 -140v50h512v-50h-512z" />
    <glyph glyph-name="grave" unicode="`" horiz-adv-x="500" 
d="M389 612l-292 87l46 95l264 -135z" />
    <glyph glyph-name="a" unicode="a" horiz-adv-x="686" 
d="M631 0h-160v65l-60 -65h-332v536h332l60 -65v65h138v-456h61zM471 456h-254v-376h254v376z" />
    <glyph glyph-name="b" unicode="b" horiz-adv-x="672" 
d="M277 0l-60 65v-65h-138v763h138v-292l60 65h352v-536h-352zM491 456h-274v-376h274v376z" />
    <glyph glyph-name="c" unicode="c" horiz-adv-x="646" 
d="M584 0h-505v536h531v-80h-393v-376h406z" />
    <glyph glyph-name="d" unicode="d" horiz-adv-x="672" 
d="M455 0v65l-60 -65h-352v536h352l60 -65v292h138v-763h-138zM455 456h-274v-376h274v376z" />
    <glyph glyph-name="e" unicode="e" horiz-adv-x="692" 
d="M608 0h-529v537h539v-333h-341l-60 65v-189h430zM480 457h-263v-173h263v173z" />
    <glyph glyph-name="f" unicode="f" horiz-adv-x="512" 
d="M297 451v-451h-138v451h-146v80h146v231h313v-80h-175v-151h175v-80h-175z" />
    <glyph glyph-name="g" unicode="g" horiz-adv-x="710" 
d="M89 -204l-38 80h440v189l-60 -65h-352v536h352l60 -65v65h138v-740h-540zM491 456h-274v-376h274v376z" />
    <glyph glyph-name="h" unicode="h" horiz-adv-x="676" 
d="M491 0v457h-274v-457h-138v763h138v-291l60 65h352v-537h-138z" />
    <glyph glyph-name="i" unicode="i" horiz-adv-x="378" 
d="M120 625v138h138v-138h-138zM120 1v536h138v-536h-138z" />
    <glyph glyph-name="j" unicode="j" horiz-adv-x="494" 
d="M241 625v138h138v-138h-138zM44 -204l-38 80h235v661h138v-741h-335z" />
    <glyph glyph-name="k" unicode="k" horiz-adv-x="694" 
d="M474 300l198 -300h-164l-171 260h-120v-260h-138v762h138v-422h118l173 197h174z" />
    <glyph glyph-name="l" unicode="l" horiz-adv-x="378" 
d="M120 0v762h138v-762h-138z" />
    <glyph glyph-name="m" unicode="m" horiz-adv-x="920" 
d="M703 1v455h-174v-455h-138v455h-174v-455h-138v535h138v-65l60 65h252v-65l60 65h252v-535h-138z" />
    <glyph glyph-name="n" unicode="n" horiz-adv-x="706" 
d="M488 0v456h-270v-456h-138v536h138v-65l60 65h348v-536h-138z" />
    <glyph glyph-name="o" unicode="o" horiz-adv-x="710" 
d="M80 0v537h550v-537h-550zM492 457h-274v-377h274v377z" />
    <glyph glyph-name="p" unicode="p" horiz-adv-x="672" 
d="M277 1l-60 65v-270h-138v740h138v-65l60 65h352v-535h-352zM491 456h-274v-375h274v375z" />
    <glyph glyph-name="q" unicode="q" horiz-adv-x="672" 
d="M455 -204v270l-60 -65h-352v535h352l60 -65v65h138v-740h-138zM455 456h-274v-375h274v375z" />
    <glyph glyph-name="r" unicode="r" horiz-adv-x="540" 
d="M218 456v-456h-138v536h138v-65l60 65h237v-80h-297z" />
    <glyph glyph-name="s" unicode="s" horiz-adv-x="690" 
d="M218 456v-145h398v-311h-515l-38 80h415v151h-398v305h548v-80h-410z" />
    <glyph glyph-name="t" unicode="t" horiz-adv-x="488" 
d="M434 0h-291v455h-130v80h130v175h138v-175h171v-80h-171v-375h192z" />
    <glyph glyph-name="u" unicode="u" horiz-adv-x="708" 
d="M491 0v65l-60 -65h-352v536h138v-456h274v456h138v-536h-138z" />
    <glyph glyph-name="v" unicode="v" horiz-adv-x="668" 
d="M413 0h-158l-243 536h152l170 -387l170 387h152z" />
    <glyph glyph-name="w" unicode="w" horiz-adv-x="914" 
d="M743 1h-186l-104 313l-99 -313h-185l-160 535h152l107 -373l114 373h149l116 -366l106 366h152z" />
    <glyph glyph-name="x" unicode="x" horiz-adv-x="676" 
d="M469 0l-131 165l-131 -165h-188l225 283l-201 253h188l107 -135l107 135h188l-201 -253l225 -283h-188z" />
    <glyph glyph-name="y" unicode="y" horiz-adv-x="652" 
d="M321 -206h-247l-38 80h162l45 107l-229 555h160l150 -366l156 366h158z" />
    <glyph glyph-name="z" unicode="z" horiz-adv-x="694" 
d="M610 1h-531v80l343 375h-343v80h538v-80l-344 -375h376z" />
    <glyph glyph-name="braceleft" unicode="{" horiz-adv-x="460" 
d="M340 -122q-48 0 -82 8t-57 27q-40 33 -40 108q0 46 -1.5 89.5t-4.5 91.5q-2 29 -18.5 48t-48.5 19h-41v125h41q32 0 48.5 19t18.5 48q3 48 4.5 92t1.5 90q0 75 40 108q23 19 57 27t82 8h73v-100h-43q-29 0 -46.5 -18.5t-18.5 -44.5q-1 -32 -1.5 -76.5t-2.5 -83.5
q-2 -26 -7 -47t-16 -38q-11 -16 -26 -27.5t-38 -19.5q43 -14 64 -46q11 -17 16 -38t7 -47q2 -39 2.5 -83t1.5 -76q1 -26 18.5 -44.5t46.5 -18.5h43v-100h-73z" />
    <glyph glyph-name="bar" unicode="|" horiz-adv-x="320" 
d="M102 -107v848h117v-848h-117z" />
    <glyph glyph-name="braceright" unicode="}" horiz-adv-x="460" 
d="M372 269q-32 0 -48.5 -19t-18.5 -48q-3 -48 -4.5 -91.5t-1.5 -89.5q0 -75 -40 -108q-23 -19 -57 -27t-82 -8h-73v100h43q29 0 46.5 18.5t18.5 44.5q1 32 1.5 76t2.5 83q2 26 7 47t16 38q21 32 64 46q-23 8 -38 19.5t-26 27.5q-11 17 -16 38t-7 47q-2 39 -2.5 83.5
t-1.5 76.5q-1 26 -18.5 44.5t-46.5 18.5h-43v100h73q48 0 82 -8t57 -27q40 -33 40 -108q0 -46 1.5 -90t4.5 -92q2 -29 18.5 -48t48.5 -19h41v-125h-41z" />
    <glyph glyph-name="asciitilde" unicode="~" horiz-adv-x="625" 
d="M582 315q-8 -7 -23 -19t-35 -23t-44 -19.5t-50 -8.5q-36 0 -64.5 10t-67.5 29q-38 18 -62.5 25.5t-47.5 7.5q-26 0 -62.5 -14t-82.5 -59v145q14 12 30 25t35 23t42 16.5t50 6.5q16 0 42 -4.5t72 -24.5q36 -15 57 -24t33.5 -13t20 -5t17.5 -1q6 0 18.5 1.5t30.5 9t41 22
t50 40.5v-146v0z" />
    <glyph glyph-name="currency" unicode="&#xa4;" 
d="M803 602q34 -47 52.5 -102.5t18.5 -117.5q0 -63 -19 -118.5t-53 -102.5l72 -71l-80 -80l-71 71q-47 -35 -103.5 -54t-119.5 -19t-119 18.5t-103 53.5l-72 -71l-80 80l72 71q-35 47 -53.5 103t-18.5 119q0 62 18.5 117.5t52.5 102.5l-72 71l80 80l71 -71q47 35 104 54.5
t120 19.5t120 -19.5t104 -54.5l71 71l80 -80zM776 378q0 57 -22 108t-59.5 88.5t-88.5 59.5t-108 22t-107.5 -22t-88 -59.5t-59.5 -88.5t-22 -108t22 -107.5t59.5 -88t88 -59.5t107.5 -22t108 22t88.5 59.5t59.5 88t22 107.5z" />
    <glyph glyph-name="yen" unicode="&#xa5;" horiz-adv-x="500" 
d="M290 214v-213h-80v213h-146v81h146v10l-144 457h87l97 -321l97 321h87l-144 -457v-10h146v-81h-146z" />
    <glyph glyph-name="section" unicode="&#xa7;" 
d="M279 -49l-38 81h376v95l-357 93v240l123 49l-113 31v277h472v-81h-330v-95l337 -93v-237l-123 -48l133 -35v-277h-480zM607 447l-205 57v-183l205 -53v179z" />
    <glyph glyph-name="dieresis" unicode="&#xa8;" 
d="M564 815v117h118v-117h-118zM318 815v117h118v-117h-118z" />
    <glyph glyph-name="degree" unicode="&#xb0;" 
d="M329 663q-2 -30 -15.5 -57t-39.5 -44q-24 -16 -52.5 -20t-56.5 4t-51.5 30.5t-33.5 51.5q-8 25 -5 53.5t16 51.5q14 24 35.5 40.5t50.5 21.5q64 12 111 -31q43 -41 41 -101zM268 639q8 18 6.5 37.5t-12.5 35.5q-10 14 -27.5 22t-34.5 8q-21 -1 -38 -11t-25 -29
q-8 -17 -7 -35.5t10 -34.5q9 -17 26 -27.5t37 -9.5q23 1 40 13t25 31z" />
    <glyph glyph-name="plusminus" unicode="&#xb1;" 
d="M552 410v-230h-111v230h-284v111h284v228h111v-228h291v-111h-291zM166 24v111h665v-111h-665z" />
    <glyph glyph-name="uni30FB" unicode="&#x30fb;" 
d="M416 297v157h169v-157h-169z" />
    <glyph glyph-name="uni30FB" unicode="&#xb7;" 
d="M416 297v157h169v-157h-169z" />
    <glyph glyph-name="multiply" unicode="&#xd7;" 
d="M703 93l-206 207l-200 -199l-79 79l199 200l-196 196l80 80l196 -196l195 195l80 -80l-195 -195l206 -207z" />
    <glyph glyph-name="agrave" unicode="&#xe0;" 
d="M649 575l-307 59l60 113l256 -144zM771 0h-156v64l-59 -64h-326v527h326l59 -64v64h135v-448h60zM615 448h-249v-369h249v369z" />
    <glyph glyph-name="aacute" unicode="&#xe1;" 
d="M421 566l-60 113l307 59l9 -29zM771 0h-156v64l-59 -64h-326v527h326l59 -64v64h135v-448h60zM615 448h-249v-369h249v369z" />
    <glyph glyph-name="egrave" unicode="&#xe8;" 
d="M649 575l-307 59l60 113l256 -144zM749 0h-518v527h528v-327h-334l-59 64v-185h421zM624 448h-258v-169h258v169z" />
    <glyph glyph-name="eacute" unicode="&#xe9;" 
d="M421 566l-60 113l307 59l9 -29zM749 0h-518v527h528v-327h-334l-59 64v-185h421zM624 448h-258v-169h258v169z" />
    <glyph glyph-name="ecircumflex" unicode="&#xea;" 
d="M578 573l-78 69l-78 -69h-123l153 139h96l153 -139h-123zM749 0h-518v527h528v-327h-334l-59 64v-185h421zM624 448h-258v-169h258v169z" />
    <glyph glyph-name="igrave" unicode="&#xec;" 
d="M649 575l-307 59l60 113l256 -144zM431 1v526h138v-526h-138z" />
    <glyph glyph-name="iacute" unicode="&#xed;" 
d="M421 566l-60 113l307 59l9 -29zM431 1v526h138v-526h-138z" />
    <glyph glyph-name="ograve" unicode="&#xf2;" 
d="M649 575l-307 59l60 113l256 -144zM231 0v527h538v-527h-538zM634 448h-268v-369h268v369z" />
    <glyph glyph-name="oacute" unicode="&#xf3;" 
d="M421 566l-60 113l307 59l9 -29zM231 0v527h538v-527h-538zM634 448h-268v-369h268v369z" />
    <glyph glyph-name="divide" unicode="&#xf7;" 
d="M436 571v125h129v-125h-129zM174 343v108h653v-108h-653zM436 100v125h129v-125h-129z" />
    <glyph glyph-name="ugrave" unicode="&#xf9;" 
d="M649 575l-307 59l60 113l256 -144zM634 0v64l-59 -64h-344v526h135v-447h268v447h135v-526h-135z" />
    <glyph glyph-name="uacute" unicode="&#xfa;" 
d="M421 566l-60 113l307 59l9 -29zM634 0v64l-59 -64h-344v526h135v-447h268v447h135v-526h-135z" />
    <glyph glyph-name="udieresis" unicode="&#xfc;" 
d="M564 595v117h118v-117h-118zM318 595v117h118v-117h-118zM634 0v64l-59 -64h-344v526h135v-447h268v447h135v-526h-135z" />
    <glyph glyph-name="amacron" unicode="&#x101;" 
d="M325 615v79h351v-79h-351zM771 0h-156v64l-59 -64h-326v527h326l59 -64v64h135v-448h60zM615 448h-249v-369h249v369z" />
    <glyph glyph-name="emacron" unicode="&#x113;" 
d="M325 615v79h351v-79h-351zM749 0h-518v527h528v-327h-334l-59 64v-185h421zM624 448h-258v-169h258v169z" />
    <glyph glyph-name="ecaron" unicode="&#x11b;" 
d="M548 573h-96l-153 139h123l78 -69l78 69h123zM749 0h-518v527h528v-327h-334l-59 64v-185h421zM624 448h-258v-169h258v169z" />
    <glyph glyph-name="imacron" unicode="&#x12b;" 
d="M325 615v79h351v-79h-351zM431 1v526h138v-526h-138z" />
    <glyph glyph-name="nacute" unicode="&#x144;" 
d="M421 566l-60 113l307 59l9 -29zM637 0v456h-270v-456h-138v536h138v-65l60 65h348v-536h-138z" />
    <glyph glyph-name="ncaron" unicode="&#x148;" 
d="M548 573h-96l-153 139h123l78 -69l78 69h123zM637 0v456h-270v-456h-138v536h138v-65l60 65h348v-536h-138z" />
    <glyph glyph-name="omacron" unicode="&#x14d;" 
d="M325 615v79h351v-79h-351zM231 0v527h538v-527h-538zM634 448h-268v-369h268v369z" />
    <glyph glyph-name="umacron" unicode="&#x16b;" 
d="M325 615v79h351v-79h-351zM634 0v64l-59 -64h-344v526h135v-447h268v447h135v-526h-135z" />
    <glyph glyph-name="uni01CE" unicode="&#x1ce;" 
d="M548 573h-96l-153 139h123l78 -69l78 69h123zM771 0h-156v64l-59 -64h-326v527h326l59 -64v64h135v-448h60zM615 448h-249v-369h249v369z" />
    <glyph glyph-name="uni01D0" unicode="&#x1d0;" 
d="M548 573h-96l-153 139h123l78 -69l78 69h123zM431 1v526h138v-526h-138z" />
    <glyph glyph-name="uni01D2" unicode="&#x1d2;" 
d="M548 573h-96l-153 139h123l78 -69l78 69h123zM231 0v527h538v-527h-538zM634 448h-268v-369h268v369z" />
    <glyph glyph-name="uni01D4" unicode="&#x1d4;" 
d="M548 573h-96l-153 139h123l78 -69l78 69h123zM634 0v64l-59 -64h-344v526h135v-447h268v447h135v-526h-135z" />
    <glyph glyph-name="uni01D6" unicode="&#x1d6;" 
d="M325 775v79h351v-79h-351zM564 595v117h118v-117h-118zM318 595v117h118v-117h-118zM634 0v64l-59 -64h-344v526h135v-447h268v447h135v-526h-135z" />
    <glyph glyph-name="uni01D8" unicode="&#x1d8;" 
d="M421 741l-60 113l307 59l9 -29zM564 595v117h118v-117h-118zM318 595v117h118v-117h-118zM634 0v64l-59 -64h-344v526h135v-447h268v447h135v-526h-135z" />
    <glyph glyph-name="uni01DA" unicode="&#x1da;" 
d="M548 751h-96l-153 139h123l78 -69l78 69h123zM564 595v117h118v-117h-118zM318 595v117h118v-117h-118zM634 0v64l-59 -64h-344v526h135v-447h268v447h135v-526h-135z" />
    <glyph glyph-name="uni01DC" unicode="&#x1dc;" 
d="M649 742l-307 59l60 113l256 -144zM564 595v117h118v-117h-118zM318 595v117h118v-117h-118zM634 0v64l-59 -64h-344v526h135v-447h268v447h135v-526h-135z" />
    <glyph glyph-name="uniE7C8" unicode="&#xe7c8;" 
d="M649 575l-307 59l60 113l256 -144zM637 0v456h-270v-456h-138v536h138v-65l60 65h348v-536h-138z" />
    <glyph glyph-name="uniE7C8" unicode="&#x1f9;" 
d="M649 575l-307 59l60 113l256 -144zM637 0v456h-270v-456h-138v536h138v-65l60 65h348v-536h-138z" />
    <glyph glyph-name="uni0251" unicode="&#x251;" 
d="M771 0h-156v64l-59 -64h-326v527h326l59 -64v64h135v-448h60zM615 448h-249v-369h249v369z" />
    <glyph glyph-name="uni0261" unicode="&#x261;" 
d="M239 -204l-38 80h440v189l-60 -65h-352v527h352l60 -65v65h138v-731h-540zM641 447h-274v-367h274v367z" />
    <glyph glyph-name="caron" unicode="&#x2c7;" 
d="M548 797h-96l-153 139h123l78 -69l78 69h123z" />
    <glyph glyph-name="uni02C9" unicode="&#x2c9;" 
d="M325 833v79h351v-79h-351z" />
    <glyph glyph-name="uni02CA" unicode="&#x2ca;" 
 />
    <glyph glyph-name="uni02CB" unicode="&#x2cb;" 
 />
    <glyph glyph-name="dotaccent" unicode="&#x2d9;" 
 />
    <glyph glyph-name="Alpha" unicode="&#x391;" 
d="M757 0l-62 196h-386l-62 -196h-157l239 762h346l239 -762h-157zM543 681h-82l-127 -404h336z" />
    <glyph glyph-name="Beta" unicode="&#x392;" 
d="M372 0l-60 66v-66h-142v762h142v-66l60 66h455v-305l-103 -68l116 -68v-321h-468zM685 681h-373v-252h373v252zM698 348h-386v-267h386v267z" />
    <glyph glyph-name="Gamma" unicode="&#x393;" 
d="M383 682v-682h-142v763h569v-81h-427z" />
    <glyph glyph-name="uni0394" unicode="&#x394;" 
d="M127 0v82l300 681h147l299 -681v-82h-746zM501 554l-209 -472h416z" />
    <glyph glyph-name="Epsilon" unicode="&#x395;" 
d="M795 0h-576v763h600v-81h-458v-252h438v-81h-438v-268h473z" />
    <glyph glyph-name="Zeta" unicode="&#x396;" 
d="M794 0h-636v81l465 601h-453v81h631v-81l-465 -601h497z" />
    <glyph glyph-name="Eta" unicode="&#x397;" 
d="M693 0v350h-384v-350h-142v763h142v-332h384v332h142v-763h-142z" />
    <glyph glyph-name="Theta" unicode="&#x398;" 
d="M151 0v763h698v-763h-698zM707 682h-414v-601h414v601zM334 347v81h332v-81h-332z" />
    <glyph glyph-name="Iota" unicode="&#x399;" 
d="M428 0v763h142v-763h-142z" />
    <glyph glyph-name="Kappa" unicode="&#x39a;" 
d="M723 0l-260 346h-133v-346h-142v763h142v-336h133l252 336h165l-283 -376l293 -387h-167z" />
    <glyph glyph-name="Lambda" unicode="&#x39b;" 
d="M757 0l-214 681h-82l-214 -681h-157l239 762h346l239 -762h-157z" />
    <glyph glyph-name="Mu" unicode="&#x39c;" 
d="M770 0v586l-206 -586h-128l-206 586v-586h-142v763h223l189 -537l189 537h223v-763h-142z" />
    <glyph glyph-name="Nu" unicode="&#x39d;" 
d="M697 0l-392 531v-531h-142v763h142l392 -531v531h142v-763h-142z" />
    <glyph glyph-name="Xi" unicode="&#x39e;" 
d="M709 507v174h-418v-174h-142v255h702v-255h-142zM259 346v81h482v-81h-482zM149 0v254h142v-173h418v173h142v-254h-702z" />
    <glyph glyph-name="Omicron" unicode="&#x39f;" 
d="M167 0v762h676v-762h-676zM701 681h-392v-600h392v600z" />
    <glyph glyph-name="Pi" unicode="&#x3a0;" 
d="M752 681v-680h-142v680h-220v-680h-142v680h-102v81h708v-81h-102z" />
    <glyph glyph-name="Rho" unicode="&#x3a1;" 
d="M411 298l-60 66v-363h-142v762h142v-66l60 66h401v-465h-401zM670 682h-319v-303h319v303z" />
    <glyph glyph-name="Sigma" unicode="&#x3a3;" 
d="M159 0v158l301 222l-301 224v158h682v-81h-559l339 -252v-98l-338 -250h558v-81h-682z" />
    <glyph glyph-name="Tau" unicode="&#x3a4;" 
d="M574 682v-682h-142v682h-281v81h704v-81h-281z" />
    <glyph glyph-name="Upsilon" unicode="&#x3a5;" 
d="M741 553l-57 129h-112v-681h-142v681h-112l-57 -129h-147l93 210h223l69 -71l73 71h223l93 -210h-147z" />
    <glyph glyph-name="Phi" unicode="&#x3a6;" 
d="M571 83v-83h-142v83h-301v594h301v85h142v-85h301v-594h-301zM730 596h-159v-432h159v432zM429 596h-159v-432h159v432z" />
    <glyph glyph-name="Chi" unicode="&#x3a7;" 
d="M715 0l-210 270l-210 -270h-176l298 384l-294 379h176l206 -266l207 266h176l-295 -379l298 -384h-176z" />
    <glyph glyph-name="Psi" unicode="&#x3a8;" 
d="M847 579v-496h-279v-83h-142v83h-278v496l-43 150h149l36 -127v-438h136v598h142v-598h137v439l40 126h150z" />
    <glyph glyph-name="uni03A9" unicode="&#x3a9;" 
d="M529 0v287h160v394h-381v-394h160v-287h-317v81h175v125h-160v556h665v-556h-160v-125h178v-81h-320z" />
    <glyph glyph-name="alpha" unicode="&#x3b1;" 
d="M817 1h-170l-60 107l-55 -107h-352v535h324l81 -145l74 145h148l-145 -283l96 -172h98zM393 456h-75v-375h107l85 165z" />
    <glyph glyph-name="beta" unicode="&#x3b2;" 
d="M423 0l-38 81h235v281h-211v81h188v239h-228v-760l-40 -128h-146l44 143v826h517v-308l-79 -50l97 -43v-362h-339z" />
    <glyph glyph-name="gamma" unicode="&#x3b3;" 
d="M749 456l-180 -233v-429h-138v429l-180 233h-113v80h222l140 -181l140 181h222v-80h-113z" />
    <glyph glyph-name="delta" unicode="&#x3b4;" 
d="M231 0v387l135 65l-118 59v251h484v-81h-342v-96l379 -189v-396h-538zM627 321l-120 60l-134 -64v-236h254v240z" />
    <glyph glyph-name="epsilon" unicode="&#x3b5;" 
d="M691 0h-421v224l84 62l-84 65v185h438v-80h-300v-134h227v-80h-227v-162h322z" />
    <glyph glyph-name="zeta" unicode="&#x3b6;" 
d="M318 -207l-38 81h340v156l-382 196l273 279h-254v81l192 176h196l-192 -176h249v-81l-240 -246l300 -154v-312h-444z" />
    <glyph glyph-name="eta" unicode="&#x3b7;" 
d="M624 -206v662h-221v-455h-138v455h-83v80h221v-65l60 65h299v-742h-138z" />
    <glyph glyph-name="theta" unicode="&#x3b8;" 
d="M232 0v762h536v-762h-536zM626 681h-252v-253h252v253zM626 347h-252v-266h252v266z" />
    <glyph glyph-name="iota" unicode="&#x3b9;" 
d="M749 0h-418v536h138v-456h318z" />
    <glyph glyph-name="kappa" unicode="&#x3ba;" 
d="M648 0l-166 237h-74v-237h-138v536h138v-219h75l161 219h156l-191 -259l194 -277h-155z" />
    <glyph glyph-name="lambda" unicode="&#x3bb;" 
d="M835 0h-173l-144 416l-216 -416h-158l310 599l-29 83h-151v81h273l238 -682h89z" />
    <glyph glyph-name="uni03BC" unicode="&#x3bc;" 
d="M810 0h-374l-60 65v-152l-65 -120h-150l77 141v603h138v-457h219v457h138v-457h115z" />
    <glyph glyph-name="nu" unicode="&#x3bd;" 
d="M578 0h-157l-227 536h152l153 -377l154 377h151z" />
    <glyph glyph-name="xi" unicode="&#x3be;" 
d="M287 -206l-38 81h362v119l-384 171l247 176h-232v81l203 139h-196v81l193 120h231l-193 -120h189v-81l-203 -139h232v-81l-217 -154l272 -121v-272h-466z" />
    <glyph glyph-name="omicron" unicode="&#x3bf;" 
d="M235 0v537h530v-537h-530zM627 457h-254v-377h254v377z" />
    <glyph glyph-name="pi" unicode="&#x3c0;" 
d="M770 1h-220v456h-118v-352l-75 -104h-161l98 138v318h-103v80h600v-80h-103v-376h121z" />
    <glyph glyph-name="rho" unicode="&#x3c1;" 
d="M393 1v-84l-43 -123h-150l55 150v592h494v-535h-356zM611 456h-218v-375h218v375z" />
    <glyph glyph-name="sigma" unicode="&#x3c3;" 
d="M355 456v-376h274v214h-234v80h372v-374h-550v536h584v-80h-446z" />
    <glyph glyph-name="tau" unicode="&#x3c4;" 
d="M524 456v-376h212l-38 -80h-312v456h-137v80h511v-80h-236z" />
    <glyph glyph-name="upsilon" unicode="&#x3c5;" 
d="M249 0v433l-44 103h143l39 -92v-364h232v456h138v-536h-508z" />
    <glyph glyph-name="phi" unicode="&#x3c6;" 
d="M569 1v-208h-138v208h-255v535h138v-455h117v455h393v-535h-255zM686 456h-117v-375h117v375z" />
    <glyph glyph-name="chi" unicode="&#x3c7;" 
d="M585 171l167 -297h102v-80h-222l-141 252l-192 -252h-178l294 387l-155 276h-96v80h216l129 -231l176 231h179z" />
    <glyph glyph-name="psi" unicode="&#x3c8;" 
d="M811 367v-366h-242v-207h-138v207h-242v366l-53 147h145l46 -127v-306h104v455h138v-455h104v306l46 127h145z" />
    <glyph glyph-name="omega" unicode="&#x3c9;" 
d="M562 0l-61 60l-64 -60h-286v536h138v-456h142v310h138v-310h142v456h138v-536h-287z" />
    <glyph glyph-name="uni0401" unicode="&#x401;" 
d="M574 844v117h118v-117h-118zM328 844v117h118v-117h-118zM795 0h-576v763h600v-81h-458v-252h438v-81h-438v-268h473z" />
    <glyph glyph-name="uni0410" unicode="&#x410;" 
d="M757 0l-62 196h-386l-62 -196h-157l239 762h346l239 -762h-157zM543 681h-82l-127 -404h336z" />
    <glyph glyph-name="uni0411" unicode="&#x411;" 
d="M410 1l-60 66v-66h-142v761h586v-81h-444v-285l60 66h385v-461h-385zM653 381h-303v-299h303v299z" />
    <glyph glyph-name="uni0412" unicode="&#x412;" 
d="M372 0l-60 66v-66h-142v762h142v-66l60 66h455v-305l-103 -68l116 -68v-321h-468zM685 681h-373v-252h373v252zM698 348h-386v-267h386v267z" />
    <glyph glyph-name="uni0413" unicode="&#x413;" 
d="M383 682v-682h-142v763h569v-81h-427z" />
    <glyph glyph-name="uni0414" unicode="&#x414;" 
d="M732 -132v132h-494v-132h-142v213h69l274 682h366v-682h69v-213h-142zM663 682h-109l-241 -601h350v601z" />
    <glyph glyph-name="uni0415" unicode="&#x415;" 
d="M795 0h-576v763h600v-81h-458v-252h438v-81h-438v-268h473z" />
    <glyph glyph-name="uni0416" unicode="&#x416;" 
d="M770 1l-103 347h-98v-347h-142v347h-94l-103 -347h-144l116 390l-118 371h143l106 -333h94v333h142v-333h94l106 333h142l-115 -365l118 -396h-144z" />
    <glyph glyph-name="uni0417" unicode="&#x417;" 
d="M212 1l-39 81h472v271h-374v81h374v247h-445v81h587v-296l-102 -72l102 -76v-317h-575z" />
    <glyph glyph-name="uni0418" unicode="&#x418;" 
d="M682 0v583l-364 -583h-142v762h142v-583l364 583h142v-762h-142z" />
    <glyph glyph-name="uni0419" unicode="&#x419;" 
d="M642 826h-279l-122 145h149l64 -74h98l63 74h150zM682 0v583l-364 -583h-142v762h142v-583l364 583h142v-762h-142z" />
    <glyph glyph-name="uni041A" unicode="&#x41a;" 
d="M722 0l-217 347h-175v-347h-142v764h142v-336h175l210 336h162l-236 -377l243 -387h-162z" />
    <glyph glyph-name="uni041B" unicode="&#x41b;" 
d="M721 1l-221 584l-221 -584h-159l297 760h166l297 -760h-159z" />
    <glyph glyph-name="uni041C" unicode="&#x41c;" 
d="M770 0v586l-206 -586h-128l-206 586v-586h-142v763h223l189 -537l189 537h223v-763h-142z" />
    <glyph glyph-name="uni041D" unicode="&#x41d;" 
d="M693 0v350h-384v-350h-142v763h142v-332h384v332h142v-763h-142z" />
    <glyph glyph-name="uni041E" unicode="&#x41e;" 
d="M167 0v762h676v-762h-676zM701 681h-392v-600h392v600z" />
    <glyph glyph-name="uni041F" unicode="&#x41f;" 
d="M673 0v681h-346v-681h-142v762h630v-762h-142z" />
    <glyph glyph-name="uni0420" unicode="&#x420;" 
d="M411 298l-60 66v-363h-142v762h142v-66l60 66h401v-465h-401zM670 682h-319v-303h319v303z" />
    <glyph glyph-name="uni0421" unicode="&#x421;" 
d="M831 0h-658v763h678v-81h-536v-601h555z" />
    <glyph glyph-name="uni0422" unicode="&#x422;" 
d="M574 682v-682h-142v682h-281v81h704v-81h-281z" />
    <glyph glyph-name="uni0423" unicode="&#x423;" 
d="M520 1h-270l-39 81h194l34 76l-285 604h152l206 -438l194 438h152z" />
    <glyph glyph-name="uni0424" unicode="&#x424;" 
d="M576 90v-89h-142v89h-282v580h282v92h142v-92h283v-580h-283zM717 589h-141v-418h141v418zM434 589h-140v-418h140v418z" />
    <glyph glyph-name="uni0425" unicode="&#x425;" 
d="M715 0l-210 270l-210 -270h-176l298 384l-294 379h176l206 -266l207 266h176l-295 -379l298 -384h-176z" />
    <glyph glyph-name="uni0426" unicode="&#x426;" 
d="M704 -133v134h-546v761h142v-680h339v680h142v-680h65v-215h-142z" />
    <glyph glyph-name="uni0427" unicode="&#x427;" 
d="M632 1v293l-60 -66h-386v533h142v-452h304v452h142v-760h-142z" />
    <glyph glyph-name="uni0428" unicode="&#x428;" 
d="M127 1v761h142v-680h160v680h142v-680h160v680h142v-761h-746z" />
    <glyph glyph-name="uni0429" unicode="&#x429;" 
d="M767 -132v132h-656v762h142v-681h158v681h142v-681h158v681h142v-681h56v-213h-142z" />
    <glyph glyph-name="uni042A" unicode="&#x42a;" 
d="M457 0l-60 66v-66h-142v680h-133v81h275v-365l60 66h359v-462h-359zM674 381h-277v-300h277v300z" />
    <glyph glyph-name="uni042B" unicode="&#x42b;" 
d="M740 1v760h142v-760h-142zM320 1l-60 66v-66h-142v760h142v-365l60 66h311v-461h-311zM489 381h-229v-299h229v299z" />
    <glyph glyph-name="uni042C" unicode="&#x42c;" 
d="M414 0l-60 85v-85h-142v761h142v-384l60 85h383v-462h-383zM655 362h-301v-262h301v262z" />
    <glyph glyph-name="uni042D" unicode="&#x42d;" 
d="M194 0l-39 81h525v265h-419v81h419v254h-496v81h638v-762h-628z" />
    <glyph glyph-name="uni042E" unicode="&#x42e;" 
d="M377 1v352h-138v-352h-142v761h142v-328h138v328h526v-761h-526zM761 681h-242v-599h242v599z" />
    <glyph glyph-name="uni042F" unicode="&#x42f;" 
d="M660 0v384l-60 -66h-86l-210 -318h-170l210 318h-142v445h398l60 -66v66h142v-763h-142zM660 682h-316v-283h316v283z" />
    <glyph glyph-name="uni0430" unicode="&#x430;" 
d="M632 0v63l-55 -63h-336v323h336l55 -65v200h-391v79h528v-537h-137zM632 244h-254v-165h254v165z" />
    <glyph glyph-name="uni0431" unicode="&#x431;" 
d="M746 646h-393v-225l60 66h387v-486h-589v726h423l22 35h152zM658 406h-305v-324h305v324z" />
    <glyph glyph-name="uni0432" unicode="&#x432;" 
d="M439 0l-60 65v-65h-138v537h138v-65l60 65h329v-204l-87 -49l97 -63v-221h-339zM632 457h-253v-134h253v134zM642 243h-263v-163h263v163z" />
    <glyph glyph-name="uni0433" unicode="&#x433;" 
d="M415 456v-455h-138v535h475v-80h-337z" />
    <glyph glyph-name="uni0434" unicode="&#x434;" 
d="M658 -133v143h-356v-143h-138v223h61l168 447h342v-447h61v-223h-138zM597 457h-141l-138 -367h279v367z" />
    <glyph glyph-name="uni0435" unicode="&#x435;" 
d="M748 0h-529v537h539v-333h-341l-60 65v-189h430zM620 457h-263v-173h263v173z" />
    <glyph glyph-name="uni0436" unicode="&#x436;" 
d="M754 0l-96 241h-84v-241h-138v241h-78l-106 -241h-141l123 283l-125 254h143l105 -216h79v216h138v-216h84l96 216h143l-111 -254l111 -283h-143z" />
    <glyph glyph-name="uni0437" unicode="&#x437;" 
d="M262 1l-38 80h394v152h-307v80h307v144h-365v80h501v-213l-85 -49l87 -64v-210h-494z" />
    <glyph glyph-name="uni0438" unicode="&#x438;" 
d="M624 0v399l-248 -399h-138v537h138v-399l248 399h138v-537h-138z" />
    <glyph glyph-name="uni0439" unicode="&#x439;" 
d="M575 611h-150l-132 145h131l76 -82l76 82h131zM624 0v399l-248 -399h-138v537h138v-399l248 399h138v-537h-138z" />
    <glyph glyph-name="uni043A" unicode="&#x43a;" 
d="M615 1l-121 237h-113v-237h-138v535h138v-218h113l117 218h158v-80h-60l-98 -184l98 -191h60v-80h-154z" />
    <glyph glyph-name="uni043B" unicode="&#x43b;" 
d="M653 0l-154 388l-154 -388h-155l231 537h156l231 -537h-155z" />
    <glyph glyph-name="uni043C" unicode="&#x43c;" 
d="M711 1v325l-152 -325h-119l-151 325v-325h-138v535h168l181 -377l181 377h168v-535h-138z" />
    <glyph glyph-name="uni043D" unicode="&#x43d;" 
d="M622 0v241h-244v-241h-138v537h138v-216h244v216h138v-537h-138z" />
    <glyph glyph-name="uni043E" unicode="&#x43e;" 
d="M229 0v537h550v-537h-550zM641 457h-274v-377h274v377z" />
    <glyph glyph-name="uni043F" unicode="&#x43f;" 
d="M622 0v456h-244v-456h-138v536h520v-536h-138z" />
    <glyph glyph-name="uni0440" unicode="&#x440;" 
d="M427 1l-60 65v-270h-138v740h138v-65l60 65h352v-535h-352zM641 456h-274v-375h274v375z" />
    <glyph glyph-name="uni0441" unicode="&#x441;" 
d="M734 0h-505v536h531v-80h-393v-376h406z" />
    <glyph glyph-name="uni0442" unicode="&#x442;" 
d="M569 457v-457h-138v457h-205v80h548v-80h-205z" />
    <glyph glyph-name="uni0443" unicode="&#x443;" 
d="M503 -206h-247l-38 80h162l45 107l-229 555h160l150 -366l156 366h158z" />
    <glyph glyph-name="uni0444" unicode="&#x444;" 
d="M573 1v-207h-142v207h-266v536h266v207h142v-207h267v-536h-267zM698 456h-125v-374h125v374zM431 456h-124v-374h124v374z" />
    <glyph glyph-name="uni0445" unicode="&#x445;" 
d="M630 0l-131 165l-131 -165h-188l225 283l-201 253h188l107 -135l107 135h188l-201 -253l225 -283h-188z" />
    <glyph glyph-name="uni0446" unicode="&#x446;" 
d="M652 -132v133h-434v537h138v-457h243v457h138v-457h53v-213h-138z" />
    <glyph glyph-name="uni0447" unicode="&#x447;" 
d="M585 0v231l-60 -65h-282v371h138v-291h204v291h138v-537h-138z" />
    <glyph glyph-name="uni0448" unicode="&#x448;" 
d="M153 1v535h138v-455h140v455h138v-455h140v455h138v-535h-694z" />
    <glyph glyph-name="uni0449" unicode="&#x449;" 
d="M734 -132v132h-586v537h138v-457h126v457h138v-457h126v457h138v-457h58v-212h-138z" />
    <glyph glyph-name="uni044A" unicode="&#x44a;" 
d="M497 1l-60 65v-65h-138v456h-118v80h256v-255l60 65h294v-346h-294zM653 267h-216v-186h216v186z" />
    <glyph glyph-name="uni044B" unicode="&#x44b;" 
d="M714 0v537h138v-537h-138zM346 0l-60 65v-65h-138v537h138v-254l60 65h266v-348h-266zM474 268h-188v-188h188v188z" />
    <glyph glyph-name="uni044C" unicode="&#x44c;" 
d="M445 0l-60 65v-65h-138v537h138v-255l60 65h314v-347h-314zM621 267h-236v-187h236v187z" />
    <glyph glyph-name="uni044D" unicode="&#x44d;" 
d="M260 1l-38 80h405v154h-320v80h320v142h-386v80h524v-536h-505z" />
    <glyph glyph-name="uni044E" unicode="&#x44e;" 
d="M380 0v234h-102v-234h-138v537h138v-223h102v223h480v-537h-480zM722 457h-204v-377h204v377z" />
    <glyph glyph-name="uni044F" unicode="&#x44f;" 
d="M629 1v209h-116l-150 -209h-160l149 209h-110v327h327l60 -65v65h138v-536h-138zM629 457h-249v-167h249v167z" />
    <glyph glyph-name="uni0451" unicode="&#x451;" 
d="M564 625v117h118v-117h-118zM318 625v117h118v-117h-118zM748 0h-529v537h539v-333h-341l-60 65v-189h430zM620 457h-263v-173h263v173z" />
    <glyph glyph-name="uniE7C7" unicode="&#xe7c7;" 
d="M421 566l-60 113l307 59l9 -29zM743 1v455h-174v-455h-138v455h-174v-455h-138v535h138v-65l60 65h252v-65l60 65h252v-535h-138z" />
    <glyph glyph-name="uniE7C7" unicode="&#x1e3f;" 
d="M421 566l-60 113l307 59l9 -29zM743 1v455h-174v-455h-138v455h-174v-455h-138v535h138v-65l60 65h252v-65l60 65h252v-535h-138z" />
    <glyph glyph-name="uni2010" unicode="&#x2010;" 
 />
    <glyph glyph-name="endash" unicode="&#x2013;" 
 />
    <glyph glyph-name="emdash" unicode="&#x2014;" 
d="M-4 363v40h1008v-40h-1008z" />
    <glyph glyph-name="uni2015" unicode="&#x2015;" 
 />
    <glyph glyph-name="uni2016" unicode="&#x2016;" 
d="M550 -121v1008h40v-1008h-40zM410 -121v1008h40v-1008h-40z" />
    <glyph glyph-name="quoteleft" unicode="&#x2018;" 
d="M676 553v150l100 171h50l-100 -171h100v-150h-150z" />
    <glyph glyph-name="quoteright" unicode="&#x2019;" 
d="M226 522h-50l100 171h-100v150h150v-150z" />
    <glyph glyph-name="quotedblleft" unicode="&#x201c;" 
d="M749 703h94v-150h-144v150l100 171h50zM546 703h94v-150h-144v150l100 171h50z" />
    <glyph glyph-name="quotedblright" unicode="&#x201d;" 
d="M405 523h-50l100 171h-94v150h144v-150zM202 523h-50l100 171h-94v150h144v-150z" />
    <glyph glyph-name="twodotenleader" unicode="&#x2025;" 
 />
    <glyph glyph-name="uni22EF" unicode="&#x22ef;" 
d="M794 319v120h121v-120h-121zM435 319v120h121v-120h-121zM86 319v120h121v-120h-121z" />
    <glyph glyph-name="uni22EF" unicode="&#x2026;" 
d="M794 319v120h121v-120h-121zM435 319v120h121v-120h-121zM86 319v120h121v-120h-121z" />
    <glyph glyph-name="perthousand" unicode="&#x2030;" 
d="M678 0v395h248v-395h-248zM379 0v386l-172 -404h-41l164 385h-245v395h249v-385l174 409h40l-166 -391h245v-395h-248zM834 315h-64v-235h64v235zM242 682h-64v-235h64v235zM535 315h-64v-235h64v235z" />
    <glyph glyph-name="minute" unicode="&#x2032;" 
d="M216 519l-47 29l167 287l94 -63z" />
    <glyph glyph-name="second" unicode="&#x2033;" 
d="M305 487l-47 29l167 287l94 -63zM126 541l-47 29l167 287l94 -63z" />
    <glyph glyph-name="uni2035" unicode="&#x2035;" 
 />
    <glyph glyph-name="uni203B" unicode="&#x203b;" 
d="M750 326v125h125v-125h-125zM438 638v124h125v-124h-125zM810 -4l-310 309l-311 -310l-79 86l309 307l-306 308l79 80l308 -307l305 305l85 -81l-308 -308l308 -307zM123 326v125h125v-125h-125zM438 10v124h125v-124h-125z" />
    <glyph glyph-name="uniFE19" unicode="&#xfe19;" 
d="M440 673v121h120v-121h-120zM440 314v121h120v-121h-120zM440 -35v121h120v-121h-120z" />
    <glyph glyph-name="uniFE19" unicode="&#xe796;" 
d="M440 673v121h120v-121h-120zM440 314v121h120v-121h-120zM440 -35v121h120v-121h-120z" />
    <glyph glyph-name="uniFE19" unicode="&#x205d;" 
d="M440 673v121h120v-121h-120zM440 314v121h120v-121h-120zM440 -35v121h120v-121h-120z" />
    <glyph glyph-name="uniE76C" unicode="&#xe76c;" horiz-adv-x="800" 
d="M727 0h-521v274h-126v81h126v87h-126v81h126v240h528v-81h-386v-159h281v-81h-281v-87h229v-81h-229v-193h418z" />
    <glyph glyph-name="uniE76C" unicode="&#x20ac;" horiz-adv-x="800" 
d="M727 0h-521v274h-126v81h126v87h-126v81h126v240h528v-81h-386v-159h281v-81h-281v-87h229v-81h-229v-193h418z" />
    <glyph glyph-name="uni2103" unicode="&#x2103;" 
d="M862 1h-515v656h537v-81h-399v-494h416zM329 663q-2 -30 -15.5 -57t-39.5 -44q-24 -16 -52.5 -20t-56.5 4t-51.5 30.5t-33.5 51.5q-8 25 -5 53.5t16 51.5q14 24 35.5 40.5t50.5 21.5q64 12 111 -31q43 -41 41 -101zM268 639q8 18 6.5 37.5t-12.5 35.5q-10 14 -27.5 22
t-34.5 8q-21 -1 -38 -11t-25 -29q-8 -17 -7 -35.5t10 -34.5q9 -17 26 -27.5t37 -9.5q23 1 40 13t25 31z" />
    <glyph glyph-name="uni2105" unicode="&#x2105;" 
 />
    <glyph glyph-name="uni2109" unicode="&#x2109;" 
 />
    <glyph glyph-name="uni2116" unicode="&#x2116;" 
d="M859 1v98h81v-98h-81zM507 1v534h308v-534h-308zM330 1l-119 414v-414h-125v761h125l119 -418v418h125v-761h-125zM690 455h-58v-374h58v374z" />
    <glyph glyph-name="uni2121" unicode="&#x2121;" 
 />
    <glyph glyph-name="uni2160" unicode="&#x2160;" 
d="M429 1v762h142v-762h-142z" />
    <glyph glyph-name="uni2161" unicode="&#x2161;" 
d="M593 0v763h142v-763h-142zM266 0v763h142v-763h-142z" />
    <glyph glyph-name="uni2162" unicode="&#x2162;" 
d="M700 0v763h142v-763h-142zM429 0v763h142v-763h-142zM158 0v763h142v-763h-142z" />
    <glyph glyph-name="uni2163" unicode="&#x2163;" 
d="M697 0h-164l-207 763h150l139 -556l141 556h150zM128 0v763h142v-763h-142z" />
    <glyph glyph-name="uni2164" unicode="&#x2164;" 
d="M587 0h-164l-264 763h155l191 -577l191 577h155z" />
    <glyph glyph-name="uni2165" unicode="&#x2165;" 
d="M736 0v763h142v-763h-142zM467 0h-164l-207 763h150l139 -556l141 556h150z" />
    <glyph glyph-name="uni2166" unicode="&#x2166;" 
d="M758 0v763h138v-763h-138zM567 0v763h138v-763h-138zM377 0h-158l-139 763h138l85 -551l85 551h138z" />
    <glyph glyph-name="uni2167" unicode="&#x2167;" 
d="M787 0v716h114v-716h-114zM621 0v716h114v-716h-114zM455 0v716h114v-716h-114zM287 0h-86l-154 716h115l82 -415l82 415h115z" />
    <glyph glyph-name="uni2168" unicode="&#x2168;" 
d="M759 0l-139 248l-140 -248h-156l218 387l-211 376h156l133 -237l133 237h156l-211 -376l217 -387h-156zM133 0v763h142v-763h-142z" />
    <glyph glyph-name="uni2169" unicode="&#x2169;" 
d="M592 380l257 -380h-172l-171 253l-171 -253h-172l257 380l-259 383h172l173 -256l173 256h172z" />
    <glyph glyph-name="uni216A" unicode="&#x216a;" 
d="M736 0v763h142v-763h-142zM517 0l-139 248l-140 -248h-156l218 387l-211 376h156l133 -237l133 237h156l-211 -376l217 -387h-156z" />
    <glyph glyph-name="uni216B" unicode="&#x216b;" 
d="M758 0v763h138v-763h-138zM567 0v763h138v-763h-138zM403 0l-101 229l-102 -229h-143l173 390l-165 373h142l95 -212l94 212h142l-165 -373l173 -390h-143z" />
    <glyph glyph-name="uni2170" unicode="&#x2170;" 
 />
    <glyph glyph-name="uni2171" unicode="&#x2171;" 
 />
    <glyph glyph-name="uni2172" unicode="&#x2172;" 
 />
    <glyph glyph-name="uni2173" unicode="&#x2173;" 
 />
    <glyph glyph-name="uni2174" unicode="&#x2174;" 
 />
    <glyph glyph-name="uni2175" unicode="&#x2175;" 
 />
    <glyph glyph-name="uni2176" unicode="&#x2176;" 
 />
    <glyph glyph-name="uni2177" unicode="&#x2177;" 
 />
    <glyph glyph-name="uni2178" unicode="&#x2178;" 
 />
    <glyph glyph-name="uni2179" unicode="&#x2179;" 
 />
    <glyph glyph-name="arrowleft" unicode="&#x2190;" 
d="M338 341v-126l-337 169l337 169v-128h665v-84h-665z" />
    <glyph glyph-name="arrowup" unicode="&#x2191;" 
d="M543 546v-667h-84v667h-128l169 337l169 -337h-126z" />
    <glyph glyph-name="arrowright" unicode="&#x2192;" 
d="M661 215v126h-665v84h665v128l337 -169z" />
    <glyph glyph-name="arrowdown" unicode="&#x2193;" 
d="M500 -121l-169 337h128v667h84v-667h126z" />
    <glyph glyph-name="uni2196" unicode="&#x2196;" 
 />
    <glyph glyph-name="uni2197" unicode="&#x2197;" 
 />
    <glyph glyph-name="uni2198" unicode="&#x2198;" 
 />
    <glyph glyph-name="uni2199" unicode="&#x2199;" 
 />
    <glyph glyph-name="element" unicode="&#x2208;" 
d="M407 36q-46 4 -91 23.5t-82.5 50t-66 70t-43.5 84.5q-9 27 -13 54.5t-4 54.5q0 90 43.5 169t122.5 127q64 38 139 47h465v-113h-452q-28 -3 -56 -14t-53 -28.5t-45 -40.5t-32 -50q-10 -19 -14 -38h652v-113h-651q12 -51 45 -88q61 -70 146 -82h460v-113h-470z" />
    <glyph glyph-name="product" unicode="&#x220f;" 
d="M752 681v-680h-142v680h-220v-680h-142v680h-102v81h708v-81h-102z" />
    <glyph glyph-name="summation" unicode="&#x2211;" 
d="M159 0v158l301 222l-301 224v158h682v-81h-559l339 -252v-98l-338 -250h558v-81h-682z" />
    <glyph glyph-name="uni2215" unicode="&#x2215;" 
 />
    <glyph glyph-name="radical" unicode="&#x221a;" 
d="M491 642l-185 -673l-213 221l69 83l83 -85l160 559h503v-105h-417z" />
    <glyph glyph-name="proportional" unicode="&#x221d;" 
d="M935 249q-26 -9 -57.5 -13t-63.5 -4q-31 0 -55 3q-69 10 -135.5 38t-123.5 60q-28 -16 -60 -33t-65.5 -31.5t-67.5 -24t-66 -9.5q-33 0 -64.5 8.5t-56 26t-40 44t-15.5 63.5t15.5 64t40 45t56 26.5t64.5 8.5q32 0 66 -9.5t67.5 -24t65.5 -31.5t60 -33q29 16 63 32
t68.5 30t67.5 23.5t60 12.5q33 3 64 3q30 0 58 -3.5t54 -12.5v-78q-23 8 -50 11.5t-56 3.5q-20 0 -40.5 -1.5t-38.5 -3.5q-45 -5 -86.5 -24t-77.5 -38q36 -19 77.5 -38t86.5 -24q18 -2 37.5 -3.5t39.5 -1.5q31 0 59.5 3t48.5 9v-74v0zM414 378q-36 19 -77.5 38t-86.5 24
q-5 1 -9 1h-9q-40 0 -63.5 -19t-23.5 -45t24 -44t63 -18h9t9 1q45 5 86.5 24t77.5 38z" />
    <glyph glyph-name="infinity" unicode="&#x221e;" 
d="M934 376q0 -32 -16.5 -62t-51.5 -53q-26 -14 -50.5 -19.5t-50.5 -5.5q-34 0 -68.5 9t-67 23t-63.5 31t-60 33q-30 -14 -62.5 -31t-65.5 -32t-67 -25t-69 -10q-25 0 -50 6.5t-50 21.5q-38 23 -57.5 53t-19.5 63q0 43 30 82q27 36 64.5 49t78.5 13q24 0 46 -3
q59 -14 112 -40.5t105 -55.5q30 15 60.5 33t63 33t65.5 25t67 10q26 0 53 -7t54 -24q34 -20 52 -51t18 -66zM859 378q0 20 -14 31q-19 16 -39 22.5t-40 6.5q-22 0 -45 -6.5t-45.5 -16t-43.5 -20.5t-41 -20q44 -22 86 -41t93 -19q45 0 67 20t22 43zM415 376q-36 19 -72 37
t-78 25q-8 2 -14.5 2h-14.5q-28 0 -53 -10t-39 -33q-1 -4 -1.5 -7t-0.5 -6q0 -13 6.5 -24t17.5 -20q19 -12 39 -17t40 -5q45 0 89.5 19t80.5 39z" />
    <glyph glyph-name="orthogonal" unicode="&#x221f;" 
 />
    <glyph glyph-name="angle" unicode="&#x2220;" 
d="M404 216h363v-109l-634 1l613 601l79 -78z" />
    <glyph glyph-name="uni2223" unicode="&#x2223;" 
 />
    <glyph glyph-name="uni2225" unicode="&#x2225;" 
d="M412 -121l-37 13l344 948l38 -14zM281 -74l-38 14l345 947l37 -13z" />
    <glyph glyph-name="logicaland" unicode="&#x2227;" 
d="M712 -1l-212 477l-212 -477h-122l334 752l334 -752h-122z" />
    <glyph glyph-name="logicalor" unicode="&#x2228;" 
d="M500 -1l-334 752h122l212 -477l212 477h122z" />
    <glyph glyph-name="intersection" unicode="&#x2229;" 
d="M727 -2v453q-3 29 -14 56.5t-28.5 52.5t-40.5 45t-50 32q-28 13 -60.5 17.5t-64.5 0t-61.5 -17t-52.5 -32.5q-69 -60 -81 -146l-1 -461h-113v471q4 47 23.5 91.5t50 82t70 66t84.5 43.5q58 19 117 17t113 -21.5t99 -56.5t76 -88q38 -64 47 -139v-466h-113z" />
    <glyph glyph-name="union" unicode="&#x222a;" 
d="M840 287q-4 -46 -23.5 -91t-50 -82.5t-70 -66t-84.5 -43.5q-58 -19 -117 -17t-113 21.5t-99 56.5t-76 88q-37 62 -46 139v447h111v-433q3 -28 14.5 -56t29 -53t40.5 -45t50 -33q28 -13 60.5 -17.5t64.5 0t61.5 17t52.5 32.5q69 60 81 146l1 442h113v-452v0z" />
    <glyph glyph-name="integral" unicode="&#x222b;" 
d="M682 650q-7 6 -14.5 13t-15.5 12.5t-16.5 7.5t-19.5 -2q-15 -10 -20.5 -24.5t-7.5 -31.5l-79 -559q-7 -46 -37 -69.5t-64 -29.5q-52 -8 -89.5 7.5t-66.5 50.5l65 76q6 -7 12 -13.5t13 -12t15.5 -7.5t17.5 0q17 7 23 22.5t10 30.5l79 561q5 35 31.5 63.5t59.5 38.5
q48 14 93 -1t77 -52z" />
    <glyph glyph-name="uni222E" unicode="&#x222e;" 
d="M673 673q-14 11 -29.5 21t-34.5 3q-14 -5 -19.5 -14t-8.5 -31l-11 -83q30 -10 53 -29t39 -43.5t24.5 -53t8.5 -58.5q0 -60 -31.5 -109t-85.5 -71q-11 -5 -25 -7.5t-26 -4.5q0 -7 -1 -19t-3 -23q-2 -13 -4 -28q-2 -16 -5 -35t-9.5 -37t-18 -33.5t-29.5 -26.5
q-16 -9 -36.5 -15t-44 -4.5t-49.5 12.5t-54 35l57 76q34 -27 57.5 -27.5t27.5 29.5l13 105q-50 20 -84.5 64t-39.5 97q-5 56 16 104.5t68 80.5q20 13 41 21.5t44 11.5q1 10 2.5 24.5t3.5 28.5q3 16 5 33q2 15 5 29.5t10 28.5t19 27.5t31 25.5q20 12 44 16t48 1t47 -13.5
t39 -27.5zM588 435q-3 6 -12 17.5t-17 16.5l-22 -181q11 3 23.5 11t18.5 16q9 11 14 25.5t6.5 30.5t-1 32.5t-10.5 31.5zM463 481q-20 -6 -37 -25.5t-22 -36.5q-7 -27 -4 -54.5t14 -41.5q5 -5 13 -13.5t13 -10.5l23 182v0z" />
    <glyph glyph-name="therefore" unicode="&#x2234;" 
d="M426 556v147h149v-147h-149zM660 54v147h149v-147h-149zM192 54v147h149v-147h-149z" />
    <glyph glyph-name="uni2235" unicode="&#x2235;" 
d="M658 537v147h149v-147h-149zM193 537v147h149v-147h-149zM426 35v147h149v-147h-149z" />
    <glyph glyph-name="uni2236" unicode="&#x2236;" 
d="M422 535v146h156v-146h-156zM422 77v146h156v-146h-156z" />
    <glyph glyph-name="uni2237" unicode="&#x2237;" 
d="M658 537v147h149v-147h-149zM658 73v147h149v-147h-149zM193 537v147h149v-147h-149zM193 73v147h149v-147h-149z" />
    <glyph glyph-name="uni223D" unicode="&#x223d;" 
d="M904 272q-44 42 -97 71.5t-116 29.5q-18 0 -38 -3q-46 -8 -89 -23.5t-86 -31.5t-88 -27.5t-94 -11.5q-9 0 -17.5 0.5t-17.5 1.5q-65 7 -123 35t-109 67l60 94q43 -42 101 -62t120 -20q32 0 63 5.5t60 16.5l62 24t63 22.5t65 17t68 6.5t69 -7q60 -13 114 -43.5t97 -75.5z
" />
    <glyph glyph-name="approxequal" unicode="&#x2248;" 
d="M963 491q-56 -51 -122 -84t-142 -35h-9q-61 0 -116 16t-109 35q-42 14 -81.5 24t-83.5 10h-13.5t-13.5 -1q-49 -4 -95 -17.5t-89 -50.5l-52 87q51 35 105 54.5t119 25.5q9 1 18 1.5t17 0.5q52 0 98.5 -11.5t91.5 -26.5q49 -16 101 -32t104 -16h5q32 0 60 8t54 21.5
t49.5 30.5t44.5 35l59 -75v0zM963 308q-112 -103 -264 -106h-9q-61 0 -116 16t-109 35q-42 14 -81.5 24t-83.5 10h-13.5t-13.5 -1q-49 -4 -95.5 -25.5t-88.5 -56.5l-52 87q51 35 105 61.5t119 32.5q9 1 18 1.5t17 0.5q52 0 98.5 -11.5t91.5 -26.5q49 -16 101 -32t104 -16h5
q61 0 113 23t95 59l59 -75v0z" />
    <glyph glyph-name="uni224C" unicode="&#x224c;" 
d="M804 478q-33 35 -68.5 56.5t-80.5 21.5q-9 0 -17.5 -1t-18.5 -3q-35 -7 -68 -19.5l-66 -25t-67.5 -21.5t-72.5 -9q-8 0 -15.5 0.5t-15.5 1.5q-51 6 -96 30.5t-85 59.5l53 81q39 -37 81.5 -55t87.5 -18t92 19q45 18 96.5 37t107.5 19q27 0 52 -6q47 -11 89 -34t75 -62z
M146 331v103h708v-103h-708zM146 181v103h708v-103h-708z" />
    <glyph glyph-name="uni2252" unicode="&#x2252;" 
 />
    <glyph glyph-name="notequal" unicode="&#x2260;" 
d="M497 216l-81 -194l-101 49l60 145h-229v108h275l45 107h-320v108h365l73 175l102 -47l-54 -128h222v-108h-267l-44 -107h311v-108h-357z" />
    <glyph glyph-name="equivalence" unicode="&#x2261;" 
d="M146 477v103h708v-103h-708zM146 331v103h708v-103h-708zM146 181v103h708v-103h-708z" />
    <glyph glyph-name="lessequal" unicode="&#x2264;" 
d="M100 473l754 228v-109l-413 -119l413 -119v-109zM121 101v106h733v-106h-733z" />
    <glyph glyph-name="greaterequal" unicode="&#x2265;" 
d="M146 245v109l413 119l-413 119v109l754 -228zM146 101v106h733v-106h-733z" />
    <glyph glyph-name="uni2266" unicode="&#x2266;" 
 />
    <glyph glyph-name="uni2267" unicode="&#x2267;" 
 />
    <glyph glyph-name="uni226E" unicode="&#x226e;" 
d="M623 220l-40 -180l-103 23l43 191l-423 145l494 169l40 175l102 -22l-25 -113l143 49v-109l-169 -53l-40 -179l209 -66v-109zM381 399l163 -51l25 110z" />
    <glyph glyph-name="uni226F" unicode="&#x226f;" 
d="M406 230l-43 -190l-103 23l29 127l-143 -49v109l169 53l40 179l-209 66v109l230 -79l38 165l102 -22l-40 -177l424 -145zM455 451l-25 -111l189 59z" />
    <glyph glyph-name="circleplus" unicode="&#x2295;" 
 />
    <glyph glyph-name="uni2299" unicode="&#x2299;" 
d="M907 382q0 -84 -32 -158.5t-87 -129.5t-129.5 -87t-158.5 -32t-158.5 32t-129.5 87t-87 129.5t-32 158.5t32 158.5t87 129.5t129.5 87t158.5 32t158.5 -32t129.5 -87t87 -129.5t32 -158.5zM812 382q0 65 -24.5 121.5t-67 99t-99 67t-121.5 24.5q-64 0 -121 -24.5
t-99.5 -67t-67 -99t-24.5 -121.5q0 -64 24.5 -121t67 -99.5t99.5 -67t121 -24.5q65 0 121.5 24.5t99 67t67 99.5t24.5 121zM605 380q0 -22 -8 -41t-22.5 -33t-33.5 -22.5t-41 -8.5t-41 8.5t-33 22.5t-22.5 33t-8.5 41t8.5 41t22.5 33.5t33 22.5t41 8t41 -8t33.5 -22.5
t22.5 -33.5t8 -41z" />
    <glyph glyph-name="perpendicular" unicode="&#x22a5;" 
d="M167 28v114h274v599h116v-599h276v-114h-666z" />
    <glyph glyph-name="uni22BF" unicode="&#x22bf;" 
 />
    <glyph glyph-name="uni2312" unicode="&#x2312;" 
d="M830 381q0 69 -25.5 129.5t-70.5 105.5t-105.5 71t-129.5 26t-129.5 -26t-105.5 -71t-70.5 -105.5t-25.5 -129.5h-83q0 86 32.5 162t89 132.5t132.5 89.5t162 33t162 -32t132 -88.5t88.5 -132.5t32.5 -164h-86z" />
    <glyph glyph-name="uni2460" unicode="&#x2460;" 
d="M956 356q-5 -73 -30.5 -141t-71.5 -122q-82 -95 -194 -135q-119 -44 -254 -18q-69 13 -132.5 51.5t-112.5 94.5q-38 43 -64.5 92t-37.5 102q-17 85 -7.5 166t47.5 153q43 80 113 141q54 46 122.5 71.5t142.5 29.5q61 4 120.5 -8t111.5 -40q35 -18 67.5 -44t60.5 -56.5
t50.5 -65t36.5 -69.5q20 -48 27.5 -99t4.5 -103zM910 356q4 54 -6 107.5t-33 101.5q-26 52 -69.5 99t-94.5 78q-49 29 -108 42.5t-120 10.5q-60 -2 -115 -20.5t-100 -52.5q-41 -31 -72 -67.5t-53 -78.5q-30 -59 -41 -124.5t0 -137.5q8 -50 30.5 -97t57.5 -89
q42 -51 96 -87.5t114 -51.5q69 -17 135 -12.5t127 29.5q94 38 164 120q40 47 61.5 106.5t26.5 123.5zM434 68v556h-108v81h250v-637h-142z" />
    <glyph glyph-name="uni2461" unicode="&#x2461;" 
d="M956 356q-5 -73 -30.5 -141t-71.5 -122q-82 -95 -194 -135q-119 -44 -254 -18q-69 13 -132.5 51.5t-112.5 94.5q-38 43 -64.5 92t-37.5 102q-17 85 -7.5 166t47.5 153q43 80 113 141q54 46 122.5 71.5t142.5 29.5q61 4 120.5 -8t111.5 -40q35 -18 67.5 -44t60.5 -56.5
t50.5 -65t36.5 -69.5q20 -48 27.5 -99t4.5 -103zM910 356q4 54 -6 107.5t-33 101.5q-26 52 -69.5 99t-94.5 78q-49 29 -108 42.5t-120 10.5q-60 -2 -115 -20.5t-100 -52.5q-41 -31 -72 -67.5t-53 -78.5q-30 -59 -41 -124.5t0 -137.5q8 -50 30.5 -97t57.5 -89
q42 -51 96 -87.5t114 -51.5q69 -17 135 -12.5t127 29.5q94 38 164 120q40 47 61.5 106.5t26.5 123.5zM739 69h-484v81l353 290v183h-349v81h491v-320l-285 -234h313z" />
    <glyph glyph-name="uni2462" unicode="&#x2462;" 
d="M956 356q-5 -73 -30.5 -141t-71.5 -122q-82 -95 -194 -135q-119 -44 -254 -18q-69 13 -132.5 51.5t-112.5 94.5q-38 43 -64.5 92t-37.5 102q-17 85 -7.5 166t47.5 153q43 80 113 141q54 46 122.5 71.5t142.5 29.5q61 4 120.5 -8t111.5 -40q35 -18 67.5 -44t60.5 -56.5
t50.5 -65t36.5 -69.5q20 -48 27.5 -99t4.5 -103zM910 356q4 54 -6 107.5t-33 101.5q-26 52 -69.5 99t-94.5 78q-49 29 -108 42.5t-120 10.5q-60 -2 -115 -20.5t-100 -52.5q-41 -31 -72 -67.5t-53 -78.5q-30 -59 -41 -124.5t0 -137.5q8 -50 30.5 -97t57.5 -89
q42 -51 96 -87.5t114 -51.5q69 -17 135 -12.5t127 29.5q94 38 164 120q40 47 61.5 106.5t26.5 123.5zM255 69v81h353v204h-270v81h270v188h-351v81h493v-241l-76 -58l76 -60v-276h-495z" />
    <glyph glyph-name="uni2463" unicode="&#x2463;" 
d="M956 356q-5 -73 -30.5 -141t-71.5 -122q-82 -95 -194 -135q-119 -44 -254 -18q-69 13 -132.5 51.5t-112.5 94.5q-38 43 -64.5 92t-37.5 102q-17 85 -7.5 166t47.5 153q43 80 113 141q54 46 122.5 71.5t142.5 29.5q61 4 120.5 -8t111.5 -40q35 -18 67.5 -44t60.5 -56.5
t50.5 -65t36.5 -69.5q20 -48 27.5 -99t4.5 -103zM910 356q4 54 -6 107.5t-33 101.5q-26 52 -69.5 99t-94.5 78q-49 29 -108 42.5t-120 10.5q-60 -2 -115 -20.5t-100 -52.5q-41 -31 -72 -67.5t-53 -78.5q-30 -59 -41 -124.5t0 -137.5q8 -50 30.5 -97t57.5 -89
q42 -51 96 -87.5t114 -51.5q69 -17 135 -12.5t127 29.5q94 38 164 120q40 47 61.5 106.5t26.5 123.5zM676 187v-118h-142v118h-335v81l335 436h142v-436h98v-81h-98zM534 497l-179 -229h179v229z" />
    <glyph glyph-name="uni2464" unicode="&#x2464;" 
d="M956 356q-5 -73 -30.5 -141t-71.5 -122q-82 -95 -194 -135q-119 -44 -254 -18q-69 13 -132.5 51.5t-112.5 94.5q-38 43 -64.5 92t-37.5 102q-17 85 -7.5 166t47.5 153q43 80 113 141q54 46 122.5 71.5t142.5 29.5q61 4 120.5 -8t111.5 -40q35 -18 67.5 -44t60.5 -56.5
t50.5 -65t36.5 -69.5q20 -48 27.5 -99t4.5 -103zM910 356q4 54 -6 107.5t-33 101.5q-26 52 -69.5 99t-94.5 78q-49 29 -108 42.5t-120 10.5q-60 -2 -115 -20.5t-100 -52.5q-41 -31 -72 -67.5t-53 -78.5q-30 -59 -41 -124.5t0 -137.5q8 -50 30.5 -97t57.5 -89
q42 -51 96 -87.5t114 -51.5q69 -17 135 -12.5t127 29.5q94 38 164 120q40 47 61.5 106.5t26.5 123.5zM272 68l-39 81h375v242h-352v313h142v-66l60 66h284v-81h-344v-151h352v-404h-478z" />
    <glyph glyph-name="uni2465" unicode="&#x2465;" 
d="M956 356q-5 -73 -30.5 -141t-71.5 -122q-82 -95 -194 -135q-119 -44 -254 -18q-69 13 -132.5 51.5t-112.5 94.5q-38 43 -64.5 92t-37.5 102q-17 85 -7.5 166t47.5 153q43 80 113 141q54 46 122.5 71.5t142.5 29.5q61 4 120.5 -8t111.5 -40q35 -18 67.5 -44t60.5 -56.5
t50.5 -65t36.5 -69.5q20 -48 27.5 -99t4.5 -103zM910 356q4 54 -6 107.5t-33 101.5q-26 52 -69.5 99t-94.5 78q-49 29 -108 42.5t-120 10.5q-60 -2 -115 -20.5t-100 -52.5q-41 -31 -72 -67.5t-53 -78.5q-30 -59 -41 -124.5t0 -137.5q8 -50 30.5 -97t57.5 -89
q42 -51 96 -87.5t114 -51.5q69 -17 135 -12.5t127 29.5q94 38 164 120q40 47 61.5 106.5t26.5 123.5zM398 623v-149h352v-405h-494v635h498v-81h-356zM608 393h-210v-243h210v243z" />
    <glyph glyph-name="uni2466" unicode="&#x2466;" 
d="M956 356q-5 -73 -30.5 -141t-71.5 -122q-82 -95 -194 -135q-119 -44 -254 -18q-69 13 -132.5 51.5t-112.5 94.5q-38 43 -64.5 92t-37.5 102q-17 85 -7.5 166t47.5 153q43 80 113 141q54 46 122.5 71.5t142.5 29.5q61 4 120.5 -8t111.5 -40q35 -18 67.5 -44t60.5 -56.5
t50.5 -65t36.5 -69.5q20 -48 27.5 -99t4.5 -103zM910 356q4 54 -6 107.5t-33 101.5q-26 52 -69.5 99t-94.5 78q-49 29 -108 42.5t-120 10.5q-60 -2 -115 -20.5t-100 -52.5q-41 -31 -72 -67.5t-53 -78.5q-30 -59 -41 -124.5t0 -137.5q8 -50 30.5 -97t57.5 -89
q42 -51 96 -87.5t114 -51.5q69 -17 135 -12.5t127 29.5q94 38 164 120q40 47 61.5 106.5t26.5 123.5zM515 69h-150l235 554h-345v81h494v-81z" />
    <glyph glyph-name="uni2467" unicode="&#x2467;" 
d="M956 356q-5 -73 -30.5 -141t-71.5 -122q-82 -95 -194 -135q-119 -44 -254 -18q-69 13 -132.5 51.5t-112.5 94.5q-38 43 -64.5 92t-37.5 102q-17 85 -7.5 166t47.5 153q43 80 113 141q54 46 122.5 71.5t142.5 29.5q61 4 120.5 -8t111.5 -40q35 -18 67.5 -44t60.5 -56.5
t50.5 -65t36.5 -69.5q20 -48 27.5 -99t4.5 -103zM910 356q4 54 -6 107.5t-33 101.5q-26 52 -69.5 99t-94.5 78q-49 29 -108 42.5t-120 10.5q-60 -2 -115 -20.5t-100 -52.5q-41 -31 -72 -67.5t-53 -78.5q-30 -59 -41 -124.5t0 -137.5q8 -50 30.5 -97t57.5 -89
q42 -51 96 -87.5t114 -51.5q69 -17 135 -12.5t127 29.5q94 38 164 120q40 47 61.5 106.5t26.5 123.5zM255 69v268l100 68l-100 56v243h495v-243l-90 -56l90 -68v-268h-495zM608 623h-211v-175h211v175zM608 367h-211v-217h211v217z" />
    <glyph glyph-name="uni2468" unicode="&#x2468;" 
d="M956 356q-5 -73 -30.5 -141t-71.5 -122q-82 -95 -194 -135q-119 -44 -254 -18q-69 13 -132.5 51.5t-112.5 94.5q-38 43 -64.5 92t-37.5 102q-17 85 -7.5 166t47.5 153q43 80 113 141q54 46 122.5 71.5t142.5 29.5q61 4 120.5 -8t111.5 -40q35 -18 67.5 -44t60.5 -56.5
t50.5 -65t36.5 -69.5q20 -48 27.5 -99t4.5 -103zM910 356q4 54 -6 107.5t-33 101.5q-26 52 -69.5 99t-94.5 78q-15 9 -45.5 19t-64.5 17.5t-66 12.5t-52 4q-60 -2 -115 -20.5t-100 -52.5q-41 -31 -72 -67.5t-53 -78.5q-30 -59 -41 -124.5t0 -137.5q8 -50 30.5 -97t57.5 -89
q42 -51 96 -87.5t114 -51.5q69 -17 135 -12.5t127 29.5q94 38 164 120q40 47 61.5 106.5t26.5 123.5zM282 69l-39 81h364v169h-351v385h493v-635h-467zM607 623h-209v-223h209v223z" />
    <glyph glyph-name="uni2469" unicode="&#x2469;" 
d="M956 356q-5 -73 -30.5 -141t-71.5 -122q-82 -95 -194 -135q-119 -44 -254 -18q-69 13 -132.5 51.5t-112.5 94.5q-38 43 -64.5 92t-37.5 102q-17 85 -7.5 166t47.5 153q43 80 113 141q54 46 122.5 71.5t142.5 29.5q61 4 120.5 -8t111.5 -40q35 -18 67.5 -44t60.5 -56.5
t50.5 -65t36.5 -69.5q20 -48 27.5 -99t4.5 -103zM910 356q4 54 -6 107.5t-33 101.5q-15 31 -37.5 60.5t-48.5 55.5v-594q59 54 89.5 121t35.5 148zM654 622h-87v-472h87v472zM436 69v635h324q-60 51 -131 73t-150 18q-67 -3 -126.5 -25t-110.5 -66h147v-635h-136v554h-38v56
q-47 -47 -76 -103q-30 -59 -41 -124.5t0 -137.5q8 -50 30.5 -97t57.5 -89q42 -51 96 -87.5t114 -51.5q69 -17 135 -12.5t127 29.5q29 11 55.5 27t50.5 36h-328z" />
    <glyph glyph-name="uni2474" unicode="&#x2474;" 
d="M950 255q-14 -88 -44.5 -170t-78.5 -151h-51q46 75 79.5 155.5t47.5 170.5q11 73 8 143.5t-18 139.5q-17 78 -48 151t-73 140h51q31 -48 54.5 -98t42.5 -103q31 -90 37.5 -186t-7.5 -192zM437 18v659h-136v81h278v-740h-142zM230 834q-42 -67 -73 -140.5t-48 -151.5
q-15 -69 -18 -139.5t8 -143.5q14 -90 47.5 -170t79.5 -155h-51q-48 69 -78.5 150.5t-44.5 169.5q-14 96 -7.5 192t37.5 186q19 53 42.5 103.5t54.5 98.5h51v0z" />
    <glyph glyph-name="uni2475" unicode="&#x2475;" 
d="M950 255q-14 -88 -44.5 -170t-78.5 -151h-51q46 75 79.5 155.5t47.5 170.5q11 73 8 143.5t-18 139.5q-17 78 -48 151t-73 140h51q31 -48 54.5 -98t42.5 -103q31 -90 37.5 -186t-7.5 -192zM755 18h-523v81l393 338v239h-384v81h526v-370l-335 -288h362zM230 834
q-42 -67 -73 -140.5t-48 -151.5q-15 -69 -18 -139.5t8 -143.5q14 -90 47.5 -170t79.5 -155h-51q-48 69 -78.5 150.5t-44.5 169.5q-14 96 -7.5 192t37.5 186q19 53 42.5 103.5t54.5 98.5h51v0z" />
    <glyph glyph-name="uni2476" unicode="&#x2476;" 
d="M950 255q-14 -88 -44.5 -170t-78.5 -151h-51q46 75 79.5 155.5t47.5 170.5q11 73 8 143.5t-18 139.5q-17 78 -48 151t-73 140h51q31 -48 54.5 -98t42.5 -103q31 -90 37.5 -186t-7.5 -192zM235 17v81h393v254h-323v81h323v243h-384v81h526v-310l-110 -50l110 -49v-331
h-535zM230 834q-42 -67 -73 -140.5t-48 -151.5q-15 -69 -18 -139.5t8 -143.5q14 -90 47.5 -170t79.5 -155h-51q-48 69 -78.5 150.5t-44.5 169.5q-14 96 -7.5 192t37.5 186q19 53 42.5 103.5t54.5 98.5h51v0z" />
    <glyph glyph-name="uni2477" unicode="&#x2477;" 
d="M950 255q-14 -88 -44.5 -170t-78.5 -151h-51q46 75 79.5 155.5t47.5 170.5q11 73 8 143.5t-18 139.5q-17 78 -48 151t-73 140h51q31 -48 54.5 -98t42.5 -103q31 -90 37.5 -186t-7.5 -192zM716 151v-134h-142v134h-372v81l372 525h142v-525h88v-81h-88zM230 834
q-42 -67 -73 -140.5t-48 -151.5q-15 -69 -18 -139.5t8 -143.5q14 -90 47.5 -170t79.5 -155h-51q-48 69 -78.5 150.5t-44.5 169.5q-14 96 -7.5 192t37.5 186q19 53 42.5 103.5t54.5 98.5h51v0zM574 532l-215 -300h215v300z" />
    <glyph glyph-name="uni2478" unicode="&#x2478;" 
d="M950 255q-14 -88 -44.5 -170t-78.5 -151h-51q46 75 79.5 155.5t47.5 170.5q11 73 8 143.5t-18 139.5q-17 78 -48 151t-73 140h51q31 -48 54.5 -98t42.5 -103q31 -90 37.5 -186t-7.5 -192zM256 17l-39 81h411v285h-393v374h142v-66l60 66h319v-81h-379v-212h393v-447h-514
zM230 834q-42 -67 -73 -140.5t-48 -151.5q-15 -69 -18 -139.5t8 -143.5q14 -90 47.5 -170t79.5 -155h-51q-48 69 -78.5 150.5t-44.5 169.5q-14 96 -7.5 192t37.5 186q19 53 42.5 103.5t54.5 98.5h51v0z" />
    <glyph glyph-name="uni2479" unicode="&#x2479;" 
d="M950 255q-14 -88 -44.5 -170t-78.5 -151h-51q46 75 79.5 155.5t47.5 170.5q11 73 8 143.5t-18 139.5q-17 78 -48 151t-73 140h51q31 -48 54.5 -98t42.5 -103q31 -90 37.5 -186t-7.5 -192zM234 18v740h530v-81h-388v-204h394v-455h-536zM230 834q-42 -67 -73 -140.5
t-48 -151.5q-15 -69 -18 -139.5t8 -143.5q14 -90 47.5 -170t79.5 -155h-51q-48 69 -78.5 150.5t-44.5 169.5q-14 96 -7.5 192t37.5 186q19 53 42.5 103.5t54.5 98.5h51v0zM628 392h-252v-293h252v293z" />
    <glyph glyph-name="uni247A" unicode="&#x247a;" 
d="M950 255q-14 -88 -44.5 -170t-78.5 -151h-51q46 75 79.5 155.5t47.5 170.5q11 73 8 143.5t-18 139.5q-17 78 -48 151t-73 140h51q31 -48 54.5 -98t42.5 -103q31 -90 37.5 -186t-7.5 -192zM549 18h-153l221 658h-382v81h535v-81zM230 834q-42 -67 -73 -140.5t-48 -151.5
q-15 -69 -18 -139.5t8 -143.5q14 -90 47.5 -170t79.5 -155h-51q-48 69 -78.5 150.5t-44.5 169.5q-14 96 -7.5 192t37.5 186q19 53 42.5 103.5t54.5 98.5h51v0z" />
    <glyph glyph-name="uni247B" unicode="&#x247b;" 
d="M950 255q-14 -88 -44.5 -170t-78.5 -151h-51q46 75 79.5 155.5t47.5 170.5q11 73 8 143.5t-18 139.5q-17 78 -48 151t-73 140h51q31 -48 54.5 -98t42.5 -103q31 -90 37.5 -186t-7.5 -192zM234 17v320l105 72l-93 58v290h511v-290l-88 -58l100 -72v-320h-535zM230 834
q-42 -67 -73 -140.5t-48 -151.5q-15 -69 -18 -139.5t8 -143.5q14 -90 47.5 -170t79.5 -155h-51q-48 69 -78.5 150.5t-44.5 169.5q-14 96 -7.5 192t37.5 186q19 53 42.5 103.5t54.5 98.5h51v0zM615 676h-227v-230h227v230zM627 365h-251v-267h251v267z" />
    <glyph glyph-name="uni247C" unicode="&#x247c;" 
d="M950 255q-14 -88 -44.5 -170t-78.5 -151h-51q46 75 79.5 155.5t47.5 170.5q11 73 8 143.5t-18 139.5q-17 78 -48 151t-73 140h51q31 -48 54.5 -98t42.5 -103q31 -90 37.5 -186t-7.5 -192zM255 18l-38 81h411v187h-395v471h537v-739h-515zM230 834q-42 -67 -73 -140.5
t-48 -151.5q-15 -69 -18 -139.5t8 -143.5q14 -90 47.5 -170t79.5 -155h-51q-48 69 -78.5 150.5t-44.5 169.5q-14 96 -7.5 192t37.5 186q19 53 42.5 103.5t54.5 98.5h51v0zM628 676h-253v-309h253v309z" />
    <glyph glyph-name="uni247D" unicode="&#x247d;" 
d="M950 255q-14 -88 -44.5 -170t-78.5 -151h-51q46 75 79.5 155.5t47.5 170.5q11 73 8 143.5t-18 139.5q-17 78 -48 151t-73 140h51q31 -48 54.5 -98t42.5 -103q31 -90 37.5 -186t-7.5 -192zM450 17v740h356v-740h-356zM237 17v659h-52v77q-25 -51 -44.5 -103t-31.5 -108
q-15 -69 -18 -139.5t8 -143.5q14 -90 47.5 -170t79.5 -155h-51q-48 69 -78.5 150.5t-44.5 169.5q-14 96 -7.5 192t37.5 186q19 53 42.5 103.5t54.5 98.5h51l-22 -38t-21 -39h188v-740h-138zM668 676h-80v-578h80v578z" />
    <glyph glyph-name="uni247E" unicode="&#x247e;" 
d="M950 255q-14 -88 -44.5 -170t-78.5 -151h-51q46 75 79.5 155.5t47.5 170.5q11 73 8 143.5t-18 139.5q-17 78 -48 151t-73 140h51q31 -48 54.5 -98t42.5 -103q31 -90 37.5 -186t-7.5 -192zM594 17v659h-82v81h225v-740h-143zM297 17v659h-82v81h225v-740h-143zM230 834
q-41 -69 -72.5 -141.5t-48.5 -150.5q-15 -69 -18 -139.5t8 -143.5q14 -90 47.5 -170t79.5 -155h-51q-48 69 -78.5 150.5t-44.5 169.5q-14 96 -7.5 192t37.5 186q19 53 42.5 103.5t54.5 98.5h51v0z" />
    <glyph glyph-name="uni247F" unicode="&#x247f;" 
d="M950 255q-14 -88 -44.5 -170t-78.5 -151h-51q46 75 79.5 155.5t47.5 170.5q11 73 8 143.5t-18 139.5q-17 78 -48 151t-73 140h51q31 -48 54.5 -98t42.5 -103q31 -90 37.5 -186t-7.5 -192zM791 17h-359v82l224 330v247h-218v81h358v-340l-219 -319h241zM237 17v659h-52v77
q-25 -51 -44.5 -103t-31.5 -108q-15 -69 -18 -139.5t8 -143.5q14 -90 47.5 -170t79.5 -155h-51q-48 69 -78.5 150.5t-44.5 169.5q-14 96 -7.5 192t37.5 186q19 53 42.5 103.5t54.5 98.5h51l-22 -38t-21 -39h188v-740h-138z" />
    <glyph glyph-name="uni2480" unicode="&#x2480;" 
d="M950 255q-14 -88 -44.5 -170t-78.5 -151h-51q46 75 79.5 155.5t47.5 170.5q11 73 8 143.5t-18 139.5q-17 78 -48 151t-73 140h51q31 -48 54.5 -98t42.5 -103q31 -90 37.5 -186t-7.5 -192zM426 17v81h231v254h-181v81h181v243h-225v81h362v-310l-80 -50l80 -49v-331h-368z
M237 17v659h-52v77q-25 -51 -44.5 -103t-31.5 -108q-15 -69 -18 -139.5t8 -143.5q14 -90 47.5 -170t79.5 -155h-51q-48 69 -78.5 150.5t-44.5 169.5q-14 96 -7.5 192t37.5 186q19 53 42.5 103.5t54.5 98.5h51l-22 -38t-21 -39h188v-740h-138z" />
    <glyph glyph-name="uni2481" unicode="&#x2481;" 
d="M950 255q-14 -88 -44.5 -170t-78.5 -151h-51q46 75 79.5 155.5t47.5 170.5q11 73 8 143.5t-18 139.5q-17 78 -48 151t-73 140h51q31 -48 54.5 -98t42.5 -103q31 -90 37.5 -186t-7.5 -192zM789 151v-134h-137v134h-246v81l246 525h137v-525h60v-81h-60zM237 17v659h-52v77
q-25 -51 -44.5 -103t-31.5 -108q-15 -69 -18 -139.5t8 -143.5q14 -90 47.5 -170t79.5 -155h-51q-48 69 -78.5 150.5t-44.5 169.5q-14 96 -7.5 192t37.5 186q19 53 42.5 103.5t54.5 98.5h51l-22 -38t-21 -39h188v-740h-138zM652 505l-129 -273h129v273z" />
    <glyph glyph-name="uni2482" unicode="&#x2482;" 
d="M950 255q-14 -88 -44.5 -170t-78.5 -151h-51q46 75 79.5 155.5t47.5 170.5q11 73 8 143.5t-18 139.5q-17 78 -48 151t-73 140h51q31 -48 54.5 -98t42.5 -103q31 -90 37.5 -186t-7.5 -192zM458 17l-26 81h237v285h-219v374h138v-66l39 66h168v-81h-207v-212h218v-447h-348
zM237 17v659h-52v77q-25 -51 -44.5 -103t-31.5 -108q-15 -69 -18 -139.5t8 -143.5q14 -90 47.5 -170t79.5 -155h-51q-48 69 -78.5 150.5t-44.5 169.5q-14 96 -7.5 192t37.5 186q19 53 42.5 103.5t54.5 98.5h51l-22 -38t-21 -39h188v-740h-138z" />
    <glyph glyph-name="uni2483" unicode="&#x2483;" 
d="M950 255q-14 -88 -44.5 -170t-78.5 -151h-51q46 75 79.5 155.5t47.5 170.5q11 73 8 143.5t-18 139.5q-17 78 -48 151t-73 140h51q31 -48 54.5 -98t42.5 -103q31 -90 37.5 -186t-7.5 -192zM450 17v740h352v-81h-215v-203h219v-456h-356zM237 17v659h-52v77
q-25 -51 -44.5 -103t-31.5 -108q-15 -69 -18 -139.5t8 -143.5q14 -90 47.5 -170t79.5 -155h-51q-48 69 -78.5 150.5t-44.5 169.5q-14 96 -7.5 192t37.5 186q19 53 42.5 103.5t54.5 98.5h51l-22 -38t-21 -39h188v-740h-138zM669 392h-82v-294h82v294z" />
    <glyph glyph-name="uni2484" unicode="&#x2484;" 
d="M950 255q-14 -88 -44.5 -170t-78.5 -151h-51q46 75 79.5 155.5t47.5 170.5q11 73 8 143.5t-18 139.5q-17 78 -48 151t-73 140h51q31 -48 54.5 -98t42.5 -103q31 -90 37.5 -186t-7.5 -192zM632 17h-139l171 659h-242v81h381v-81zM237 17v659h-52v77q-25 -51 -44.5 -103
t-31.5 -108q-15 -69 -18 -139.5t8 -143.5q14 -90 47.5 -170t79.5 -155h-51q-48 69 -78.5 150.5t-44.5 169.5q-14 96 -7.5 192t37.5 186q19 53 42.5 103.5t54.5 98.5h51l-22 -38t-21 -39h188v-740h-138z" />
    <glyph glyph-name="uni2485" unicode="&#x2485;" 
d="M950 255q-14 -88 -44.5 -170t-78.5 -151h-51q46 75 79.5 155.5t47.5 170.5q11 73 8 143.5t-18 139.5q-17 78 -48 151t-73 140h51q31 -48 54.5 -98t42.5 -103q31 -90 37.5 -186t-7.5 -192zM444 17v320l73 72l-65 58v290h355v-290l-61 -58l70 -72v-320h-372zM237 17v659
h-52v77q-25 -51 -44.5 -103t-31.5 -108q-15 -69 -18 -139.5t8 -143.5q14 -90 47.5 -170t79.5 -155h-51q-48 69 -78.5 150.5t-44.5 169.5q-14 96 -7.5 192t37.5 186q19 53 42.5 103.5t54.5 98.5h51l-22 -38t-21 -39h188v-740h-138zM671 676h-82v-230h82v230zM679 365h-99
v-267h99v267z" />
    <glyph glyph-name="uni2486" unicode="&#x2486;" 
d="M950 255q-14 -88 -44.5 -170t-78.5 -151h-51q46 75 79.5 155.5t47.5 170.5q11 73 8 143.5t-18 139.5q-17 78 -48 151t-73 140h51q31 -48 54.5 -98t42.5 -103q31 -90 37.5 -186t-7.5 -192zM453 17l-25 82h237v187h-219v471h356v-740h-349zM237 17v659h-52v77
q-25 -51 -44.5 -103t-31.5 -108q-15 -69 -18 -139.5t8 -143.5q14 -90 47.5 -170t79.5 -155h-51q-48 69 -78.5 150.5t-44.5 169.5q-14 96 -7.5 192t37.5 186q19 53 42.5 103.5t54.5 98.5h51l-22 -38t-21 -39h188v-740h-138zM665 676h-82v-309h82v309z" />
    <glyph glyph-name="uni2487" unicode="&#x2487;" 
d="M950 255q-14 -88 -44.5 -170t-78.5 -151h-51q46 75 79.5 155.5t47.5 170.5q11 73 8 143.5t-18 139.5q-17 78 -48 151t-73 140h51q31 -48 54.5 -98t42.5 -103q31 -90 37.5 -186t-7.5 -192zM520 17v740h288v-740h-288zM477 17h-288v82l166 330v247h-161v81h278v-340
l-157 -319h184zM230 834q-41 -69 -72.5 -141.5t-48.5 -150.5q-15 -69 -18 -139.5t8 -143.5q14 -90 47.5 -170t79.5 -155h-51q-48 69 -78.5 150.5t-44.5 169.5q-14 96 -7.5 192t37.5 186q19 53 42.5 103.5t54.5 98.5h51v0zM691 676h-55v-578h55v578z" />
    <glyph glyph-name="uni2488" unicode="&#x2488;" 
d="M750 0v119h114v-119h-114zM439 0v682h-167v81h309v-763h-142z" />
    <glyph glyph-name="uni2489" unicode="&#x2489;" 
d="M840 0v119h114v-119h-114zM756 0h-531v81l396 372v228h-391v82h529v-369l-332 -313h366z" />
    <glyph glyph-name="uni248A" unicode="&#x248a;" 
d="M840 0v119h114v-119h-114zM220 0v81h401v265h-303v81h294v254h-383v82h521v-310l-82 -66l92 -68v-319h-540z" />
    <glyph glyph-name="uni248B" unicode="&#x248b;" 
d="M840 0v119h114v-119h-114zM688 140v-140h-138v140h-362v81l382 542h118v-542h94v-81h-94zM550 591l-257 -370h257v370z" />
    <glyph glyph-name="uni248C" unicode="&#x248c;" 
d="M840 0v119h114v-119h-114zM366 681v-220h393v-461h-518l-36 81h416v298h-394v384h139v-66l56 66h343v-82h-399z" />
    <glyph glyph-name="uni248D" unicode="&#x248d;" 
d="M840 0v119h114v-119h-114zM364 681v-202h395v-479h-534v763h538v-82h-399zM621 398h-257v-317h257v317z" />
    <glyph glyph-name="uni248E" unicode="&#x248e;" 
d="M493 0h-147l282 681h-397v82h540v-92zM741 0v119h114v-119h-114z" />
    <glyph glyph-name="uni248F" unicode="&#x248f;" 
d="M840 0v119h114v-119h-114zM223 0v333l93 67l-82 67v296h516v-296l-82 -67l93 -67v-333h-538zM611 681h-238v-241h238v241zM622 359h-260v-278h260v278z" />
    <glyph glyph-name="uni2490" unicode="&#x2490;" 
d="M840 0v119h114v-119h-114zM242 0l-37 81h416v188h-391v494h529v-763h-517zM621 681h-252v-331h252v331z" />
    <glyph glyph-name="uni2491" unicode="&#x2491;" 
d="M852 0v119h114v-119h-114zM373 0v762h415v-762h-415zM149 0v681h-97v81h234v-762h-137zM652 681h-143v-600h143v600z" />
    <glyph glyph-name="uni2492" unicode="&#x2492;" 
d="M602 0v681h-117v81h254v-762h-137zM832 0v119h114v-119h-114zM219 0v681h-117v81h254v-762h-137z" />
    <glyph glyph-name="uni2493" unicode="&#x2493;" 
d="M786 0h-421v81l278 362v238h-278v82h414v-359l-250 -323h285zM852 0v119h114v-119h-114zM149 0v681h-97v81h234v-762h-137z" />
    <glyph glyph-name="uni2494" unicode="&#x2494;" 
d="M852 0v119h114v-119h-114zM361 0v81h283v265h-207v81h200v254h-270v82h407v-310l-64 -66l71 -68v-319h-420zM149 0v681h-97v81h234v-762h-137z" />
    <glyph glyph-name="uni2495" unicode="&#x2495;" 
d="M852 0v119h114v-119h-114zM756 140v-140h-135v140h-286v81l301 541h120v-541h73v-81h-73zM149 0v681h-97v81h234v-762h-137zM621 571l-193 -350h193v350z" />
    <glyph glyph-name="uni2496" unicode="&#x2496;" 
d="M852 0v119h114v-119h-114zM507 681v-220h273v-461h-397l-27 81h288v298h-271v384h134v-66l44 66h233v-82h-277zM149 0v681h-97v81h234v-762h-137z" />
    <glyph glyph-name="uni2497" unicode="&#x2497;" 
d="M852 0v119h114v-119h-114zM507 682v-203h281v-479h-415v762h418v-80h-284zM149 0v682h-97v81h234v-763h-137zM653 398h-146v-317h146v317z" />
    <glyph glyph-name="uni2498" unicode="&#x2498;" 
d="M633 0h-143l220 681h-301v81h440v-81zM801 0v119h114v-119h-114zM191 0v681h-97v81h234v-762h-137z" />
    <glyph glyph-name="uni2499" unicode="&#x2499;" 
d="M852 0v119h114v-119h-114zM368 0v333l76 67l-64 67v296h402v-296l-64 -67l77 -67v-333h-427zM149 0v681h-97v81h234v-762h-137zM649 681h-134v-241h134v241zM661 359h-158v-278h158v278z" />
    <glyph glyph-name="uni249A" unicode="&#x249a;" 
d="M852 0v119h114v-119h-114zM383 0l-29 81h297v188h-278v494h413v-763h-403zM149 0v681h-97v81h234v-762h-137zM651 681h-144v-331h144v331z" />
    <glyph glyph-name="uni249B" unicode="&#x249b;" 
d="M473 0v762h363v-762h-363zM879 0v119h114v-119h-114zM419 0h-368v81l233 357v243h-233v82h362v-340l-228 -342h259zM707 681h-105v-600h105v600z" />
    <glyph glyph-name="SF100000" unicode="&#x2500;" 
d="M-10 383v40h1020v-40h-1020z" />
    <glyph glyph-name="uni2501" unicode="&#x2501;" 
d="M-10 343v80h1020v-80h-1020z" />
    <glyph glyph-name="SF110000" unicode="&#x2502;" 
d="M460 -127v1020h40v-1020h-40z" />
    <glyph glyph-name="uni2503" unicode="&#x2503;" 
d="M460 -127v1020h80v-1020h-80z" />
    <glyph glyph-name="uni2504" unicode="&#x2504;" 
d="M729 363v40h196v-40h-196zM402 363v40h196v-40h-196zM76 363v40h196v-40h-196z" />
    <glyph glyph-name="uni2505" unicode="&#x2505;" 
d="M734 343v80h196v-80h-196zM402 343v80h196v-80h-196zM70 343v80h196v-80h-196z" />
    <glyph glyph-name="uni2506" unicode="&#x2506;" 
d="M480 617v196h40v-196h-40zM480 285v196h40v-196h-40zM480 -47v196h40v-196h-40z" />
    <glyph glyph-name="uni2507" unicode="&#x2507;" 
d="M460 617v196h80v-196h-80zM460 285v196h80v-196h-80zM460 -47v196h80v-196h-80z" />
    <glyph glyph-name="uni2508" unicode="&#x2508;" 
d="M794 363v40h160v-40h-160zM546 363v40h160v-40h-160zM294 363v40h160v-40h-160zM46 363v40h160v-40h-160z" />
    <glyph glyph-name="uni2509" unicode="&#x2509;" 
d="M794 343v80h160v-80h-160zM546 343v80h160v-80h-160zM294 343v80h160v-80h-160zM46 343v80h160v-80h-160z" />
    <glyph glyph-name="uni250A" unicode="&#x250a;" 
d="M480 677v160h40v-160h-40zM480 429v160h40v-160h-40zM480 177v160h40v-160h-40zM480 -71v160h40v-160h-40z" />
    <glyph glyph-name="uni250B" unicode="&#x250b;" 
d="M460 677v160h80v-160h-80zM460 429v160h80v-160h-80zM460 177v160h80v-160h-80zM460 -71v160h80v-160h-80z" />
    <glyph glyph-name="SF010000" unicode="&#x250c;" 
d="M500 383v-510h-40v550h550v-40h-510z" />
    <glyph glyph-name="uni250D" unicode="&#x250d;" 
d="M500 343v-470h-40v550h550v-80h-510z" />
    <glyph glyph-name="uni250E" unicode="&#x250e;" 
d="M540 383v-510h-80v550h550v-40h-470z" />
    <glyph glyph-name="uni250F" unicode="&#x250f;" 
d="M540 343v-470h-80v550h550v-80h-470z" />
    <glyph glyph-name="SF030000" unicode="&#x2510;" 
d="M460 -127v510h-470v40h510v-550h-40z" />
    <glyph glyph-name="uni2511" unicode="&#x2511;" 
d="M460 -127v470h-470v80h510v-550h-40z" />
    <glyph glyph-name="uni2512" unicode="&#x2512;" 
d="M460 -127v510h-470v40h550v-550h-80z" />
    <glyph glyph-name="uni2513" unicode="&#x2513;" 
d="M460 -127v470h-470v80h550v-550h-80z" />
    <glyph glyph-name="SF020000" unicode="&#x2514;" 
d="M460 383v510h40v-470h510v-40h-550z" />
    <glyph glyph-name="uni2515" unicode="&#x2515;" 
d="M460 343v550h40v-470h510v-80h-550z" />
    <glyph glyph-name="uni2516" unicode="&#x2516;" 
d="M460 383v510h80v-470h470v-40h-550z" />
    <glyph glyph-name="uni2517" unicode="&#x2517;" 
d="M460 343v550h80v-470h470v-80h-550z" />
    <glyph glyph-name="SF040000" unicode="&#x2518;" 
d="M-10 383v40h470v470h40v-510h-510z" />
    <glyph glyph-name="uni2519" unicode="&#x2519;" 
d="M-10 343v80h470v470h40v-550h-510z" />
    <glyph glyph-name="uni251A" unicode="&#x251a;" 
d="M-10 383v40h470v470h80v-510h-550z" />
    <glyph glyph-name="uni251B" unicode="&#x251b;" 
d="M-10 343v80h470v470h80v-550h-550z" />
    <glyph glyph-name="SF080000" unicode="&#x251c;" 
d="M500 383v-510h-40v1020h40v-470h510v-40h-510z" />
    <glyph glyph-name="uni251D" unicode="&#x251d;" 
d="M500 343v-470h-40v1020h40v-470h510v-80h-510z" />
    <glyph glyph-name="uni251E" unicode="&#x251e;" 
d="M500 383v-510h-40v1020h80v-470h470v-40h-510z" />
    <glyph glyph-name="uni251F" unicode="&#x251f;" 
d="M540 383v-510h-80v1020h40v-470h510v-40h-470z" />
    <glyph glyph-name="uni2520" unicode="&#x2520;" 
d="M540 383v-510h-80v1020h80v-470h470v-40h-470z" />
    <glyph glyph-name="uni2521" unicode="&#x2521;" 
d="M500 343v-470h-40v1020h80v-470h470v-80h-510z" />
    <glyph glyph-name="uni2522" unicode="&#x2522;" 
d="M540 343v-470h-80v1020h40v-470h510v-80h-470z" />
    <glyph glyph-name="uni2523" unicode="&#x2523;" 
d="M540 343v-470h-80v1020h80v-470h470v-80h-470z" />
    <glyph glyph-name="SF090000" unicode="&#x2524;" 
d="M460 -127v510h-470v40h470v470h40v-1020h-40z" />
    <glyph glyph-name="uni2525" unicode="&#x2525;" 
d="M460 -127v470h-470v80h470v470h40v-1020h-40z" />
    <glyph glyph-name="uni2526" unicode="&#x2526;" 
d="M500 383v-510h-40v510h-470v40h470v470h80v-510h-40z" />
    <glyph glyph-name="uni2527" unicode="&#x2527;" 
d="M460 -127v510h-470v40h470v470h40v-470h40v-550h-80z" />
    <glyph glyph-name="uni2528" unicode="&#x2528;" 
d="M460 -127v510h-470v40h470v470h80v-1020h-80z" />
    <glyph glyph-name="uni2529" unicode="&#x2529;" 
d="M500 343v-470h-40v470h-470v80h470v470h80v-550h-40z" />
    <glyph glyph-name="uni252A" unicode="&#x252a;" 
d="M460 -127v470h-470v80h470v470h40v-470h40v-550h-80z" />
    <glyph glyph-name="uni252B" unicode="&#x252b;" 
d="M460 -127v470h-470v80h470v470h80v-1020h-80z" />
    <glyph glyph-name="SF060000" unicode="&#x252c;" 
d="M500 383v-510h-40v510h-470v40h1020v-40h-510z" />
    <glyph glyph-name="uni252D" unicode="&#x252d;" 
d="M500 383v-510h-40v470h-470v80h1020v-40h-510z" />
    <glyph glyph-name="uni252E" unicode="&#x252e;" 
d="M500 343v-470h-40v510h-470v40h1020v-80h-510z" />
    <glyph glyph-name="uni252F" unicode="&#x252f;" 
d="M500 343v-470h-40v470h-470v80h1020v-80h-510z" />
    <glyph glyph-name="uni2530" unicode="&#x2530;" 
d="M540 383v-510h-80v510h-470v40h1020v-40h-470z" />
    <glyph glyph-name="uni2531" unicode="&#x2531;" 
d="M540 383v-510h-80v470h-470v80h1020v-40h-470z" />
    <glyph glyph-name="uni2532" unicode="&#x2532;" 
d="M540 343v-470h-80v510h-470v40h1020v-80h-470z" />
    <glyph glyph-name="uni2533" unicode="&#x2533;" 
d="M540 343v-470h-80v470h-470v80h1020v-80h-470z" />
    <glyph glyph-name="SF070000" unicode="&#x2534;" 
d="M-10 383v40h470v470h40v-470h510v-40h-1020z" />
    <glyph glyph-name="uni2535" unicode="&#x2535;" 
d="M540 383v-40h-550v80h470v470h40v-470h510v-40h-470z" />
    <glyph glyph-name="uni2536" unicode="&#x2536;" 
d="M460 343v40h-470v40h470v470h40v-470h510v-80h-550z" />
    <glyph glyph-name="uni2537" unicode="&#x2537;" 
d="M-10 343v80h470v470h40v-470h510v-80h-1020z" />
    <glyph glyph-name="uni2538" unicode="&#x2538;" 
d="M-10 383v40h470v470h80v-470h470v-40h-1020z" />
    <glyph glyph-name="uni2539" unicode="&#x2539;" 
d="M540 383v-40h-550v80h470v470h80v-470h470v-40h-470z" />
    <glyph glyph-name="uni253A" unicode="&#x253a;" 
d="M460 343v40h-470v40h470v470h80v-470h470v-80h-550z" />
    <glyph glyph-name="uni253B" unicode="&#x253b;" 
d="M-10 343v80h470v470h80v-470h470v-80h-1020z" />
    <glyph glyph-name="SF050000" unicode="&#x253c;" 
d="M500 383v-510h-40v510h-470v40h470v470h40v-470h510v-40h-510z" />
    <glyph glyph-name="uni253D" unicode="&#x253d;" 
d="M500 383v-510h-40v470h-470v80h470v470h40v-470h510v-40h-510z" />
    <glyph glyph-name="uni253E" unicode="&#x253e;" 
d="M500 343v-470h-40v510h-470v40h470v470h40v-470h510v-80h-510z" />
    <glyph glyph-name="uni253F" unicode="&#x253f;" 
d="M500 343v-470h-40v470h-470v80h470v470h40v-470h510v-80h-510z" />
    <glyph glyph-name="uni2540" unicode="&#x2540;" 
d="M500 383v-510h-40v510h-470v40h470v470h80v-470h470v-40h-510z" />
    <glyph glyph-name="uni2541" unicode="&#x2541;" 
d="M540 383v-510h-80v510h-470v40h470v470h40v-470h510v-40h-470z" />
    <glyph glyph-name="uni2542" unicode="&#x2542;" 
d="M540 383v-510h-80v510h-470v40h470v470h80v-470h470v-40h-470z" />
    <glyph glyph-name="uni2543" unicode="&#x2543;" 
d="M540 383v-40h-40v-470h-40v470h-470v80h470v470h80v-470h470v-40h-470z" />
    <glyph glyph-name="uni2544" unicode="&#x2544;" 
d="M500 343v-470h-40v510h-470v40h470v470h80v-470h470v-80h-510z" />
    <glyph glyph-name="uni2545" unicode="&#x2545;" 
d="M540 383v-510h-80v470h-470v80h470v470h40v-470h510v-40h-470z" />
    <glyph glyph-name="uni2546" unicode="&#x2546;" 
d="M540 343v-470h-80v510h-470v40h470v470h40v-470h510v-80h-470z" />
    <glyph glyph-name="uni2547" unicode="&#x2547;" 
d="M500 343v-470h-40v470h-470v80h470v470h80v-470h470v-80h-510z" />
    <glyph glyph-name="uni2548" unicode="&#x2548;" 
d="M540 343v-470h-80v470h-470v80h470v470h40v-470h510v-80h-470z" />
    <glyph glyph-name="uni2549" unicode="&#x2549;" 
d="M540 383v-510h-80v470h-470v80h470v470h80v-470h470v-40h-470z" />
    <glyph glyph-name="uni254A" unicode="&#x254a;" 
d="M540 343v-470h-80v510h-470v40h470v470h80v-470h470v-80h-470z" />
    <glyph glyph-name="uni254B" unicode="&#x254b;" 
d="M540 343v-470h-80v470h-470v80h470v470h80v-470h470v-80h-470z" />
    <glyph glyph-name="SF430000" unicode="&#x2550;" 
 />
    <glyph glyph-name="SF240000" unicode="&#x2551;" 
 />
    <glyph glyph-name="SF510000" unicode="&#x2552;" 
 />
    <glyph glyph-name="SF520000" unicode="&#x2553;" 
 />
    <glyph glyph-name="SF390000" unicode="&#x2554;" 
 />
    <glyph glyph-name="SF220000" unicode="&#x2555;" 
 />
    <glyph glyph-name="SF210000" unicode="&#x2556;" 
 />
    <glyph glyph-name="SF250000" unicode="&#x2557;" 
 />
    <glyph glyph-name="SF500000" unicode="&#x2558;" 
 />
    <glyph glyph-name="SF490000" unicode="&#x2559;" 
 />
    <glyph glyph-name="SF380000" unicode="&#x255a;" 
 />
    <glyph glyph-name="SF280000" unicode="&#x255b;" 
 />
    <glyph glyph-name="SF270000" unicode="&#x255c;" 
 />
    <glyph glyph-name="SF260000" unicode="&#x255d;" 
 />
    <glyph glyph-name="SF360000" unicode="&#x255e;" 
 />
    <glyph glyph-name="SF370000" unicode="&#x255f;" 
 />
    <glyph glyph-name="SF420000" unicode="&#x2560;" 
 />
    <glyph glyph-name="SF190000" unicode="&#x2561;" 
 />
    <glyph glyph-name="SF200000" unicode="&#x2562;" 
 />
    <glyph glyph-name="SF230000" unicode="&#x2563;" 
 />
    <glyph glyph-name="SF470000" unicode="&#x2564;" 
 />
    <glyph glyph-name="SF480000" unicode="&#x2565;" 
 />
    <glyph glyph-name="SF410000" unicode="&#x2566;" 
 />
    <glyph glyph-name="SF450000" unicode="&#x2567;" 
 />
    <glyph glyph-name="SF460000" unicode="&#x2568;" 
 />
    <glyph glyph-name="SF400000" unicode="&#x2569;" 
 />
    <glyph glyph-name="SF540000" unicode="&#x256a;" 
 />
    <glyph glyph-name="SF530000" unicode="&#x256b;" 
 />
    <glyph glyph-name="SF440000" unicode="&#x256c;" 
 />
    <glyph glyph-name="uni256D" unicode="&#x256d;" 
 />
    <glyph glyph-name="uni256E" unicode="&#x256e;" 
 />
    <glyph glyph-name="uni256F" unicode="&#x256f;" 
 />
    <glyph glyph-name="uni2570" unicode="&#x2570;" 
 />
    <glyph glyph-name="uni2571" unicode="&#x2571;" 
 />
    <glyph glyph-name="uni2572" unicode="&#x2572;" 
 />
    <glyph glyph-name="uni2573" unicode="&#x2573;" 
 />
    <glyph glyph-name="uni2581" unicode="&#x2581;" 
 />
    <glyph glyph-name="uni2582" unicode="&#x2582;" 
 />
    <glyph glyph-name="uni2583" unicode="&#x2583;" 
 />
    <glyph glyph-name="dnblock" unicode="&#x2584;" 
 />
    <glyph glyph-name="uni2585" unicode="&#x2585;" 
 />
    <glyph glyph-name="uni2586" unicode="&#x2586;" 
 />
    <glyph glyph-name="uni2587" unicode="&#x2587;" 
 />
    <glyph glyph-name="block" unicode="&#x2588;" 
 />
    <glyph glyph-name="uni2589" unicode="&#x2589;" 
 />
    <glyph glyph-name="uni258A" unicode="&#x258a;" 
 />
    <glyph glyph-name="uni258B" unicode="&#x258b;" 
 />
    <glyph glyph-name="lfblock" unicode="&#x258c;" 
 />
    <glyph glyph-name="uni258D" unicode="&#x258d;" 
 />
    <glyph glyph-name="uni258E" unicode="&#x258e;" 
 />
    <glyph glyph-name="uni258F" unicode="&#x258f;" 
 />
    <glyph glyph-name="dkshade" unicode="&#x2593;" 
 />
    <glyph glyph-name="uni2594" unicode="&#x2594;" 
 />
    <glyph glyph-name="uni2595" unicode="&#x2595;" 
 />
    <glyph glyph-name="filledbox" unicode="&#x25a0;" 
d="M149 25v706h702v-706h-702z" />
    <glyph glyph-name="H22073" unicode="&#x25a1;" 
d="M135 15v728h730v-728h-730zM782 661h-565v-563h565v563z" />
    <glyph glyph-name="triagup" unicode="&#x25b2;" 
d="M146 7l354 786l354 -786h-708z" />
    <glyph glyph-name="uni25B3" unicode="&#x25b3;" 
d="M128 11l364 780l380 -780h-744zM494 595l-235 -500h478z" />
    <glyph glyph-name="triagdn" unicode="&#x25bc;" 
 />
    <glyph glyph-name="uni25BD" unicode="&#x25bd;" 
 />
    <glyph glyph-name="uni25C6" unicode="&#x25c6;" 
d="M500 -100l-412 476l412 468l412 -468z" />
    <glyph glyph-name="uni25C7" unicode="&#x25c7;" 
d="M498 -95l-410 476l410 468l414 -468zM498 725l-301 -344l301 -351l306 350z" />
    <glyph glyph-name="circle" unicode="&#x25cb;" 
d="M916 382q0 -86 -32.5 -162t-89 -132.5t-132.5 -89t-162 -32.5t-162 32.5t-132.5 89t-89 132.5t-32.5 162t32.5 162t89 132.5t132.5 89t162 32.5t162 -32.5t132.5 -89t89 -132.5t32.5 -162zM833 378q0 69 -26.5 130t-72 106.5t-106.5 72t-130 26.5t-130 -26.5t-106.5 -72
t-72 -106.5t-26.5 -130t26.5 -130t72 -106.5t106.5 -72t130 -26.5t130 26.5t106.5 72t72 106.5t26.5 130z" />
    <glyph glyph-name="uni25CE" unicode="&#x25ce;" 
d="M863 552q24 -49 32 -106t1 -113.5t-28 -109.5t-55 -95q-78 -97 -186 -132.5t-228 -11.5q-50 10 -98 37t-88 65.5t-69 85.5t-43 96q-17 62 -16 123.5t19.5 118.5t53.5 107.5t86 89.5q41 32 92.5 52t106 27t109.5 -0.5t103 -31.5q33 -12 64 -33.5t58 -48.5t49 -58t37 -62z
M775 524q-23 44 -60 80.5t-81 59.5q-37 20 -82 27.5t-90 3.5t-88 -20t-76 -43q-72 -59 -102 -140.5t-11 -175.5q9 -43 32 -83.5t56.5 -73.5t74.5 -55.5t85 -30.5q89 -16 168 12.5t137 96.5q29 33 45.5 76t21.5 89t-2.5 92t-27.5 85zM725 490q15 -33 20 -69.5t0 -73.5
t-20 -71t-39 -61q-48 -52 -110.5 -74.5t-134.5 -9.5q-33 6 -64 22.5t-57 40.5t-45.5 53.5t-28.5 60.5q-11 38 -11 76t10.5 73.5t31.5 67.5t52 57q26 21 58.5 34.5t67 18.5t69.5 1.5t66 -16.5q21 -9 41 -22.5t37.5 -30.5t32 -36.5t24.5 -40.5zM641 457q-12 26 -34.5 48.5
t-49.5 31.5q-41 18 -89 10.5t-83 -36.5q-38 -34 -51.5 -81.5t1.5 -96.5q5 -18 16 -34.5t25 -30.5t31 -24t35 -16q51 -16 99 -1.5t82 54.5q29 35 33.5 85t-15.5 91z" />
    <glyph glyph-name="H18533" unicode="&#x25cf;" 
d="M906 377q0 -84 -32 -158t-87 -129t-129 -87t-158 -32t-158 32t-129 87t-87 129t-32 158t32 158t87 129t129 87t158 32t158 -32t129 -87t87 -129t32 -158z" />
    <glyph glyph-name="uni25E2" unicode="&#x25e2;" 
 />
    <glyph glyph-name="uni25E3" unicode="&#x25e3;" 
 />
    <glyph glyph-name="uni25E4" unicode="&#x25e4;" 
 />
    <glyph glyph-name="uni25E5" unicode="&#x25e5;" 
 />
    <glyph glyph-name="uni2605" unicode="&#x2605;" 
d="M681 287l116 -342l-298 213l-291 -209l111 334l-291 213h361l110 330l113 -330h361z" />
    <glyph glyph-name="uni2606" unicode="&#x2606;" 
d="M681 289l116 -342l-298 213l-291 -209l111 334l-291 213h361l110 330l113 -330h361zM555 416l-55 162l-55 -162h-169l137 -97l-54 -158l139 96l141 -101l-52 163l135 97h-167z" />
    <glyph glyph-name="uni2609" unicode="&#x2609;" 
 />
    <glyph glyph-name="female" unicode="&#x2640;" 
d="M559 253v-284h-117v284h-238v109h238v57q-25 7 -47 23.5t-39 39t-27 49.5t-11 55q-1 48 19 89t60 70q21 15 48 22.5t55.5 7t55 -8.5t47.5 -24q42 -32 62 -75.5t14 -96.5q-3 -24 -13.5 -47t-26.5 -43.5t-36.5 -35.5t-43.5 -22v-60h238v-109h-238zM572 594q0 30 -21 51
t-51 21t-51 -21t-21 -51t21 -51t51 -21t51 21t21 51z" />
    <glyph glyph-name="male" unicode="&#x2642;" 
d="M646 489l-90 102v-277q20 -6 38.5 -18t34 -28t26.5 -35t17 -38q15 -52 0.5 -102.5t-55.5 -86.5q-18 -17 -41 -26.5t-48 -13.5t-50.5 -1t-47.5 12q-50 20 -79.5 63.5t-31.5 101.5q0 24 6 50t21 49.5t39 42t59 27.5v280l-92 -102l-76 76l228 223l220 -224zM571 144
q0 30 -21.5 51.5t-51.5 21.5t-51.5 -21.5t-21.5 -51.5t21.5 -51.5t51.5 -21.5t51.5 21.5t21.5 51.5z" />
    <glyph glyph-name="uni2E80" unicode="&#x2e80;" 
 />
    <glyph glyph-name="uniE815" unicode="&#xe815;" 
 />
    <glyph glyph-name="uniE815" unicode="&#x2e81;" 
 />
    <glyph glyph-name="uni2E82" unicode="&#x2e82;" 
 />
    <glyph glyph-name="uni2E83" unicode="&#x2e83;" 
 />
    <glyph glyph-name="uniE819" unicode="&#xe819;" 
 />
    <glyph glyph-name="uniE819" unicode="&#x2e84;" 
 />
    <glyph glyph-name="uni2E85" unicode="&#x2e85;" 
 />
    <glyph glyph-name="uni2E86" unicode="&#x2e86;" 
 />
    <glyph glyph-name="uni2E87" unicode="&#x2e87;" 
 />
    <glyph glyph-name="uniE81C" unicode="&#xe81c;" 
 />
    <glyph glyph-name="uniE81C" unicode="&#x2e88;" 
 />
    <glyph glyph-name="uni2E89" unicode="&#x2e89;" 
 />
    <glyph glyph-name="uni2E8A" unicode="&#x2e8a;" 
 />
    <glyph glyph-name="uniE81D" unicode="&#xe81d;" 
 />
    <glyph glyph-name="uniE81D" unicode="&#x2e8b;" 
 />
    <glyph glyph-name="uniE822" unicode="&#xe822;" 
 />
    <glyph glyph-name="uniE822" unicode="&#x2e8c;" 
 />
    <glyph glyph-name="uni2E8D" unicode="&#x2e8d;" 
 />
    <glyph glyph-name="uni2E8E" unicode="&#x2e8e;" 
 />
    <glyph glyph-name="uni2E8F" unicode="&#x2e8f;" 
 />
    <glyph glyph-name="uni2E90" unicode="&#x2e90;" 
 />
    <glyph glyph-name="uni2E91" unicode="&#x2e91;" 
 />
    <glyph glyph-name="uni2E92" unicode="&#x2e92;" 
 />
    <glyph glyph-name="uni2E93" unicode="&#x2e93;" 
 />
    <glyph glyph-name="uni2E94" unicode="&#x2e94;" 
 />
    <glyph glyph-name="uni2E95" unicode="&#x2e95;" 
 />
    <glyph glyph-name="uni2E96" unicode="&#x2e96;" 
 />
    <glyph glyph-name="uniE823" unicode="&#xe823;" 
 />
    <glyph glyph-name="uniE823" unicode="&#x2e97;" 
 />
    <glyph glyph-name="uni2E98" unicode="&#x2e98;" 
 />
    <glyph glyph-name="uni2E99" unicode="&#x2e99;" 
 />
    <glyph glyph-name="uni2E9B" unicode="&#x2e9b;" 
 />
    <glyph glyph-name="uni2E9C" unicode="&#x2e9c;" 
 />
    <glyph glyph-name="uni2E9D" unicode="&#x2e9d;" 
 />
    <glyph glyph-name="uni2E9E" unicode="&#x2e9e;" 
 />
    <glyph glyph-name="uni2E9F" unicode="&#x2e9f;" 
 />
    <glyph glyph-name="uni2EA0" unicode="&#x2ea0;" 
 />
    <glyph glyph-name="uni2EA1" unicode="&#x2ea1;" 
 />
    <glyph glyph-name="uni2EA2" unicode="&#x2ea2;" 
 />
    <glyph glyph-name="uni2EA3" unicode="&#x2ea3;" 
 />
    <glyph glyph-name="uni2EA4" unicode="&#x2ea4;" 
 />
    <glyph glyph-name="uni2EA5" unicode="&#x2ea5;" 
 />
    <glyph glyph-name="uni2EA6" unicode="&#x2ea6;" 
 />
    <glyph glyph-name="uniE830" unicode="&#xe830;" 
 />
    <glyph glyph-name="uniE830" unicode="&#x2ea7;" 
 />
    <glyph glyph-name="uni2EA8" unicode="&#x2ea8;" 
 />
    <glyph glyph-name="uni2EA9" unicode="&#x2ea9;" 
 />
    <glyph glyph-name="uniE833" unicode="&#xe833;" 
 />
    <glyph glyph-name="uniE833" unicode="&#x2eaa;" 
 />
    <glyph glyph-name="uni2EAB" unicode="&#x2eab;" 
 />
    <glyph glyph-name="uni2EAC" unicode="&#x2eac;" 
 />
    <glyph glyph-name="uni2EAD" unicode="&#x2ead;" 
 />
    <glyph glyph-name="uniE836" unicode="&#xe836;" 
 />
    <glyph glyph-name="uniE836" unicode="&#x2eae;" 
 />
    <glyph glyph-name="uni2EAF" unicode="&#x2eaf;" 
 />
    <glyph glyph-name="uni2EB0" unicode="&#x2eb0;" 
 />
    <glyph glyph-name="uni2EB1" unicode="&#x2eb1;" 
 />
    <glyph glyph-name="uni2EB2" unicode="&#x2eb2;" 
 />
    <glyph glyph-name="uniE838" unicode="&#xe838;" 
 />
    <glyph glyph-name="uniE838" unicode="&#x2eb3;" 
 />
    <glyph glyph-name="uni2EB4" unicode="&#x2eb4;" 
 />
    <glyph glyph-name="uni2EB5" unicode="&#x2eb5;" 
 />
    <glyph glyph-name="uniE839" unicode="&#xe839;" 
 />
    <glyph glyph-name="uniE839" unicode="&#x2eb6;" 
 />
    <glyph glyph-name="uniE83A" unicode="&#xe83a;" 
 />
    <glyph glyph-name="uniE83A" unicode="&#x2eb7;" 
 />
    <glyph glyph-name="uni2EB8" unicode="&#x2eb8;" 
 />
    <glyph glyph-name="uni2EB9" unicode="&#x2eb9;" 
 />
    <glyph glyph-name="uni2EBA" unicode="&#x2eba;" 
 />
    <glyph glyph-name="uniE83E" unicode="&#xe83e;" 
 />
    <glyph glyph-name="uniE83E" unicode="&#x2ebb;" 
 />
    <glyph glyph-name="uni2EBC" unicode="&#x2ebc;" 
 />
    <glyph glyph-name="uni2EBD" unicode="&#x2ebd;" 
 />
    <glyph glyph-name="uni2EBE" unicode="&#x2ebe;" 
 />
    <glyph glyph-name="uni2EBF" unicode="&#x2ebf;" 
 />
    <glyph glyph-name="uni2EC0" unicode="&#x2ec0;" 
 />
    <glyph glyph-name="uni2EC1" unicode="&#x2ec1;" 
 />
    <glyph glyph-name="uni2EC2" unicode="&#x2ec2;" 
 />
    <glyph glyph-name="uni2EC3" unicode="&#x2ec3;" 
 />
    <glyph glyph-name="uni2EC4" unicode="&#x2ec4;" 
 />
    <glyph glyph-name="uni2EC5" unicode="&#x2ec5;" 
 />
    <glyph glyph-name="uni2EC6" unicode="&#x2ec6;" 
 />
    <glyph glyph-name="uni2EC7" unicode="&#x2ec7;" 
 />
    <glyph glyph-name="uni2EC8" unicode="&#x2ec8;" 
 />
    <glyph glyph-name="uni2EC9" unicode="&#x2ec9;" 
 />
    <glyph glyph-name="uniE848" unicode="&#xe848;" 
 />
    <glyph glyph-name="uniE848" unicode="&#x2eca;" 
 />
    <glyph glyph-name="uni2ECB" unicode="&#x2ecb;" 
 />
    <glyph glyph-name="uni2ECC" unicode="&#x2ecc;" 
 />
    <glyph glyph-name="uni2ECD" unicode="&#x2ecd;" 
 />
    <glyph glyph-name="uni2ECE" unicode="&#x2ece;" 
 />
    <glyph glyph-name="uni2ECF" unicode="&#x2ecf;" 
 />
    <glyph glyph-name="uni2ED0" unicode="&#x2ed0;" 
 />
    <glyph glyph-name="uni2ED1" unicode="&#x2ed1;" 
 />
    <glyph glyph-name="uni2ED2" unicode="&#x2ed2;" 
 />
    <glyph glyph-name="uni2ED3" unicode="&#x2ed3;" 
 />
    <glyph glyph-name="uni2ED4" unicode="&#x2ed4;" 
 />
    <glyph glyph-name="uni2ED5" unicode="&#x2ed5;" 
 />
    <glyph glyph-name="uni2ED6" unicode="&#x2ed6;" 
 />
    <glyph glyph-name="uni2ED7" unicode="&#x2ed7;" 
 />
    <glyph glyph-name="uni2ED8" unicode="&#x2ed8;" 
 />
    <glyph glyph-name="uni2ED9" unicode="&#x2ed9;" 
 />
    <glyph glyph-name="uni2EDA" unicode="&#x2eda;" 
 />
    <glyph glyph-name="uni2EDB" unicode="&#x2edb;" 
 />
    <glyph glyph-name="uni2EDC" unicode="&#x2edc;" 
 />
    <glyph glyph-name="uni2EDD" unicode="&#x2edd;" 
 />
    <glyph glyph-name="uni2EDE" unicode="&#x2ede;" 
 />
    <glyph glyph-name="uni2EDF" unicode="&#x2edf;" 
 />
    <glyph glyph-name="uni2EE0" unicode="&#x2ee0;" 
 />
    <glyph glyph-name="uni2EE1" unicode="&#x2ee1;" 
 />
    <glyph glyph-name="uni2EE2" unicode="&#x2ee2;" 
 />
    <glyph glyph-name="uni2EE3" unicode="&#x2ee3;" 
 />
    <glyph glyph-name="uni2EE4" unicode="&#x2ee4;" 
 />
    <glyph glyph-name="uni2EE5" unicode="&#x2ee5;" 
 />
    <glyph glyph-name="uni2EE6" unicode="&#x2ee6;" 
 />
    <glyph glyph-name="uni2EE7" unicode="&#x2ee7;" 
 />
    <glyph glyph-name="uni2EE8" unicode="&#x2ee8;" 
 />
    <glyph glyph-name="uni2EE9" unicode="&#x2ee9;" 
 />
    <glyph glyph-name="uni2EEA" unicode="&#x2eea;" 
 />
    <glyph glyph-name="uni2EEB" unicode="&#x2eeb;" 
 />
    <glyph glyph-name="uni2EEC" unicode="&#x2eec;" 
 />
    <glyph glyph-name="uni2EED" unicode="&#x2eed;" 
 />
    <glyph glyph-name="uni2EEE" unicode="&#x2eee;" 
 />
    <glyph glyph-name="uni2EEF" unicode="&#x2eef;" 
 />
    <glyph glyph-name="uni2EF0" unicode="&#x2ef0;" 
 />
    <glyph glyph-name="uni2EF1" unicode="&#x2ef1;" 
 />
    <glyph glyph-name="uni2EF2" unicode="&#x2ef2;" 
 />
    <glyph glyph-name="uni2EF3" unicode="&#x2ef3;" 
 />
    <glyph glyph-name="uni4E00" unicode="&#x4e00;" 
d="M55 364v80h899v-80h-899z" />
    <glyph glyph-name="uni4E00" unicode="&#x2f00;" 
d="M55 364v80h899v-80h-899z" />
    <glyph glyph-name="uni4E28" unicode="&#x4e28;" 
d="M438 -47v877h135v-877h-135z" />
    <glyph glyph-name="uni4E28" unicode="&#x2f01;" 
d="M438 -47v877h135v-877h-135z" />
    <glyph glyph-name="uni4E36" unicode="&#x4e36;" 
d="M534 245l-238 302h171l242 -302h-175z" />
    <glyph glyph-name="uni4E36" unicode="&#x2f02;" 
d="M534 245l-238 302h171l242 -302h-175z" />
    <glyph glyph-name="uni4E3F" unicode="&#x4e3f;" 
d="M417 -47h-173l192 229v648h135v-693z" />
    <glyph glyph-name="uni4E3F" unicode="&#x2f03;" 
d="M417 -47h-173l192 229v648h135v-693z" />
    <glyph glyph-name="uni4E59" unicode="&#x4e59;" 
d="M916 -47h-837v324l650 461h-640v80h817v-82l-692 -524v-179h741z" />
    <glyph glyph-name="uni4E59" unicode="&#x2f04;" 
d="M916 -47h-837v324l650 461h-640v80h817v-82l-692 -524v-179h741z" />
    <glyph glyph-name="uni4E85" unicode="&#x4e85;" 
 />
    <glyph glyph-name="uni4E85" unicode="&#x2f05;" 
 />
    <glyph glyph-name="uni4E8C" unicode="&#x4e8c;" 
d="M92 709v80h821v-80h-821zM68 -11v80h874v-80h-874z" />
    <glyph glyph-name="uni4E8C" unicode="&#x2f06;" 
d="M92 709v80h821v-80h-821zM68 -11v80h874v-80h-874z" />
    <glyph glyph-name="uni4EA0" unicode="&#x4ea0;" 
d="M59 612v80h389l-72 140h157l69 -140h347v-80h-890z" />
    <glyph glyph-name="uni4EA0" unicode="&#x2f07;" 
d="M59 612v80h389l-72 140h157l69 -140h347v-80h-890z" />
    <glyph glyph-name="uni4EBA" unicode="&#x4eba;" 
d="M806 -49l-319 565l-290 -565h-157l459 881h151l-158 -307h145l326 -574h-157z" />
    <glyph glyph-name="uni4EBA" unicode="&#x2f08;" 
d="M806 -49l-319 565l-290 -565h-157l459 881h151l-158 -307h145l326 -574h-157z" />
    <glyph glyph-name="uni513F" unicode="&#x513f;" 
d="M920 -49h-284v880h135v-800h188zM204 -49h-160l178 251v629h135v-676z" />
    <glyph glyph-name="uni513F" unicode="&#x2f09;" 
d="M920 -49h-284v880h135v-800h188zM204 -49h-160l178 251v629h135v-676z" />
    <glyph glyph-name="uni5165" unicode="&#x5165;" 
d="M819 -47l-321 586l-309 -586h-148l344 653h76l-123 224h148l481 -877h-148z" />
    <glyph glyph-name="uni5165" unicode="&#x2f0a;" 
d="M819 -47l-321 586l-309 -586h-148l344 653h76l-123 224h148l481 -877h-148z" />
    <glyph glyph-name="uni516B" unicode="&#x516b;" 
d="M818 -49l-258 881h144l257 -881h-143zM185 -49h-139l260 881h142z" />
    <glyph glyph-name="uni516B" unicode="&#x2f0b;" 
d="M818 -49l-258 881h144l257 -881h-143zM185 -49h-139l260 881h142z" />
    <glyph glyph-name="uni5182" unicode="&#x5182;" 
d="M583 -47l-38 80h249v706h-579v-787h-135v867h849v-866h-346z" />
    <glyph glyph-name="uni5182" unicode="&#x2f0c;" 
d="M583 -47l-38 80h249v706h-579v-787h-135v867h849v-866h-346z" />
    <glyph glyph-name="uni5196" unicode="&#x5196;" 
d="M802 585v143h-596v-143h-135v223h866v-223h-135z" />
    <glyph glyph-name="uni5196" unicode="&#x2f0d;" 
d="M802 585v143h-596v-143h-135v223h866v-223h-135z" />
    <glyph glyph-name="uni51AB" unicode="&#x51ab;" 
d="M218 479l-142 351h147l142 -351h-147zM203 -47h-147l163 457h147z" />
    <glyph glyph-name="uni51AB" unicode="&#x2f0e;" 
d="M218 479l-142 351h147l142 -351h-147zM203 -47h-147l163 457h147z" />
    <glyph glyph-name="uni51E0" unicode="&#x51e0;" 
d="M920 -48h-228v790h-390v-610l-115 -180h-147l127 198v672h660v-790h132z" />
    <glyph glyph-name="uni51E0" unicode="&#x2f0f;" 
d="M920 -48h-228v790h-390v-610l-115 -180h-147l127 198v672h660v-790h132z" />
    <glyph glyph-name="uni51F5" unicode="&#x51f5;" 
d="M88 -47v877h135v-797h565v797h135v-877h-835z" />
    <glyph glyph-name="uni51F5" unicode="&#x2f10;" 
d="M88 -47v877h135v-797h565v797h135v-877h-835z" />
    <glyph glyph-name="uni5200" unicode="&#x5200;" 
d="M511 -48l-38 80h299v709h-364v-529l-219 -260h-158l242 300v489h-203v80h837v-869h-396z" />
    <glyph glyph-name="uni5200" unicode="&#x2f11;" 
d="M511 -48l-38 80h299v709h-364v-529l-219 -260h-158l242 300v489h-203v80h837v-869h-396z" />
    <glyph glyph-name="uni529B" unicode="&#x529b;" 
d="M471 -48l-38 80h349v601h-364v-421l-219 -260h-168l252 300v381h-213v80h213v120h135v-120h499v-761h-446z" />
    <glyph glyph-name="uni529B" unicode="&#x2f12;" 
d="M471 -48l-38 80h349v601h-364v-421l-219 -260h-168l252 300v381h-213v80h213v120h135v-120h499v-761h-446z" />
    <glyph glyph-name="uni52F9" unicode="&#x52f9;" 
d="M552 -47l-38 80h279v618h-498l-99 -193h-149l189 372h150l-51 -99h593v-778h-376z" />
    <glyph glyph-name="uni52F9" unicode="&#x2f13;" 
d="M552 -47l-38 80h279v618h-498l-99 -193h-149l189 372h150l-51 -99h593v-778h-376z" />
    <glyph glyph-name="uni5315" unicode="&#x5315;" 
d="M914 -48h-813v881h135v-407h441l121 330h143l-149 -410h-556v-314h717z" />
    <glyph glyph-name="uni5315" unicode="&#x2f14;" 
d="M914 -48h-813v881h135v-407h441l121 330h143l-149 -410h-556v-314h717z" />
    <glyph glyph-name="uni531A" unicode="&#x531a;" 
d="M85 -49v869h848v-80h-713v-709h724v-80h-859z" />
    <glyph glyph-name="uni531A" unicode="&#x2f15;" 
d="M85 -49v869h848v-80h-713v-709h724v-80h-859z" />
    <glyph glyph-name="uni5338" unicode="&#x5338;" 
 />
    <glyph glyph-name="uni5338" unicode="&#x2f16;" 
 />
    <glyph glyph-name="uni5341" unicode="&#x5341;" 
d="M571 392v-439h-135v439h-378v80h378v358h135v-358h380v-80h-380z" />
    <glyph glyph-name="uni5341" unicode="&#x2f17;" 
d="M571 392v-439h-135v439h-378v80h378v358h135v-358h380v-80h-380z" />
    <glyph glyph-name="uni535C" unicode="&#x535c;" 
d="M782 97l-334 582h151l334 -582h-151zM264 -49v881h135v-881h-135z" />
    <glyph glyph-name="uni535C" unicode="&#x2f18;" 
d="M782 97l-334 582h151l334 -582h-151zM264 -49v881h135v-881h-135z" />
    <glyph glyph-name="uni5369" unicode="&#x5369;" 
d="M698 69l-38 80h134v590h-166v-786h-135v866h436v-750h-231z" />
    <glyph glyph-name="uni5369" unicode="&#x2f19;" 
d="M698 69l-38 80h134v590h-166v-786h-135v866h436v-750h-231z" />
    <glyph glyph-name="uni5382" unicode="&#x5382;" 
d="M233 739v-681l-44 -116h-144l53 140v737h839v-80h-704z" />
    <glyph glyph-name="uni5382" unicode="&#x2f1a;" 
d="M233 739v-681l-44 -116h-144l53 140v737h839v-80h-704z" />
    <glyph glyph-name="uni53B6" unicode="&#x53b6;" 
d="M803 0l-35 69l-42 -69h-655v80l357 739h150l-357 -739h541l-191 375h150l232 -455h-150z" />
    <glyph glyph-name="uni53B6" unicode="&#x2f1b;" 
d="M803 0l-35 69l-42 -69h-655v80l357 739h150l-357 -739h541l-191 375h150l232 -455h-150z" />
    <glyph glyph-name="uni53C8" unicode="&#x53c8;" 
d="M794 -49l-291 317l-290 -317h-162l371 406l-301 327h165l218 -237l268 293h-689v80h849v-82l-347 -380l374 -407h-165z" />
    <glyph glyph-name="uni53C8" unicode="&#x2f1c;" 
d="M794 -49l-291 317l-290 -317h-162l371 406l-301 327h165l218 -237l268 293h-689v80h849v-82l-347 -380l374 -407h-165z" />
    <glyph glyph-name="uni53E3" unicode="&#x53e3;" 
d="M98 -25v824h812v-824h-812zM775 719h-542v-664h542v664z" />
    <glyph glyph-name="uni53E3" unicode="&#x2f1d;" 
d="M98 -25v824h812v-824h-812zM775 719h-542v-664h542v664z" />
    <glyph glyph-name="uni56D7" unicode="&#x56d7;" 
d="M82 -48v867h842v-867h-842zM788 738h-571v-705h571v705z" />
    <glyph glyph-name="uni56D7" unicode="&#x2f1e;" 
d="M82 -48v867h842v-867h-842zM788 738h-571v-705h571v705z" />
    <glyph glyph-name="uni571F" unicode="&#x571f;" 
d="M56 -47v80h381v429h-333v80h333v288h135v-288h334v-80h-334v-429h382v-80h-898z" />
    <glyph glyph-name="uni571F" unicode="&#x2f1f;" 
d="M56 -47v80h381v429h-333v80h333v288h135v-288h334v-80h-334v-429h382v-80h-898z" />
    <glyph glyph-name="uni58EB" unicode="&#x58eb;" 
d="M570 462v-431h331v-80h-795v80h329v431h-379v80h379v289h135v-289h379v-80h-379z" />
    <glyph glyph-name="uni58EB" unicode="&#x2f20;" 
d="M570 462v-431h331v-80h-795v80h329v431h-379v80h379v289h135v-289h379v-80h-379z" />
    <glyph glyph-name="uni5902" unicode="&#x5902;" 
d="M777 0l-256 189l-279 -189h-203l380 265l-254 187h193l160 -118l230 160v143h-410l-124 -149h-158l284 342h158l-94 -113h479v-282l-262 -178l349 -257h-193z" />
    <glyph glyph-name="uni5902" unicode="&#x2f21;" 
d="M777 0l-256 189l-279 -189h-203l380 265l-254 187h193l160 -118l230 160v143h-410l-124 -149h-158l284 342h158l-94 -113h479v-282l-262 -178l349 -257h-193z" />
    <glyph glyph-name="uni590A" unicode="&#x590a;" 
 />
    <glyph glyph-name="uni590A" unicode="&#x2f22;" 
 />
    <glyph glyph-name="uni5915" unicode="&#x5915;" 
d="M574 -48h-470l-38 80h401l50 93l-308 274h198l173 -154l202 380h-436l-125 -187h-160l261 391h160l-83 -124h534v-81z" />
    <glyph glyph-name="uni5915" unicode="&#x2f23;" 
d="M574 -48h-470l-38 80h401l50 93l-308 274h198l173 -154l202 380h-436l-125 -187h-160l261 391h160l-83 -124h534v-81z" />
    <glyph glyph-name="uni5927" unicode="&#x5927;" 
d="M810 -48l-309 481l-288 -481h-159l358 597h-343v80h367v202h135v-202h368v-80h-368l-35 -58h85l340 -539h-151z" />
    <glyph glyph-name="uni5927" unicode="&#x2f24;" 
d="M810 -48l-309 481l-288 -481h-159l358 597h-343v80h367v202h135v-202h368v-80h-368l-35 -58h85l340 -539h-151z" />
    <glyph glyph-name="uni5973" unicode="&#x5973;" 
d="M736 -48l-231 143l-230 -143h-228l343 214l-203 125v283h-118v80h118v176h135v-176h363v176h135v-176h118v-80h-118v-283l-201 -125l346 -214h-229zM685 574h-363v-225l182 -112l181 112v225z" />
    <glyph glyph-name="uni5973" unicode="&#x2f25;" 
d="M736 -48l-231 143l-230 -143h-228l343 214l-203 125v283h-118v80h118v176h135v-176h363v176h135v-176h118v-80h-118v-283l-201 -125l346 -214h-229zM685 574h-363v-225l182 -112l181 112v225z" />
    <glyph glyph-name="uni5B50" unicode="&#x5b50;" 
d="M569 346v-393h-307l-38 80h210v313h-378v80h378v100l251 215h-573v80h775v-81l-318 -272v-42h381v-80h-381z" />
    <glyph glyph-name="uni5B50" unicode="&#x2f26;" 
d="M569 346v-393h-307l-38 80h210v313h-378v80h378v100l251 215h-573v80h775v-81l-318 -272v-42h381v-80h-381z" />
    <glyph glyph-name="uni5B80" unicode="&#x5b80;" 
d="M802 499v145h-596v-145h-135v225h380l-45 106h147l45 -106h339v-225h-135z" />
    <glyph glyph-name="uni5B80" unicode="&#x2f27;" 
d="M802 499v145h-596v-145h-135v225h380l-45 106h147l45 -106h339v-225h-135z" />
    <glyph glyph-name="uni5BF8" unicode="&#x5bf8;" 
d="M793 582v-630h-337l-38 80h240v550h-607v80h607v169h135v-169h158v-80h-158zM428 113l-264 403h158l265 -403h-159z" />
    <glyph glyph-name="uni5BF8" unicode="&#x2f28;" 
d="M793 582v-630h-337l-38 80h240v550h-607v80h607v169h135v-169h158v-80h-158zM428 113l-264 403h158l265 -403h-159z" />
    <glyph glyph-name="uni5C0F" unicode="&#x5c0f;" 
d="M823 16l-192 646h127l197 -646h-132zM301 -47l-38 80h175v798h131v-878h-268zM183 16h-132l197 646h127z" />
    <glyph glyph-name="uni5C0F" unicode="&#x2f29;" 
d="M823 16l-192 646h127l197 -646h-132zM301 -47l-38 80h175v798h131v-878h-268zM183 16h-132l197 646h127z" />
    <glyph glyph-name="uni5C22" unicode="&#x5c22;" 
d="M918 -47h-363v621h-150v-380l-182 -241h-163l210 280v341h-206v80h206v178h135v-178h533v-80h-248v-541h266z" />
    <glyph glyph-name="uni5C22" unicode="&#x2f2a;" 
d="M918 -47h-363v621h-150v-380l-182 -241h-163l210 280v341h-206v80h206v178h135v-178h533v-80h-248v-541h266z" />
    <glyph glyph-name="uni5C38" unicode="&#x5c38;" 
d="M240 446v-376l-45 -117h-144l54 139v727h819v-373h-684zM789 739h-549v-213h549v213z" />
    <glyph glyph-name="uni5C38" unicode="&#x2f2b;" 
d="M240 446v-376l-45 -117h-144l54 139v727h819v-373h-684zM789 739h-549v-213h549v213z" />
    <glyph glyph-name="uni5C6E" unicode="&#x5c6e;" 
d="M570 235v-284h-135v284h-341v524h135v-444h206v516h135v-516h206v444h135v-524h-341z" />
    <glyph glyph-name="uni5C6E" unicode="&#x2f2c;" 
d="M570 235v-284h-135v284h-341v524h135v-444h206v516h135v-516h206v444h135v-524h-341z" />
    <glyph glyph-name="uni5C71" unicode="&#x5c71;" 
d="M94 -47v756h130v-676h215v798h131v-798h215v676h131v-756h-822z" />
    <glyph glyph-name="uni5C71" unicode="&#x2f2d;" 
d="M94 -47v756h130v-676h215v798h131v-798h215v676h131v-756h-822z" />
    <glyph glyph-name="uni5DDB" unicode="&#x5ddb;" 
d="M809 -47l-160 439l145 438h150l-145 -438l160 -439h-150zM515 -47l-160 439l145 438h150l-145 -438l160 -439h-150zM221 -47l-160 439l145 438h150l-145 -438l160 -439h-150z" />
    <glyph glyph-name="uni5DDB" unicode="&#x2f2e;" 
d="M809 -47l-160 439l145 438h150l-145 -438l160 -439h-150zM515 -47l-160 439l145 438h150l-145 -438l160 -439h-150zM221 -47l-160 439l145 438h150l-145 -438l160 -439h-150z" />
    <glyph glyph-name="uni5DE5" unicode="&#x5de5;" 
d="M61 -46v80h376v697h-343v80h821v-80h-343v-697h376v-80h-887z" />
    <glyph glyph-name="uni5DE5" unicode="&#x2f2f;" 
d="M61 -46v80h376v697h-343v80h821v-80h-343v-697h376v-80h-887z" />
    <glyph glyph-name="uni5DF1" unicode="&#x5df1;" 
d="M911 -48h-823v526h658v264h-679v80h814v-424h-658v-366h727z" />
    <glyph glyph-name="uni5DF1" unicode="&#x2f30;" 
d="M911 -48h-823v526h658v264h-679v80h814v-424h-658v-366h727z" />
    <glyph glyph-name="uni5DFE" unicode="&#x5dfe;" 
d="M650 40l-38 80h180v468h-221v-636h-135v636h-220v-547h-135v627h355v164h135v-164h356v-628h-277z" />
    <glyph glyph-name="uni5DFE" unicode="&#x2f31;" 
d="M650 40l-38 80h180v468h-221v-636h-135v636h-220v-547h-135v627h355v164h135v-164h356v-628h-277z" />
    <glyph glyph-name="uni5E72" unicode="&#x5e72;" 
d="M572 380v-428h-135v428h-381v80h381v280h-334v80h803v-80h-334v-280h381v-80h-381z" />
    <glyph glyph-name="uni5E72" unicode="&#x2f32;" 
d="M572 380v-428h-135v428h-381v80h381v280h-334v80h803v-80h-334v-280h381v-80h-381z" />
    <glyph glyph-name="uni5E7A" unicode="&#x5e7a;" 
d="M800 -47l-40 71l-44 -71h-645v80l414 359h-395v80l439 358h203l-439 -358h285l158 137h203l-665 -576h480l-129 227h162l175 -307h-162z" />
    <glyph glyph-name="uni5E7A" unicode="&#x2f33;" 
d="M800 -47l-40 71l-44 -71h-645v80l414 359h-395v80l439 358h203l-439 -358h285l158 137h203l-665 -576h480l-129 227h162l175 -307h-162z" />
    <glyph glyph-name="uni5E7F" unicode="&#x5e7f;" 
d="M234 663v-570l-48 -140h-140l53 153v637h360l-32 87h152l34 -87h329v-80h-708z" />
    <glyph glyph-name="uni5E7F" unicode="&#x2f34;" 
d="M234 663v-570l-48 -140h-140l53 153v637h360l-32 87h152l34 -87h329v-80h-708z" />
    <glyph glyph-name="uni5EF4" unicode="&#x5ef4;" 
d="M927 -47h-570l-75 80l-65 -80h-171l145 178l-133 143h119l44 -48v166h-145v79l140 247h-150v80h300v-80l-138 -246h128v-349l-18 -23l62 -67h566z" />
    <glyph glyph-name="uni5EF4" unicode="&#x2f35;" 
d="M927 -47h-570l-75 80l-65 -80h-171l145 178l-133 143h119l44 -48v166h-145v79l140 247h-150v80h300v-80l-138 -246h128v-349l-18 -23l62 -67h566z" />
    <glyph glyph-name="uni5EFE" unicode="&#x5efe;" 
d="M789 385v-434h-135v434h-305v-294l-101 -140h-173l139 192v242h-149v80h149v366h135v-366h305v366h135v-366h149v-80h-149z" />
    <glyph glyph-name="uni5EFE" unicode="&#x2f36;" 
d="M789 385v-434h-135v434h-305v-294l-101 -140h-173l139 192v242h-149v80h149v366h135v-366h305v366h135v-366h149v-80h-149z" />
    <glyph glyph-name="uni5F0B" unicode="&#x5f0b;" 
d="M685 637l-134 174h160l134 -174h-160zM921 -48h-343l-200 529l-325 -26v83l294 24l-102 269h145l97 -258l451 36v-84l-420 -33l173 -460h269z" />
    <glyph glyph-name="uni5F0B" unicode="&#x2f37;" 
d="M685 637l-134 174h160l134 -174h-160zM921 -48h-343l-200 529l-325 -26v83l294 24l-102 269h145l97 -258l451 36v-84l-420 -33l173 -460h269z" />
    <glyph glyph-name="uni5F13" unicode="&#x5f13;" 
d="M217 -48l-38 80h612v235h-709v317h684v157h-708v80h843v-317h-684v-157h710v-395h-710z" />
    <glyph glyph-name="uni5F13" unicode="&#x2f38;" 
d="M217 -48l-38 80h612v235h-709v317h684v157h-708v80h843v-317h-684v-157h710v-395h-710z" />
    <glyph glyph-name="uni5F50" unicode="&#x5f50;" 
d="M71 -47v80h705v314h-685v80h685v312h-705v80h840v-866h-840z" />
    <glyph glyph-name="uni5F50" unicode="&#x2f39;" 
d="M71 -47v80h705v314h-685v80h685v312h-705v80h840v-866h-840z" />
    <glyph glyph-name="uni5F61" unicode="&#x5f61;" 
d="M360 565h-248l539 265h248zM349 270h-248l542 270h248zM341 -47h-248l568 294h248z" />
    <glyph glyph-name="uni5F61" unicode="&#x2f3a;" 
d="M360 565h-248l539 265h248zM349 270h-248l542 270h248zM341 -47h-248l568 294h248z" />
    <glyph glyph-name="uni5F73" unicode="&#x5f73;" 
d="M261 527h-210l389 304h210zM411 384h67v-442h-135v389l-83 -65h-209l414 324h209z" />
    <glyph glyph-name="uni5F73" unicode="&#x2f3b;" 
d="M261 527h-210l389 304h210zM411 384h67v-442h-135v389l-83 -65h-209l414 324h209z" />
    <glyph glyph-name="uni5FC3" unicode="&#x5fc3;" 
d="M609 567l-129 263h146l129 -263h-146zM823 88l-152 439h142l152 -439h-142zM787 -47h-446v732h135v-652h350zM189 62h-138l93 465h138z" />
    <glyph glyph-name="uni5FC3" unicode="&#x2f3c;" 
d="M609 567l-129 263h146l129 -263h-146zM823 88l-152 439h142l152 -439h-142zM787 -47h-446v732h135v-652h350zM189 62h-138l93 465h138z" />
    <glyph glyph-name="uni6208" unicode="&#x6208;" 
d="M685 655l-138 166h175l138 -166h-175zM600 234l76 -201h276l-39 -80h-360l-74 198l-230 -158h-212l398 273l-100 267h-270v80h240l-82 217h153l82 -217h480v-80h-450l69 -183l186 128h212z" />
    <glyph glyph-name="uni6208" unicode="&#x2f3d;" 
d="M685 655l-138 166h175l138 -166h-175zM600 234l76 -201h276l-39 -80h-360l-74 198l-230 -158h-212l398 273l-100 267h-270v80h240l-82 217h153l82 -217h480v-80h-450l69 -183l186 128h212z" />
    <glyph glyph-name="uni6236" unicode="&#x6236;" 
 />
    <glyph glyph-name="uni6236" unicode="&#x2f3e;" 
 />
    <glyph glyph-name="uni624B" unicode="&#x624b;" 
d="M585 230v-277h-342l-38 80h245v197h-391v80h391v158h-341v80h341v157h-362v80h666l19 45h166l-53 -125h-301v-157h339v-80h-339v-158h365v-80h-365z" />
    <glyph glyph-name="uni624B" unicode="&#x2f3f;" 
d="M585 230v-277h-342l-38 80h245v197h-391v80h391v158h-341v80h341v157h-362v80h666l19 45h166l-53 -125h-301v-157h339v-80h-339v-158h365v-80h-365z" />
    <glyph glyph-name="uni652F" unicode="&#x652f;" 
d="M749 -47l-254 159l-225 -159h-224l331 234l-286 179h225l167 -105l206 146h-594v80h339v137h-380v80h380v126h135v-126h381v-80h-381v-137h343v-80l-311 -220l373 -234h-225z" />
    <glyph glyph-name="uni652F" unicode="&#x2f40;" 
d="M749 -47l-254 159l-225 -159h-224l331 234l-286 179h225l167 -105l206 146h-594v80h339v137h-380v80h380v126h135v-126h381v-80h-381v-137h343v-80l-311 -220l373 -234h-225z" />
    <glyph glyph-name="uni6534" unicode="&#x6534;" 
d="M762 -47l-265 180l-252 -180h-204l351 251l-239 162h209l132 -89l193 138h-598v80h314v335h135v-116h387v-80h-387v-139h353v-80l-293 -209l373 -253h-209z" />
    <glyph glyph-name="uni6534" unicode="&#x2f41;" 
d="M762 -47l-265 180l-252 -180h-204l351 251l-239 162h209l132 -89l193 138h-598v80h314v335h135v-116h387v-80h-387v-139h353v-80l-293 -209l373 -253h-209z" />
    <glyph glyph-name="uni6587" unicode="&#x6587;" 
d="M763 -47l-268 278l-252 -278h-187l342 377l-252 261h186l156 -161l194 214h-614v80h359l-57 106h171l57 -106h339v-80h-68l-285 -314l365 -377h-186z" />
    <glyph glyph-name="uni6587" unicode="&#x2f42;" 
d="M763 -47l-268 278l-252 -278h-187l342 377l-252 261h186l156 -161l194 214h-614v80h359l-57 106h171l57 -106h339v-80h-68l-285 -314l365 -377h-186z" />
    <glyph glyph-name="uni6597" unicode="&#x6597;" 
d="M412 567l-295 245h182l295 -245h-182zM794 193v-240h-135v225l-603 -66v80l603 66v571h135v-556l160 17v-80zM404 301l-301 250h182l301 -250h-182z" />
    <glyph glyph-name="uni6597" unicode="&#x2f43;" 
d="M412 567l-295 245h182l295 -245h-182zM794 193v-240h-135v225l-603 -66v80l603 66v571h135v-556l160 17v-80zM404 301l-301 250h182l301 -250h-182z" />
    <glyph glyph-name="uni65A4" unicode="&#x65a4;" 
d="M721 430v-477h-135v477h-348v-316l-67 -161h-140l72 185v647h649l22 45h170l-61 -125h-645v-195h710v-80h-227z" />
    <glyph glyph-name="uni65A4" unicode="&#x2f44;" 
d="M721 430v-477h-135v477h-348v-316l-67 -161h-140l72 185v647h649l22 45h170l-61 -125h-645v-195h710v-80h-227z" />
    <glyph glyph-name="uni65B9" unicode="&#x65b9;" 
d="M326 655v-143h570v-559h-368l-38 80h271v399h-435v-298l-110 -181h-161l136 225v477h-136v80h392l-61 95h174l61 -95h328v-80h-623z" />
    <glyph glyph-name="uni65B9" unicode="&#x2f45;" 
d="M326 655v-143h570v-559h-368l-38 80h271v399h-435v-298l-110 -181h-161l136 225v477h-136v80h392l-61 95h174l61 -95h328v-80h-623z" />
    <glyph glyph-name="uni65E0" unicode="&#x65e0;" 
d="M921 -47h-417v390l-284 -390h-176l345 452h-336v80h367v254h-330v80h828v-80h-363v-254h398v-80h-404l-35 -48h125v-324h321z" />
    <glyph glyph-name="uni65E0" unicode="&#x2f46;" 
d="M921 -47h-417v390l-284 -390h-176l345 452h-336v80h367v254h-330v80h828v-80h-363v-254h398v-80h-404l-35 -48h125v-324h321z" />
    <glyph glyph-name="uni65E5" unicode="&#x65e5;" 
d="M114 -47v866h780v-866h-780zM759 739h-510v-302h510v302zM759 357h-510v-324h510v324z" />
    <glyph glyph-name="uni65E5" unicode="&#x2f47;" 
d="M114 -47v866h780v-866h-780zM759 739h-510v-302h510v302zM759 357h-510v-324h510v324z" />
    <glyph glyph-name="uni66F0" unicode="&#x66f0;" 
d="M89 -24v818h829v-818h-829zM783 714h-559v-285h457v-80h-457v-293h559v658z" />
    <glyph glyph-name="uni66F0" unicode="&#x2f48;" 
d="M89 -24v818h829v-818h-829zM783 714h-559v-285h457v-80h-457v-293h559v658z" />
    <glyph glyph-name="uni6708" unicode="&#x6708;" 
d="M550 -47l-38 80h256v207h-515v-149l-57 -138h-145l67 161v705h785v-866h-353zM768 739h-515v-169h515v169zM768 490h-515v-170h515v170z" />
    <glyph glyph-name="uni6708" unicode="&#x2f49;" 
d="M550 -47l-38 80h256v207h-515v-149l-57 -138h-145l67 161v705h785v-866h-353zM768 739h-515v-169h515v169zM768 490h-515v-170h515v170z" />
    <glyph glyph-name="uni6728" unicode="&#x6728;" 
d="M797 -16l-174 558h149l174 -558h-149zM570 602v-649h-135v649h-366v80h366v148h135v-148h366v-80h-366zM208 -16h-149l174 558h149z" />
    <glyph glyph-name="uni6728" unicode="&#x2f4a;" 
d="M797 -16l-174 558h149l174 -558h-149zM570 602v-649h-135v649h-366v80h366v148h135v-148h366v-80h-366zM208 -16h-149l174 558h149z" />
    <glyph glyph-name="uni6B20" unicode="&#x6b20;" 
d="M782 412v211h-446l-125 -237h-152l234 444h152l-67 -127h539v-291h-135zM772 -47l-239 223l-279 -223h-200l383 306v304h135v-288h35l344 -322h-179z" />
    <glyph glyph-name="uni6B20" unicode="&#x2f4b;" 
d="M782 412v211h-446l-125 -237h-152l234 444h152l-67 -127h539v-291h-135zM772 -47l-239 223l-279 -223h-200l383 306v304h135v-288h35l344 -322h-179z" />
    <glyph glyph-name="uni6B62" unicode="&#x6b62;" 
d="M71 -47v80h92v613h135v-613h173v797h135v-292h314v-80h-314v-425h334v-80h-869z" />
    <glyph glyph-name="uni6B62" unicode="&#x2f4c;" 
d="M71 -47v80h92v613h135v-613h173v797h135v-292h314v-80h-314v-425h334v-80h-869z" />
    <glyph glyph-name="uni6B79" unicode="&#x6b79;" 
d="M505 739l-103 -135h507v-80l-383 -571h-415l-38 80h343l74 110l-324 196h224l165 -100l193 285h-407l-116 -152h-169l280 367h-267v80h871v-80h-435z" />
    <glyph glyph-name="uni6B79" unicode="&#x2f4d;" 
d="M505 739l-103 -135h507v-80l-383 -571h-415l-38 80h343l74 110l-324 196h224l165 -100l193 285h-407l-116 -152h-169l280 367h-267v80h871v-80h-435z" />
    <glyph glyph-name="uni6BB3" unicode="&#x6bb3;" 
d="M914 473h-266v266h-317v-168l-90 -98h-172l127 139v207h587v-266h170zM740 -48l-244 134l-225 -134h-218l329 197l-257 141h221l142 -78l197 117h-584v80h770v-99l-269 -161l359 -197h-221z" />
    <glyph glyph-name="uni6BB3" unicode="&#x2f4e;" 
d="M914 473h-266v266h-317v-168l-90 -98h-172l127 139v207h587v-266h170zM740 -48l-244 134l-225 -134h-218l329 197l-257 141h221l142 -78l197 117h-584v80h770v-99l-269 -161l359 -197h-221z" />
    <glyph glyph-name="uni6BCB" unicode="&#x6bcb;" 
d="M858 438l-26 -223h108v-80h-118l-21 -182h-265l-40 80h181l12 102h-174l-246 -182h-189l246 182h-214l36 303h-82v80h91l36 301h709l-35 -301h79v-80h-88zM601 739l-26 -221h159l26 221h-159zM316 739l-26 -221h152l26 221h-152zM565 438l-26 -223h159l27 223h-160z
M280 438l-26 -223h151l27 223h-152z" />
    <glyph glyph-name="uni6BCB" unicode="&#x2f4f;" 
d="M858 438l-26 -223h108v-80h-118l-21 -182h-265l-40 80h181l12 102h-174l-246 -182h-189l246 182h-214l36 303h-82v80h91l36 301h709l-35 -301h79v-80h-88zM601 739l-26 -221h159l26 221h-159zM316 739l-26 -221h152l26 221h-152zM565 438l-26 -223h159l27 223h-160z
M280 438l-26 -223h151l27 223h-152z" />
    <glyph glyph-name="uni6BD4" unicode="&#x6bd4;" 
d="M860 486h-225v-453h315l-39 -80h-411v877h135v-264h109l65 190h143zM439 -47h-349v877h135v-264h243v-80h-243v-453h253z" />
    <glyph glyph-name="uni6BD4" unicode="&#x2f50;" 
d="M860 486h-225v-453h315l-39 -80h-411v877h135v-264h109l65 190h143zM439 -47h-349v877h135v-264h243v-80h-243v-453h253z" />
    <glyph glyph-name="uni6BDB" unicode="&#x6bdb;" 
d="M915 -47h-513v278h-331v80h331v165h-297v80h297v163h-319v80h685l14 31h165l-51 -111h-359v-163h366v-80h-366v-165h403v-80h-403v-198h416z" />
    <glyph glyph-name="uni6BDB" unicode="&#x2f51;" 
d="M915 -47h-513v278h-331v80h331v165h-297v80h297v163h-319v80h685l14 31h165l-51 -111h-359v-163h366v-80h-366v-165h403v-80h-403v-198h416z" />
    <glyph glyph-name="uni6C0F" unicode="&#x6c0f;" 
d="M911 -47h-251l-114 432h-323v-352h289l-39 -80h-385v848h666l16 29h180l-58 -109h-291l67 -256h276v-80h-255l93 -352h168zM458 721h-235v-256h302z" />
    <glyph glyph-name="uni6C0F" unicode="&#x2f52;" 
d="M911 -47h-251l-114 432h-323v-352h289l-39 -80h-385v848h666l16 29h180l-58 -109h-291l67 -256h276v-80h-255l93 -352h168zM458 721h-235v-256h302z" />
    <glyph glyph-name="uni6C14" unicode="&#x6c14;" 
d="M307 547v80h573v-80h-573zM292 702l-88 -173h-154l153 301h154l-24 -48h603v-80h-644zM930 -47h-185v434h-676v80h811v-434h89z" />
    <glyph glyph-name="uni6C14" unicode="&#x2f53;" 
d="M307 547v80h573v-80h-573zM292 702l-88 -173h-154l153 301h154l-24 -48h603v-80h-644zM930 -47h-185v434h-676v80h811v-434h89z" />
    <glyph glyph-name="uni6C34" unicode="&#x6c34;" 
d="M760 430h-157l194 300h157zM802 -28l-199 413h155l199 -413h-155zM323 -47l-38 80h151v797h135v-877h-248zM192 -28h-142l188 612h-176v80h318v-80z" />
    <glyph glyph-name="uni6C34" unicode="&#x2f54;" 
d="M760 430h-157l194 300h157zM802 -28l-199 413h155l199 -413h-155zM323 -47l-38 80h151v797h135v-877h-248zM192 -28h-142l188 612h-176v80h318v-80z" />
    <glyph glyph-name="uni706B" unicode="&#x706b;" 
d="M782 389h-146l161 377h146zM773 -47l-268 284l-265 -284h-187l384 411v466h135v-509h38l347 -368h-184zM227 389l-161 377h146l161 -377h-146z" />
    <glyph glyph-name="uni706B" unicode="&#x2f55;" 
d="M782 389h-146l161 377h146zM773 -47l-268 284l-265 -284h-187l384 411v466h135v-509h38l347 -368h-184zM227 389l-161 377h146l161 -377h-146z" />
    <glyph glyph-name="uni722A" unicode="&#x722a;" 
d="M818 -47l-160 725h137l160 -725h-137zM902 720h-664v-631l-42 -136h-141l48 157v690h673l13 30h162zM413 -47v725h135v-725h-135z" />
    <glyph glyph-name="uni722A" unicode="&#x2f56;" 
d="M818 -47l-160 725h137l160 -725h-137zM902 720h-664v-631l-42 -136h-141l48 157v690h673l13 30h162zM413 -47v725h135v-725h-135z" />
    <glyph glyph-name="uni7236" unicode="&#x7236;" 
d="M790 512l-232 318h163l232 -318h-163zM221 512h-163l232 318h163zM759 -47l-253 206l-254 -206h-199l353 287l-288 235h199l188 -154l189 154h199l-288 -235l353 -287h-199z" />
    <glyph glyph-name="uni7236" unicode="&#x2f57;" 
d="M790 512l-232 318h163l232 -318h-163zM221 512h-163l232 318h163zM759 -47l-253 206l-254 -206h-199l353 287l-288 235h199l188 -154l189 154h199l-288 -235l353 -287h-199z" />
    <glyph glyph-name="uni723B" unicode="&#x723b;" 
d="M717 456l-215 125l-215 -125h-223l326 189l-318 185h223l207 -120l207 120h223l-319 -185l327 -189h-223zM741 -47l-238 166l-238 -166h-212l344 241l-325 227h212l219 -153l219 153h212l-325 -227l344 -241h-212z" />
    <glyph glyph-name="uni723B" unicode="&#x2f58;" 
d="M717 456l-215 125l-215 -125h-223l326 189l-318 185h223l207 -120l207 120h223l-319 -185l327 -189h-223zM741 -47l-238 166l-238 -166h-212l344 241l-325 227h212l219 -153l219 153h212l-325 -227l344 -241h-212z" />
    <glyph glyph-name="uni723F" unicode="&#x723f;" 
d="M744 -48v346h-387v-250l-99 -96h-185l149 143v203h-137v80h659v125h-580v306h135v-226h445v249h135v-880h-135z" />
    <glyph glyph-name="uni723F" unicode="&#x2f59;" 
d="M744 -48v346h-387v-250l-99 -96h-185l149 143v203h-137v80h659v125h-580v306h135v-226h445v249h135v-880h-135z" />
    <glyph glyph-name="uni7247" unicode="&#x7247;" 
d="M248 495v-150h572v-392h-135v312h-437v-177l-51 -135h-146l62 164v713h135v-255h347v255h135v-255h215v-80h-697z" />
    <glyph glyph-name="uni7247" unicode="&#x2f5a;" 
d="M248 495v-150h572v-392h-135v312h-437v-177l-51 -135h-146l62 164v713h135v-255h347v255h135v-255h215v-80h-697z" />
    <glyph glyph-name="uni7259" unicode="&#x7259;" 
d="M808 403v-450h-336l-38 80h239v370h-588v80l159 206h166l-159 -206h422v256h-603v80h866v-80h-128v-256h143v-80h-143zM221 -30h-170l291 383h170z" />
    <glyph glyph-name="uni7259" unicode="&#x2f5b;" 
d="M808 403v-450h-336l-38 80h239v370h-588v80l159 206h166l-159 -206h422v256h-603v80h866v-80h-128v-256h143v-80h-143zM221 -30h-170l291 383h170z" />
    <glyph glyph-name="uni725B" unicode="&#x725b;" 
d="M568 228v-275h-135v275h-378v80h378v242h-178l-55 -153h-146l135 376h146l-51 -143h149v200h135v-200h343v-80h-343v-242h381v-80h-381z" />
    <glyph glyph-name="uni725B" unicode="&#x2f5c;" 
d="M568 228v-275h-135v275h-378v80h378v242h-178l-55 -153h-146l135 376h146l-51 -143h149v200h135v-200h343v-80h-343v-242h381v-80h-381z" />
    <glyph glyph-name="uni72AC" unicode="&#x72ac;" 
d="M754 620l-117 188h148l117 -188h-148zM791 -47l-300 414l-267 -414h-164l346 536h-339v80h368v261h135v-261h369v-80h-369l-48 -75h103l334 -461h-168z" />
    <glyph glyph-name="uni72AC" unicode="&#x2f5d;" 
d="M754 620l-117 188h148l117 -188h-148zM791 -47l-300 414l-267 -414h-164l346 536h-339v80h368v261h135v-261h369v-80h-369l-48 -75h103l334 -461h-168z" />
    <glyph glyph-name="uni7384" unicode="&#x7384;" 
d="M809 -47l-41 66l-40 -66h-634v80l342 265h-343v80l342 266h-375v80h381l-70 106h157l70 -106h351v-80h-320l-342 -266h253l161 125h188l-604 -470h475l-121 195h146l170 -275h-146z" />
    <glyph glyph-name="uni7384" unicode="&#x2f5e;" 
d="M809 -47l-41 66l-40 -66h-634v80l342 265h-343v80l342 266h-375v80h381l-70 106h157l70 -106h351v-80h-320l-342 -266h253l161 125h188l-604 -470h475l-121 195h146l170 -275h-146z" />
    <glyph glyph-name="uni7389" unicode="&#x7389;" 
d="M752 97l-113 214h142l113 -214h-142zM70 -48v80h368v344h-330v80h330v273h-347v80h829v-80h-347v-273h330v-80h-330v-344h369v-80h-872z" />
    <glyph glyph-name="uni7389" unicode="&#x2f5f;" 
d="M752 97l-113 214h142l113 -214h-142zM70 -48v80h368v344h-330v80h330v273h-347v80h829v-80h-347v-273h330v-80h-330v-344h369v-80h-872z" />
    <glyph glyph-name="uni74DC" unicode="&#x74dc;" 
d="M818 -47l-126 712h138l126 -712h-138zM629 -47l-13 70l-43 -70h-173v712h135v-632h80l-40 220h133l54 -300h-133zM890 702h-645v-595l-49 -154h-145l59 186v643h659l20 48h155z" />
    <glyph glyph-name="uni74DC" unicode="&#x2f60;" 
d="M818 -47l-126 712h138l126 -712h-138zM629 -47l-13 70l-43 -70h-173v712h135v-632h80l-40 220h133l54 -300h-133zM890 702h-645v-595l-49 -154h-145l59 186v643h659l20 48h155z" />
    <glyph glyph-name="uni74E6" unicode="&#x74e6;" 
d="M919 -47h-264v549h-336l-102 -469h333l-38 -80h-434v80l153 706h-174v80h896v-80h-583l-34 -157h454v-549h168zM462 125l-117 289h145l117 -289h-145z" />
    <glyph glyph-name="uni74E6" unicode="&#x2f61;" 
d="M919 -47h-264v549h-336l-102 -469h333l-38 -80h-434v80l153 706h-174v80h896v-80h-583l-34 -157h454v-549h168zM462 125l-117 289h145l117 -289h-145z" />
    <glyph glyph-name="uni7518" unicode="&#x7518;" 
d="M846 599v-647h-686v647h-102v80h102v151h135v-151h416v151h135v-151h102v-80h-102zM711 599h-416v-230h416v230zM711 289h-416v-257h416v257z" />
    <glyph glyph-name="uni7518" unicode="&#x2f62;" 
d="M846 599v-647h-686v647h-102v80h102v151h135v-151h416v151h135v-151h102v-80h-102zM711 599h-416v-230h416v230zM711 289h-416v-257h416v257z" />
    <glyph glyph-name="uni751F" unicode="&#x751f;" 
d="M59 -48v80h378v250h-330v80h330v224h-190l-57 -158h-139l131 361h139l-45 -123h161v165h135v-165h350v-80h-350v-224h330v-80h-330v-250h378v-80h-891z" />
    <glyph glyph-name="uni751F" unicode="&#x2f63;" 
d="M59 -48v80h378v250h-330v80h330v224h-190l-57 -158h-139l131 361h139l-45 -123h161v165h135v-165h350v-80h-350v-224h330v-80h-330v-250h378v-80h-891z" />
    <glyph glyph-name="uni7528" unicode="&#x7528;" 
d="M667 -47l-38 80h151v202h-206v-275h-135v275h-204v-168l-43 -114h-144l52 138v728h813v-866h-246zM778 739h-204v-172h204v172zM778 487h-204v-172h204v172zM439 739h-204v-172h204v172zM439 487h-204v-172h204v172z" />
    <glyph glyph-name="uni7528" unicode="&#x2f64;" 
d="M667 -47l-38 80h151v202h-206v-275h-135v275h-204v-168l-43 -114h-144l52 138v728h813v-866h-246zM778 739h-204v-172h204v172zM778 487h-204v-172h204v172zM439 739h-204v-172h204v172zM439 487h-204v-172h204v172z" />
    <glyph glyph-name="uni7530" unicode="&#x7530;" 
d="M97 -48v857h813v-857h-813zM775 729h-204v-299h204v299zM436 729h-204v-299h204v299zM775 350h-204v-318h204v318zM436 350h-204v-318h204v318z" />
    <glyph glyph-name="uni7530" unicode="&#x2f65;" 
d="M97 -48v857h813v-857h-813zM775 729h-204v-299h204v299zM436 729h-204v-299h204v299zM775 350h-204v-318h204v318zM436 350h-204v-318h204v318z" />
    <glyph glyph-name="uni758B" unicode="&#x758b;" 
d="M922 -48h-500l-179 93l-49 -93h-149l92 172v446h135v-433l169 -88v690h-369v80h839v-252h-135v172h-200v-310h340v-80h-340v-317h386z" />
    <glyph glyph-name="uni758B" unicode="&#x2f66;" 
d="M922 -48h-500l-179 93l-49 -93h-149l92 172v446h135v-433l169 -88v690h-369v80h839v-252h-135v172h-200v-310h340v-80h-340v-317h386z" />
    <glyph glyph-name="uni7592" unicode="&#x7592;" 
d="M336 665v-569l-82 -143h-156l103 180v612h294l-36 85h156l36 -85h291v-80h-606zM85 471l-32 274h95l31 -274h-94zM151 130h-93l28 300h91z" />
    <glyph glyph-name="uni7592" unicode="&#x2f67;" 
d="M336 665v-569l-82 -143h-156l103 180v612h294l-36 85h156l36 -85h291v-80h-606zM85 471l-32 274h95l31 -274h-94zM151 130h-93l28 300h91z" />
    <glyph glyph-name="uni7676" unicode="&#x7676;" 
 />
    <glyph glyph-name="uni7676" unicode="&#x2f68;" 
 />
    <glyph glyph-name="uni767D" unicode="&#x767d;" 
d="M106 -48v754h232l71 124h153l-71 -124h404v-754h-789zM760 626h-519v-241h519v241zM760 305h-519v-273h519v273z" />
    <glyph glyph-name="uni767D" unicode="&#x2f69;" 
d="M106 -48v754h232l71 124h153l-71 -124h404v-754h-789zM760 626h-519v-241h519v241zM760 305h-519v-273h519v273z" />
    <glyph glyph-name="uni76AE" unicode="&#x76ae;" 
d="M775 -47l-197 133l-154 -133h-189l238 204l-219 148h200l107 -72l150 129h-471v-285l-47 -124h-138l50 138v641h349v98h135v-98h333v-234h-135v154h-198v-210h308v-80l-231 -200l309 -209h-200zM454 652h-214v-210h214v210z" />
    <glyph glyph-name="uni76AE" unicode="&#x2f6a;" 
d="M775 -47l-197 133l-154 -133h-189l238 204l-219 148h200l107 -72l150 129h-471v-285l-47 -124h-138l50 138v641h349v98h135v-98h333v-234h-135v154h-198v-210h308v-80l-231 -200l309 -209h-200zM454 652h-214v-210h214v210z" />
    <glyph glyph-name="uni76BF" unicode="&#x76bf;" 
d="M47 -47v80h55v770h800v-770h55v-80h-910zM772 723h-96v-690h96v690zM550 723h-96v-690h96v690zM328 723h-96v-690h96v690z" />
    <glyph glyph-name="uni76BF" unicode="&#x2f6b;" 
d="M47 -47v80h55v770h800v-770h55v-80h-910zM772 723h-96v-690h96v690zM550 723h-96v-690h96v690zM328 723h-96v-690h96v690z" />
    <glyph glyph-name="uni76EE" unicode="&#x76ee;" 
d="M104 -48v867h798v-867h-798zM767 739h-528v-180h528v180zM767 479h-528v-180h528v180zM767 219h-528v-187h528v187z" />
    <glyph glyph-name="uni76EE" unicode="&#x2f6c;" 
d="M104 -48v867h798v-867h-798zM767 739h-528v-180h528v180zM767 479h-528v-180h528v180zM767 219h-528v-187h528v187z" />
    <glyph glyph-name="uni77DB" unicode="&#x77db;" 
d="M784 122v299h-176v-468h-268l-37 80h170v388h-408v80h369l-229 183h187l93 -74l184 129h-566v80h768v-80l-292 -204l42 -34h298v-379h-135zM193 -28h-145l230 395h145z" />
    <glyph glyph-name="uni77DB" unicode="&#x2f6d;" 
d="M784 122v299h-176v-468h-268l-37 80h170v388h-408v80h369l-229 183h187l93 -74l184 129h-566v80h768v-80l-292 -204l42 -34h298v-379h-135zM193 -28h-145l230 395h145z" />
    <glyph glyph-name="uni77E2" unicode="&#x77e2;" 
d="M805 -47l-311 304l-287 -304h-161l346 370h-329v80h372v249h-147l-83 -169h-148l170 347h148l-48 -98h581v-80h-338v-249h374v-80h-387l-46 -48h129l330 -322h-165z" />
    <glyph glyph-name="uni77E2" unicode="&#x2f6e;" 
d="M805 -47l-311 304l-287 -304h-161l346 370h-329v80h372v249h-147l-83 -169h-148l170 347h148l-48 -98h581v-80h-338v-249h374v-80h-387l-46 -48h129l330 -322h-165z" />
    <glyph glyph-name="uni77F3" unicode="&#x77f3;" 
d="M505 729l-196 -275h575v-501h-737v348h-104l305 428h-292v80h895v-80h-446zM749 374h-467v-341h467v341z" />
    <glyph glyph-name="uni77F3" unicode="&#x2f6f;" 
d="M505 729l-196 -275h575v-501h-737v348h-104l305 428h-292v80h895v-80h-446zM749 374h-467v-341h467v341z" />
    <glyph glyph-name="uni793A" unicode="&#x793a;" 
d="M120 729v80h773v-80h-773zM817 -14l-171 389h145l171 -389h-145zM573 450v-497h-259l-38 80h162v417h-371v80h877v-80h-371zM191 -14h-145l175 389h145z" />
    <glyph glyph-name="uni793A" unicode="&#x2f70;" 
d="M120 729v80h773v-80h-773zM817 -14l-171 389h145l171 -389h-145zM573 450v-497h-259l-38 80h162v417h-371v80h877v-80h-371zM191 -14h-145l175 389h145z" />
    <glyph glyph-name="uni79B8" unicode="&#x79b8;" 
 />
    <glyph glyph-name="uni79B8" unicode="&#x2f71;" 
 />
    <glyph glyph-name="uni79BE" unicode="&#x79be;" 
d="M816 -6l-171 412h143l171 -412h-143zM571 473v-520h-135v520h-372v80h372v154h-349v80h672l20 43h152l-55 -123h-305v-154h372v-80h-372zM191 -6h-143l171 412h143z" />
    <glyph glyph-name="uni79BE" unicode="&#x2f72;" 
d="M816 -6l-171 412h143l171 -412h-143zM571 473v-520h-135v520h-372v80h372v154h-349v80h672l20 43h152l-55 -123h-305v-154h372v-80h-372zM191 -6h-143l171 412h143z" />
    <glyph glyph-name="uni7A74" unicode="&#x7a74;" 
d="M799 474v154h-595v-154h-135v234h370l-62 122h150l62 -122h345v-234h-135zM819 -48l-267 558h145l267 -558h-145zM200 -48h-145l251 558h145z" />
    <glyph glyph-name="uni7A74" unicode="&#x2f73;" 
d="M799 474v154h-595v-154h-135v234h370l-62 122h150l62 -122h345v-234h-135zM819 -48l-267 558h145l267 -558h-145zM200 -48h-145l251 558h145z" />
    <glyph glyph-name="uni7ACB" unicode="&#x7acb;" 
d="M89 599v80h349l-64 151h150l64 -151h327v-80h-826zM62 -47v80h480l187 493h144l-187 -493h262v-80h-886zM323 102l-194 424h145l194 -424h-145z" />
    <glyph glyph-name="uni7ACB" unicode="&#x2f74;" 
d="M89 599v80h349l-64 151h150l64 -151h327v-80h-826zM62 -47v80h480l187 493h144l-187 -493h262v-80h-886zM323 102l-194 424h145l194 -424h-145z" />
    <glyph glyph-name="uni7AF9" unicode="&#x7af9;" 
d="M833 631v-680h-284l-38 80h187v600h-52l-53 -202h-134l106 401h134l-31 -119h284v-80h-119zM371 631v-680h-135v680h-13l-53 -202h-134l106 401h134l-31 -119h249v-80h-123z" />
    <glyph glyph-name="uni7AF9" unicode="&#x2f75;" 
d="M833 631v-680h-284l-38 80h187v600h-52l-53 -202h-134l106 401h134l-31 -119h284v-80h-119zM371 631v-680h-135v680h-13l-53 -202h-134l106 401h134l-31 -119h249v-80h-123z" />
    <glyph glyph-name="uni7C73" unicode="&#x7c73;" 
d="M781 521h-150l158 270h150zM814 -31l-188 382h149l188 -382h-149zM572 396v-444h-135v444h-372v80h372v354h135v-354h372v-80h-372zM228 521l-158 270h150l158 -270h-150zM195 -31h-149l188 382h149z" />
    <glyph glyph-name="uni7C73" unicode="&#x2f76;" 
d="M781 521h-150l158 270h150zM814 -31l-188 382h149l188 -382h-149zM572 396v-444h-135v444h-372v80h372v354h135v-354h372v-80h-372zM228 521l-158 270h150l158 -270h-150zM195 -31h-149l188 382h149z" />
    <glyph glyph-name="uni7CF8" unicode="&#x7cf8;" 
d="M813 298l-45 70l-44 -70h-151v-345h-243l-38 80h146v265h-371v80h125l238 156h-347v80l327 216h214l-327 -216h255l161 106h215l-521 -342h355l-80 124h152l131 -204h-152zM801 -37l-176 293h155l176 -293h-155zM210 -37h-155l176 293h155z" />
    <glyph glyph-name="uni7CF8" unicode="&#x2f77;" 
d="M813 298l-45 70l-44 -70h-151v-345h-243l-38 80h146v265h-371v80h125l238 156h-347v80l327 216h214l-327 -216h255l161 106h215l-521 -342h355l-80 124h152l131 -204h-152zM801 -37l-176 293h155l176 -293h-155zM210 -37h-155l176 293h155z" />
    <glyph glyph-name="uni7F36" unicode="&#x7f36;" 
d="M573 359v-326h200v264h135v-344h-805v344h135v-264h200v326h-383v80h383v210h-170l-73 -151h-151l160 332h151l-49 -101h597v-80h-330v-210h382v-80h-382z" />
    <glyph glyph-name="uni7F36" unicode="&#x2f78;" 
d="M573 359v-326h200v264h135v-344h-805v344h135v-264h200v326h-383v80h383v210h-170l-73 -151h-151l160 332h151l-49 -101h597v-80h-330v-210h382v-80h-382z" />
    <glyph glyph-name="uni7F51" unicode="&#x7f51;" 
d="M616 -48l-38 80h219v708h-587v-788h-128v868h843v-868h-309zM674 84l-42 131l-42 -131h-110l9 29h-80l-35 108l-44 -137h-110l98 308l-96 293h110l40 -123l39 123h182l40 -126l41 126h110l-96 -298l96 -303h-110zM502 625l-74 -233l76 -233l74 228z" />
    <glyph glyph-name="uni7F51" unicode="&#x2f79;" 
d="M616 -48l-38 80h219v708h-587v-788h-128v868h843v-868h-309zM674 84l-42 131l-42 -131h-110l9 29h-80l-35 108l-44 -137h-110l98 308l-96 293h110l40 -123l39 123h182l40 -126l41 126h110l-96 -298l96 -303h-110zM502 625l-74 -233l76 -233l74 228z" />
    <glyph glyph-name="uni7F8A" unicode="&#x7f8a;" 
d="M573 162v-208h-135v208h-381v80h381v140h-332v80h332v136h-359v80h188l-93 153h163l93 -153h153l93 153h163l-93 -153h180v-80h-353v-136h327v-80h-327v-140h377v-80h-377z" />
    <glyph glyph-name="uni7F8A" unicode="&#x2f7a;" 
d="M573 162v-208h-135v208h-381v80h381v140h-332v80h332v136h-359v80h188l-93 153h163l93 -153h153l93 153h163l-93 -153h180v-80h-353v-136h327v-80h-327v-140h377v-80h-377z" />
    <glyph glyph-name="uni7FBD" unicode="&#x7fbd;" 
d="M615 435l-105 261h142l105 -261h-142zM614 -48l-38 80h218v707h-278v80h408v-867h-310zM633 62h-143l129 338h143zM171 435l-105 261h142l105 -261h-142zM184 -48l-38 80h202v707h-285v80h415v-867h-294zM189 62h-143l129 338h143z" />
    <glyph glyph-name="uni7FBD" unicode="&#x2f7b;" 
d="M615 435l-105 261h142l105 -261h-142zM614 -48l-38 80h218v707h-278v80h408v-867h-310zM633 62h-143l129 338h143zM171 435l-105 261h142l105 -261h-142zM184 -48l-38 80h202v707h-285v80h415v-867h-294zM189 62h-143l129 338h143z" />
    <glyph glyph-name="uni8001" unicode="&#x8001;" 
d="M716 497h237v-80h-542l-109 -127v-36h423l56 126h156l-92 -206h-543v-141h615l-39 -80h-711v237h-117l195 227h-185v80h310v139h-283v80h283v114h135v-114h172v-69l121 141h167zM505 636v-139h44l119 139h-163z" />
    <glyph glyph-name="uni8001" unicode="&#x2f7c;" 
d="M716 497h237v-80h-542l-109 -127v-36h423l56 126h156l-92 -206h-543v-141h615l-39 -80h-711v237h-117l195 227h-185v80h310v139h-283v80h283v114h135v-114h172v-69l121 141h167zM505 636v-139h44l119 139h-163z" />
    <glyph glyph-name="uni800C" unicode="&#x800c;" 
d="M588 739l-44 -140h378v-646h-176l-38 80h79v486h-100v-545h-130v545h-100v-545h-130v545h-100v-566h-135v646h307l44 140h-387v80h899v-80h-367z" />
    <glyph glyph-name="uni800C" unicode="&#x2f7d;" 
d="M588 739l-44 -140h378v-646h-176l-38 80h79v486h-100v-545h-130v545h-100v-545h-130v545h-100v-566h-135v646h307l44 140h-387v80h899v-80h-367z" />
    <glyph glyph-name="uni8012" unicode="&#x8012;" 
d="M813 -28l-198 316h157l198 -316h-157zM575 332v-379h-135v379h-375v80h375v86h-343v80h343v85h-369v80h369v87h135v-87h357v-80h-357v-85h333v-80h-333v-86h369v-80h-369zM202 -28h-157l198 316h157z" />
    <glyph glyph-name="uni8012" unicode="&#x2f7e;" 
d="M813 -28l-198 316h157l198 -316h-157zM575 332v-379h-135v379h-375v80h375v86h-343v80h343v85h-369v80h369v87h135v-87h357v-80h-357v-85h333v-80h-333v-86h369v-80h-369zM202 -28h-157l198 316h157z" />
    <glyph glyph-name="uni8033" unicode="&#x8033;" 
d="M843 106v-153h-135v142l-643 -48v80l101 8v605h-100v80h872v-80h-95v-554l112 8v-80zM708 740h-407v-134h407v134zM708 526h-407v-137h407v137zM708 309h-407v-164l407 30v134z" />
    <glyph glyph-name="uni8033" unicode="&#x2f7f;" 
d="M843 106v-153h-135v142l-643 -48v80l101 8v605h-100v80h872v-80h-95v-554l112 8v-80zM708 740h-407v-134h407v134zM708 526h-407v-137h407v137zM708 309h-407v-164l407 30v134z" />
    <glyph glyph-name="uni807F" unicode="&#x807f;" 
d="M567 74v-121h-135v121h-367v80h367v72h-335v80h335v67h-326v80h326v75h-363v80h363v69h-326v80h326v73h135v-73h316v-149h67v-80h-67v-155h-316v-67h339v-80h-339v-72h385v-80h-385zM748 677h-181v-69h181v69zM748 528h-181v-75h181v75z" />
    <glyph glyph-name="uni807F" unicode="&#x2f80;" 
d="M567 74v-121h-135v121h-367v80h367v72h-335v80h335v67h-326v80h326v75h-363v80h363v69h-326v80h326v73h135v-73h316v-149h67v-80h-67v-155h-316v-67h339v-80h-339v-72h385v-80h-385zM748 677h-181v-69h181v69zM748 528h-181v-75h181v75z" />
    <glyph glyph-name="uni8089" unicode="&#x8089;" 
d="M588 -47l-38 80h240v605h-267l-17 -31h143l124 -233h-151l-120 224l-121 -224h-153l142 264h-152v-685h-132v765h327l60 112h153l-60 -112h356v-765h-334zM622 65l-116 219l-122 -219h-153l192 346h153l-50 -90h111l136 -256h-151z" />
    <glyph glyph-name="uni8089" unicode="&#x2f81;" 
d="M588 -47l-38 80h240v605h-267l-17 -31h143l124 -233h-151l-120 224l-121 -224h-153l142 264h-152v-685h-132v765h327l60 112h153l-60 -112h356v-765h-334zM622 65l-116 219l-122 -219h-153l192 346h153l-50 -90h111l136 -256h-151z" />
    <glyph glyph-name="uni81E3" unicode="&#x81e3;" 
d="M912 -47h-823v867h852v-80h-307v-178h264v-338h-264v-191h317zM499 740h-275v-178h275v178zM763 482h-539v-178h539v178zM499 224h-275v-191h275v191z" />
    <glyph glyph-name="uni81E3" unicode="&#x2f82;" 
d="M912 -47h-823v867h852v-80h-307v-178h264v-338h-264v-191h317zM499 740h-275v-178h275v178zM763 482h-539v-178h539v178zM499 224h-275v-191h275v191z" />
    <glyph glyph-name="uni81EA" unicode="&#x81ea;" 
d="M97 -47v768h285l37 109h162l-37 -109h367v-768h-814zM776 641h-544v-145h544v145zM776 416h-544v-145h544v145zM776 191h-544v-158h544v158z" />
    <glyph glyph-name="uni81EA" unicode="&#x2f83;" 
d="M97 -47v768h285l37 109h162l-37 -109h367v-768h-814zM776 641h-544v-145h544v145zM776 416h-544v-145h544v145zM776 191h-544v-158h544v158z" />
    <glyph glyph-name="uni81F3" unicode="&#x81f3;" 
d="M793 413l-55 69l-46 -71h-118v-121h341v-81h-341v-178h377v-80h-891v80h376v178h-342v81h342v121h-342v80l217 247h-243v80h871v-80h-462l-216 -247h470l-158 199h159l221 -277h-160z" />
    <glyph glyph-name="uni81F3" unicode="&#x2f84;" 
d="M793 413l-55 69l-46 -71h-118v-121h341v-81h-341v-178h377v-80h-891v80h376v178h-342v81h342v121h-342v80l217 247h-243v80h871v-80h-462l-216 -247h470l-158 199h159l221 -277h-160z" />
    <glyph glyph-name="uni81FC" unicode="&#x81fc;" 
d="M89 -49v828h257l19 55h151l-47 -135h-245v-287h248v-80h-248v-301h560v301h-248v80h248v287h-244v80h379v-828h-830z" />
    <glyph glyph-name="uni81FC" unicode="&#x2f85;" 
d="M89 -49v828h257l19 55h151l-47 -135h-245v-287h248v-80h-248v-301h560v301h-248v80h248v287h-244v80h379v-828h-830z" />
    <glyph glyph-name="uni820C" unicode="&#x820c;" 
d="M572 493v-137h318v-405h-771v405h318v137h-380v80h380v136h-347v80h675l22 47h152l-60 -127h-307v-136h380v-80h-380zM755 276h-501v-245h501v245z" />
    <glyph glyph-name="uni820C" unicode="&#x2f86;" 
d="M572 493v-137h318v-405h-771v405h318v137h-380v80h380v136h-347v80h675l22 47h152l-60 -127h-307v-136h380v-80h-380zM755 276h-501v-245h501v245z" />
    <glyph glyph-name="uni821B" unicode="&#x821b;" 
d="M847 174v-221h-130v221h-219v80l39 315h137l-39 -315h82v376h-220v80h220v121h130v-121h98v-80h-98v-376h106v-80h-106zM217 -47h-171l162 202l-132 248h144l75 -139l35 44v322h-89l-55 -188h-140l113 389h140l-35 -121h196v-453z" />
    <glyph glyph-name="uni821B" unicode="&#x2f87;" 
d="M847 174v-221h-130v221h-219v80l39 315h137l-39 -315h82v376h-220v80h220v121h130v-121h98v-80h-98v-376h106v-80h-106zM217 -47h-171l162 202l-132 248h144l75 -139l35 44v322h-89l-55 -188h-140l113 389h140l-35 -121h196v-453z" />
    <glyph glyph-name="uni821F" unicode="&#x821f;" 
d="M886 337v-384h-351l-38 80h254v304h-493v-248l-57 -136h-151l73 175v209h-66v80h66v326h256l35 87h149l-35 -87h358v-326h67v-80h-67zM531 81l-222 220h172l222 -220h-172zM751 663h-493v-246h493v246zM504 450l-186 185h172l186 -185h-172z" />
    <glyph glyph-name="uni821F" unicode="&#x2f88;" 
d="M886 337v-384h-351l-38 80h254v304h-493v-248l-57 -136h-151l73 175v209h-66v80h66v326h256l35 87h149l-35 -87h358v-326h67v-80h-67zM531 81l-222 220h172l222 -220h-172zM751 663h-493v-246h493v246zM504 450l-186 185h172l186 -185h-172z" />
    <glyph glyph-name="uni826E" unicode="&#x826e;" 
d="M233 366v-333h340l-39 -80h-436v868h801v-455h-666zM763 -47l-489 375h196l170 -130l138 130h173l-216 -203l224 -172h-196zM764 741h-531v-107h531v107zM764 554h-531v-108h531v108z" />
    <glyph glyph-name="uni826E" unicode="&#x2f89;" 
d="M233 366v-333h340l-39 -80h-436v868h801v-455h-666zM763 -47l-489 375h196l170 -130l138 130h173l-216 -203l224 -172h-196zM764 741h-531v-107h531v107zM764 554h-531v-108h531v108z" />
    <glyph glyph-name="uni8272" unicode="&#x8272;" 
d="M917 -47h-803v541h-74l250 336h168l-50 -67h397v-80l-89 -139h185v-347h-652v-164h707zM349 683l-104 -139h310l89 139h-295zM766 464h-191v-187h191v187zM440 464h-191v-187h191v187z" />
    <glyph glyph-name="uni8272" unicode="&#x2f8a;" 
d="M917 -47h-803v541h-74l250 336h168l-50 -67h397v-80l-89 -139h185v-347h-652v-164h707zM349 683l-104 -139h310l89 139h-295zM766 464h-191v-187h191v187zM440 464h-191v-187h191v187z" />
    <glyph glyph-name="uni8278" unicode="&#x8278;" 
 />
    <glyph glyph-name="uni8278" unicode="&#x2f8b;" 
 />
    <glyph glyph-name="uni864D" unicode="&#x864d;" 
d="M802 372v121h-564v-425l-53 -115h-143l61 135v485h330v257h135v-83h359v-80h-359v-94h369v-201h-135zM915 -47h-475v234l-163 -21v80l163 21v183h135v-166l315 41v-80l-315 -41v-171h379z" />
    <glyph glyph-name="uni864D" unicode="&#x2f8c;" 
d="M802 372v121h-564v-425l-53 -115h-143l61 135v485h330v257h135v-83h359v-80h-359v-94h369v-201h-135zM915 -47h-475v234l-163 -21v80l163 21v183h135v-166l315 41v-80l-315 -41v-171h379z" />
    <glyph glyph-name="uni866B" unicode="&#x866b;" 
d="M822 -48l-27 51l-729 -61v80l368 31v201h-335v430h335v147h135v-147h335v-430h-335v-190l186 15l-76 144h143l143 -271h-143zM769 604h-200v-270h200v270zM434 604h-200v-270h200v270z" />
    <glyph glyph-name="uni866B" unicode="&#x2f8d;" 
d="M822 -48l-27 51l-729 -61v80l368 31v201h-335v430h335v147h135v-147h335v-430h-335v-190l186 15l-76 144h143l143 -271h-143zM769 604h-200v-270h200v270zM434 604h-200v-270h200v270z" />
    <glyph glyph-name="uni8840" unicode="&#x8840;" 
d="M54 -48v80h54v659h271l43 140h157l-43 -140h363v-659h56v-80h-901zM764 611h-87v-579h87v579zM547 611h-87v-579h87v579zM330 611h-87v-579h87v579z" />
    <glyph glyph-name="uni8840" unicode="&#x2f8e;" 
d="M54 -48v80h54v659h271l43 140h157l-43 -140h363v-659h56v-80h-901zM764 611h-87v-579h87v579zM547 611h-87v-579h87v579zM330 611h-87v-579h87v579z" />
    <glyph glyph-name="uni884C" unicode="&#x884c;" 
d="M396 734v80h526v-80h-526zM193 595h-150l170 235h150zM795 450v-498h-359l-38 80h262v418h-310v80h595v-80h-150zM224 399h44v-447h-135v404h-90l197 271h150z" />
    <glyph glyph-name="uni884C" unicode="&#x2f8f;" 
d="M396 734v80h526v-80h-526zM193 595h-150l170 235h150zM795 450v-498h-359l-38 80h262v418h-310v80h595v-80h-150zM224 399h44v-447h-135v404h-90l197 271h150z" />
    <glyph glyph-name="uni8863" unicode="&#x8863;" 
d="M818 -48l-384 570l-179 -176h49v-314h347l-39 -80h-443v356h-125l332 326h-315v80h390l-35 117h141l35 -117h355v-80h-399l-79 -78h89l135 -200l115 211h139l-177 -326l195 -289h-147z" />
    <glyph glyph-name="uni8863" unicode="&#x2f90;" 
d="M818 -48l-384 570l-179 -176h49v-314h347l-39 -80h-443v356h-125l332 326h-315v80h390l-35 117h141l35 -117h355v-80h-399l-79 -78h89l135 -200l115 211h139l-177 -326l195 -289h-147z" />
    <glyph glyph-name="uni897E" unicode="&#x897e;" 
 />
    <glyph glyph-name="uni897E" unicode="&#x2f91;" 
 />
    <glyph glyph-name="uni898B" unicode="&#x898b;" 
 />
    <glyph glyph-name="uni898B" unicode="&#x2f92;" 
 />
    <glyph glyph-name="uni89D2" unicode="&#x89d2;" 
d="M643 -48l-38 80h177v119h-195v-153h-137v153h-195v-107l-58 -92h-148l70 111v481h-75l213 288h174l-34 -46h391v-80l-81 -113h211v-641h-275zM782 513h-195v-101h195v101zM338 706l-83 -113h287l82 113h-286zM782 332h-195v-101h195v101zM450 513h-195v-101h195v101z
M450 332h-195v-101h195v101z" />
    <glyph glyph-name="uni89D2" unicode="&#x2f93;" 
d="M643 -48l-38 80h177v119h-195v-153h-137v153h-195v-107l-58 -92h-148l70 111v481h-75l213 288h174l-34 -46h391v-80l-81 -113h211v-641h-275zM782 513h-195v-101h195v101zM338 706l-83 -113h287l82 113h-286zM782 332h-195v-101h195v101zM450 513h-195v-101h195v101z
M450 332h-195v-101h195v101z" />
    <glyph glyph-name="uni8A00" unicode="&#x8a00;" 
d="M55 667v79h380l-21 86h146l22 -86h370v-79h-897zM104 510v80h796v-80h-796zM104 352v81h796v-81h-796zM121 -49v324h762v-324h-762zM748 194h-490v-164h490v164z" />
    <glyph glyph-name="uni8A00" unicode="&#x2f94;" 
d="M55 667v79h380l-21 86h146l22 -86h370v-79h-897zM104 510v80h796v-80h-796zM104 352v81h796v-81h-796zM121 -49v324h762v-324h-762zM748 194h-490v-164h490v164z" />
    <glyph glyph-name="uni8C37" unicode="&#x8c37;" 
d="M787 601l-235 230h174l234 -230h-173zM221 601h-173l234 230h174zM867 294v-342h-724v342h-100l308 303h309l307 -303h-100zM562 517h-114l-195 -192h504zM731 245h-451v-214h451v214z" />
    <glyph glyph-name="uni8C37" unicode="&#x2f95;" 
d="M787 601l-235 230h174l234 -230h-173zM221 601h-173l234 230h174zM867 294v-342h-724v342h-100l308 303h309l307 -303h-100zM562 517h-114l-195 -192h504zM731 245h-451v-214h451v214z" />
    <glyph glyph-name="uni8C46" unicode="&#x8c46;" 
d="M74 738v80h862v-80h-862zM122 281v371h766v-371h-766zM56 -47v80h222l-120 207h161l119 -207h134l119 207h161l-120 -207h222v-80h-898zM753 572h-496v-211h496v211z" />
    <glyph glyph-name="uni8C46" unicode="&#x2f96;" 
d="M74 738v80h862v-80h-862zM122 281v371h766v-371h-766zM56 -47v80h222l-120 207h161l119 -207h134l119 207h161l-120 -207h222v-80h-898zM753 572h-496v-211h496v211z" />
    <glyph glyph-name="uni8C55" unicode="&#x8c55;" 
d="M808 381h-148l141 280h146zM818 -27l-158 360h148l158 -360h-148zM505 740l-119 -107h245v-681h-235l-53 81h153v520h-200l-55 -49h-193l260 236h-249v81h895v-81h-449zM250 274h-190l226 203h194zM224 -22h-183l252 274h184z" />
    <glyph glyph-name="uni8C55" unicode="&#x2f97;" 
d="M808 381h-148l141 280h146zM818 -27l-158 360h148l158 -360h-148zM505 740l-119 -107h245v-681h-235l-53 81h153v520h-200l-55 -49h-193l260 236h-249v81h895v-81h-449zM250 274h-190l226 203h194zM224 -22h-183l252 274h184z" />
    <glyph glyph-name="uni8C78" unicode="&#x8c78;" 
d="M573 525h205v-572h-329l-37 79h231v413h-224l-68 -35h-221l166 87l-93 93h155l43 -38l112 58l-63 62l-122 -59h-231l450 217h232l-256 -123h51l48 -39l20 10h227zM364 233h-192l230 163h192zM293 -5h-192l320 226h192z" />
    <glyph glyph-name="uni8C78" unicode="&#x2f98;" 
d="M573 525h205v-572h-329l-37 79h231v413h-224l-68 -35h-221l166 87l-93 93h155l43 -38l112 58l-63 62l-122 -59h-231l450 217h232l-256 -123h51l48 -39l20 10h227zM364 233h-192l230 163h192zM293 -5h-192l320 226h192z" />
    <glyph glyph-name="uni8C9D" unicode="&#x8c9d;" 
 />
    <glyph glyph-name="uni8C9D" unicode="&#x2f99;" 
 />
    <glyph glyph-name="uni8D64" unicode="&#x8d64;" 
d="M824 44l-110 359h140l109 -359h-139zM666 449v-497h-198l-38 80h111v417h-85v-349l-150 -147h-162l185 186v310h-271v81h378v131h-329v80h329v90h135v-90h329v-80h-329v-131h378v-81h-283zM188 44h-137l93 359h138z" />
    <glyph glyph-name="uni8D64" unicode="&#x2f9a;" 
d="M824 44l-110 359h140l109 -359h-139zM666 449v-497h-198l-38 80h111v417h-85v-349l-150 -147h-162l185 186v310h-271v81h378v131h-329v80h329v90h135v-90h329v-80h-329v-131h378v-81h-283zM188 44h-137l93 359h138z" />
    <glyph glyph-name="uni8D70" unicode="&#x8d70;" 
d="M918 -49h-467l-203 129l-55 -129h-142l171 403h142l-81 -192l159 -100v355h-386v80h386v143h-348v80h348v112h135v-112h330v-80h-330v-143h373v-80h-373v-121h343v-79h-343v-186h384z" />
    <glyph glyph-name="uni8D70" unicode="&#x2f9b;" 
d="M918 -49h-467l-203 129l-55 -129h-142l171 403h142l-81 -192l159 -100v355h-386v80h386v143h-348v80h348v112h135v-112h330v-80h-330v-143h373v-80h-373v-121h343v-79h-343v-186h384z" />
    <glyph glyph-name="uni8DB3" unicode="&#x8db3;" 
d="M924 -47h-478l-203 129l-48 -129h-143l165 440h143l-85 -226l174 -111v394h-336v369h775v-369h-302v-137h342v-80h-342v-200h367zM752 739h-504v-209h504v209z" />
    <glyph glyph-name="uni8DB3" unicode="&#x2f9c;" 
d="M924 -47h-478l-203 129l-48 -129h-143l165 440h143l-85 -226l174 -111v394h-336v369h775v-369h-302v-137h342v-80h-342v-200h367zM752 739h-504v-209h504v209z" />
    <glyph glyph-name="uni8EAB" unicode="&#x8eab;" 
d="M431 -48l-37 80h369v189h-232l-293 -269h-201l295 269h-273v80h61v459h219l36 72h154l-33 -72h402v-808h-467zM763 680h-508v-73h508v73zM763 527h-508v-73h508v73zM763 374h-508v-73h508v73z" />
    <glyph glyph-name="uni8EAB" unicode="&#x2f9d;" 
d="M431 -48l-37 80h369v189h-232l-293 -269h-201l295 269h-273v80h61v459h219l36 72h154l-33 -72h402v-808h-467zM763 680h-508v-73h508v73zM763 527h-508v-73h508v73zM763 374h-508v-73h508v73z" />
    <glyph glyph-name="uni8ECA" unicode="&#x8eca;" 
 />
    <glyph glyph-name="uni8ECA" unicode="&#x2f9e;" 
 />
    <glyph glyph-name="uni8F9B" unicode="&#x8f9b;" 
d="M80 652v81h349l-38 98h152l35 -98h349v-81h-847zM572 352v-138h336v-80h-336v-183h-137v183h-336v80h336v138h-378v80h243l-117 188h156l118 -188h94l118 188h157l-116 -188h240v-80h-378z" />
    <glyph glyph-name="uni8F9B" unicode="&#x2f9f;" 
d="M80 652v81h349l-38 98h152l35 -98h349v-81h-847zM572 352v-138h336v-80h-336v-183h-137v183h-336v80h336v138h-378v80h243l-117 188h156l118 -188h94l118 188h157l-116 -188h240v-80h-378z" />
    <glyph glyph-name="uni8FB0" unicode="&#x8fb0;" 
d="M300 562v80h607v-80h-607zM456 379v-347h203l-39 -80h-300v427h-79v-296l-61 -131h-144l68 147v722h836v-80h-699v-282h708v-80h-493zM795 -48l-316 385h170l76 -93l63 93h156l-128 -203l149 -182h-170z" />
    <glyph glyph-name="uni8FB0" unicode="&#x2fa0;" 
d="M300 562v80h607v-80h-607zM456 379v-347h203l-39 -80h-300v427h-79v-296l-61 -131h-144l68 147v722h836v-80h-699v-282h708v-80h-493zM795 -48l-316 385h170l76 -93l63 93h156l-128 -203l149 -182h-170z" />
    <glyph glyph-name="uni8FB5" unicode="&#x8fb5;" 
 />
    <glyph glyph-name="uni8FB5" unicode="&#x2fa1;" 
 />
    <glyph glyph-name="uni9091" unicode="&#x9091;" 
d="M131 544v277h746v-277h-746zM924 -47h-831v533h823v-321h-688v-132h734zM741 741h-474v-117h474v117zM781 406h-209v-161h209v161zM437 406h-209v-161h209v161z" />
    <glyph glyph-name="uni9091" unicode="&#x2fa2;" 
d="M131 544v277h746v-277h-746zM924 -47h-831v533h823v-321h-688v-132h734zM741 741h-474v-117h474v117zM781 406h-209v-161h209v161zM437 406h-209v-161h209v161z" />
    <glyph glyph-name="uni9149" unicode="&#x9149;" 
d="M681 740v-113h220v-675h-791v675h220v113h-271v81h890v-81h-268zM551 740h-91v-113h91v113zM771 547h-90v-196h90v196zM771 347l-35 -77h-185v277h-91v-171l-73 -106h-143l86 122v155h-90v-333h531v133zM771 134h-531v-102h531v102z" />
    <glyph glyph-name="uni9149" unicode="&#x2fa3;" 
d="M681 740v-113h220v-675h-791v675h220v113h-271v81h890v-81h-268zM551 740h-91v-113h91v113zM771 547h-90v-196h90v196zM771 347l-35 -77h-185v277h-91v-171l-73 -106h-143l86 122v155h-90v-333h531v133zM771 134h-531v-102h531v102z" />
    <glyph glyph-name="uni91C6" unicode="&#x91c6;" 
 />
    <glyph glyph-name="uni91C6" unicode="&#x2fa4;" 
 />
    <glyph glyph-name="uni91CC" unicode="&#x91cc;" 
d="M52 -47v80h385v115h-343v80h343v96h-325v496h788v-496h-327v-96h344v-80h-344v-115h385v-80h-906zM763 740h-190v-128h190v128zM763 532h-190v-128h190v128zM437 740h-190v-128h190v128zM437 532h-190v-128h190v128z" />
    <glyph glyph-name="uni91CC" unicode="&#x2fa5;" 
d="M52 -47v80h385v115h-343v80h343v96h-325v496h788v-496h-327v-96h344v-80h-344v-115h385v-80h-906zM763 740h-190v-128h190v128zM763 532h-190v-128h190v128zM437 740h-190v-128h190v128zM437 532h-190v-128h190v128z" />
    <glyph glyph-name="uni91D1" unicode="&#x91d1;" 
d="M788 76h-151l113 202h151zM808 463l-37 68h-198v-130h345v-80h-345v-288h371v-80h-879v80h373v288h-346v80h346v130h-201l-36 -68h-150l191 356h525l191 -356h-150zM228 76l-113 202h151l113 -202h-151zM657 744h-306l-71 -133h448z" />
    <glyph glyph-name="uni91D1" unicode="&#x2fa6;" 
d="M788 76h-151l113 202h151zM808 463l-37 68h-198v-130h345v-80h-345v-288h371v-80h-879v80h373v288h-346v80h346v130h-201l-36 -68h-150l191 356h525l191 -356h-150zM228 76l-113 202h151l113 -202h-151zM657 744h-306l-71 -133h448z" />
    <glyph glyph-name="uni9577" unicode="&#x9577;" 
 />
    <glyph glyph-name="uni9577" unicode="&#x2fa7;" 
 />
    <glyph glyph-name="uni9580" unicode="&#x9580;" 
 />
    <glyph glyph-name="uni9580" unicode="&#x2fa8;" 
 />
    <glyph glyph-name="uni961C" unicode="&#x961c;" 
d="M573 96v-146h-137v146h-380v80h380v68h-324v531h265l30 58h153l-27 -58h337v-232h-623v-64h650v-235h-324v-68h380v-80h-380zM735 695h-488v-72h488v72zM762 399h-515v-75h515v75z" />
    <glyph glyph-name="uni961C" unicode="&#x2fa9;" 
d="M573 96v-146h-137v146h-380v80h380v68h-324v531h265l30 58h153l-27 -58h337v-232h-623v-64h650v-235h-324v-68h380v-80h-380zM735 695h-488v-72h488v72zM762 399h-515v-75h515v75z" />
    <glyph glyph-name="uni96B6" unicode="&#x96b6;" 
d="M794 201h-171l135 127h171zM881 511v-150h-308v-408h-225l-41 81h131v327h-331v79h331v76h-384v80h384v74h-333v80h333v80h135v-80h308v-154h70v-85h-70zM793 -47l-161 211h161l168 -211h-168zM216 201l-135 127h171l135 -127h-171zM217 -47h-168l168 211h161zM746 670
h-173v-74h173v74zM746 516h-173v-76h173v76z" />
    <glyph glyph-name="uni96B6" unicode="&#x2faa;" 
d="M794 201h-171l135 127h171zM881 511v-150h-308v-408h-225l-41 81h131v327h-331v79h331v76h-384v80h384v74h-333v80h333v80h135v-80h308v-154h70v-85h-70zM793 -47l-161 211h161l168 -211h-168zM216 201l-135 127h171l135 -127h-171zM217 -47h-168l168 211h161zM746 670
h-173v-74h173v74zM746 516h-173v-76h173v76z" />
    <glyph glyph-name="uni96B9" unicode="&#x96b9;" 
d="M134 -47v513h-87l152 364h157l-55 -146h207l-50 146h144l53 -146h284v-80h-295v-136h271v-80h-271v-137h274v-80h-274v-138h297v-80h-807zM509 604h-240v-136h240v136zM509 388h-240v-137h240v137zM509 171h-240v-138h240v138z" />
    <glyph glyph-name="uni96B9" unicode="&#x2fab;" 
d="M134 -47v513h-87l152 364h157l-55 -146h207l-50 146h144l53 -146h284v-80h-295v-136h271v-80h-271v-137h274v-80h-274v-138h297v-80h-807zM509 604h-240v-136h240v136zM509 388h-240v-137h240v137zM509 171h-240v-138h240v138z" />
    <glyph glyph-name="uni96E8" unicode="&#x96e8;" 
d="M637 317l-29 198h121l29 -198h-121zM573 739v-97h353v-691h-237l-46 93h148v518h-218v-611h-135v611h-216v-611h-135v691h351v97h-370v80h875v-80h-370zM638 71l-28 203h123l29 -203h-124zM281 317l-29 198h121l29 -198h-121zM282 69l-28 205h123l29 -205h-124z" />
    <glyph glyph-name="uni96E8" unicode="&#x2fac;" 
d="M637 317l-29 198h121l29 -198h-121zM573 739v-97h353v-691h-237l-46 93h148v518h-218v-611h-135v611h-216v-611h-135v691h351v97h-370v80h875v-80h-370zM638 71l-28 203h123l29 -203h-124zM281 317l-29 198h121l29 -198h-121zM282 69l-28 205h123l29 -205h-124z" />
    <glyph glyph-name="uni9751" unicode="&#x9751;" 
 />
    <glyph glyph-name="uni9751" unicode="&#x2fad;" 
 />
    <glyph glyph-name="uni975E" unicode="&#x975e;" 
d="M695 131v-178h-135v877h135v-128h242v-80h-242v-164h221v-80h-221v-167h245v-80h-245zM312 -47v178h-245v80h245v167h-221v80h221v164h-242v80h242v128h135v-877h-135z" />
    <glyph glyph-name="uni975E" unicode="&#x2fae;" 
d="M695 131v-178h-135v877h135v-128h242v-80h-242v-164h221v-80h-221v-167h245v-80h-245zM312 -47v178h-245v80h245v167h-221v80h221v164h-242v80h242v128h135v-877h-135z" />
    <glyph glyph-name="uni9762" unicode="&#x9762;" 
d="M576 739l-33 -115h367v-671h-812v671h308l33 115h-376v80h882v-80h-369zM780 544h-94v-511h94v511zM556 544h-104v-117h104v117zM556 347h-104v-117h104v117zM556 150h-104v-117h104v117zM322 544h-94v-511h94v511z" />
    <glyph glyph-name="uni9762" unicode="&#x2faf;" 
d="M576 739l-33 -115h367v-671h-812v671h308l33 115h-376v80h882v-80h-369zM780 544h-94v-511h94v511zM556 544h-104v-117h104v117zM556 347h-104v-117h104v117zM556 150h-104v-117h104v117zM322 544h-94v-511h94v511z" />
    <glyph glyph-name="uni9769" unicode="&#x9769;" 
d="M573 63v-111h-135v111h-374v80h374v62h-325v258h325v62h-201v154h-169v80h169v71h135v-71h267v71h135v-71h169v-80h-169v-154h-201v-62h325v-258h-325v-62h372v-80h-372zM639 679h-267v-74h267v74zM763 383h-190v-98h190v98zM438 383h-190v-98h190v98z" />
    <glyph glyph-name="uni9769" unicode="&#x2fb0;" 
d="M573 63v-111h-135v111h-374v80h374v62h-325v258h325v62h-201v154h-169v80h169v71h135v-71h267v71h135v-71h169v-80h-169v-154h-201v-62h325v-258h-325v-62h372v-80h-372zM639 679h-267v-74h267v74zM763 383h-190v-98h190v98zM438 383h-190v-98h190v98z" />
    <glyph glyph-name="uni97CB" unicode="&#x97cb;" 
 />
    <glyph glyph-name="uni97CB" unicode="&#x2fb1;" 
 />
    <glyph glyph-name="uni97ED" unicode="&#x97ed;" 
d="M68 -47v80h253v142h-242v80h242v141h-223v80h223v141h-244v80h244v134h135v-798h97v798h135v-134h241v-80h-241v-141h221v-80h-221v-141h243v-80h-243v-142h253v-80h-873z" />
    <glyph glyph-name="uni97ED" unicode="&#x2fb2;" 
d="M68 -47v80h253v142h-242v80h242v141h-223v80h223v141h-244v80h244v134h135v-798h97v798h135v-134h241v-80h-241v-141h221v-80h-221v-141h243v-80h-243v-142h253v-80h-873z" />
    <glyph glyph-name="uni97F3" unicode="&#x97f3;" 
d="M93 660v80h353l-25 90h140l25 -90h334v-80h-827zM70 416v80h197l-66 131h150l66 -131h181l66 131h146l-66 -131h197v-80h-871zM124 -46v402h767v-402h-767zM756 276h-497v-81h497v81zM756 115h-497v-81h497v81z" />
    <glyph glyph-name="uni97F3" unicode="&#x2fb3;" 
d="M93 660v80h353l-25 90h140l25 -90h334v-80h-827zM70 416v80h197l-66 131h150l66 -131h181l66 131h146l-66 -131h197v-80h-871zM124 -46v402h767v-402h-767zM756 276h-497v-81h497v81zM756 115h-497v-81h497v81z" />
    <glyph glyph-name="uni9801" unicode="&#x9801;" 
 />
    <glyph glyph-name="uni9801" unicode="&#x2fb4;" 
 />
    <glyph glyph-name="uni98A8" unicode="&#x98a8;" 
 />
    <glyph glyph-name="uni98A8" unicode="&#x2fb5;" 
 />
    <glyph glyph-name="uni98DB" unicode="&#x98db;" 
 />
    <glyph glyph-name="uni98DB" unicode="&#x2fb6;" 
 />
    <glyph glyph-name="uni98DF" unicode="&#x98df;" 
d="M888 495v-275h-633v-189h295l-38 -78h-392v542h-97l208 324h539l208 -324h-90zM742 -47l-387 225h232l121 -70l79 73h168l-141 -135l161 -93h-233zM654 741h-307l-99 -150h194l-23 110h138l23 -110h173zM753 513h-498v-68h498v68zM753 367h-498v-69h498v69z" />
    <glyph glyph-name="uni98DF" unicode="&#x2fb7;" 
d="M888 495v-275h-633v-189h295l-38 -78h-392v542h-97l208 324h539l208 -324h-90zM742 -47l-387 225h232l121 -70l79 73h168l-141 -135l161 -93h-233zM654 741h-307l-99 -150h194l-23 110h138l23 -110h173zM753 513h-498v-68h498v68zM753 367h-498v-69h498v69z" />
    <glyph glyph-name="uni9996" unicode="&#x9996;" 
d="M584 644l-31 -91h337v-601h-770v601h292l32 91h-384v80h183l-61 106h149l61 -106h223l61 106h149l-61 -106h183v-80h-363zM755 473h-500v-93h500v93zM755 300h-500v-94h500v94zM755 126h-500v-94h500v94z" />
    <glyph glyph-name="uni9996" unicode="&#x2fb8;" 
d="M584 644l-31 -91h337v-601h-770v601h292l32 91h-384v80h183l-61 106h149l61 -106h223l61 106h149l-61 -106h183v-80h-363zM755 473h-500v-93h500v93zM755 300h-500v-94h500v94zM755 126h-500v-94h500v94z" />
    <glyph glyph-name="uni9999" unicode="&#x9999;" 
d="M572 569v-208h-135v208h-368v78h368v63h-345v78h692l14 42h141l-41 -120h-326v-63h367v-78h-367zM889 312v-359h-769v359h-70l151 223h155l-133 -197h565l-135 197h155l153 -223h-72zM754 260h-499v-75h499v75zM754 107h-499v-76h499v76z" />
    <glyph glyph-name="uni9999" unicode="&#x2fb9;" 
d="M572 569v-208h-135v208h-368v78h368v63h-345v78h692l14 42h141l-41 -120h-326v-63h367v-78h-367zM889 312v-359h-769v359h-70l151 223h155l-133 -197h565l-135 197h155l153 -223h-72zM754 260h-499v-75h499v75zM754 107h-499v-76h499v76z" />
    <glyph glyph-name="uni99AC" unicode="&#x99ac;" 
 />
    <glyph glyph-name="uni99AC" unicode="&#x2fba;" 
 />
    <glyph glyph-name="uni9AA8" unicode="&#x9aa8;" 
d="M876 399v-446h-317l-36 76h220v63h-480v-139h-133v446h-65v153h64v267h750v-267h64v-153h-67zM746 744h-484v-56h327v-136h157v192zM810 476h-612v-54h612v54zM456 617h-194v-65h194v65zM743 349h-480v-53h480v53zM743 221h-480v-54h480v54z" />
    <glyph glyph-name="uni9AA8" unicode="&#x2fbb;" 
d="M876 399v-446h-317l-36 76h220v63h-480v-139h-133v446h-65v153h64v267h750v-267h64v-153h-67zM746 744h-484v-56h327v-136h157v192zM810 476h-612v-54h612v54zM456 617h-194v-65h194v65zM743 349h-480v-53h480v53zM743 221h-480v-54h480v54z" />
    <glyph glyph-name="uni9AD8" unicode="&#x9ad8;" 
d="M69 685v77h367l-35 68h153l36 -68h346v-77h-867zM151 409v224h701v-224h-701zM681 -48l-33 57h-338v225h390v-206h77v253h-545v-329h-133v406h811v-406h-229zM717 555h-431v-68h431v68zM570 158h-130v-73h130v73z" />
    <glyph glyph-name="uni9AD8" unicode="&#x2fbc;" 
d="M69 685v77h367l-35 68h153l36 -68h346v-77h-867zM151 409v224h701v-224h-701zM681 -48l-33 57h-338v225h390v-206h77v253h-545v-329h-133v406h811v-406h-229zM717 555h-431v-68h431v68zM570 158h-130v-73h130v73z" />
    <glyph glyph-name="uni9ADF" unicode="&#x9adf;" 
d="M725 564h-168l218 267h168zM706 -47h-168l27 34h-130l-11 28l-32 -62h-321v79l97 219h-104v80h49v487h437v-80h-300v-82h283v-80h-283v-83h283v-80h-283v-82h302v-54l214 266h169l-221 -273h-162v-19h-243l-97 -218h206l-66 174h143l79 -209l210 263h169z" />
    <glyph glyph-name="uni9ADF" unicode="&#x2fbd;" 
d="M725 564h-168l218 267h168zM706 -47h-168l27 34h-130l-11 28l-32 -62h-321v79l97 219h-104v80h49v487h437v-80h-300v-82h283v-80h-283v-83h283v-80h-283v-82h302v-54l214 266h169l-221 -273h-162v-19h-243l-97 -218h206l-66 174h143l79 -209l210 263h169z" />
    <glyph glyph-name="uni9B25" unicode="&#x9b25;" 
 />
    <glyph glyph-name="uni9B25" unicode="&#x2fbe;" 
 />
    <glyph glyph-name="uni9B2F" unicode="&#x9b2f;" 
d="M79 326v476h135v-114h101l87 -77l29 26l-225 200h149l151 -135l80 71h-112l-72 64h117l70 -62l70 62h152l-170 -149h66l83 -74v190h135v-478h-846zM910 -48h-825v345h135v-101h516l41 90h147l-78 -170h-626v-84h729zM790 568h-79l-103 91l-28 -24l205 -183h-147l-132 118
l-87 -76h117l87 -88h167v162zM407 484l-36 -32h-150l133 117h-46l-94 84v-247h269z" />
    <glyph glyph-name="uni9B2F" unicode="&#x2fbf;" 
d="M79 326v476h135v-114h101l87 -77l29 26l-225 200h149l151 -135l80 71h-112l-72 64h117l70 -62l70 62h152l-170 -149h66l83 -74v190h135v-478h-846zM910 -48h-825v345h135v-101h516l41 90h147l-78 -170h-626v-84h729zM790 568h-79l-103 91l-28 -24l205 -183h-147l-132 118
l-87 -76h117l87 -88h167v162zM407 484l-36 -32h-150l133 117h-46l-94 84v-247h269z" />
    <glyph glyph-name="uni9B32" unicode="&#x9b32;" 
d="M63 739v80h884v-80h-884zM144 454v236h719v-236h-719zM672 -50l-35 76h141v299h-548v-375h-132v454h812v-454h-238zM574 105v-152h-135v152h-174v79h79l-55 106h134l55 -106h56l59 106h132l-59 -106h75v-79h-167zM728 612h-449v-80h449v80z" />
    <glyph glyph-name="uni9B32" unicode="&#x2fc0;" 
d="M63 739v80h884v-80h-884zM144 454v236h719v-236h-719zM672 -50l-35 76h141v299h-548v-375h-132v454h812v-454h-238zM574 105v-152h-135v152h-174v79h79l-55 106h134l55 -106h56l59 106h132l-59 -106h75v-79h-167zM728 612h-449v-80h449v80z" />
    <glyph glyph-name="uni9B3C" unicode="&#x9b3c;" 
d="M848 77l-17 62l-31 -61h-168v74l57 120h114l-58 -120h82l-22 78h100l43 -153h-100zM919 -49h-447v262l-261 -262h-165l355 356h-290v446h260l44 77h149l-44 -77h379v-446h-333l-47 -47h85v-228h356zM768 674h-198v-105h198v105zM768 491h-198v-106h198v106zM440 674h-197
v-105h197v105zM440 491h-197v-106h197v106z" />
    <glyph glyph-name="uni9B3C" unicode="&#x2fc1;" 
d="M848 77l-17 62l-31 -61h-168v74l57 120h114l-58 -120h82l-22 78h100l43 -153h-100zM919 -49h-447v262l-261 -262h-165l355 356h-290v446h260l44 77h149l-44 -77h379v-446h-333l-47 -47h85v-228h356zM768 674h-198v-105h198v105zM768 491h-198v-106h198v106zM440 674h-197
v-105h197v105zM440 491h-197v-106h197v106z" />
    <glyph glyph-name="uni9B5A" unicode="&#x9b5a;" 
 />
    <glyph glyph-name="uni9B5A" unicode="&#x2fc2;" 
 />
    <glyph glyph-name="uni9CE5" unicode="&#x9ce5;" 
 />
    <glyph glyph-name="uni9CE5" unicode="&#x2fc3;" 
 />
    <glyph glyph-name="uni9E75" unicode="&#x9e75;" 
 />
    <glyph glyph-name="uni9E75" unicode="&#x2fc4;" 
 />
    <glyph glyph-name="uni9E7F" unicode="&#x9e7f;" 
d="M922 -48h-327v363h125v-86h84l17 60h120l-33 -140h-188v-117h242zM682 680v-80h227v-257h-681v-257l-48 -134h-139l55 150v658h355l-24 70h147l25 -70h338v-80h-255zM535 -48h-250v363h125v-86h154v-80h-154v-117h163zM784 520h-102v-97h102v97zM557 680h-102v-80h102v80
zM557 520h-102v-97h102v97zM330 680h-102v-80h102v80zM330 520h-102v-97h102v97z" />
    <glyph glyph-name="uni9E7F" unicode="&#x2fc5;" 
d="M922 -48h-327v363h125v-86h84l17 60h120l-33 -140h-188v-117h242zM682 680v-80h227v-257h-681v-257l-48 -134h-139l55 150v658h355l-24 70h147l25 -70h338v-80h-255zM535 -48h-250v363h125v-86h154v-80h-154v-117h163zM784 520h-102v-97h102v97zM557 680h-102v-80h102v80
zM557 520h-102v-97h102v97zM330 680h-102v-80h102v80zM330 520h-102v-97h102v97z" />
    <glyph glyph-name="uni9EA5" unicode="&#x9ea5;" 
 />
    <glyph glyph-name="uni9EA5" unicode="&#x2fc6;" 
 />
    <glyph glyph-name="uni9EBB" unicode="&#x9ebb;" 
d="M877 -1l-20 436h75l20 -436h-75zM836 483v-530h-118v530h-114v80h114v94h118v-94h106v-80h-106zM217 680v-597l-38 -130h-133l43 154v653h373l-29 70h146l29 -70h342v-80h-733zM679 -1h-75l20 436h75zM514 -1l-20 436h75l20 -436h-75zM474 483v-530h-118v530h-117v80h117
v94h118v-94h107v-80h-107zM316 -1h-75l20 436h75z" />
    <glyph glyph-name="uni9EBB" unicode="&#x2fc7;" 
d="M877 -1l-20 436h75l20 -436h-75zM836 483v-530h-118v530h-114v80h114v94h118v-94h106v-80h-106zM217 680v-597l-38 -130h-133l43 154v653h373l-29 70h146l29 -70h342v-80h-733zM679 -1h-75l20 436h75zM514 -1l-20 436h75l20 -436h-75zM474 483v-530h-118v530h-117v80h117
v94h118v-94h107v-80h-107zM316 -1h-75l20 436h75z" />
    <glyph glyph-name="uni9EC3" unicode="&#x9ec3;" 
 />
    <glyph glyph-name="uni9EC3" unicode="&#x2fc8;" 
 />
    <glyph glyph-name="uni9ECD" unicode="&#x9ecd;" 
d="M791 400l-147 153h161l148 -153h-162zM569 584v-162h-135v162h-365v78h365v57h-332v78h661l19 33h156l-63 -111h-306v-57h372v-78h-372zM781 -36l-147 141h167l150 -141h-170zM824 201l-45 -65h-152l80 111h37l-73 76h-333l-75 -76h39l80 -111h-152l-45 65h-141l198 197
h526l195 -197h-139zM216 400h-161l147 153h160zM366 -47l-37 79h109v259h137v-338h-209zM231 -36h-170l150 141h167z" />
    <glyph glyph-name="uni9ECD" unicode="&#x2fc9;" 
d="M791 400l-147 153h161l148 -153h-162zM569 584v-162h-135v162h-365v78h365v57h-332v78h661l19 33h156l-63 -111h-306v-57h372v-78h-372zM781 -36l-147 141h167l150 -141h-170zM824 201l-45 -65h-152l80 111h37l-73 76h-333l-75 -76h39l80 -111h-152l-45 65h-141l198 197
h526l195 -197h-139zM216 400h-161l147 153h160zM366 -47l-37 79h109v259h137v-338h-209zM231 -36h-170l150 141h167z" />
    <glyph glyph-name="uni9ED1" unicode="&#x9ed1;" 
d="M69 167v79h368v58h-337v79h337v58h-333v378h802v-378h-334v-58h335v-79h-335v-58h369v-79h-872zM815 -47l-74 182h143l73 -182h-142zM587 -47l-74 182h143l73 -182h-142zM359 -47l-74 182h143l73 -182h-142zM190 -47h-140l72 182h141zM772 741h-200v-222h200v222z
M437 741h-199v-222h199v222zM707 555h-101l30 149h101zM301 555l-30 149h101l30 -149h-101z" />
    <glyph glyph-name="uni9ED1" unicode="&#x2fca;" 
d="M69 167v79h368v58h-337v79h337v58h-333v378h802v-378h-334v-58h335v-79h-335v-58h369v-79h-872zM815 -47l-74 182h143l73 -182h-142zM587 -47l-74 182h143l73 -182h-142zM359 -47l-74 182h143l73 -182h-142zM190 -47h-140l72 182h141zM772 741h-200v-222h200v222z
M437 741h-199v-222h199v222zM707 555h-101l30 149h101zM301 555l-30 149h101l30 -149h-101z" />
    <glyph glyph-name="uni9EF9" unicode="&#x9ef9;" 
d="M859 668h-137l72 135h136zM148 668l-71 135h136l72 -135h-137zM572 556v-128h114l78 103h136l-77 -103h73v-475h-223l-37 80h127v315h-191v-395h-134v395h-191v-395h-132v475h69l-77 103h136l78 -103h117v128h-373v80h254v194h132v-194h105v194h132v-194h254v-80h-370z
M638 79l-34 219h104l34 -219h-104zM374 66h-104l39 232h104z" />
    <glyph glyph-name="uni9EF9" unicode="&#x2fcb;" 
d="M859 668h-137l72 135h136zM148 668l-71 135h136l72 -135h-137zM572 556v-128h114l78 103h136l-77 -103h73v-475h-223l-37 80h127v315h-191v-395h-134v395h-191v-395h-132v475h69l-77 103h136l78 -103h117v128h-373v80h254v194h132v-194h105v194h132v-194h254v-80h-370z
M638 79l-34 219h104l34 -219h-104zM374 66h-104l39 232h104z" />
    <glyph glyph-name="uni9EFD" unicode="&#x9efd;" 
 />
    <glyph glyph-name="uni9EFD" unicode="&#x2fcc;" 
 />
    <glyph glyph-name="uni9F0E" unicode="&#x9f0e;" 
d="M282 375v448h448v-448h-448zM801 -48v157h-125v-157h-125v380h241v444h125v-521h-241v-69h250v-234h-125zM336 -48v157h-89v-79l-52 -78h-133l60 91v66h-55v77h269v69h-241v521h125v-444h241v-380h-125zM605 748h-198v-51h198v51zM605 625h-198v-51h198v51zM605 502h-198
v-51h198v51z" />
    <glyph glyph-name="uni9F0E" unicode="&#x2fcd;" 
d="M282 375v448h448v-448h-448zM801 -48v157h-125v-157h-125v380h241v444h125v-521h-241v-69h250v-234h-125zM336 -48v157h-89v-79l-52 -78h-133l60 91v66h-55v77h269v69h-241v521h125v-444h241v-380h-125zM605 748h-198v-51h198v51zM605 625h-198v-51h198v51zM605 502h-198
v-51h198v51z" />
    <glyph glyph-name="uni9F13" unicode="&#x9f13;" 
d="M807 -47l-90 133l-91 -133h-147l165 240l-115 171h147l43 -63l71 104h-259v80h141v140h-150v80h150v125h130v-125h153v-80h-153v-140h133v-80l-144 -211l164 -241h-148zM362 680v-81h139v-80h-408v80h139v81h-172v80h172v70h130v-70h148v-80h-148zM94 232v237h402v-237
h-402zM63 -41v80l229 30l62 135h139l-53 -116l80 10v-80zM141 88l-51 116h139l52 -116h-140zM366 390h-142v-78h142v78z" />
    <glyph glyph-name="uni9F13" unicode="&#x2fce;" 
d="M807 -47l-90 133l-91 -133h-147l165 240l-115 171h147l43 -63l71 104h-259v80h141v140h-150v80h150v125h130v-125h153v-80h-153v-140h133v-80l-144 -211l164 -241h-148zM362 680v-81h139v-80h-408v80h139v81h-172v80h172v70h130v-70h148v-80h-148zM94 232v237h402v-237
h-402zM63 -41v80l229 30l62 135h139l-53 -116l80 10v-80zM141 88l-51 116h139l52 -116h-140zM366 390h-142v-78h142v78z" />
    <glyph glyph-name="uni9F20" unicode="&#x9f20;" 
d="M94 427v375h276l15 28h119l-40 -103h-235v-75h238v-74h-238v-76h543v76h-236v74h236v75h-236v75h371v-375h-813zM920 -48h-135l-45 442h125l38 -367h53zM631 232l-60 145h112l60 -145h-112zM631 58l-60 145h112l60 -145h-112zM687 -48h-258v442h120v-367h174zM287 232
l-60 145h112l60 -145h-112zM287 58l-60 145h112l60 -145h-112zM350 -48h-269v442h120v-367h185z" />
    <glyph glyph-name="uni9F20" unicode="&#x2fcf;" 
d="M94 427v375h276l15 28h119l-40 -103h-235v-75h238v-74h-238v-76h543v76h-236v74h236v75h-236v75h371v-375h-813zM920 -48h-135l-45 442h125l38 -367h53zM631 232l-60 145h112l60 -145h-112zM631 58l-60 145h112l60 -145h-112zM687 -48h-258v442h120v-367h174zM287 232
l-60 145h112l60 -145h-112zM287 58l-60 145h112l60 -145h-112zM350 -48h-269v442h120v-367h185z" />
    <glyph glyph-name="uni9F3B" unicode="&#x9f3b;" 
d="M135 484v309h267l18 37h149l-19 -37h322v-309h-737zM97 199v254h813v-254h-813zM771 105v-152h-135v152h-249v-94l-104 -58h-219l188 107v45h-192v63h887v-63h-176zM737 730h-467v-30h467v30zM737 654h-467v-30h467v30zM737 578h-467v-31h467v31zM775 390h-204v-37h204
v37zM775 299h-204v-37h204v37zM436 390h-204v-37h204v37zM436 299h-204v-37h204v37z" />
    <glyph glyph-name="uni9F3B" unicode="&#x2fd0;" 
d="M135 484v309h267l18 37h149l-19 -37h322v-309h-737zM97 199v254h813v-254h-813zM771 105v-152h-135v152h-249v-94l-104 -58h-219l188 107v45h-192v63h887v-63h-176zM737 730h-467v-30h467v30zM737 654h-467v-30h467v30zM737 578h-467v-31h467v31zM775 390h-204v-37h204
v37zM775 299h-204v-37h204v37zM436 390h-204v-37h204v37zM436 299h-204v-37h204v37z" />
    <glyph glyph-name="uni9F4A" unicode="&#x9f4a;" 
 />
    <glyph glyph-name="uni9F4A" unicode="&#x2fd1;" 
 />
    <glyph glyph-name="uni9F52" unicode="&#x9f52;" 
 />
    <glyph glyph-name="uni9F52" unicode="&#x2fd2;" 
 />
    <glyph glyph-name="uni9F8D" unicode="&#x9f8d;" 
 />
    <glyph glyph-name="uni9F8D" unicode="&#x2fd3;" 
 />
    <glyph glyph-name="uni9F9C" unicode="&#x9f9c;" 
 />
    <glyph glyph-name="uni9F9C" unicode="&#x2fd4;" 
 />
    <glyph glyph-name="uni9FA0" unicode="&#x9fa0;" 
d="M666 346v218h245v-218h-245zM803 587l-132 157h-334l-131 -157h-158l194 232h525l194 -232h-158zM302 606v75h408v-75h-408zM383 346v218h245v-218h-245zM100 346v218h245v-218h-245zM738 -47l-35 74h83v57h-104v-128h-124v128h-104v-128h-124v128h-104v-131h-126v356
h812v-356h-174zM813 491h-49v-72h49v72zM530 491h-49v-72h49v72zM786 233h-104v-74h104v74zM558 233h-104v-74h104v74zM247 491h-49v-72h49v72zM330 233h-104v-74h104v74z" />
    <glyph glyph-name="uni9FA0" unicode="&#x2fd5;" 
d="M666 346v218h245v-218h-245zM803 587l-132 157h-334l-131 -157h-158l194 232h525l194 -232h-158zM302 606v75h408v-75h-408zM383 346v218h245v-218h-245zM100 346v218h245v-218h-245zM738 -47l-35 74h83v57h-104v-128h-124v128h-104v-128h-124v128h-104v-131h-126v356
h812v-356h-174zM813 491h-49v-72h49v72zM530 491h-49v-72h49v72zM786 233h-104v-74h104v74zM558 233h-104v-74h104v74zM247 491h-49v-72h49v72zM330 233h-104v-74h104v74z" />
    <glyph glyph-name="uniE7E8" unicode="&#xe7e8;" 
 />
    <glyph glyph-name="uniE7E8" unicode="&#x2ff0;" 
 />
    <glyph glyph-name="uniE7E9" unicode="&#xe7e9;" 
 />
    <glyph glyph-name="uniE7E9" unicode="&#x2ff1;" 
 />
    <glyph glyph-name="uniE7EA" unicode="&#xe7ea;" 
 />
    <glyph glyph-name="uniE7EA" unicode="&#x2ff2;" 
 />
    <glyph glyph-name="uniE7EB" unicode="&#xe7eb;" 
 />
    <glyph glyph-name="uniE7EB" unicode="&#x2ff3;" 
 />
    <glyph glyph-name="uniE7EC" unicode="&#xe7ec;" 
 />
    <glyph glyph-name="uniE7EC" unicode="&#x2ff4;" 
 />
    <glyph glyph-name="uniE7ED" unicode="&#xe7ed;" 
 />
    <glyph glyph-name="uniE7ED" unicode="&#x2ff5;" 
 />
    <glyph glyph-name="uniE7EE" unicode="&#xe7ee;" 
 />
    <glyph glyph-name="uniE7EE" unicode="&#x2ff6;" 
 />
    <glyph glyph-name="uniE7EF" unicode="&#xe7ef;" 
 />
    <glyph glyph-name="uniE7EF" unicode="&#x2ff7;" 
 />
    <glyph glyph-name="uniE7F0" unicode="&#xe7f0;" 
 />
    <glyph glyph-name="uniE7F0" unicode="&#x2ff8;" 
 />
    <glyph glyph-name="uniE7F1" unicode="&#xe7f1;" 
 />
    <glyph glyph-name="uniE7F1" unicode="&#x2ff9;" 
 />
    <glyph glyph-name="uniE7F2" unicode="&#xe7f2;" 
 />
    <glyph glyph-name="uniE7F2" unicode="&#x2ffa;" 
 />
    <glyph glyph-name="uniE7F3" unicode="&#xe7f3;" 
 />
    <glyph glyph-name="uniE7F3" unicode="&#x2ffb;" 
 />
    <glyph glyph-name="uni3000" unicode="&#x3000;" 
 />
    <glyph glyph-name="uni3001" unicode="&#x3001;" 
d="M220 -16l-143 220h168l143 -220h-168z" />
    <glyph glyph-name="uni3002" unicode="&#x3002;" 
d="M374 116q0 -31 -11.5 -58t-31.5 -47t-47 -31.5t-58 -11.5t-58 11.5t-47 31.5t-31.5 47t-11.5 58t11.5 58t31.5 47t47 31.5t58 11.5t58 -11.5t47 -31.5t31.5 -47t11.5 -58zM305 117q0 33 -23 56t-56 23t-56 -23t-23 -56t23 -56t56 -23t56 23t23 56z" />
    <glyph glyph-name="uni3003" unicode="&#x3003;" 
d="M531 191l-52 20l124 333l103 -46zM351 211l-52 18l112 337l105 -42z" />
    <glyph glyph-name="uni3005" unicode="&#x3005;" 
d="M572 186l208 -148h-184l-383 273h184l77 -55l183 256h-258l-111 -159h-146l256 365h145l-89 -128h347v-78z" />
    <glyph glyph-name="uni3006" unicode="&#x3006;" 
 />
    <glyph glyph-name="uni3007" unicode="&#x3007;" 
d="M956 356q-5 -73 -30.5 -141t-71.5 -122q-82 -95 -194 -135q-119 -44 -254 -18q-69 13 -132.5 51.5t-112.5 94.5q-38 43 -64.5 92t-37.5 102q-18 85 -8 166t48 153q43 80 113 141q54 46 122.5 71.5t142.5 29.5q61 4 120.5 -8t111.5 -40q35 -18 67.5 -44t60.5 -56.5
t50.5 -65t36.5 -69.5q20 -48 27.5 -99t4.5 -103zM898 357q4 53 -5.5 105t-32.5 98q-25 51 -67.5 97t-91.5 75q-48 29 -104.5 41t-116.5 10q-58 -2 -112 -20.5t-97 -50.5q-78 -59 -121 -142q-29 -57 -40 -121t0 -133q8 -48 30 -94t56 -86q41 -49 93 -85t110 -50
q66 -17 130 -12t124 29q90 36 159 116q38 45 59.5 103t26.5 120z" />
    <glyph glyph-name="uni3008" unicode="&#x3008;" 
d="M761 -65l-277 455l277 453h165l-277 -453l277 -455h-165z" />
    <glyph glyph-name="uni3009" unicode="&#x3009;" 
d="M241 -65h-165l277 455l-277 453h165l277 -453z" />
    <glyph glyph-name="uni300A" unicode="&#x300a;" 
d="M837 -65l-267 455l267 453h99l-267 -453l267 -455h-99zM680 -65l-267 455l267 453h99l-267 -453l267 -455h-99z" />
    <glyph glyph-name="uni300B" unicode="&#x300b;" 
d="M495 -65h-99l267 455l-267 453h99l267 -453zM338 -65h-99l267 455l-267 453h99l267 -453z" />
    <glyph glyph-name="uni300C" unicode="&#x300c;" 
d="M712 703v-767h-142v907h361v-140h-219z" />
    <glyph glyph-name="uni300D" unicode="&#x300d;" 
d="M69 -64v140h219v767h142v-907h-361z" />
    <glyph glyph-name="uni300E" unicode="&#x300e;" 
d="M743 620v-685h-236v909h418v-224h-182zM845 770h-258v-761h76v685h182v76z" />
    <glyph glyph-name="uni300F" unicode="&#x300f;" 
d="M75 -65v224h182v685h236v-909h-418zM413 770h-76v-685h-182v-76h258v761z" />
    <glyph glyph-name="uni3010" unicode="&#x3010;" 
d="M599 -65v908h267q-34 -49 -59.5 -106.5t-42 -117t-24.5 -118.5t-8 -112t8 -112t24.5 -118.5t42 -117t59.5 -106.5h-267z" />
    <glyph glyph-name="uni3011" unicode="&#x3011;" 
d="M134 -65q34 49 59.5 106.5t42 117t24.5 118.5t8 112t-8 112t-24.5 118.5t-42 117t-59.5 106.5h267v-908h-267z" />
    <glyph glyph-name="uni3012" unicode="&#x3012;" 
 />
    <glyph glyph-name="uni3013" unicode="&#x3013;" 
d="M150 453v221h701v-221h-701zM150 100v221h701v-221h-701z" />
    <glyph glyph-name="uni3014" unicode="&#x3014;" 
d="M809 -89l-244 191v574l244 191l97 -115l-195 -150v-426l195 -150z" />
    <glyph glyph-name="uni3015" unicode="&#x3015;" 
d="M190 -89l-97 115l195 150v426l-195 150l97 115l244 -191v-574z" />
    <glyph glyph-name="uni3016" unicode="&#x3016;" 
d="M531 -64v454v453h335q-30 -47 -54.5 -101.5t-42 -113t-27 -119t-9.5 -119.5t9.5 -120t27 -119.5t42 -113t54.5 -101.5h-335zM744 10q-16 30 -31.5 76.5t-28 99t-20 106.5t-7.5 98t7.5 98t20 106.5t28 98.5t31.5 76h-134v-379v-380h134v0z" />
    <glyph glyph-name="uni3017" unicode="&#x3017;" 
d="M133 -64q30 47 54.5 101.5t42 113t27 119.5t9.5 120t-9.5 119.5t-27 119t-42 113t-54.5 101.5h335v-453v-454h-335zM389 390v379h-134q16 -30 31.5 -76t28 -98.5t20 -106.5t7.5 -98t-7.5 -98t-20 -106.5t-28 -99t-31.5 -76.5h134v380z" />
    <glyph glyph-name="uni301D" unicode="&#x301d;" 
 />
    <glyph glyph-name="uni301E" unicode="&#x301e;" 
 />
    <glyph glyph-name="uni3021" unicode="&#x3021;" 
 />
    <glyph glyph-name="uni3022" unicode="&#x3022;" 
 />
    <glyph glyph-name="uni3023" unicode="&#x3023;" 
 />
    <glyph glyph-name="uni3024" unicode="&#x3024;" 
 />
    <glyph glyph-name="uni3025" unicode="&#x3025;" 
 />
    <glyph glyph-name="uni3026" unicode="&#x3026;" 
 />
    <glyph glyph-name="uni3027" unicode="&#x3027;" 
 />
    <glyph glyph-name="uni3028" unicode="&#x3028;" 
 />
    <glyph glyph-name="uni3029" unicode="&#x3029;" 
 />
    <glyph glyph-name="uni3033" unicode="&#x3033;" 
 />
    <glyph glyph-name="uni3034" unicode="&#x3034;" 
 />
    <glyph glyph-name="uni3035" unicode="&#x3035;" 
 />
    <glyph glyph-name="uni3038" unicode="&#x3038;" 
 />
    <glyph glyph-name="uni3039" unicode="&#x3039;" 
 />
    <glyph glyph-name="uni303A" unicode="&#x303a;" 
 />
    <glyph glyph-name="uniE7E7" unicode="&#xe7e7;" 
 />
    <glyph glyph-name="uniE7E7" unicode="&#x303e;" 
 />
    <glyph glyph-name="uni303F" unicode="&#x303f;" 
 />
    <glyph glyph-name="uni3041" unicode="&#x3041;" 
d="M462 503l6 -56q48 6 95 4t89 -12q53 -12 92 -37t63 -60q29 -44 33 -99.5t-21 -118.5q-17 -42 -42.5 -80.5t-54.5 -70.5h-148q19 18 39 39t38 45.5t33 53t24 60.5q24 89 -8 139q-43 -65 -91.5 -121t-101.5 -101l12 -115h-115l-5 43q-45 -21 -86 -22t-74 13
q-42 18 -68 55.5t-31 85.5q-5 42 10 88.5t55 89.5q30 32 68.5 55.5t82.5 39.5l-8 77l-195 -7v78l186 7l-9 85h115l9 -81l366 14v-78zM627 361q-33 10 -75.5 11t-75.5 -3l19 -174q33 34 66.5 75.5t65.5 90.5zM365 340q-33 -15 -61 -38.5t-48 -57.5q-23 -39 -20.5 -79
t24.5 -63q20 -21 53.5 -23t76.5 27z" />
    <glyph glyph-name="uni3042" unicode="&#x3042;" 
d="M889 188q-8 -28 -21.5 -57t-30.5 -57t-36 -54t-38 -48h-175q60 53 106 123.5t67 148.5q11 44 6 82.5t-25 67.5q-49 -79 -110.5 -152t-128.5 -130l13 -140h-134l-6 57q-37 -16 -76 -22.5t-76 -1.5q-51 8 -91.5 40t-58.5 97q-17 63 -3.5 118t47.5 102q38 53 95.5 91
t118.5 61l-10 100l-234 -11v81l227 11l-11 113h134l10 -106l440 21v-81l-432 -21l7 -75q57 8 113 5t108 -15q127 -29 182 -111q64 -94 23 -237zM674 447q-22 9 -48 14t-53 6.5t-53.5 0.5t-49.5 -4l23 -249q47 47 93 105.5t88 126.5zM340 428q-38 -19 -73.5 -47.5
t-59.5 -64.5q-20 -29 -30 -61t-8 -67t19 -60t46 -36q26 -10 61.5 -6t73.5 27z" />
    <glyph glyph-name="uni3043" unicode="&#x3043;" 
d="M731 173l-186 409h132l186 -409h-132zM461 -25h-135q-45 66 -71.5 143.5t-40 164.5t-16.5 182t-1 195h118q-1 -91 2 -175t13 -158.5t29.5 -139t50.5 -116.5l76 172h96z" />
    <glyph glyph-name="uni3044" unicode="&#x3044;" 
d="M778 225l-225 485h155l225 -485h-155zM441 -27h-155q-55 87 -86 187t-46.5 206t-18.5 215.5t-2 217.5h138q-5 -221 21 -402t92 -307l88 207h115z" />
    <glyph glyph-name="uni3045" unicode="&#x3045;" 
d="M510 496l-270 159h202l271 -159h-203zM822 344q16 -43 2 -94t-64 -104q-49 -52 -116 -96t-133 -79h-272q71 27 131 55.5t111.5 59.5t96 65.5t84.5 71.5q26 24 35 49.5t3 47.5q-7 25 -31.5 41.5t-66.5 18.5q-48 2 -103 -2t-113 -11t-116 -16.5t-112 -19.5v78
q50 11 109 20.5t121 16t122.5 10t112.5 1.5q78 -3 130 -34t69 -79z" />
    <glyph glyph-name="uni3046" unicode="&#x3046;" 
d="M525 611l-366 193h240l366 -193h-240zM882 418q18 -51 0.5 -113t-77.5 -125q-30 -31 -70.5 -62.5t-85.5 -59.5t-90 -51t-83 -39h-288q83 29 155 60.5t135.5 67.5t121 78t109.5 93q38 36 48.5 71t-0.5 64q-14 35 -62 51.5t-115 18.5q-123 2 -243.5 -14t-245.5 -42v81
q127 27 249.5 43.5t249.5 12.5q52 -1 99.5 -9t86 -24t66.5 -41t40 -61z" />
    <glyph glyph-name="uni3047" unicode="&#x3047;" 
d="M275 580v78l458 -32v-79zM841 -27h-178q-23 0 -42 6.5t-33 20.5q-25 25 -25 67v79q0 14 -8.5 23t-23.5 8q-14 -1 -29 -3t-33 -9l-171 -193h-159l372 420l-331 -16v79l646 31v-79l-149 -7l-129 -145q17 5 34 7t33 0q28 -2 47 -19t19 -59v-89q0 -20 10 -31.5t36 -11.5h153z
" />
    <glyph glyph-name="uni3048" unicode="&#x3048;" 
d="M225 715v81l552 -35v-81zM922 -27h-238q-52 0 -79 23q-31 26 -31 78v107q0 17 -9.5 29.5t-28.5 12.5q-39 0 -83 -17l-210 -235h-185l466 514l-415 -19v81l782 36v-81l-181 -8l-160 -180q23 7 45.5 10t42.5 1q32 -4 53 -25.5t21 -72.5v-130q0 -25 12.5 -34t30.5 -9h206z
" />
    <glyph glyph-name="uni3049" unicode="&#x3049;" 
d="M735 425l-155 205h136l156 -205h-137zM845 174q-2 -35 -15 -68t-37 -60t-56.5 -44t-73.5 -22q-33 -4 -68.5 -3.5t-71.5 3.5v114q23 -4 52.5 -6t53.5 0q31 3 52.5 17.5t33.5 34.5q12 21 14 45.5t-6 48.5q-8 26 -28 47t-52 32q-40 14 -86 17t-92 -4v-213q0 -70 -40 -105
q-21 -19 -50.5 -26.5t-58.5 -5.5q-26 2 -53 11t-47 25q-39 32 -52 81q-13 50 1 100q11 39 35.5 73.5t57.5 60.5q43 34 92 54v110l-191 -10v78l191 10v89h115v-83l135 7v-79l-135 -6v-87q26 3 54 4.5t56 -0.5q55 -2 107 -19.5t91 -50.5q38 -32 56 -77t16 -93zM350 289
q-32 -17 -56.5 -40.5t-41.5 -55.5q-15 -29 -13.5 -61t22.5 -55q14 -14 31 -20t31 -1q11 4 19 14.5t8 29.5v189z" />
    <glyph glyph-name="uni304A" unicode="&#x304a;" 
d="M781 521l-194 245h158l194 -245h-158zM912 222q-1 -48 -17 -89t-44 -73q-29 -33 -69 -54t-89 -26q-40 -5 -82 -4.5t-86 4.5v128q28 -5 61 -7.5t62 0.5q37 4 63 18t43 36q23 30 26 69t-15 74q-14 29 -42 51.5t-70 35.5q-46 14 -98.5 14t-102.5 -8v-255q0 -81 -47 -125
q-25 -23 -59 -32t-69 -7q-32 2 -62.5 12.5t-53.5 29.5q-47 40 -61 97q-15 62 3 126q14 49 42.5 87t65.5 68q25 20 52 35.5t56 27.5v142l-230 -12v81l230 12v122h133v-116l168 9v-81l-168 -9v-112q35 5 69 7t66 0q66 -3 129.5 -24t111.5 -62q39 -34 62 -81t22 -109zM319 349
q-38 -20 -70 -49.5t-52 -67.5q-19 -35 -18.5 -74t26.5 -69q16 -17 37.5 -24.5t40.5 -2.5q15 5 25.5 18t10.5 37v232z" />
    <glyph glyph-name="uni304B" unicode="&#x304b;" 
d="M820 314l-195 417h136l195 -417h-136zM668 447q0 -38 -1 -83t-3.5 -90.5t-7 -90t-10.5 -80.5q-5 -32 -16 -56t-29 -41q-37 -34 -105 -34h-144l-39 81h150q19 0 31.5 9t15.5 29q15 90 22 183.5t5 184.5q-1 30 -12.5 50t-31.5 31q-19 11 -42 14t-48 1l-212 -579h-135
l205 562q-42 -7 -83 -15t-79 -17v81q51 14 99.5 24t95.5 17l64 175h135l-59 -162q44 1 89 -7t80 -35q31 -23 47.5 -60.5t17.5 -91.5z" />
    <glyph glyph-name="uni304C" unicode="&#x304c;" 
d="M907 638l-73 143h84l73 -143h-84zM791 638l-73 143h84l73 -143h-84zM787 314l-215 417h136l215 -417h-136zM651 446q1 -86 -3 -172t-18 -171q-5 -32 -16 -56t-29 -41q-37 -34 -105 -34h-128l-38 81h133q19 0 31.5 9t15.5 29q15 90 21.5 184.5t4.5 185.5q-1 29 -12 48.5
t-30 30.5q-17 11 -39.5 15t-45.5 2l-202 -581h-135l195 563q-77 -14 -152 -33v81q46 13 92 23t91 17l61 176h135l-56 -162q49 1 90 -8.5t72 -32.5t48.5 -61t18.5 -93z" />
    <glyph glyph-name="uni304D" unicode="&#x304d;" 
d="M669 486l160 -214l-158 -46q-38 19 -80.5 31.5t-85 17t-82.5 1t-73 -15.5q-30 -11 -44 -33t-12 -45t20 -42.5t52 -24.5q56 -8 120.5 -10t132.5 2.5t138 14t137 23.5v-134q-53 -10 -121 -17.5t-140.5 -10.5t-144.5 -1t-132 10q-54 8 -93 29.5t-62 52.5q-30 39 -35 86
t16 90q20 42 65.5 74t116.5 42q30 4 62.5 4t65 -3.5t63 -10t57.5 -16.5l-95 130l-424 -47v81l369 40l-58 80l-290 -31v81l235 25l-75 103h159l65 -87l391 42v-81l-335 -36l59 -79l301 33v-81z" />
    <glyph glyph-name="uni304E" unicode="&#x304e;" 
d="M897 676l-66 119h87l66 -119h-87zM777 676l-66 119h87l66 -119h-87zM669 486l160 -214l-158 -46q-38 19 -80.5 31.5t-85 17t-82.5 1t-73 -15.5q-30 -11 -44 -33t-12 -45t20 -42.5t52 -24.5q56 -8 120.5 -10t132.5 2.5t138 14t137 23.5v-134q-53 -10 -121 -17.5
t-140.5 -10.5t-144.5 -1t-132 10q-54 8 -93 29.5t-62 52.5q-30 39 -35 86t16 90q20 42 65.5 74t116.5 42q30 4 62.5 4t65 -3.5t63 -10t57.5 -16.5l-95 130l-424 -47v81l369 40l-58 80l-290 -31v81l235 25l-75 103h159l65 -87l220 24v-81l-164 -18l59 -79l301 33v-81z" />
    <glyph glyph-name="uni304F" unicode="&#x304f;" 
d="M674 -29l-575 430l563 396h231l-563 -396l575 -430h-231z" />
    <glyph glyph-name="uni3050" unicode="&#x3050;" 
d="M765 405l-73 144h92l73 -144h-92zM640 405l-73 144h92l73 -144h-92zM674 -29l-575 430l563 396h231l-563 -396l575 -430h-231z" />
    <glyph glyph-name="uni3051" unicode="&#x3051;" 
d="M776 524v-320l-238 -233h-183l286 280v273h-345v81h345v201h135v-201h157v-81h-157zM134 -29q-41 192 -41.5 404t41.5 431h136q-22 -104 -33 -211.5t-11 -214t11 -210t33 -199.5h-136z" />
    <glyph glyph-name="uni3052" unicode="&#x3052;" 
d="M912 645l-35 130h76l35 -130h-76zM803 645l-35 130h76l35 -130h-76zM753 524v-320l-228 -233h-183l276 280v273h-322v81h322v201h135v-201h180v-81h-180zM134 -29q-41 192 -41.5 404t41.5 431h136q-22 -104 -33 -211.5t-11 -214t11 -210t33 -199.5h-136z" />
    <glyph glyph-name="uni3053" unicode="&#x3053;" 
d="M111 690v81h789v-81h-789zM909 25q-151 -17 -304 -24t-307 0q-55 2 -94.5 19.5t-64.5 47.5q-22 26 -30.5 59t-6.5 69q3 60 25.5 119.5t48.5 102.5h167q-13 -19 -26.5 -41.5t-25.5 -47t-21.5 -50t-14.5 -51.5q-8 -39 3 -66.5t53 -29.5q151 -8 297 2t301 32v-141v0z" />
    <glyph glyph-name="uni3054" unicode="&#x3054;" 
d="M800 471l-73 146h92l73 -146h-92zM111 690v81h789v-81h-789zM675 471l-73 146h92l73 -146h-92zM909 25q-151 -17 -304 -24t-307 0q-55 2 -94.5 19.5t-64.5 47.5q-22 26 -30.5 59t-6.5 69q3 60 25.5 119.5t48.5 102.5h167q-27 -38 -52.5 -88.5t-35.5 -101.5
q-8 -39 3 -66.5t53 -29.5q151 -8 297 2t301 32v-141v0z" />
    <glyph glyph-name="uni3055" unicode="&#x3055;" 
d="M604 610l219 -287l-133 -49q-65 32 -146.5 50t-162.5 14q-35 -2 -67.5 -16t-49.5 -37q-20 -28 -21.5 -61.5t18.5 -61.5q15 -20 41.5 -34.5t68.5 -18.5q56 -6 121.5 -5t134.5 7t137.5 16t129.5 23v-136q-50 -10 -117.5 -17.5t-141 -11.5t-147 -3.5t-134.5 6.5
q-78 8 -130.5 40.5t-79.5 79.5q-29 49 -29 105t27 105q29 51 86 85t145 36q30 0 62 -2t62 -7t57 -12.5t46 -17.5l-150 198l-364 -28v81l306 24l-96 126h163l87 -114l382 29v-81z" />
    <glyph glyph-name="uni3056" unicode="&#x3056;" 
d="M868 717l-82 106h94l82 -106h-94zM741 717l-82 106h94l82 -106h-94zM619 591l204 -268l-133 -49q-65 32 -145.5 50t-161.5 14q-35 -2 -68.5 -16.5t-50.5 -37.5q-20 -28 -21.5 -61t18.5 -61q15 -20 41.5 -34.5t68.5 -18.5q56 -6 121.5 -5t134.5 7t137.5 16t129.5 23v-136
q-50 -10 -117.5 -17.5t-141 -11.5t-147 -3.5t-134.5 6.5q-78 8 -130.5 40.5t-79.5 79.5q-29 49 -29 105t27 105q29 51 86 85t145 36q30 0 62 -2t62 -7t57 -12.5t46 -17.5l-136 180l-378 -26v81l319 22l-109 144h163l102 -133l339 23v-81z" />
    <glyph glyph-name="uni3057" unicode="&#x3057;" 
d="M924 410q-7 -67 -24.5 -129.5t-49.5 -116.5q-37 -63 -93.5 -108t-140.5 -65q-66 -15 -136 -14.5t-124 14.5q-39 11 -72 29t-59 44q-29 31 -46 73t-17 99v568h138v-586q0 -51 26 -88t65 -53q42 -17 91 -17t91 13q52 17 88.5 48t59.5 73q26 48 38.5 103.5t16.5 112.5h148v0
z" />
    <glyph glyph-name="uni3058" unicode="&#x3058;" 
d="M686 543l-74 143h96l74 -143h-96zM557 543l-74 143h96l74 -143h-96zM924 410q-7 -67 -24.5 -129.5t-49.5 -116.5q-37 -63 -93.5 -108t-140.5 -65q-66 -15 -136 -14.5t-124 14.5q-39 11 -72 29t-59 44q-29 31 -46 73t-17 99v568h138v-598q0 -51 25.5 -82t64.5 -47
q42 -17 92 -17t92 13q52 17 88 48t59 73q26 48 38.5 103.5t16.5 112.5h148v0z" />
    <glyph glyph-name="uni3059" unicode="&#x3059;" 
d="M659 600v-225q0 -73 -16 -138.5t-52 -122.5q-27 -43 -63.5 -79.5t-90.5 -66.5h-231q81 43 144.5 89.5t114.5 110.5q-53 -18 -110.5 -10.5t-100.5 39.5q-35 26 -55 64.5t-18 87.5q3 62 34.5 104t79.5 63q26 12 58 16.5t63.5 2t59.5 -12.5t45 -28v106h-438v81h438v127h138
v-127h266v-81h-266zM511 340q0 19 -6 37t-18 32.5t-30.5 22.5t-43.5 7q-42 -2 -65.5 -27.5t-26.5 -57.5q-3 -26 4.5 -45.5t21 -33t31.5 -20.5t37 -7q18 0 34.5 5.5t30 16.5t22 28.5t9.5 41.5z" />
    <glyph glyph-name="uni305A" unicode="&#x305a;" 
d="M925 663v-63h-264v-225q0 -73 -16 -136t-52 -120q-27 -43 -65.5 -82t-92.5 -69h-229q81 43 145.5 89.5t115.5 110.5q-56 -19 -113 -11t-100 40q-35 26 -55 64.5t-18 87.5q2 40 16.5 71.5t37.5 54.5q32 31 75 47t93 14q32 -1 63.5 -10.5t56.5 -29.5v104h-440v81h440v127
h138v-127h90l-40 112h92l40 -112h33l-40 112h92l47 -130h-50zM513 340q0 19 -6 37t-18 32.5t-30.5 22.5t-43.5 7q-21 -1 -37.5 -8t-28.5 -19t-19 -27t-9 -31q-3 -26 5 -45.5t22 -33t32 -20.5t37 -7q18 0 34.5 5.5t30 16.5t22 28.5t9.5 41.5z" />
    <glyph glyph-name="uni305B" unicode="&#x305b;" 
d="M784 539v-367h-321l-38 81h223v280l-305 -14v-448h555l-39 -81h-652v523l-125 -6v78l125 6v208h136v-201l305 15v186h136v-180l140 7v-81z" />
    <glyph glyph-name="uni305C" unicode="&#x305c;" 
d="M918 648l-35 130h77l35 -130h-77zM808 648l-35 130h77l35 -130h-77zM757 521v-349h-297l-38 81h199v262l-281 -12v-432h556l-39 -81h-653v507l-122 -6v78l122 6v226h136v-219l281 13v206h136v-199l166 8v-81z" />
    <glyph glyph-name="uni305D" unicode="&#x305d;" 
d="M697 435q-53 -17 -109 -42t-104 -65q-34 -28 -55.5 -65t-20.5 -69q1 -31 25.5 -54t79.5 -28q78 -7 153 -2t163 24v-134q-109 -18 -214.5 -16.5t-196.5 20.5q-67 14 -106 55.5t-44 91.5q-5 45 9 83t40 70q32 38 75 67t89 49l-396 -28l-1 83l135 10l364 212l-446 19v83
l656 -34v-81l-307 -178l439 32v-85z" />
    <glyph glyph-name="uni305E" unicode="&#x305e;" 
d="M888 675l-47 125h87l47 -125h-87zM768 675l-47 125h87l47 -125h-87zM700 435q-53 -17 -112.5 -44.5t-107.5 -67.5q-34 -28 -55.5 -61.5t-20.5 -65.5q1 -31 25.5 -51t79.5 -25q78 -7 153 -2t163 24v-142q-109 -18 -217 -16.5t-199 20.5q-68 14 -104 54.5t-41 91.5
q-4 42 11.5 85.5t49.5 81.5q31 35 71 61t82 43l-397 -29l-1 83l135 10l317 211l-399 20v83l591 -31v-81l-275 -184l472 35v-85z" />
    <glyph glyph-name="uni305F" unicode="&#x305f;" 
d="M418 390v81h476v-81h-476zM416 590l-220 -619h-145l219 615l-186 -4v81l215 5l47 132h144l-45 -128l177 4v-81zM352 -12v81h579v-81h-579z" />
    <glyph glyph-name="uni3060" unicode="&#x3060;" 
d="M864 635l-68 143h102l68 -143h-102zM729 635l-68 143h102l68 -143h-102zM405 390v81h487v-81h-487zM397 590l-201 -619h-145l201 615l-168 -4v81l195 5l43 132h144l-42 -129l198 5v-81zM349 -12v81h582v-81h-582z" />
    <glyph glyph-name="uni3061" unicode="&#x3061;" 
d="M423 593l-61 -185q51 37 119.5 59t139.5 22q113 0 184 -60q37 -32 58 -77.5t23 -105.5q2 -40 -10 -79.5t-38 -73.5q-29 -38 -69 -61t-86 -35q-51 -13 -103 -16t-100 -1q-79 2 -155 13.5t-139 24.5v144q66 -18 126 -30t115 -17q64 -6 118 -4.5t106 10.5q26 5 45.5 18.5
t31.5 32.5t17 41.5t3 43.5q-1 20 -9 39t-23 34.5t-37 26t-51 13.5q-80 8 -156.5 -16.5t-150.5 -74.5h-144l100 304l-186 -13v81l213 15l45 136h142l-41 -126l442 31v-81z" />
    <glyph glyph-name="uni3062" unicode="&#x3062;" 
d="M858 738l-67 107h96l67 -107h-96zM729 738l-67 107h96l67 -107h-96zM423 593l-61 -185q33 24 72 41.5t81 27.5t84.5 12t83.5 -6q42 -8 79 -26.5t65 -49.5q26 -29 41.5 -68.5t17.5 -92.5q2 -49 -14 -92t-46 -76q-33 -36 -77 -56.5t-92 -30.5q-45 -9 -90 -11t-87 0
q-79 2 -155 13.5t-139 24.5v144q66 -18 126 -30t115 -17q64 -6 118 -4.5t106 10.5q26 5 45.5 18.5t31.5 32.5t17 41.5t3 43.5q-1 20 -9 39t-23 34.5t-37 26t-51 13.5q-80 8 -156.5 -16.5t-150.5 -74.5h-144l100 304l-186 -13v81l213 15l45 136h142l-41 -126l442 31v-81z" />
    <glyph glyph-name="uni3063" unicode="&#x3063;" 
d="M857 366q3 -106 -54 -181q-34 -45 -71.5 -78.5t-77 -58.5t-80.5 -43.5t-81 -33.5h-246q119 45 224 99.5t188 129.5q56 50 76 101.5t3 101.5q-14 42 -54 70.5t-107 36.5q-93 11 -203.5 1.5t-233.5 -29.5v85q93 13 200 22.5t213 5.5q57 -2 108 -13t92 -35q43 -26 72.5 -69
t31.5 -112z" />
    <glyph glyph-name="uni3064" unicode="&#x3064;" 
d="M924 464q7 -62 -8 -122.5t-50 -107.5q-32 -43 -77.5 -83t-96.5 -73.5t-104.5 -60.5t-102.5 -45h-308q78 29 149.5 58t136.5 61.5t123 69.5t107 82q33 30 56 64t35 69t13 68.5t-9 63.5q-17 50 -65 85t-129 44q-112 13 -245.5 1t-281.5 -35v87q56 8 116.5 15t124 12
t128.5 7t129 0q68 -2 130 -15.5t111 -42.5q54 -32 82.5 -86t35.5 -116z" />
    <glyph glyph-name="uni3065" unicode="&#x3065;" 
d="M877 683l-56 117h96l56 -117h-96zM924 464q7 -62 -8 -122.5t-50 -107.5q-32 -43 -77.5 -83t-96.5 -73.5t-104.5 -60.5t-102.5 -45h-308q78 29 149.5 58t136.5 61.5t123 69.5t107 82q33 30 56 64t35 69t13 68.5t-9 63.5q-17 50 -65 85t-129 44q-112 13 -245.5 1
t-281.5 -35v87q56 8 116.5 15t124 12t128.5 7t129 0q48 -2 92.5 -8.5t84.5 -20.5l-50 105h96l56 -117h-71q69 -31 106 -87.5t45 -131.5z" />
    <glyph glyph-name="uni3066" unicode="&#x3066;" 
d="M916 675q-49 -6 -109 -24t-120.5 -45t-115.5 -62t-94 -76q-40 -42 -61.5 -86t-19.5 -86q2 -47 33 -85.5t98 -63.5q35 -13 72.5 -21t74.5 -12t71 -4.5t63 1.5v-143q-135 -2 -244.5 20.5t-195.5 89.5q-56 44 -83 98.5t-28 114.5q-2 71 28.5 131t78.5 108q49 48 107.5 83.5
t116.5 60.5l-507 -9v81l835 11v-82v0z" />
    <glyph glyph-name="uni3067" unicode="&#x3067;" 
d="M834 467l-57 126h91l57 -126h-91zM916 677q-55 -8 -123 -29.5t-135 -54.5h86l57 -126h-91l-56 124q-51 -26 -97 -57t-80 -66q-40 -42 -61.5 -86t-19.5 -86q2 -47 33 -85.5t98 -63.5q35 -13 72.5 -21t74.5 -12t71 -4.5t63 1.5v-143q-135 -2 -244.5 20t-195.5 89
q-56 44 -83 99t-28 115q-2 71 28.5 131t78.5 108q49 48 108.5 84.5t117.5 61.5l-509 -17v81l835 19v-82v0z" />
    <glyph glyph-name="uni3068" unicode="&#x3068;" 
d="M909 -3q-111 -11 -219.5 -12t-230.5 6q-58 3 -116 12t-109 35q-56 29 -86 75.5t-32 100.5q-2 44 12.5 87t45.5 79q32 37 77.5 66.5t93.5 50.5l-66 303h143l55 -251q50 15 99 27.5t99.5 23.5t104.5 20.5t113 17.5v-144q-72 -6 -154 -18.5t-165 -32.5q-93 -22 -174.5 -49
t-139.5 -61q-36 -21 -51.5 -52t-11.5 -60q5 -35 36 -61.5t84 -30.5q140 -11 286.5 -6.5t305.5 20.5v-146v0z" />
    <glyph glyph-name="uni3069" unicode="&#x3069;" 
d="M814 682l-56 118h96l56 -118h-96zM685 682l-56 118h96l56 -118h-96zM912 -3q-111 -11 -221 -12t-232 6q-58 3 -116 12t-109 35q-56 29 -86 75.5t-32 100.5q-2 44 12.5 87t45.5 79q32 37 73.5 66.5t89.5 50.5l-59 303h143l48 -251q50 15 97 27.5t95.5 23t100.5 19.5
t111 17v-144q-72 -6 -143.5 -17.5t-154.5 -31.5q-93 -22 -175 -49t-140 -61q-36 -21 -51.5 -52t-11.5 -60q5 -35 36 -61.5t84 -30.5q140 -11 288 -6.5t307 20.5v-146v0z" />
    </font>
</defs>
</svg>
