<?xml version="1.0" standalone="no"?>
<!DOCTYPE svg PUBLIC "-//W3C//DTD SVG 1.1//EN" "http://www.w3.org/Graphics/SVG/1.1/DTD/svg11.dtd" >
<svg xmlns="http://www.w3.org/2000/svg" xmlns:xlink="http://www.w3.org/1999/xlink" version="1.1">
<metadata>
Created by FontForge 20170731 at Thu Sep  9 22:02:28 2010
 By Aleksey,,,
Copyright 2006, 2009 Monotype Imaging Hong Kong Ltd. and Monotype Imaging Inc. All rights reserved.
</metadata>
<defs>
<font id="MStiffHeiPRC-UltraBold" horiz-adv-x="1000" vert-adv-y="1000" >
  <font-face 
    font-family="MStiffHei PRC UltraBold"
    font-weight="400"
    font-stretch="normal"
    units-per-em="1000"
    panose-1="0 0 5 0 0 0 0 0 0 0"
    ascent="800"
    descent="-200"
    x-height="522"
    cap-height="762"
    bbox="-102 -219 1024 976"
    underline-thickness="50"
    underline-position="-150"
    unicode-range="U+0020-241FE"
  />
<missing-glyph 
 />
    <glyph glyph-name=".notdef" 
 />
    <glyph glyph-name=".null" horiz-adv-x="0" vert-adv-y="0" 
 />
    <glyph glyph-name="nonmarkingreturn" horiz-adv-x="333" 
 />
    <glyph glyph-name="space" unicode=" " horiz-adv-x="278" 
 />
    <glyph glyph-name="space" horiz-adv-x="278" 
 />
    <glyph glyph-name="space" horiz-adv-x="278" 
 />
    <glyph glyph-name="space" horiz-adv-x="278" 
 />
    <glyph glyph-name="space" horiz-adv-x="278" 
 />
    <glyph glyph-name="space" horiz-adv-x="278" 
 />
    <glyph glyph-name="space" horiz-adv-x="278" 
 />
    <glyph glyph-name="space" horiz-adv-x="278" 
 />
    <glyph glyph-name="space" horiz-adv-x="278" 
 />
    <glyph glyph-name="space" horiz-adv-x="278" 
 />
    <glyph glyph-name="space" horiz-adv-x="278" 
 />
    <glyph glyph-name="space" horiz-adv-x="278" 
 />
    <glyph glyph-name="space" horiz-adv-x="278" 
 />
    <glyph glyph-name="space" horiz-adv-x="278" 
 />
    <glyph glyph-name="space" horiz-adv-x="278" 
 />
    <glyph glyph-name="space" horiz-adv-x="278" 
 />
    <glyph glyph-name="space" horiz-adv-x="278" 
 />
    <glyph glyph-name="space" horiz-adv-x="278" 
 />
    <glyph glyph-name="space" horiz-adv-x="278" 
 />
    <glyph glyph-name="space" unicode="&#xd;" horiz-adv-x="278" 
 />
    <glyph glyph-name="space" horiz-adv-x="278" 
 />
    <glyph glyph-name="space" horiz-adv-x="278" 
 />
    <glyph glyph-name="space" unicode="&#xa;" horiz-adv-x="278" 
 />
    <glyph glyph-name="space" unicode="&#x9;" horiz-adv-x="278" 
 />
    <glyph glyph-name="space" horiz-adv-x="278" 
 />
    <glyph glyph-name="space" horiz-adv-x="278" 
 />
    <glyph glyph-name="space" horiz-adv-x="278" 
 />
    <glyph glyph-name="space" horiz-adv-x="278" 
 />
    <glyph glyph-name="space" horiz-adv-x="278" 
 />
    <glyph glyph-name="space" horiz-adv-x="278" 
 />
    <glyph glyph-name="space" horiz-adv-x="278" 
 />
    <glyph glyph-name="space" horiz-adv-x="278" 
 />
    <glyph glyph-name="space" horiz-adv-x="278" 
 />
    <glyph glyph-name="exclam" unicode="!" horiz-adv-x="360" 
d="M84 217v534h192v-534h-192zM84 -12v188h192v-188h-192z" />
    <glyph glyph-name="quotedbl" unicode="&#x22;" horiz-adv-x="430" 
d="M238 472v279h139v-279h-139zM53 472v279h139v-279h-139z" />
    <glyph glyph-name="numbersign" unicode="#" horiz-adv-x="665" 
d="M534 458l-16 -180h95v-80h-102l-17 -188h-133l17 188h-117l-17 -188h-133l17 188h-97v80h104l16 180h-98v80h106l17 186h133l-17 -186h117l17 186h133l-17 -186h93v-80h-101zM284 458l-16 -180h117l16 180h-117z" />
    <glyph glyph-name="dollar" unicode="$" horiz-adv-x="665" 
d="M381 -12v-52h-93v52h-219l-38 95h257v254h-238v413h238v57h93v-57h237v-98h-237v-218h237v-446h-237zM288 652h-60v-218h60v218zM440 337h-59v-254h59v254z" />
    <glyph glyph-name="percent" unicode="%" horiz-adv-x="822" 
d="M442 -12v384l-240 -406h-52l226 390h-335v395h339v-389l241 412h53l-228 -391h335v-395h-339zM637 291h-50v-209h50v209zM235 655h-50v-204h50v204z" />
    <glyph glyph-name="ampersand" unicode="&#x26;" horiz-adv-x="790" 
d="M730 -12h-178l-43 41l-38 -41h-430v289l122 97l-89 89v287h455v-292l-114 -93l81 -82l40 46h216l-135 -166l75 -76h87zM348 654h-93v-128l43 -43l50 40v131zM284 252l-43 -31v-136h95l51 65z" />
    <glyph glyph-name="quotesingle" unicode="'" horiz-adv-x="278" 
d="M69 473v278h141v-278h-141z" />
    <glyph glyph-name="parenleft" unicode="(" horiz-adv-x="440" 
d="M190 -219q-36 52 -62 118t-42.5 137.5t-22.5 143t-2 134.5q8 115 43 226t86 211h217q-45 -75 -80.5 -157.5t-54.5 -171.5q-27 -130 -9 -262q15 -103 51 -195.5t93 -183.5h-217z" />
    <glyph glyph-name="parenright" unicode=")" horiz-adv-x="440" 
d="M380 314q5 -63 -1.5 -134.5t-23 -143t-42.5 -137.5t-62 -118h-217q57 91 93 183.5t51 195.5q18 132 -9 262q-19 89 -54.5 171.5t-80.5 157.5h217q51 -100 86 -211t43 -226z" />
    <glyph glyph-name="asterisk" unicode="*" horiz-adv-x="556" 
d="M381 503l96 -112l-110 -81l-87 119l-87 -119l-110 78l90 112l-137 35l44 127l133 -44v133h130v-133l132 49l45 -119z" />
    <glyph glyph-name="plus" unicode="+" horiz-adv-x="660" 
d="M431 320v-199h-201v199h-170v100h170v199h201v-199h169v-100h-169z" />
    <glyph glyph-name="comma" unicode="," horiz-adv-x="278" 
d="M135 -148h-61l87 135h-111v182h178v-173z" />
    <glyph glyph-name="hyphen" unicode="-" horiz-adv-x="333" 
d="M19 216v101h296v-101h-296z" />
    <glyph glyph-name="period" unicode="." horiz-adv-x="278" 
d="M46 -12v179h186v-179h-186z" />
    <glyph glyph-name="slash" unicode="/" horiz-adv-x="360" 
d="M157 -27h-167l213 793h167z" />
    <glyph glyph-name="zero" unicode="0" horiz-adv-x="665" 
d="M41 -12v762h582v-762h-582zM424 648h-185v-558h185v558z" />
    <glyph glyph-name="one" unicode="1" horiz-adv-x="665" 
d="M233 -12v664h-130v99h329v-763h-199z" />
    <glyph glyph-name="two" unicode="2" horiz-adv-x="665" 
d="M593 -12h-553v120l360 345v199h-354v99h547v-369l-304 -295h348z" />
    <glyph glyph-name="three" unicode="3" horiz-adv-x="665" 
d="M40 -12v97h381v238h-278v98h278v233h-373v97h565v-320l-94 -51l105 -77v-315h-584z" />
    <glyph glyph-name="four" unicode="4" horiz-adv-x="665" 
d="M554 123v-135h-185v135h-339v96l359 531h165v-530h81v-97h-81zM369 552l-225 -332h225v332z" />
    <glyph glyph-name="five" unicode="5" horiz-adv-x="665" 
d="M253 651v-192h365v-471h-537l-49 101h391v270h-362v392h192v-83l62 83h312v-100h-374z" />
    <glyph glyph-name="six" unicode="6" horiz-adv-x="665" 
d="M40 -12v763h585v-101h-385v-184h385v-478h-585zM424 366h-184v-280h184v280z" />
    <glyph glyph-name="seven" unicode="7" horiz-adv-x="665" 
d="M387 -12h-212l245 663h-379v99h584v-118z" />
    <glyph glyph-name="eight" unicode="8" horiz-adv-x="665" 
d="M41 -12v337l120 68l-108 66v292h559v-294l-102 -64l114 -70v-335h-583zM253 652v-215h161l1 215h-162zM425 340l-184 -1v-253h184v254z" />
    <glyph glyph-name="nine" unicode="9" horiz-adv-x="665" 
d="M74 -12l-35 98h389v171l-387 1v492h585v-762h-552zM428 651h-186v-294h186v294z" />
    <glyph glyph-name="colon" unicode=":" horiz-adv-x="278" 
d="M46 315v181h186v-181h-186zM46 -12v179h186v-179h-186z" />
    <glyph glyph-name="semicolon" unicode=";" horiz-adv-x="278" 
d="M44 302v180h190v-180h-190zM131 -161h-66l102 149h-123v181h189v-182z" />
    <glyph glyph-name="less" unicode="&#x3c;" horiz-adv-x="660" 
d="M57 316v111l545 234v-148l-352 -143l352 -139v-148z" />
    <glyph glyph-name="equal" unicode="=" horiz-adv-x="660" 
d="M60 430v100h540v-100h-540zM60 209v101h540v-101h-540z" />
    <glyph glyph-name="greater" unicode="&#x3e;" horiz-adv-x="660" 
d="M57 83v148l352 139l-352 143v148l545 -234v-111z" />
    <glyph glyph-name="question" unicode="?" horiz-adv-x="585" 
d="M351 285v-89h-201v207l194 65v182h-303v101h505v-396zM150 -12v167h201v-167h-201z" />
    <glyph glyph-name="at" unicode="@" horiz-adv-x="845" 
d="M779 -12h-738v763h756v-604h-339v78l-44 -78h-183v443h180l47 -76v76h149v-351h36v419h-448v-578h635zM458 498h-70v-257h70v257z" />
    <glyph glyph-name="A" unicode="A" horiz-adv-x="855" 
d="M630 -12l-52 184h-299l-53 -184h-211l229 763h365l231 -763h-210zM441 650h-30l-100 -375h238z" />
    <glyph glyph-name="B" unicode="B" horiz-adv-x="775" 
d="M301 -12l-59 85v-85h-201v763h201v-86l55 86h431v-289l-105 -75l118 -79v-320h-440zM530 649h-288v-221h288v221zM539 327h-297v-237h297v237z" />
    <glyph glyph-name="C" unicode="C" horiz-adv-x="785" 
d="M709 -12h-668v763h688v-99h-488v-565h511z" />
    <glyph glyph-name="D" unicode="D" horiz-adv-x="775" 
d="M303 -12l-64 86v-86h-198v763h198v-87l71 87h427v-763h-434zM537 648h-298v-558h298v558z" />
    <glyph glyph-name="E" unicode="E" horiz-adv-x="695" 
d="M628 -12h-588v763h611v-99h-410v-224h391v-98h-391v-241h428z" />
    <glyph glyph-name="F" unicode="F" horiz-adv-x="650" 
d="M240 649v-220h368v-104h-368v-337h-199v763h589v-102h-390z" />
    <glyph glyph-name="G" unicode="G" horiz-adv-x="775" 
d="M536 -12v82l-49 -82h-447v763h693v-99h-492v-566h295v269h-148v100h347v-467h-199z" />
    <glyph glyph-name="H" unicode="H" horiz-adv-x="780" 
d="M540 -12v337h-297v-337h-201v763h201v-324h297v324h198v-763h-198z" />
    <glyph glyph-name="I" unicode="I" horiz-adv-x="320" 
d="M63 -12v763h194v-763h-194z" />
    <glyph glyph-name="J" unicode="J" horiz-adv-x="535" 
d="M60 -12l-52 100h283v663h201v-763h-432z" />
    <glyph glyph-name="K" unicode="K" horiz-adv-x="775" 
d="M531 -11l-216 335h-74v-335h-200v762h200v-325h76l207 325h225l-237 -378l243 -384h-224z" />
    <glyph glyph-name="L" unicode="L" horiz-adv-x="635" 
d="M567 -12h-526v763h201v-663h367z" />
    <glyph glyph-name="M" unicode="M" horiz-adv-x="925" 
d="M705 -12v492l-165 -492h-153l-162 485v-485h-184v763h260l166 -486l161 486h256v-763h-179z" />
    <glyph glyph-name="N" unicode="N" horiz-adv-x="780" 
d="M516 -12l-274 470v-470h-200v763h226l272 -481v481h198v-763h-222z" />
    <glyph glyph-name="O" unicode="O" horiz-adv-x="777" 
d="M41 -12v763h695v-763h-695zM533 650h-291v-560h291v560z" />
    <glyph glyph-name="P" unicode="P" horiz-adv-x="700" 
d="M295 287l-55 83v-381h-199v762h199v-84l59 84h365v-464h-369zM463 650h-223v-264h223v264z" />
    <glyph glyph-name="Q" unicode="Q" horiz-adv-x="777" 
d="M593 -11l122 -125h-258l-124 125h-292v762h695v-762h-143zM535 652h-294v-565h294v565z" />
    <glyph glyph-name="R" unicode="R" horiz-adv-x="740" 
d="M503 -12l-164 318h-50l-47 85v-403h-201v763h201v-83l60 83h359v-445h-106l163 -318h-215zM462 651h-220v-246h220v246z" />
    <glyph glyph-name="S" unicode="S" horiz-adv-x="765" 
d="M251 653v-226h473v-439h-666l-35 99h497v242h-470v422h677v-98h-476z" />
    <glyph glyph-name="T" unicode="T" horiz-adv-x="735" 
d="M467 650v-662h-197v662h-257v101h709v-101h-255z" />
    <glyph glyph-name="U" unicode="U" horiz-adv-x="775" 
d="M41 -12v763h195v-661h303v661h195v-763h-693z" />
    <glyph glyph-name="V" unicode="V" horiz-adv-x="787" 
d="M502 -12h-228l-261 763h207l172 -555l181 555h202z" />
    <glyph glyph-name="W" unicode="W" horiz-adv-x="942" 
d="M785 -12h-202l-109 364l-106 -364h-203l-152 763h192l83 -468l101 468h163l111 -458l76 458h190z" />
    <glyph glyph-name="X" unicode="X" horiz-adv-x="800" 
d="M551 -12l-152 220l-152 -220h-233l269 388l-260 375h232l145 -213l141 213h232l-258 -374l271 -389h-235z" />
    <glyph glyph-name="Y" unicode="Y" horiz-adv-x="790" 
d="M497 234v-246h-198v250l-289 513h225l163 -319l160 319h222z" />
    <glyph glyph-name="Z" unicode="Z" horiz-adv-x="770" 
d="M689 -12h-654v121l427 540h-414v102h652v-127l-420 -536h461z" />
    <glyph glyph-name="bracketleft" unicode="[" horiz-adv-x="430" 
d="M61 -218v969h324v-102h-136v-766h136v-101h-324z" />
    <glyph glyph-name="backslash" unicode="\" horiz-adv-x="360" 
d="M203 -27l-213 793h167l213 -793h-167z" />
    <glyph glyph-name="bracketright" unicode="]" horiz-adv-x="430" 
d="M44 -218v101h136v766h-136v102h324v-969h-324z" />
    <glyph glyph-name="asciicircum" unicode="^" horiz-adv-x="660" 
d="M425 354l-94 240l-95 -240h-173l199 397h136l199 -397h-172z" />
    <glyph glyph-name="underscore" unicode="_" horiz-adv-x="500" 
d="M-6 -140v50h512v-50h-512z" />
    <glyph glyph-name="grave" unicode="`" horiz-adv-x="333" 
d="M134 616l-200 155h247l117 -155h-164z" />
    <glyph glyph-name="a" unicode="a" horiz-adv-x="655" 
d="M601 -11h-194v72l-51 -72h-315v534h317l49 -72v72h185v-446h55zM407 434h-179v-357h179v357z" />
    <glyph glyph-name="b" unicode="b" horiz-adv-x="648" 
d="M285 -11l-55 78v-78h-189v762h189v-308l61 80h316v-534h-322zM417 427h-187v-343h187v343z" />
    <glyph glyph-name="c" unicode="c" horiz-adv-x="630" 
d="M561 -12h-520v534h544v-94h-355v-344h371z" />
    <glyph glyph-name="d" unicode="d" horiz-adv-x="650" 
d="M418 -12v79l-55 -79h-322v535h321l56 -78v306h191v-763h-191zM418 428h-186v-344h186v344z" />
    <glyph glyph-name="e" unicode="e" horiz-adv-x="645" 
d="M582 -12h-541v535h558v-331h-311l-55 81v-191h389zM408 426h-175v-137h175v137z" />
    <glyph glyph-name="f" unicode="f" horiz-adv-x="500" 
d="M338 428v-440h-191v440h-120v95h120v227h339v-92h-148v-135h148v-95h-148z" />
    <glyph glyph-name="g" unicode="g" horiz-adv-x="650" 
d="M68 -218l-51 93h403v193l-53 -80h-326v535h319l60 -78v78h191v-741h-543zM420 428h-187v-344h187v344z" />
    <glyph glyph-name="h" unicode="h" horiz-adv-x="645" 
d="M412 -12v440h-180v-440h-191v763h191v-307l51 79h321v-535h-192z" />
    <glyph glyph-name="i" unicode="i" horiz-adv-x="340" 
d="M75 585v166h191v-166h-191zM75 -12v535h191v-535h-191z" />
    <glyph glyph-name="j" unicode="j" horiz-adv-x="390" 
d="M157 585v165h191v-165h-191zM-11 -219l-44 92h212v650h191v-742h-359z" />
    <glyph glyph-name="k" unicode="k" horiz-adv-x="665" 
d="M480 291l171 -303h-214l-139 256h-66v-256h-191v763h191v-413h67l138 185h217z" />
    <glyph glyph-name="l" unicode="l" horiz-adv-x="340" 
d="M72 -12v763h196v-763h-196z" />
    <glyph glyph-name="m" unicode="m" horiz-adv-x="863" 
d="M637 -11v438h-114v-438h-185v438h-114v-438h-183v534h183v-79l52 79h247v-79l59 79h240v-534h-185z" />
    <glyph glyph-name="n" unicode="n" horiz-adv-x="647" 
d="M416 -12v439h-184v-439h-191v534h191v-79l55 79h319v-534h-190z" />
    <glyph glyph-name="o" unicode="o" horiz-adv-x="645" 
d="M41 -12v535h563v-535h-563zM414 428h-182v-347h182v347z" />
    <glyph glyph-name="p" unicode="p" horiz-adv-x="640" 
d="M288 -11l-58 80v-287h-189v741h189v-77l50 77h323v-534h-315zM413 429h-183v-344h183v344z" />
    <glyph glyph-name="q" unicode="q" horiz-adv-x="647" 
d="M415 -219v284l-56 -77h-318v535h329l45 -78v78h192v-742h-192zM415 429h-179v-348h179v348z" />
    <glyph glyph-name="r" unicode="r" horiz-adv-x="505" 
d="M237 427v-439h-196v535h196v-79l59 79h190v-96h-249z" />
    <glyph glyph-name="s" unicode="s" horiz-adv-x="650" 
d="M241 429v-123h366v-318h-540l-37 93h389v129h-371v313h561v-94h-368z" />
    <glyph glyph-name="t" unicode="t" horiz-adv-x="495" 
d="M438 -12h-315v440h-103v94h103v176h191v-176h144v-94h-144v-348h165z" />
    <glyph glyph-name="u" unicode="u" horiz-adv-x="645" 
d="M413 -12v80l-46 -80h-326v535h189v-438h183v438h191v-535h-191z" />
    <glyph glyph-name="v" unicode="v" horiz-adv-x="650" 
d="M424 -12h-198l-223 535h204l119 -303l114 303h207z" />
    <glyph glyph-name="w" unicode="w" horiz-adv-x="920" 
d="M757 -12h-194l-101 276l-107 -276h-193l-160 535h195l82 -274l93 274h180l97 -275l68 275h201z" />
    <glyph glyph-name="x" unicode="x" horiz-adv-x="670" 
d="M436 -12l-103 134l-102 -134h-226l215 282l-192 253h229l79 -106l78 106h225l-190 -253l216 -282h-229z" />
    <glyph glyph-name="y" unicode="y" horiz-adv-x="650" 
d="M324 -219h-262l-38 93h144l54 119l-219 530h200l120 -292l127 292h197z" />
    <glyph glyph-name="z" unicode="z" horiz-adv-x="645" 
d="M576 -12h-536v101l325 336h-325v97h558v-107l-312 -331h342z" />
    <glyph glyph-name="braceleft" unicode="{" horiz-adv-x="430" 
d="M360 -218q-74 0 -118.5 14.5t-68 43t-31 71t-7.5 98.5q0 35 -0.5 69t-8.5 61t-27.5 43.5t-57.5 16.5v132q32 0 51 12.5t28.5 34t12.5 49t3 57.5q0 66 5.5 115.5t28 83.5t66.5 51t120 17h51v-103q-36 0 -55 -15t-27.5 -40.5t-10 -59.5t-1.5 -72q0 -55 -7.5 -90t-19.5 -56
t-27.5 -31.5t-32.5 -17.5q19 -9 35 -22.5t27.5 -36t18 -57.5t6.5 -89q0 -42 2.5 -75t12.5 -55.5t28.5 -34t50.5 -11.5v-103h-47z" />
    <glyph glyph-name="bar" unicode="|" horiz-adv-x="278" 
d="M68 -219v970h142v-970h-142z" />
    <glyph glyph-name="braceright" unicode="}" horiz-adv-x="430" 
d="M390 199q-38 0 -57.5 -17t-27.5 -44.5t-8.5 -62t-0.5 -69.5q0 -56 -7.5 -98t-31 -70t-68 -42t-118.5 -14h-47v103q32 0 50.5 11.5t28.5 34t12.5 55.5t2.5 75q0 54 6.5 89t18 57.5t27.5 36t35 22.5q-17 7 -32.5 17.5t-27.5 31.5t-19.5 56t-7.5 90q0 38 -1.5 72t-10 59.5
t-27.5 40.5t-55 15v103h51q77 0 120.5 -17t66 -51t28 -83.5t5.5 -115.5q0 -30 3 -57.5t12.5 -49t28.5 -34t51 -12.5v-132v0z" />
    <glyph glyph-name="asciitilde" unicode="~" horiz-adv-x="660" 
d="M610 328q-16 -13 -34 -26.5t-38 -24t-42.5 -17.5t-48.5 -7q-35 0 -66.5 12t-71.5 32q-35 17 -58.5 25.5t-45.5 8.5q-45 0 -83.5 -23t-71.5 -55v161q12 11 28 23.5t37 24t47.5 19t59.5 7.5q11 0 21.5 -1t25 -5.5t35 -13t49.5 -22.5q35 -17 60 -26t49 -9t47 9t42.5 21
t34.5 25t24 21v-159v0z" />
    <glyph glyph-name="currency" unicode="&#xa4;" 
d="M751 37l-60 59q-42 -27 -89.5 -42t-101.5 -15q-53 0 -100.5 14.5t-88.5 41.5l-61 -60l-94 94l60 59q-29 42 -44.5 91.5t-15.5 103.5t15 102t43 90l-58 58l94 94l59 -58q42 28 89.5 43t101.5 15t102 -15t90 -43l59 58l94 -94l-59 -58q28 -42 43 -90t15 -102t-15.5 -102.5
t-43.5 -90.5l60 -59zM743 383q0 50 -19 94.5t-52 77.5t-77.5 52t-94.5 19t-94.5 -19t-77.5 -52t-52 -77.5t-19 -94.5t19 -94.5t52 -77.5t77.5 -52t94.5 -19t94.5 19t77.5 52t52 77.5t19 94.5z" />
    <glyph glyph-name="yen" unicode="&#xa5;" horiz-adv-x="500" 
d="M310 223v-234h-119v234h-139v100h139v7l-139 421h125l73 -270l74 270h125l-139 -421v-7h139v-100h-139z" />
    <glyph glyph-name="section" unicode="&#xa7;" 
d="M279 -51l-41 94h342v66l-329 99v247l133 50l-122 50v262h478v-94h-290v-65l301 -118v-223l-129 -43l140 -45v-280h-483zM564 435l-121 48v-154l121 -38v144z" />
    <glyph glyph-name="dieresis" unicode="&#xa8;" 
d="M530 837v134h182v-134h-182zM288 837v134h182v-134h-182z" />
    <glyph glyph-name="degree" unicode="&#xb0;" 
d="M330 663q-2 -32 -16 -59.5t-41 -45.5q-17 -11 -36.5 -16.5t-39.5 -5.5q-18 0 -38 5q-29 8 -53.5 31.5t-34.5 53.5q-6 20 -6 41q0 37 17 68q14 25 37 42.5t53 22.5q15 3 29 3q48 0 86 -35q43 -40 43 -98v-7v0zM265 669q0 11 -3 21.5t-9 18.5q-9 14 -24.5 20.5t-31.5 6.5
q-43 0 -59 -37q-6 -13 -6 -29q0 -18 9 -35q8 -15 23 -24.5t33 -9.5q23 0 38.5 11.5t23.5 28.5q6 14 6 28z" />
    <glyph glyph-name="plusminus" unicode="&#xb1;" 
d="M545 403v-222h-125v222h-277v122h277v224h125v-224h284v-122h-284zM152 25v121h665v-121h-665z" />
    <glyph glyph-name="uni30FB" unicode="&#x30fb;" 
d="M386 278q5 11 7 25t2 29v100q0 17 -2 30.5t-7 25.5h228q-4 -13 -6.5 -30t-2.5 -26v-100q0 -13 2.5 -27.5t6.5 -26.5h-228z" />
    <glyph glyph-name="uni30FB" unicode="&#xb7;" 
d="M386 278q5 11 7 25t2 29v100q0 17 -2 30.5t-7 25.5h228q-4 -13 -6.5 -30t-2.5 -26v-100q0 -13 2.5 -27.5t6.5 -26.5h-228z" />
    <glyph glyph-name="multiply" unicode="&#xd7;" 
d="M716 79l-206 207l-200 -199l-93 93l199 200l-196 196l94 94l196 -196l195 195l94 -94l-195 -195l206 -207z" />
    <glyph glyph-name="agrave" unicode="&#xe0;" 
d="M497 611l-188 145h232l110 -145h-154zM771 1h-193v72l-52 -72h-314v535h317l49 -72v72h184v-447h56zM578 447h-179v-358h179v358z" />
    <glyph glyph-name="aacute" unicode="&#xe1;" 
d="M571 612h-232l188 145h154zM771 1h-193v72l-52 -72h-314v535h317l49 -72v72h184v-447h56zM578 447h-179v-358h179v358z" />
    <glyph glyph-name="egrave" unicode="&#xe8;" 
d="M497 611l-188 145h232l110 -145h-154zM750 0h-541v537h559v-333h-312l-55 81v-191h390zM576 440h-175v-139h175v139z" />
    <glyph glyph-name="eacute" unicode="&#xe9;" 
d="M571 612h-232l188 145h154zM750 0h-541v537h559v-333h-312l-55 81v-191h390zM576 440h-175v-139h175v139z" />
    <glyph glyph-name="ecircumflex" unicode="&#xea;" 
d="M549 596l-50 60l-49 -60h-167l132 145h168l134 -145h-168zM750 0h-541v537h559v-333h-312l-55 81v-191h390zM576 440h-175v-139h175v139z" />
    <glyph glyph-name="igrave" unicode="&#xec;" 
d="M497 611l-188 145h232l110 -145h-154zM405 1v536h191v-536h-191z" />
    <glyph glyph-name="iacute" unicode="&#xed;" 
d="M571 612h-232l188 145h154zM405 1v536h191v-536h-191z" />
    <glyph glyph-name="ograve" unicode="&#xf2;" 
d="M497 611l-188 145h232l110 -145h-154zM218 0v537h564v-537h-564zM592 442h-182v-349h182v349z" />
    <glyph glyph-name="oacute" unicode="&#xf3;" 
d="M571 611h-232l188 145h154zM218 0v537h564v-537h-564zM592 442h-182v-349h182v349z" />
    <glyph glyph-name="divide" unicode="&#xf7;" 
d="M438 561v145h149v-145h-149zM175 333v129h673v-129h-673zM438 90v145h149v-145h-149z" />
    <glyph glyph-name="ugrave" unicode="&#xf9;" 
d="M497 611l-188 145h232l110 -145h-154zM591 0v80l-47 -80h-326v537h190v-440h183v440h191v-537h-191z" />
    <glyph glyph-name="uacute" unicode="&#xfa;" 
d="M571 612h-232l188 145h154zM591 0v80l-47 -80h-326v537h190v-440h183v440h191v-537h-191z" />
    <glyph glyph-name="udieresis" unicode="&#xfc;" 
d="M520 599v135h182v-135h-182zM298 599v135h182v-135h-182zM591 0v80l-47 -80h-326v537h190v-440h183v440h191v-537h-191z" />
    <glyph glyph-name="amacron" unicode="&#x101;" 
d="M307 643v94h386v-94h-386zM771 1h-193v72l-52 -72h-314v535h317l49 -72v72h184v-447h56zM578 447h-179v-358h179v358z" />
    <glyph glyph-name="emacron" unicode="&#x113;" 
d="M307 643v94h386v-94h-386zM750 0h-541v537h559v-333h-312l-55 81v-191h390zM576 440h-175v-139h175v139z" />
    <glyph glyph-name="ecaron" unicode="&#x11b;" 
d="M583 611h-168l-132 145h167l49 -60l50 60h168zM750 0h-541v537h559v-333h-312l-55 81v-191h390zM576 440h-175v-139h175v139z" />
    <glyph glyph-name="imacron" unicode="&#x12b;" 
d="M307 643v94h386v-94h-386zM405 1v536h191v-536h-191z" />
    <glyph glyph-name="nacute" unicode="&#x144;" 
d="M601 611h-232l188 145h154zM592 1v440h-183v-440h-192v535h192v-79l55 79h319v-535h-191z" />
    <glyph glyph-name="ncaron" unicode="&#x148;" 
d="M583 611h-168l-132 145h167l49 -60l50 60h168zM592 1v440h-183v-440h-192v535h192v-79l55 79h319v-535h-191z" />
    <glyph glyph-name="omacron" unicode="&#x14d;" 
d="M307 643v94h386v-94h-386zM218 0v537h564v-537h-564zM592 442h-182v-349h182v349z" />
    <glyph glyph-name="umacron" unicode="&#x16b;" 
d="M307 643v94h386v-94h-386zM591 0v80l-47 -80h-326v537h190v-440h183v440h191v-537h-191z" />
    <glyph glyph-name="uni01CE" unicode="&#x1ce;" 
d="M583 611h-168l-132 145h167l49 -60l50 60h168zM771 1h-193v72l-52 -72h-314v535h317l49 -72v72h184v-447h56zM578 447h-179v-358h179v358z" />
    <glyph glyph-name="uni01D0" unicode="&#x1d0;" 
d="M583 611h-168l-132 145h167l49 -60l50 60h168zM405 1v536h191v-536h-191z" />
    <glyph glyph-name="uni01D2" unicode="&#x1d2;" 
d="M583 611h-168l-132 145h167l49 -60l50 60h168zM218 0v537h564v-537h-564zM592 442h-182v-349h182v349z" />
    <glyph glyph-name="uni01D4" unicode="&#x1d4;" 
d="M583 611h-168l-132 145h167l49 -60l50 60h168zM591 0v80l-47 -80h-326v537h190v-440h183v440h191v-537h-191z" />
    <glyph glyph-name="uni01D6" unicode="&#x1d6;" 
d="M307 803v94h386v-94h-386zM520 599v135h182v-135h-182zM298 599v135h182v-135h-182zM591 0v80l-47 -80h-326v537h190v-440h183v440h191v-537h-191z" />
    <glyph glyph-name="uni01D8" unicode="&#x1d8;" 
d="M593 771h-232l188 145h154zM520 599v135h182v-135h-182zM298 599v135h182v-135h-182zM591 0v80l-47 -80h-326v537h190v-440h183v440h191v-537h-191z" />
    <glyph glyph-name="uni01DA" unicode="&#x1da;" 
d="M583 776h-168l-132 145h167l49 -60l50 60h168zM520 599v135h182v-135h-182zM298 599v135h182v-135h-182zM591 0v80l-47 -80h-326v537h190v-440h183v440h191v-537h-191z" />
    <glyph glyph-name="uni01DC" unicode="&#x1dc;" 
d="M497 771l-188 145h232l110 -145h-154zM520 599v135h182v-135h-182zM298 599v135h182v-135h-182zM591 0v80l-47 -80h-326v537h190v-440h183v440h191v-537h-191z" />
    <glyph glyph-name="uniE7C8" unicode="&#xe7c8;" 
d="M497 611l-188 145h232l110 -145h-154zM592 1v440h-183v-440h-192v535h192v-79l55 79h319v-535h-191z" />
    <glyph glyph-name="uniE7C8" unicode="&#x1f9;" 
d="M497 611l-188 145h232l110 -145h-154zM592 1v440h-183v-440h-192v535h192v-79l55 79h319v-535h-191z" />
    <glyph glyph-name="uni0251" unicode="&#x251;" 
d="M771 1h-193v72l-52 -72h-314v535h317l49 -72v72h184v-447h56zM578 447h-179v-358h179v358z" />
    <glyph glyph-name="uni0261" unicode="&#x261;" 
d="M246 -206l-51 93h403v193l-53 -80h-326v536h319l60 -78v78h191v-742h-543zM598 441h-187v-345h187v345z" />
    <glyph glyph-name="caron" unicode="&#x2c7;" 
d="M583 831h-168l-132 145h167l49 -60l50 60h168z" />
    <glyph glyph-name="uni02C9" unicode="&#x2c9;" 
d="M307 859v94h386v-94h-386z" />
    <glyph glyph-name="uni02CA" unicode="&#x2ca;" 
 />
    <glyph glyph-name="uni02CB" unicode="&#x2cb;" 
 />
    <glyph glyph-name="dotaccent" unicode="&#x2d9;" 
 />
    <glyph glyph-name="Alpha" unicode="&#x391;" 
d="M703 0l-52 183h-300l-53 -183h-211l230 763h365l231 -763h-210zM514 662h-30l-101 -376h238z" />
    <glyph glyph-name="Beta" unicode="&#x392;" 
d="M414 0l-58 85v-85h-202v763h202v-86l54 86h431v-290l-105 -75l118 -79v-319h-440zM643 661h-287v-222h287v222zM652 338h-296v-236h296v236z" />
    <glyph glyph-name="Gamma" unicode="&#x393;" 
d="M430 661v-661h-199v763h589v-102h-390z" />
    <glyph glyph-name="uni0394" unicode="&#x394;" 
d="M95 0l228 763h354l228 -763h-810zM509 662h-18l-149 -563h317z" />
    <glyph glyph-name="Epsilon" unicode="&#x395;" 
d="M796 0h-587v763h611v-99h-411v-224h391v-98h-391v-241h428z" />
    <glyph glyph-name="Zeta" unicode="&#x396;" 
d="M801 0h-654v121l427 540h-414v102h652v-127l-420 -536h461z" />
    <glyph glyph-name="Eta" unicode="&#x397;" 
d="M650 0v337h-297v-337h-201v763h201v-324h297v324h198v-763h-198z" />
    <glyph glyph-name="Theta" unicode="&#x398;" 
d="M141 0v763h718v-763h-718zM660 660h-320v-560h320v560zM379 338v98h243v-98h-243z" />
    <glyph glyph-name="Iota" unicode="&#x399;" 
d="M403 0v763h194v-763h-194z" />
    <glyph glyph-name="Kappa" unicode="&#x39a;" 
d="M669 0l-217 336h-73v-336h-201v763h201v-325h76l207 325h225l-243 -378l249 -385h-224z" />
    <glyph glyph-name="Lambda" unicode="&#x39b;" 
d="M703 0l-189 662h-30l-186 -662h-211l230 763h365l231 -763h-210z" />
    <glyph glyph-name="Mu" unicode="&#x39c;" 
d="M743 0v492l-166 -492h-152l-162 485v-485h-185v763h260l167 -486l161 486h256v-763h-179z" />
    <glyph glyph-name="Nu" unicode="&#x39d;" 
d="M626 0l-274 470v-470h-200v763h226l272 -481v481h198v-763h-222z" />
    <glyph glyph-name="Xi" unicode="&#x39e;" 
d="M663 508v157h-322v-157h-202v255h722v-255h-198zM260 337v101h482v-101h-482zM139 0v255h202v-158h322v158h198v-255h-722z" />
    <glyph glyph-name="Omicron" unicode="&#x39f;" 
d="M152 0v763h696v-763h-696zM651 662h-301v-560h301v560z" />
    <glyph glyph-name="Pi" unicode="&#x3a0;" 
d="M765 660v-660h-197v660h-132v-660h-198v660h-102v103h728v-103h-99z" />
    <glyph glyph-name="Rho" unicode="&#x3a1;" 
d="M453 298l-55 83v-381h-199v763h199v-84l59 84h365v-465h-369zM621 662h-223v-265h223v265z" />
    <glyph glyph-name="Sigma" unicode="&#x3a3;" 
d="M149 0v214l244 169l-244 170v210h702v-97h-544l324 -230v-106l-324 -231h544v-99h-702z" />
    <glyph glyph-name="Tau" unicode="&#x3a4;" 
d="M602 662v-662h-197v662h-257v101h704v-101h-250z" />
    <glyph glyph-name="Upsilon" unicode="&#x3a5;" 
d="M697 553l-49 111h-49v-664h-197v664h-50l-50 -111h-198l91 210h223l82 -89l80 89h225l91 -210h-199z" />
    <glyph glyph-name="Phi" unicode="&#x3a6;" 
d="M595 78v-78h-189v78h-288v604h288v81h189v-81h287v-604h-287zM690 580h-95v-403h95v403zM406 580h-96v-403h96v403z" />
    <glyph glyph-name="Chi" unicode="&#x3a7;" 
d="M651 0l-152 220l-152 -220h-233l269 388l-260 375h232l145 -213l141 213h232l-258 -374l271 -389h-235z" />
    <glyph glyph-name="Psi" unicode="&#x3a8;" 
d="M862 579v-501h-267v-78h-190v78h-267v501l-43 150h195l36 -127v-427h79v588h190v-588h79v427l36 127h195z" />
    <glyph glyph-name="uni03A9" unicode="&#x3a9;" 
d="M522 0v296h121v368h-285v-368h121v-296h-337v100h151v96h-136v567h687v-567h-136v-96h151v-100h-337z" />
    <glyph glyph-name="alpha" unicode="&#x3b1;" 
d="M823 0h-181l-37 68l-29 -68h-406v536h364l50 -93l38 93h193l-125 -275l96 -166h80zM388 436h-26v-341h63l72 155z" />
    <glyph glyph-name="beta" unicode="&#x3b2;" 
d="M479 0l-49 97h158v257h-140v95h117v218h-157v-745l-40 -128h-195l44 143v826h537v-302l-79 -54l97 -53v-354h-293z" />
    <glyph glyph-name="gamma" unicode="&#x3b3;" 
d="M772 441l-176 -238v-409h-191v410l-176 237h-101v95h274l98 -144l98 144h274v-95h-100z" />
    <glyph glyph-name="delta" unicode="&#x3b4;" 
d="M221 0v387l118 64l-101 60v252h504v-96h-313v-69l350 -206v-392h-558zM586 304l-82 48l-90 -51v-204h172v207z" />
    <glyph glyph-name="epsilon" unicode="&#x3b5;" 
d="M707 0l-434 1v223l84 62l-84 65v185h458v-95h-265v-112h192v-95h-192v-140h287z" />
    <glyph glyph-name="zeta" unicode="&#x3b6;" 
d="M321 -207l-51 94h306v123l-348 216l233 273h-214v100l168 163h240l-166 -166h223v-93l-195 -230l255 -157v-323h-451z" />
    <glyph glyph-name="eta" unicode="&#x3b7;" 
d="M580 -206v648h-133v-441h-192v441h-83v94h275v-77l59 77h266v-742h-192z" />
    <glyph glyph-name="theta" unicode="&#x3b8;" 
d="M222 0v762h556v-762h-556zM584 666h-170v-231h170v231zM584 338h-170v-243h170v243z" />
    <glyph glyph-name="iota" unicode="&#x3b9;" 
d="M752 0h-431v536h193v-441h283z" />
    <glyph glyph-name="kappa" unicode="&#x3ba;" 
d="M611 0l-139 231h-32v-231h-190v536h190v-213h33l134 213h213l-161 -260l164 -276h-212z" />
    <glyph glyph-name="lambda" unicode="&#x3bb;" 
d="M841 0h-220l-120 358l-156 -358h-211l280 591l-26 79h-124v93h293l238 -668h89z" />
    <glyph glyph-name="uni03BC" unicode="&#x3bc;" 
d="M821 0h-348l-52 79v-166l-65 -120h-205l77 141v603h193v-441h143v441h191v-441h103z" />
    <glyph glyph-name="nu" unicode="&#x3bd;" 
d="M608 0h-217l-205 536h205l110 -320l107 320h206z" />
    <glyph glyph-name="xi" unicode="&#x3be;" 
d="M289 -206l-50 99h327v83l-349 189l207 171h-192v106l185 110h-178v99l189 112h260l-204 -116h207v-95l-203 -125h229v-92l-177 -144l223 -122v-275h-474z" />
    <glyph glyph-name="omicron" unicode="&#x3bf;" 
d="M225 0v537h550v-537h-550zM582 439h-164v-343h164v343z" />
    <glyph glyph-name="pi" unicode="&#x3c0;" 
d="M779 1h-254v440h-67v-336l-63 -104h-209l83 138v302h-88v96h620v-96h-87v-345h105z" />
    <glyph glyph-name="rho" unicode="&#x3c1;" 
d="M439 1v-76l-38 -131h-211l55 150v592h514v-535h-320zM564 441h-125v-345h125v345z" />
    <glyph glyph-name="sigma" unicode="&#x3c3;" 
d="M398 440v-345h186v193h-146v93h339v-381h-570v536h604v-96h-413z" />
    <glyph glyph-name="tau" unicode="&#x3c4;" 
d="M567 441v-346h191l-53 -95h-330v441h-136v95h531v-95h-203z" />
    <glyph glyph-name="upsilon" unicode="&#x3c5;" 
d="M239 0v433l-44 103h195l39 -92v-349h148v441h190v-536h-528z" />
    <glyph glyph-name="phi" unicode="&#x3c6;" 
d="M594 1v-208h-187v208h-241v535h183v-440h58v440h427v-535h-240zM651 443h-57v-347h57v347z" />
    <glyph glyph-name="chi" unicode="&#x3c7;" 
d="M614 172l164 -281h82v-97h-243l-124 209l-148 -209h-230l275 386l-150 256h-86v101h244l110 -186l130 186h232z" />
    <glyph glyph-name="psi" unicode="&#x3c8;" 
d="M822 367v-366h-230v-207h-184v207h-230v366l-53 147h187l46 -121v-298h50v441h184v-441h50v298l46 121h187z" />
    <glyph glyph-name="omega" unicode="&#x3c9;" 
d="M582 0l-81 76l-84 -76h-276v536h189v-440h82v294h176v-294h82v440h189v-536h-277z" />
    <glyph glyph-name="uni0401" unicode="&#x401;" 
d="M545 837v134h182v-134h-182zM303 837v134h182v-134h-182zM796 0h-587v762h611v-99h-411v-223h391v-98h-391v-241h428z" />
    <glyph glyph-name="uni0410" unicode="&#x410;" 
d="M703 0l-52 183h-300l-53 -183h-211l230 762h365l231 -762h-210zM514 661h-30l-101 -375h238z" />
    <glyph glyph-name="uni0411" unicode="&#x411;" 
d="M469 1l-71 83v-83h-200v761h606v-100h-405v-284l70 84h336v-461h-336zM605 362h-206v-263h207z" />
    <glyph glyph-name="uni0412" unicode="&#x412;" 
d="M414 0l-58 85v-85h-202v762h202v-86l54 86h431v-289l-105 -75l118 -79v-319h-440zM643 660h-287v-221h287v221zM652 338h-296v-236h296v236z" />
    <glyph glyph-name="uni0413" unicode="&#x413;" 
d="M480 663v-663h-200v763h483v-100h-283z" />
    <glyph glyph-name="uni0414" unicode="&#x414;" 
d="M688 -132v133h-409v-133h-193v233h79l274 662h382v-662h63v-233h-196zM625 661h-115l-229 -560h344v560z" />
    <glyph glyph-name="uni0415" unicode="&#x415;" 
d="M796 0h-587v762h611v-99h-411v-223h391v-98h-391v-241h428z" />
    <glyph glyph-name="uni0416" unicode="&#x416;" 
d="M741 1l-111 335h-36v-335h-194v335h-36l-111 -335h-177l116 390l-118 371h181l103 -323h42v323h194v-323h38l107 323h183l-122 -371l126 -390h-185z" />
    <glyph glyph-name="uni0417" unicode="&#x417;" 
d="M197 1l-34 100h439v242h-341v100h341v221h-412v98h607v-296l-102 -72l102 -76v-317h-600z" />
    <glyph glyph-name="uni0418" unicode="&#x418;" 
d="M637 0v540l-283 -540h-188v762h194v-543l286 543h188v-762h-197z" />
    <glyph glyph-name="uni0419" unicode="&#x419;" 
d="M657 826h-304l-122 145h188l51 -60h66l46 60h187zM637 0v540l-283 -540h-188v762h194v-543l286 543h188v-762h-197z" />
    <glyph glyph-name="uni041A" unicode="&#x41a;" 
d="M669 1l-217 335h-73v-335h-201v761h201v-324h76l207 324h225l-237 -377l243 -384h-224z" />
    <glyph glyph-name="uni041B" unicode="&#x41b;" 
d="M671 1l-174 490l-168 -490h-219l284 760h205l291 -760h-219z" />
    <glyph glyph-name="uni041C" unicode="&#x41c;" 
d="M743 0v492l-166 -492h-152l-162 485v-485h-185v763h260l167 -486l161 486h256v-763h-179z" />
    <glyph glyph-name="uni041D" unicode="&#x41d;" 
d="M650 0v337h-297v-337h-201v763h201v-324h297v324h198v-763h-198z" />
    <glyph glyph-name="uni041E" unicode="&#x41e;" 
d="M152 0v762h696v-762h-696zM645 661h-291v-559h291v559z" />
    <glyph glyph-name="uni041F" unicode="&#x41f;" 
d="M626 0v662h-253v-662h-198v762h650v-762h-199z" />
    <glyph glyph-name="uni0420" unicode="&#x420;" 
d="M453 298l-55 83v-380h-199v761h199v-84l59 84h365v-464h-369zM621 661h-223v-264h223v264z" />
    <glyph glyph-name="uni0421" unicode="&#x421;" 
d="M831 0h-668v762h688v-99h-488v-564h512z" />
    <glyph glyph-name="uni0422" unicode="&#x422;" 
d="M602 662v-662h-197v662h-257v101h704v-101h-250z" />
    <glyph glyph-name="uni0423" unicode="&#x423;" 
d="M530 1h-286l-43 97h154l50 110l-263 554h217l150 -324l144 324h217z" />
    <glyph glyph-name="uni0424" unicode="&#x424;" 
d="M601 80v-79h-195v79h-264v600h264v82h195v-82h268v-600h-268zM691 581h-90v-401h90v401zM406 581h-91v-401h91v401z" />
    <glyph glyph-name="uni0425" unicode="&#x425;" 
d="M651 1l-152 219l-152 -219h-233l269 387l-260 374h232l145 -212l141 212h232l-258 -373l271 -388h-235z" />
    <glyph glyph-name="uni0426" unicode="&#x426;" 
d="M662 -133v134h-514v761h194v-666h254v666h195v-666h65v-229h-194z" />
    <glyph glyph-name="uni0427" unicode="&#x427;" 
d="M587 1v310l-56 -83h-355v533h198v-434h213v434h197v-760h-197z" />
    <glyph glyph-name="uni0428" unicode="&#x428;" 
d="M117 1v761h186v-664h104v664h186v-664h105v664h185v-761h-766z" />
    <glyph glyph-name="uni0429" unicode="&#x429;" 
d="M728 -132v132h-627v762h187v-664h101v664h187v-664h99v664h188v-664h56v-230h-191z" />
    <glyph glyph-name="uni042A" unicode="&#x42a;" 
d="M511 0l-73 81v-81h-193v663h-133v98h326v-382l73 83h315v-462h-315zM630 364h-192v-267h192v267z" />
    <glyph glyph-name="uni042B" unicode="&#x42b;" 
d="M702 1v760h190v-760h-190zM367 1l-70 84v-84h-189v760h189v-383l70 84h264v-461h-264zM440 363h-143v-263h143v263z" />
    <glyph glyph-name="uni042C" unicode="&#x42c;" 
d="M470 0l-72 83v-83h-196v761h196v-383l72 84h337v-462h-337zM610 362h-212v-262h212v262z" />
    <glyph glyph-name="uni042D" unicode="&#x42d;" 
d="M173 0l-35 99h498v236h-385v97h385v232h-462v98h658v-762h-659z" />
    <glyph glyph-name="uni042E" unicode="&#x42e;" 
d="M367 1v342h-91v-342h-189v761h189v-319h91v319h546v-761h-546zM725 665h-171v-564h171v564z" />
    <glyph glyph-name="uni042F" unicode="&#x42f;" 
d="M598 1v402l-47 -85h-50l-164 -317h-215l163 317h-106v444h359l60 -83v83h201v-761h-201zM598 663h-220v-246h220v246z" />
    <glyph glyph-name="uni0430" unicode="&#x430;" 
d="M777 0h-200v76l-55 -76h-328v319h383v124h-187v-72h-196v166h574v-444h58zM577 220h-188v-127h188v127z" />
    <glyph glyph-name="uni0431" unicode="&#x431;" 
d="M756 632h-362v-225l74 78h342v-484h-609v726h400l19 35h198zM616 391h-222v-296h222v296z" />
    <glyph glyph-name="uni0432" unicode="&#x432;" 
d="M491 0l-64 77v-77h-196v537h196v-77l64 77h287v-204l-87 -49l97 -63v-221h-297zM584 443h-157v-116h157v116zM594 233h-167v-140h167v140z" />
    <glyph glyph-name="uni0433" unicode="&#x433;" 
d="M460 440v-439h-193v535h495v-96h-302z" />
    <glyph glyph-name="uni0434" unicode="&#x434;" 
d="M622 -133v133h-280v-133h-188v228h80l168 442h343v-442h61v-228h-184zM556 440h-87l-132 -345h219v345z" />
    <glyph glyph-name="uni0435" unicode="&#x435;" 
d="M750 0h-541v537h559v-333h-312l-55 81v-191h390zM576 440h-175v-139h175v139z" />
    <glyph glyph-name="uni0436" unicode="&#x436;" 
d="M731 0l-91 235h-39v-235h-195v235h-36l-90 -235h-179l104 283l-106 254h183l88 -210h36v210h195v-210h39l85 210h184l-105 -254l106 -283h-179z" />
    <glyph glyph-name="uni0437" unicode="&#x437;" 
d="M243 1l-29 93h359v134h-261v94h261v120h-330v95h521v-213l-85 -49l87 -64v-210h-523z" />
    <glyph glyph-name="uni0438" unicode="&#x438;" 
d="M581 0v326l-168 -326h-185v537h190v-319l165 319h189v-537h-191z" />
    <glyph glyph-name="uni0439" unicode="&#x439;" 
d="M583 611h-168l-132 145h167l49 -60l50 60h168zM581 0v326l-168 -326h-185v537h190v-319l165 319h189v-537h-191z" />
    <glyph glyph-name="uni043A" unicode="&#x43a;" 
d="M578 1l-116 229h-39v-229h-190v535h190v-211h34l117 211h205v-95h-60l-90 -161l96 -186h54v-93h-201z" />
    <glyph glyph-name="uni043B" unicode="&#x43b;" 
d="M613 0l-115 283l-113 -283h-205l221 537h188l231 -537h-207z" />
    <glyph glyph-name="uni043C" unicode="&#x43c;" 
d="M675 1v277l-100 -277h-146l-101 267l-1 -267h-186v535h233l125 -300l128 300h232v-535h-184z" />
    <glyph glyph-name="uni043D" unicode="&#x43d;" 
d="M580 0v231h-160v-231h-190v537h190v-210h160v210h190v-537h-190z" />
    <glyph glyph-name="uni043E" unicode="&#x43e;" 
d="M218 0v537h564v-537h-564zM592 442h-182v-349h182v349z" />
    <glyph glyph-name="uni043F" unicode="&#x43f;" 
d="M579 0v440h-158v-440h-191v536h540v-536h-191z" />
    <glyph glyph-name="uni0440" unicode="&#x440;" 
d="M479 1l-57 80v-288h-190v744h190v-77l50 77h323v-536h-316zM605 443h-183v-346h183v346z" />
    <glyph glyph-name="uni0441" unicode="&#x441;" 
d="M740 1h-520v535h544v-94h-355v-345h371z" />
    <glyph glyph-name="uni0442" unicode="&#x442;" 
d="M598 443v-443h-195v443h-187v94h568v-94h-186z" />
    <glyph glyph-name="uni0443" unicode="&#x443;" 
d="M507 -207h-262l-37 93h144l53 120l-219 530h201l119 -292l128 292h196z" />
    <glyph glyph-name="uni0444" unicode="&#x444;" 
d="M594 1v-209h-184v209h-255v536h255v207h184v-207h256v-536h-256zM667 442h-73v-347h73v347zM410 442h-74v-347h74v347z" />
    <glyph glyph-name="uni0445" unicode="&#x445;" 
d="M601 1l-103 135l-102 -135h-226l215 283l-192 253h229l79 -106l78 106h225l-190 -253l216 -283h-229z" />
    <glyph glyph-name="uni0446" unicode="&#x446;" 
d="M610 -132v133h-402v537h190v-446h158v446h191v-446h53v-224h-190z" />
    <glyph glyph-name="uni0447" unicode="&#x447;" 
d="M542 0v241l-70 -75h-239v371h193v-280h116v280h191v-537h-191z" />
    <glyph glyph-name="uni0448" unicode="&#x448;" 
d="M143 1v535h180v-442h86v442h181v-442h86v442h181v-535h-714z" />
    <glyph glyph-name="uni0449" unicode="&#x449;" 
d="M694 -132v132h-556v537h178v-440h76v440h178v-440h76v440h178v-440h58v-229h-188z" />
    <glyph glyph-name="uni044A" unicode="&#x44a;" 
d="M541 1l-63 77v-77h-189v441h-118v95h307v-266l63 76h260v-346h-260zM612 255h-134v-162h134v162z" />
    <glyph glyph-name="uni044B" unicode="&#x44b;" 
d="M672 0v537h190v-537h-190zM385 0l-57 74v-74h-190v537h190v-267l57 78h227v-348h-227zM428 254h-100v-160h100v160z" />
    <glyph glyph-name="uni044C" unicode="&#x44c;" 
d="M483 0l-59 77v-77h-192v537h192v-269l59 79h291v-347h-291zM580 252h-156v-157h156v157z" />
    <glyph glyph-name="uni044D" unicode="&#x44d;" 
d="M231 1l-30 93h380v132h-277v93h277v125h-350v93h544v-536h-544z" />
    <glyph glyph-name="uni044E" unicode="&#x44e;" 
d="M380 0v226h-61v-226h-189v537h189v-216h61v216h490v-537h-490zM686 443h-121v-349h121v349z" />
    <glyph glyph-name="uni044F" unicode="&#x44f;" 
d="M583 1v209h-59l-118 -209h-213l114 209h-75v327h280l71 -78v78h194v-536h-194zM583 443h-158v-141h158v141z" />
    <glyph glyph-name="uni0451" unicode="&#x451;" 
d="M520 614v135h182v-135h-182zM298 614v135h182v-135h-182zM750 0h-541v537h559v-333h-312l-55 81v-191h390zM576 440h-175v-139h175v139z" />
    <glyph glyph-name="uniE7C7" unicode="&#xe7c7;" 
d="M571 611h-232l188 145h154zM705 1v439h-114v-439h-184v439h-114v-439h-184v535h184v-79l52 79h246v-79l60 79h240v-535h-186z" />
    <glyph glyph-name="uniE7C7" unicode="&#x1e3f;" 
d="M571 611h-232l188 145h154zM705 1v439h-114v-439h-184v439h-114v-439h-184v535h184v-79l52 79h246v-79l60 79h240v-535h-186z" />
    <glyph glyph-name="uni2010" unicode="&#x2010;" 
 />
    <glyph glyph-name="endash" unicode="&#x2013;" 
 />
    <glyph glyph-name="emdash" unicode="&#x2014;" 
d="M-4 363v40h1008v-40h-1008z" />
    <glyph glyph-name="uni2015" unicode="&#x2015;" 
 />
    <glyph glyph-name="uni2016" unicode="&#x2016;" 
d="M550 -121v1008h40v-1008h-40zM410 -121v1008h40v-1008h-40z" />
    <glyph glyph-name="quoteleft" unicode="&#x2018;" 
d="M732 515v182l102 148h66l-102 -149h123v-181h-189z" />
    <glyph glyph-name="quoteright" unicode="&#x2019;" 
d="M167 505h-66l102 149h-123v181h189v-182z" />
    <glyph glyph-name="quotedblleft" unicode="&#x201c;" 
d="M741 516v182l102 148h67l-103 -149h123v-181h-189zM511 516v182l102 148h67l-103 -149h123v-181h-189z" />
    <glyph glyph-name="quotedblright" unicode="&#x201d;" 
d="M387 505h-66l102 149h-123v181h189v-182zM157 505h-66l102 149h-123v181h189v-182z" />
    <glyph glyph-name="twodotenleader" unicode="&#x2025;" 
 />
    <glyph glyph-name="uni22EF" unicode="&#x22ef;" 
d="M718 308q6 15 6 38v73q0 11 -1 21t-5 19h164q-2 -10 -4 -22t-2 -18v-73q0 -9 1.5 -19.5t4.5 -18.5h-164zM418 308q6 15 6 38v73q0 11 -1 21t-5 19h164q-2 -10 -4 -22t-2 -18v-73q0 -9 1.5 -19.5t4.5 -18.5h-164zM118 308q6 15 6 38v73q0 11 -1 21t-5 19h164
q-2 -10 -4 -22t-2 -18v-73q0 -9 1.5 -19.5t4.5 -18.5h-164z" />
    <glyph glyph-name="uni22EF" unicode="&#x2026;" 
d="M718 308q6 15 6 38v73q0 11 -1 21t-5 19h164q-2 -10 -4 -22t-2 -18v-73q0 -9 1.5 -19.5t4.5 -18.5h-164zM418 308q6 15 6 38v73q0 11 -1 21t-5 19h164q-2 -10 -4 -22t-2 -18v-73q0 -9 1.5 -19.5t4.5 -18.5h-164zM118 308q6 15 6 38v73q0 11 -1 21t-5 19h164
q-2 -10 -4 -22t-2 -18v-73q0 -9 1.5 -19.5t4.5 -18.5h-164z" />
    <glyph glyph-name="perthousand" unicode="&#x2030;" 
d="M677 -1v394h265v-394h-265zM374 -1v361l-151 -382h-49l155 390h-253v394h265v-362l153 386h49l-156 -393h252v-394h-265zM827 297h-35v-203h35v203zM226 666h-35v-203h35v203zM524 297h-35v-203h35v203z" />
    <glyph glyph-name="minute" unicode="&#x2032;" 
d="M202 482l-50 37l168 292l97 -73z" />
    <glyph glyph-name="second" unicode="&#x2033;" 
d="M291 454l-52 38l170 291l99 -72zM115 512l-50 37l168 292l97 -73z" />
    <glyph glyph-name="uni2035" unicode="&#x2035;" 
 />
    <glyph glyph-name="uni203B" unicode="&#x203b;" 
d="M574 698q0 -31 -21.5 -52.5t-52.5 -21.5t-53.5 21.5t-22.5 52.5t22 52.5t53 21.5t53 -21.5t22 -52.5zM885 386q0 -31 -21.5 -52.5t-52.5 -21.5t-53.5 21.5t-22.5 52.5t22 52.5t53 21.5t53 -21.5t22 -52.5zM810 -4l-310 309l-311 -310l-79 86l309 307l-306 308l79 80
l308 -307l305 305l85 -81l-308 -308l308 -307zM262 387q0 -31 -21 -52.5t-53 -21.5t-54 21.5t-22 52.5t22 52.5t53 21.5t53 -21.5t22 -52.5zM574 75q0 -31 -21.5 -52.5t-52.5 -21.5t-53.5 21.5t-22.5 52.5t22 52.5t53 21.5t53 -21.5t22 -52.5z" />
    <glyph glyph-name="uniFE19" unicode="&#xfe19;" 
d="M418 608q6 15 6 38v73q0 11 -1 21t-5 19h164q-2 -10 -4 -22t-2 -18v-73q0 -9 1.5 -19.5t4.5 -18.5h-164zM418 308q6 15 6 38v73q0 11 -1 21t-5 19h164q-2 -10 -4 -22t-2 -18v-73q0 -9 1.5 -19.5t4.5 -18.5h-164zM418 8q6 15 6 38v73q0 11 -1 21t-5 19h164q-2 -10 -4 -22
t-2 -18v-73q0 -9 1.5 -19.5t4.5 -18.5h-164z" />
    <glyph glyph-name="uniFE19" unicode="&#xe796;" 
d="M418 608q6 15 6 38v73q0 11 -1 21t-5 19h164q-2 -10 -4 -22t-2 -18v-73q0 -9 1.5 -19.5t4.5 -18.5h-164zM418 308q6 15 6 38v73q0 11 -1 21t-5 19h164q-2 -10 -4 -22t-2 -18v-73q0 -9 1.5 -19.5t4.5 -18.5h-164zM418 8q6 15 6 38v73q0 11 -1 21t-5 19h164q-2 -10 -4 -22
t-2 -18v-73q0 -9 1.5 -19.5t4.5 -18.5h-164z" />
    <glyph glyph-name="uniFE19" unicode="&#x205d;" 
d="M418 608q6 15 6 38v73q0 11 -1 21t-5 19h164q-2 -10 -4 -22t-2 -18v-73q0 -9 1.5 -19.5t4.5 -18.5h-164zM418 308q6 15 6 38v73q0 11 -1 21t-5 19h164q-2 -10 -4 -22t-2 -18v-73q0 -9 1.5 -19.5t4.5 -18.5h-164zM418 8q6 15 6 38v73q0 11 -1 21t-5 19h164q-2 -10 -4 -22
t-2 -18v-73q0 -9 1.5 -19.5t4.5 -18.5h-164z" />
    <glyph glyph-name="uniE76C" unicode="&#xe76c;" horiz-adv-x="810" 
d="M734 -12h-603v241h-91v101h91v70h-91v100h91v251h623v-99h-423v-152h259v-100h-259v-70h219v-101h-219v-142h446z" />
    <glyph glyph-name="uniE76C" unicode="&#x20ac;" horiz-adv-x="810" 
d="M734 -12h-603v241h-91v101h91v70h-91v100h91v251h623v-99h-423v-152h259v-100h-259v-70h219v-101h-219v-142h446z" />
    <glyph glyph-name="uni2103" unicode="&#x2103;" 
d="M859 1h-513v656h538v-102h-336v-457h362zM330 663q-2 -32 -16 -59.5t-41 -45.5q-17 -11 -36.5 -16.5t-39.5 -5.5q-18 0 -38 5q-29 8 -53.5 31.5t-34.5 53.5q-6 20 -6 41q0 37 17 68q14 25 37 42.5t53 22.5q15 3 29 3q48 0 86 -35q43 -40 43 -98v-7v0zM265 669
q0 11 -3 21.5t-9 18.5q-9 14 -24.5 20.5t-31.5 6.5q-43 0 -59 -37q-6 -13 -6 -29q0 -18 9 -35q8 -15 23 -24.5t33 -9.5q23 0 38.5 11.5t23.5 28.5q6 14 6 28z" />
    <glyph glyph-name="uni2105" unicode="&#x2105;" 
 />
    <glyph glyph-name="uni2109" unicode="&#x2109;" 
 />
    <glyph glyph-name="uni2116" unicode="&#x2116;" 
d="M859 -11q5 13 5 31v56q0 20 -5 31h128q-2 -8 -3.5 -17t-1.5 -14v-56q0 -16 5 -31h-128zM531 -12v535h289v-535h-289zM352 -12l-148 470v-470h-118v763h132l147 -481v481h117v-763h-130zM708 428h-65v-347h65v347z" />
    <glyph glyph-name="uni2121" unicode="&#x2121;" 
 />
    <glyph glyph-name="uni2160" unicode="&#x2160;" 
d="M400 0v762h200v-762h-200z" />
    <glyph glyph-name="uni2161" unicode="&#x2161;" 
d="M566 0v762h195v-762h-195zM239 0v762h195v-762h-195z" />
    <glyph glyph-name="uni2162" unicode="&#x2162;" 
d="M675 0v762h185v-762h-185zM411 0v762h179v-762h-179zM140 0v762h185v-762h-185z" />
    <glyph glyph-name="uni2163" unicode="&#x2163;" 
d="M736 0h-215l-171 762h187l91 -504l91 504h188zM127 0v762h189v-762h-189z" />
    <glyph glyph-name="uni2164" unicode="&#x2164;" 
d="M612 0h-224l-224 762h204l132 -517l132 517h204z" />
    <glyph glyph-name="uni2165" unicode="&#x2165;" 
d="M685 0v762h189v-762h-189zM480 0h-215l-171 762h188l91 -504l91 504h187z" />
    <glyph glyph-name="uni2166" unicode="&#x2166;" 
d="M743 0v762h163v-762h-163zM540 0v762h162v-762h-162zM398 0h-204l-117 762h164l56 -488l54 488h164z" />
    <glyph glyph-name="uni2167" unicode="&#x2167;" 
d="M783 0v762h139v-762h-139zM620 0v762h131v-762h-131zM450 0v762h138v-762h-138zM345 0h-210l-91 762h155l42 -508l40 508h155z" />
    <glyph glyph-name="uni2168" unicode="&#x2168;" 
d="M713 0l-90 181l-90 -181h-201l192 385l-188 377h198l87 -182l85 182h202l-185 -378l192 -384h-202zM123 0v762h189v-762h-189z" />
    <glyph glyph-name="uni2169" unicode="&#x2169;" 
d="M629 1l-129 215l-129 -215h-228l249 387l-236 374h220l124 -205l124 205h220l-236 -374l249 -387h-228z" />
    <glyph glyph-name="uni216A" unicode="&#x216a;" 
d="M685 0v762h189v-762h-189zM453 0l-90 181l-90 -181h-201l192 385l-188 377h198l87 -182l85 182h202l-185 -378l192 -384h-202z" />
    <glyph glyph-name="uni216B" unicode="&#x216b;" 
d="M743 0v762h163v-762h-163zM540 0v762h162v-762h-162zM360 0l-70 177l-69 -177h-165l151 388l-146 374h166l63 -162l64 162h166l-147 -374l152 -388h-165z" />
    <glyph glyph-name="uni2170" unicode="&#x2170;" 
 />
    <glyph glyph-name="uni2171" unicode="&#x2171;" 
 />
    <glyph glyph-name="uni2172" unicode="&#x2172;" 
 />
    <glyph glyph-name="uni2173" unicode="&#x2173;" 
 />
    <glyph glyph-name="uni2174" unicode="&#x2174;" 
 />
    <glyph glyph-name="uni2175" unicode="&#x2175;" 
 />
    <glyph glyph-name="uni2176" unicode="&#x2176;" 
 />
    <glyph glyph-name="uni2177" unicode="&#x2177;" 
 />
    <glyph glyph-name="uni2178" unicode="&#x2178;" 
 />
    <glyph glyph-name="uni2179" unicode="&#x2179;" 
 />
    <glyph glyph-name="arrowleft" unicode="&#x2190;" 
d="M338 341v-126l-337 169l337 169v-128h665v-84h-665z" />
    <glyph glyph-name="arrowup" unicode="&#x2191;" 
d="M542 546v-667h-84v667h-128l169 337l169 -337h-126z" />
    <glyph glyph-name="arrowright" unicode="&#x2192;" 
d="M661 215v126h-665v84h665v128l337 -169z" />
    <glyph glyph-name="arrowdown" unicode="&#x2193;" 
d="M499 -121l-169 337h128v667h84v-667h126z" />
    <glyph glyph-name="uni2196" unicode="&#x2196;" 
 />
    <glyph glyph-name="uni2197" unicode="&#x2197;" 
 />
    <glyph glyph-name="uni2198" unicode="&#x2198;" 
 />
    <glyph glyph-name="uni2199" unicode="&#x2199;" 
 />
    <glyph glyph-name="element" unicode="&#x2208;" 
d="M407 36q-46 4 -91 23.5t-82.5 50t-66 70t-43.5 84.5q-9 27 -13 54.5t-4 54.5q0 90 43.5 169t122.5 127q64 38 139 47h465v-113h-452q-28 -3 -56 -14t-53 -28.5t-45 -40.5t-32 -50q-4 -8 -7.5 -17.5t-5.5 -18.5h651v-113h-651q12 -53 45 -90q61 -70 146 -82h460v-113h-470
z" />
    <glyph glyph-name="product" unicode="&#x220f;" 
d="M765 660v-660h-197v660h-132v-660h-198v660h-102v103h728v-103h-99z" />
    <glyph glyph-name="summation" unicode="&#x2211;" 
d="M149 0v214l244 169l-244 170v210h702v-97h-544l324 -230v-106l-324 -231h544v-99h-702z" />
    <glyph glyph-name="uni2215" unicode="&#x2215;" 
 />
    <glyph glyph-name="radical" unicode="&#x221a;" 
d="M464 630l-184 -668l-223 231l78 93l78 -81l155 541h507v-116h-411z" />
    <glyph glyph-name="proportional" unicode="&#x221d;" 
d="M927 259q-26 -8 -58 -10.5t-69 -2.5q-52 0 -93.5 7.5t-76 19.5t-65.5 28t-64 34q-39 -17 -77.5 -38t-81.5 -35q-21 -7 -49 -12t-57 -5q-27 0 -51.5 5.5t-42.5 18.5q-35 26 -54.5 55.5t-21.5 59.5v7q0 34 20 65.5t49 48.5q24 14 51 20t56 6q25 0 47 -3q57 -14 109 -38.5
t103 -51.5q38 21 68.5 38.5t63 29.5t72 19t95.5 7q47 0 76 -5t51 -10v-98q-35 8 -69.5 13t-72.5 5q-11 0 -21.5 -0.5t-21.5 -1.5q-44 -4 -79 -21t-56 -30q22 -11 56.5 -27.5t78.5 -20.5q11 -1 22 -1.5t22 -0.5q42 0 80 5t61 11v-91v0zM413 391q-11 4 -28.5 10.5t-37.5 13.5
t-40.5 13t-38.5 9q-7 1 -13.5 1.5t-13.5 0.5q-13 0 -25 -1.5t-23 -6.5t-20.5 -11t-14.5 -17q-2 -4 -2 -11q0 -10 6 -19t16 -16q31 -20 69 -20q24 0 48 6q31 7 61.5 20.5t56.5 27.5z" />
    <glyph glyph-name="infinity" unicode="&#x221e;" 
d="M934 385q0 -33 -17.5 -63t-52.5 -53q-26 -14 -52 -19.5t-52 -5.5q-38 0 -77 11q-47 13 -91 35.5t-86 44.5q-39 -17 -80 -38t-84 -35q-21 -7 -49 -12t-57 -5q-27 0 -51.5 5.5t-42.5 18.5q-35 26 -54.5 55.5t-21.5 59.5v7q0 40 30 79q27 35 65 48t80 13q24 0 48 -3
q57 -14 109 -38.5t103 -51.5q46 23 93 48.5t97 38.5q34 8 63 8q26 0 53 -6.5t55 -23.5q35 -20 53.5 -51.5t18.5 -66.5zM845 384q0 17 -11.5 29.5t-37.5 17.5q-16 4 -38 4q-26 0 -43 -5q-29 -8 -55.5 -20.5t-52.5 -25.5q38 -19 75.5 -34.5t82.5 -15.5q37 0 57.5 15.5
t22.5 34.5zM413 391q-11 4 -28.5 10.5t-37.5 13.5t-40.5 13t-38.5 9q-7 1 -14 1.5t-14 0.5q-26 0 -48.5 -8.5t-35.5 -27.5q-1 -3 -1 -9q0 -19 21 -37q18 -11 36.5 -15t37.5 -4q20 0 45 5q31 7 61.5 20.5t56.5 27.5z" />
    <glyph glyph-name="orthogonal" unicode="&#x221f;" 
 />
    <glyph glyph-name="angle" unicode="&#x2220;" 
d="M384 216h363v-109h-634l613 602l79 -78z" />
    <glyph glyph-name="uni2223" unicode="&#x2223;" 
 />
    <glyph glyph-name="uni2225" unicode="&#x2225;" 
d="M412 -121l-37 13l344 948l38 -14zM281 -74l-38 14l345 947l37 -13z" />
    <glyph glyph-name="logicaland" unicode="&#x2227;" 
d="M703 0l-201 453l-204 -453h-136l340 764l337 -764h-136z" />
    <glyph glyph-name="logicalor" unicode="&#x2228;" 
d="M502 0l-340 764h136l204 -453l201 453h136z" />
    <glyph glyph-name="intersection" unicode="&#x2229;" 
d="M727 -1v452q-3 29 -14 56.5t-28.5 52.5t-40.5 45t-50 32q-21 10 -44.5 14.5t-47.5 4.5q-41 0 -79.5 -12.5t-67.5 -38.5q-70 -61 -82 -146v-460h-113v470q4 47 23.5 91.5t50 82t70 66t84.5 43.5q27 9 54.5 13t54.5 4q90 0 169 -43.5t127 -122.5q38 -64 47 -139v-465h-113z
" />
    <glyph glyph-name="union" unicode="&#x222a;" 
d="M840 287q-4 -46 -23.5 -91t-50 -82.5t-70 -66t-84.5 -43.5q-27 -9 -54.5 -13t-54.5 -4q-90 0 -169 43.5t-127 122.5q-38 64 -47 139v448h113v-434q3 -28 14 -56t28.5 -53t40.5 -45t50 -33q43 -20 92 -20q41 0 79.5 13t67.5 39q70 61 82 146v443h113v-453v0z" />
    <glyph glyph-name="integral" unicode="&#x222b;" 
d="M667 650q-13 10 -25 22t-28 12q-5 0 -13 -3q-15 -10 -20.5 -24.5t-7.5 -31.5l-79 -559q-7 -46 -37 -69.5t-64 -29.5q-18 -3 -34 -3q-38 0 -68 16t-54 45l65 76q10 -12 21.5 -23t27.5 -11q6 0 9 1q17 7 23 22.5t10 30.5l79 561q5 35 31.5 63.5t59.5 38.5q11 3 22.5 5
t22.5 2q36 0 68.5 -16t56.5 -44z" />
    <glyph glyph-name="uni222E" unicode="&#x222e;" 
d="M673 673q-12 8 -24.5 17t-26.5 9q-8 0 -13 -2q-14 -5 -19.5 -14t-8.5 -31l-11 -83q30 -10 53 -29t39 -43.5t24.5 -53t8.5 -58.5q0 -60 -31.5 -109t-85.5 -71q-11 -5 -25 -7.5t-26 -4.5q0 -7 -1 -19t-3 -23q-2 -13 -4 -28q-2 -16 -5 -35t-9.5 -37t-18 -33.5t-29.5 -26.5
q-14 -8 -32 -14t-39 -6q-26 0 -54 11t-59 37l57 76q36 -28 58 -28q24 0 27 30l13 105q-50 20 -84.5 64t-39.5 97q-1 5 -1 11v11q0 49 21.5 91.5t63.5 71.5q20 13 41 21.5t44 11.5q1 10 2.5 24.5t3.5 28.5q3 16 5 33q2 15 5 29.5t10 28.5t19 27.5t31 25.5q30 18 70 18
q30 0 59 -10.5t49 -31.5zM600 383q0 28 -12 52q-3 6 -12 17.5t-17 16.5l-22 -181q11 3 23.5 11t18.5 16q21 27 21 68zM463 481q-20 -6 -37 -25.5t-22 -36.5q-5 -20 -5 -38q0 -38 15 -58q5 -5 13 -13.5t13 -10.5l23 182v0z" />
    <glyph glyph-name="therefore" unicode="&#x2234;" 
d="M409 556v147h149v-147h-149zM644 54v147h149v-147h-149zM176 54v147h149v-147h-149z" />
    <glyph glyph-name="uni2235" unicode="&#x2235;" 
d="M642 537v147h149v-147h-149zM177 537v147h149v-147h-149zM406 35v147h149v-147h-149z" />
    <glyph glyph-name="uni2236" unicode="&#x2236;" 
d="M409 549q7 19 7 43v81q0 26 -7 44h182q-3 -11 -5 -24t-2 -20v-81q0 -10 2 -21.5t5 -21.5h-182zM409 49q7 19 7 43v81q0 26 -7 44h182q-3 -11 -5 -24t-2 -20v-81q0 -10 2 -21.5t5 -21.5h-182z" />
    <glyph glyph-name="uni2237" unicode="&#x2237;" 
d="M658 537v147h149v-147h-149zM193 537v147h149v-147h-149zM658 69v147h149v-147h-149zM193 69v147h149v-147h-149z" />
    <glyph glyph-name="uni223D" unicode="&#x223d;" 
d="M906 277q-48 47 -101.5 76.5t-113.5 29.5q-18 0 -36 -3q-47 -8 -90 -24t-85.5 -31.5t-86.5 -27.5t-94 -12q-9 0 -18.5 0.5t-19.5 1.5q-67 8 -127.5 37.5t-117.5 73.5l72 112q47 -45 106 -66.5t120 -21.5q62 0 117 21q33 13 65 25.5t64 23t64.5 17t66.5 6.5q32 0 72 -8
q61 -14 117.5 -46t104.5 -83z" />
    <glyph glyph-name="approxequal" unicode="&#x2248;" 
d="M972 501q-48 -44 -98 -73t-111 -40q-35 -7 -72 -7q-68 0 -130.5 20t-129.5 42q-54 18 -116 18q-61 0 -120.5 -19t-106.5 -57l-64 103q57 38 113.5 60.5t123.5 28.5q10 1 19.5 1.5t18.5 0.5q50 0 94 -10.5t86.5 -24t85.5 -27t90 -20.5q8 -2 16.5 -2h16.5q60 0 112.5 27.5
t101.5 68.5l70 -90v0zM976 306q-48 -44 -100 -70.5t-113 -37.5q-35 -7 -72 -7q-68 0 -130.5 20t-129.5 42q-54 17 -107 17q-60 0 -118.5 -20t-113.5 -60l-64 103q57 38 111.5 63t121.5 31q10 1 19.5 1.5t18.5 0.5q50 0 94 -10.5t86.5 -24t85.5 -27t90 -20.5q23 -3 43 -3
q59 0 109 23.5t99 68.5l70 -90v0z" />
    <glyph glyph-name="uni224C" unicode="&#x224c;" 
d="M804 467q-37 39 -76 66.5t-84 27.5h-12t-13 -2q-34 -6 -67 -19.5l-66 -27t-67 -24t-72 -10.5q-7 0 -14 0.5t-14 1.5q-51 6 -99.5 32t-92.5 62l67 92q39 -38 81 -56t86 -18t87 18q51 22 99 40t101 18q13 0 25 -1t26 -4q47 -10 93.5 -39t81.5 -68zM149 327v113h702v-113
h-702zM149 172v114h702v-114h-702z" />
    <glyph glyph-name="uni2252" unicode="&#x2252;" 
 />
    <glyph glyph-name="notequal" unicode="&#x2260;" 
d="M502 221l-80 -193l-113 55l58 138h-219v121h270l38 89h-308v122h358l72 173l114 -53l-52 -120h212v-122h-262l-37 -89h299v-121h-350z" />
    <glyph glyph-name="equivalence" unicode="&#x2261;" 
d="M149 481v114h702v-114h-702zM149 327v113h702v-113h-702zM149 172v114h702v-114h-702z" />
    <glyph glyph-name="lessequal" unicode="&#x2264;" 
d="M100 503l775 254v-130l-366 -104q-8 -2 -23 -5.5t-30 -6.5q-18 -4 -37 -8q19 -3 37 -7l30 -6t23 -5l366 -103v-131zM133 106v124h742v-124h-742z" />
    <glyph glyph-name="greaterequal" unicode="&#x2265;" 
d="M135 251v131l366 103q8 2 23 5l30 6q18 4 37 7q-19 4 -37 8q-15 3 -30 6.5t-23 5.5l-366 104v130l775 -254zM135 106v124h742v-124h-742z" />
    <glyph glyph-name="uni2266" unicode="&#x2266;" 
 />
    <glyph glyph-name="uni2267" unicode="&#x2267;" 
 />
    <glyph glyph-name="uni226E" unicode="&#x226e;" 
d="M650 203l-38 -170l-117 27l41 182l-436 150l510 177l38 171l118 -25l-23 -100l132 46v-133l-163 -49l-36 -161l199 -59v-134zM509 418q-8 -2 -28 -6t-40 -9q-24 -5 -52 -10q28 -5 52 -10q20 -5 40 -9t28 -6l52 -15l19 86z" />
    <glyph glyph-name="uni226F" unicode="&#x226f;" 
d="M403 217l-41 -184l-117 27l25 111l-134 -46v134l165 49l36 159l-201 61v133l227 -79l35 158l118 -25l-39 -172l434 -151zM622 393q-28 6 -52 10q-20 4 -40 8.5t-28 6.5l-50 15l-19 -86l69 21q8 3 28 7l40 8q24 4 52 10z" />
    <glyph glyph-name="circleplus" unicode="&#x2295;" 
 />
    <glyph glyph-name="uni2299" unicode="&#x2299;" 
d="M897 382q0 -84 -32 -158.5t-87 -129.5t-129.5 -87t-158.5 -32t-158.5 32t-129.5 87t-87 129.5t-32 158.5t32 158.5t87 129.5t129.5 87t158.5 32t158.5 -32t129.5 -87t87 -129.5t32 -158.5zM802 382q0 65 -24.5 121.5t-67 99t-99 67t-121.5 24.5q-64 0 -121 -24.5
t-99.5 -67t-67 -99t-24.5 -121.5q0 -64 24.5 -121t67 -99.5t99.5 -67t121 -24.5q65 0 121.5 24.5t99 67t67 99.5t24.5 121zM598 380q0 -22 -8 -41t-22.5 -33t-33.5 -22.5t-41 -8.5t-41 8.5t-33 22.5t-22.5 33t-8.5 41t8.5 41t22.5 33.5t33 22.5t41 8t41 -8t33.5 -22.5
t22.5 -33.5t8 -41z" />
    <glyph glyph-name="perpendicular" unicode="&#x22a5;" 
d="M167 29v113h274v599h116v-599h276v-113h-666z" />
    <glyph glyph-name="uni22BF" unicode="&#x22bf;" 
 />
    <glyph glyph-name="uni2312" unicode="&#x2312;" 
d="M812 385q0 65 -24.5 121.5t-67 98.5t-99 66t-121.5 24q-64 0 -121 -24.5t-99.5 -67t-67 -99t-24.5 -119.5h-95q0 83 32 156.5t87 128.5t129.5 87.5t158.5 32.5t158.5 -32t130 -87t87.5 -129t32 -157h-96z" />
    <glyph glyph-name="uni2460" unicode="&#x2460;" 
d="M957 385v-14.5t-1 -14.5q-5 -73 -30.5 -141t-71.5 -122q-82 -95 -194 -135q-75 -27 -157 -27q-47 0 -97 9q-69 13 -132.5 51.5t-112.5 94.5q-38 43 -64.5 92t-37.5 102q-5 27 -8 54t-3 53q0 115 51 212q43 80 113 141q54 46 122.5 71.5t142.5 29.5q7 1 13.5 1h13.5
q54 0 106.5 -12t98.5 -37q35 -18 67.5 -44t60.5 -56.5t50.5 -65t36.5 -69.5q17 -41 25 -84.5t8 -88.5zM911 386q0 47 -10 92.5t-30 86.5q-26 52 -69.5 99t-94.5 78q-45 27 -98 40t-109 13h-21q-60 -2 -115 -20.5t-100 -52.5q-41 -31 -72 -67.5t-53 -78.5q-46 -90 -46 -192
q0 -17 1 -34.5t4 -35.5q8 -50 30.5 -97t57.5 -89q42 -51 96 -87.5t114 -51.5q52 -13 106 -13q83 0 156 30q94 38 164 120q40 47 61.5 106.5t26.5 123.5q1 8 1 15v15zM401 55v554h-95v105h302v-659h-207z" />
    <glyph glyph-name="uni2461" unicode="&#x2461;" 
d="M957 385v-14.5t-1 -14.5q-5 -73 -30.5 -141t-71.5 -122q-82 -95 -194 -135q-75 -27 -157 -27q-47 0 -97 9q-69 13 -132.5 51.5t-112.5 94.5q-38 43 -64.5 92t-37.5 102q-5 27 -8 54t-3 53q0 115 51 212q43 80 113 141q54 46 122.5 71.5t142.5 29.5q7 1 13.5 1h13.5
q54 0 106.5 -12t98.5 -37q35 -18 67.5 -44t60.5 -56.5t50.5 -65t36.5 -69.5q17 -41 25 -84.5t8 -88.5zM750 712q-11 8 -21.5 15.5t-21.5 14.5q-45 27 -98.5 40t-109.5 13h-20q-60 -2 -115 -20.5t-100 -52.5q-3 -2 -6.5 -5t-6.5 -5h499v0zM911 386q0 47 -10 92.5t-30 86.5
q-17 35 -43 68t-57 61v-317l-251 -217h278l-36 -93q17 13 31.5 27.5t28.5 31.5q40 47 61.5 106.5t26.5 123.5q1 8 1 15v15zM559 605h-312v103q-68 -56 -108 -132q-46 -89 -46 -192q0 -17 1 -34.5t4 -35.5q8 -50 30.5 -97t57.5 -89q11 -14 23.5 -26.5t26.5 -24.5v88l323 275
v165zM259 58q32 -24 66.5 -42t70.5 -27q52 -13 107 -13q82 0 155 30q24 10 47 23t45 29h-491z" />
    <glyph glyph-name="uni2462" unicode="&#x2462;" 
d="M957 385v-14.5t-1 -14.5q-5 -73 -30.5 -141t-71.5 -122q-82 -95 -194 -135q-75 -27 -157 -27q-47 0 -97 9q-69 13 -132.5 51.5t-112.5 94.5q-38 43 -64.5 92t-37.5 102q-5 27 -8 54t-3 53q0 115 51 212q43 80 113 141q54 46 122.5 71.5t142.5 29.5q7 1 13.5 1h13.5
q54 0 106.5 -12t98.5 -37q35 -18 67.5 -44t60.5 -56.5t50.5 -65t36.5 -69.5q17 -41 25 -84.5t8 -88.5zM911 386q0 47 -10 92.5t-30 86.5q-18 36 -45 70.5t-60 63.5v-242l-75 -58l75 -60v-268q29 23 56 55q40 47 61.5 106.5t26.5 123.5q1 8 1 15v15zM750 712
q-11 8 -21.5 15.5t-21.5 14.5q-45 27 -98 40t-109 13h-21q-53 -2 -103 -17t-92 -42q-14 -8 -26.5 -18t-24.5 -21q-60 -55 -94 -121q-46 -90 -46 -193q0 -17 1 -34.5t4 -34.5q8 -50 30.5 -97t57.5 -89q26 -31 57 -57v91h312v173h-229v106h229v167h-300v104h495v0zM259 58
q32 -24 66.5 -42t70.5 -27q52 -13 107 -13q82 0 155 30q24 10 47 23t45 29h-491z" />
    <glyph glyph-name="uni2463" unicode="&#x2463;" 
d="M957 385v-14.5t-1 -14.5q-5 -73 -30.5 -141t-71.5 -122q-82 -95 -194 -135q-75 -27 -157 -27q-47 0 -97 9q-69 13 -132.5 51.5t-112.5 94.5q-38 43 -64.5 92t-37.5 102q-5 27 -8 54t-3 53q0 115 51 212q43 80 113 141q54 46 122.5 71.5t142.5 29.5q7 1 13.5 1h13.5
q54 0 106.5 -12t98.5 -37q35 -18 67.5 -44t60.5 -56.5t50.5 -65t36.5 -69.5q17 -41 25 -84.5t8 -88.5zM911 386q0 47 -10 92.5t-30 86.5q-26 52 -69.5 99t-94.5 78q-45 27 -98 40t-109 13h-21q-60 -2 -115 -20.5t-100 -52.5q-41 -31 -72 -67.5t-53 -78.5q-46 -90 -46 -192
q0 -17 1 -34.5t4 -35.5q8 -50 30.5 -97t57.5 -89q42 -51 96 -87.5t114 -51.5q52 -13 106 -13q83 0 156 30q94 38 164 120q40 47 61.5 106.5t26.5 123.5q1 8 1 15v15zM690 178v-127h-200v127h-320v103l345 442h175v-442h95v-103h-95zM490 524l-188 -243h188v243z" />
    <glyph glyph-name="uni2464" unicode="&#x2464;" 
d="M957 385v-14.5t-1 -14.5q-5 -73 -30.5 -141t-71.5 -122q-82 -95 -194 -135q-75 -27 -157 -27q-47 0 -97 9q-69 13 -132.5 51.5t-112.5 94.5q-38 43 -64.5 92t-37.5 102q-5 27 -8 54t-3 53q0 115 51 212q43 80 113 141q54 46 122.5 71.5t142.5 29.5q7 1 13.5 1h13.5
q54 0 106.5 -12t98.5 -37q35 -18 67.5 -44t60.5 -56.5t50.5 -65t36.5 -69.5q17 -41 25 -84.5t8 -88.5zM750 712q-11 8 -21.5 15.5t-21.5 14.5q-45 27 -98.5 40t-109.5 13h-20q-60 -2 -115 -20.5t-100 -52.5q-3 -2 -6.5 -5t-6.5 -5h196v-90l50 90h253v0zM911 386
q0 47 -10 92.5t-30 86.5q-17 35 -43.5 68.5t-58.5 62.5v-88h-322v-124h324v-409q27 23 51 51q40 47 61.5 106.5t26.5 123.5q1 8 1 15v15zM557 381h-322v317q-30 -27 -54.5 -57.5t-41.5 -64.5q-46 -90 -46 -193q0 -17 1.5 -34.5t3.5 -34.5q8 -50 30.5 -97t57.5 -89
q32 -38 68 -67l-35 103h338v217zM257 59q32 -25 67 -43t72 -27q52 -13 106 -13q83 0 156 30q48 19 93 53h-494z" />
    <glyph glyph-name="uni2465" unicode="&#x2465;" 
d="M957 385v-14.5t-1 -14.5q-5 -73 -30.5 -141t-71.5 -122q-82 -95 -194 -135q-75 -27 -157 -27q-47 0 -97 9q-69 13 -132.5 51.5t-112.5 94.5q-38 43 -64.5 92t-37.5 102q-5 27 -8 54t-3 53q0 115 51 212q43 80 113 141q54 46 122.5 71.5t142.5 29.5q7 1 13.5 1h13.5
q54 0 106.5 -12t98.5 -37q35 -18 67.5 -44t60.5 -56.5t50.5 -65t36.5 -69.5q17 -41 25 -84.5t8 -88.5zM750 712q-11 8 -21.5 15.5t-21.5 14.5q-45 27 -98.5 40t-109.5 13h-20q-60 -2 -115 -20.5t-100 -52.5q-3 -2 -6.5 -5t-6.5 -5h499v0zM911 386q0 47 -10 92.5t-30 86.5
q-17 35 -44 69t-59 63v-92h-322v-121h324v-410q14 12 27 25t25 27q40 47 61.5 106.5t26.5 123.5q1 8 1 15v15zM564 380h-118v-216h118v216zM238 701q-63 -55 -99 -125q-46 -90 -46 -193q0 -17 1.5 -34.5t3.5 -34.5q8 -50 30.5 -97t57.5 -89q12 -14 25 -27.5t27 -25.5v626z
M259 58q32 -24 66.5 -42t70.5 -27q52 -13 107 -13q82 0 155 30q24 10 47 23t45 29h-491z" />
    <glyph glyph-name="uni2466" unicode="&#x2466;" 
d="M957 385v-14.5t-1 -14.5q-5 -73 -30.5 -141t-71.5 -122q-82 -95 -194 -135q-75 -27 -157 -27q-47 0 -97 9q-69 13 -132.5 51.5t-112.5 94.5q-38 43 -64.5 92t-37.5 102q-5 27 -8 54t-3 53q0 115 51 212q43 80 113 141q54 46 122.5 71.5t142.5 29.5q7 1 13.5 1h13.5
q54 0 106.5 -12t98.5 -37q35 -18 67.5 -44t60.5 -56.5t50.5 -65t36.5 -69.5q17 -41 25 -84.5t8 -88.5zM750 712q-11 8 -21.5 15.5t-21.5 14.5q-45 27 -98.5 40t-109.5 13h-20q-60 -2 -115 -20.5t-100 -52.5q-3 -2 -6.5 -5t-6.5 -5h499v0zM911 386q0 47 -10 92.5t-30 86.5
q-16 32 -39 63t-51 57v-87l-229 -545h-225l245 550h-345v88q-28 -26 -49.5 -54.5t-38.5 -60.5q-46 -90 -46 -193q0 -17 1 -34.5t4 -34.5q8 -50 30.5 -97t57.5 -89q42 -51 96 -87.5t114 -51.5q52 -13 106 -13q83 0 156 30q94 38 164 120q40 47 61.5 106.5t26.5 123.5
q1 8 1 15v15z" />
    <glyph glyph-name="uni2467" unicode="&#x2467;" 
d="M957 385v-14.5t-1 -14.5q-5 -73 -30.5 -141t-71.5 -122q-82 -95 -194 -135q-75 -27 -157 -27q-47 0 -97 9q-69 13 -132.5 51.5t-112.5 94.5q-38 43 -64.5 92t-37.5 102q-5 27 -8 54t-3 53q0 115 51 212q43 80 113 141q54 46 122.5 71.5t142.5 29.5q7 1 13.5 1h13.5
q54 0 106.5 -12t98.5 -37q35 -18 67.5 -44t60.5 -56.5t50.5 -65t36.5 -69.5q17 -41 25 -84.5t8 -88.5zM750 712q-11 8 -21.5 15.5t-21.5 14.5q-45 27 -98.5 40t-109.5 13h-20q-60 -2 -115 -20.5t-100 -52.5q-3 -2 -6.5 -5t-6.5 -5h499v0zM911 386q0 47 -10 92.5t-30 86.5
q-18 37 -45.5 71t-60.5 63v-246l-90 -56l90 -68v-259q15 13 29 26.5t28 29.5q40 47 61.5 106.5t26.5 123.5q1 8 1 15v15zM560 606h-115v-156h115v156zM560 343h-115v-179h115v179zM235 453v245q-30 -27 -54.5 -57.5t-41.5 -64.5q-46 -90 -46 -193q0 -17 1.5 -34.5t3.5 -34.5
q8 -50 30.5 -97t57.5 -89q21 -25 49 -50v251l100 68zM259 58q32 -24 66.5 -42t70.5 -27q52 -13 107 -13q82 0 155 30q24 10 47 23t45 29h-491z" />
    <glyph glyph-name="uni2468" unicode="&#x2468;" 
d="M957 385v-14.5t-1 -14.5q-5 -73 -30.5 -141t-71.5 -122q-82 -95 -194 -135q-75 -27 -157 -27q-47 0 -97 9q-69 13 -132.5 51.5t-112.5 94.5q-38 43 -64.5 92t-37.5 102q-5 27 -8 54t-3 53q0 115 51 212q43 80 113 141q54 46 122.5 71.5t142.5 29.5q7 1 13.5 1h13.5
q54 0 106.5 -12t98.5 -37q35 -18 67.5 -44t60.5 -56.5t50.5 -65t36.5 -69.5q17 -41 25 -84.5t8 -88.5zM750 712q-11 8 -21.5 15.5t-21.5 14.5q-45 27 -98.5 40t-109.5 13h-20q-60 -2 -115 -20.5t-100 -52.5q-3 -2 -6.5 -5t-6.5 -5h499v0zM911 386q0 47 -10 92.5t-30 86.5
q-17 35 -42 67t-56 60v-615q13 11 25.5 23t23.5 26q40 47 61.5 106.5t26.5 123.5q1 8 1 15v15zM557 609h-105v-213h105v213zM265 58l-38 111h330v122h-322v407q-30 -27 -54.5 -57.5t-41.5 -64.5q-46 -90 -46 -193q0 -17 1.5 -34.5t3.5 -34.5q8 -50 30.5 -97t57.5 -89
q42 -51 96 -87.5t114 -51.5q52 -13 106 -13q83 0 156 30q24 10 47 23t45 29h-485z" />
    <glyph glyph-name="uni2469" unicode="&#x2469;" 
d="M957 385v-14.5t-1 -14.5q-5 -73 -30.5 -141t-71.5 -122q-82 -95 -194 -135q-75 -27 -157 -27q-47 0 -97 9q-69 13 -132.5 51.5t-112.5 94.5q-38 43 -64.5 92t-37.5 102q-5 27 -8 54t-3 53q0 115 51 212q43 80 113 141q54 46 122.5 71.5t142.5 29.5q7 1 13.5 1h13.5
q54 0 106.5 -12t98.5 -37q35 -18 67.5 -44t60.5 -56.5t50.5 -65t36.5 -69.5q17 -41 25 -84.5t8 -88.5zM911 386q0 47 -10 92.5t-30 86.5q-23 47 -61 90v-543q3 3 6 6.5t6 7.5q40 47 61.5 106.5t26.5 123.5q1 8 1 15v15zM649 607h-47v-445h47v445zM441 59v653h309
q-11 8 -21.5 15.5t-21.5 14.5q-45 27 -98.5 40t-109.5 13h-20q-60 -2 -115 -20.5t-100 -52.5q-3 -2 -6.5 -5t-6.5 -5h151v-653h-145q32 -25 67 -43t72 -27q52 -13 106 -13q83 0 156 30q48 19 93 53h-310zM222 607h-32v45q-31 -37 -51 -76q-46 -90 -46 -193q0 -17 1.5 -34.5
t3.5 -34.5q8 -50 30.5 -97t57.5 -89q8 -10 17 -19.5t19 -18.5v517z" />
    <glyph glyph-name="uni2474" unicode="&#x2474;" 
d="M960 390q0 -33 -2.5 -66t-7.5 -65q-14 -88 -44.5 -170t-78.5 -151h-51q46 75 79.5 155.5t47.5 170.5q9 57 9 113q0 44 -5 86t-14 84q-17 78 -48 151t-73 140h51q31 -48 54.5 -98t42.5 -103q20 -59 30 -121t10 -126zM401 55v554h-95v105h302v-659h-207zM230 838
q-42 -67 -73 -140.5t-48 -151.5q-9 -42 -14 -83.5t-5 -85.5q0 -57 9 -114q14 -90 47.5 -170t79.5 -155h-51q-48 69 -78.5 150.5t-44.5 169.5q-5 32 -7.5 65t-2.5 66q0 64 10 126t30 121q19 53 42.5 103.5t54.5 98.5h51v0z" />
    <glyph glyph-name="uni2475" unicode="&#x2475;" 
d="M960 390q0 -33 -2.5 -66t-7.5 -65q-14 -88 -44.5 -170t-78.5 -151h-51q46 75 79.5 155.5t47.5 170.5q9 57 9 114q0 44 -5 85.5t-14 83.5q-17 78 -48 151t-73 140h51q31 -48 54.5 -98t42.5 -103q20 -59 30 -121t10 -126zM737 58h-522v107l323 275v165h-312v107h524v-335
l-251 -217h278zM230 838q-42 -67 -73 -140.5t-48 -151.5q-9 -42 -14 -83.5t-5 -85.5q0 -57 9 -114q14 -90 47.5 -170t79.5 -155h-51q-48 69 -78.5 150.5t-44.5 169.5q-5 32 -7.5 65t-2.5 66q0 64 10 126t30 121q19 53 42.5 103.5t54.5 98.5h51v0z" />
    <glyph glyph-name="uni2476" unicode="&#x2476;" 
d="M960 390q0 -33 -2.5 -66t-7.5 -65q-14 -88 -44.5 -170t-78.5 -151h-51q46 75 79.5 155.5t47.5 170.5q9 57 9 114q0 44 -5 85.5t-14 83.5q-17 78 -48 151t-73 140h51q31 -48 54.5 -98t42.5 -103q20 -59 30 -121t10 -126zM234 58v104h312v173h-229v106h229v167h-310v104
h521v-255l-75 -58l75 -60v-281h-523zM230 838q-42 -67 -73 -140.5t-48 -151.5q-9 -42 -14 -83.5t-5 -85.5q0 -57 9 -114q14 -90 47.5 -170t79.5 -155h-51q-48 69 -78.5 150.5t-44.5 169.5q-5 32 -7.5 65t-2.5 66q0 64 10 126t30 121q19 53 42.5 103.5t54.5 98.5h51v0z" />
    <glyph glyph-name="uni2477" unicode="&#x2477;" 
d="M960 390q0 -33 -2.5 -66t-7.5 -65q-14 -88 -44.5 -170t-78.5 -151h-51q46 75 79.5 155.5t47.5 170.5q9 57 9 114q0 44 -5 85.5t-14 83.5q-17 78 -48 151t-73 140h51q31 -48 54.5 -98t42.5 -103q20 -59 30 -121t10 -126zM681 178v-127h-200v127h-320v103l345 442h175v-442
h95v-103h-95zM230 838q-42 -67 -73 -140.5t-48 -151.5q-9 -42 -14 -83.5t-5 -85.5q0 -57 9 -114q14 -90 47.5 -170t79.5 -155h-51q-48 69 -78.5 150.5t-44.5 169.5q-5 32 -7.5 65t-2.5 66q0 64 10 126t30 121q19 53 42.5 103.5t54.5 98.5h51v0zM481 524l-188 -243h188v243z
" />
    <glyph glyph-name="uni2478" unicode="&#x2478;" 
d="M960 390q0 -33 -2.5 -66t-7.5 -65q-14 -88 -44.5 -170t-78.5 -151h-51q46 75 79.5 155.5t47.5 170.5q9 57 9 114q0 44 -5 85.5t-14 83.5q-17 78 -48 151t-73 140h51q31 -48 54.5 -98t42.5 -103q20 -59 30 -121t10 -126zM255 59l-36 105h338v217h-322v331h212v-90l50 90
h272v-104h-322v-124h324v-425h-516zM230 838q-42 -67 -73 -140.5t-48 -151.5q-9 -42 -14 -83.5t-5 -85.5q0 -57 9 -114q14 -90 47.5 -170t79.5 -155h-51q-48 69 -78.5 150.5t-44.5 169.5q-5 32 -7.5 65t-2.5 66q0 64 10 126t30 121q19 53 42.5 103.5t54.5 98.5h51v0z" />
    <glyph glyph-name="uni2479" unicode="&#x2479;" 
d="M960 390q0 -33 -2.5 -66t-7.5 -65q-14 -88 -44.5 -170t-78.5 -151h-51q46 75 79.5 155.5t47.5 170.5q9 57 9 114q0 44 -5 85.5t-14 83.5q-17 78 -48 151t-73 140h51q31 -48 54.5 -98t42.5 -103q20 -59 30 -121t10 -126zM235 58v654h530v-107h-322v-121h324v-426h-532z
M230 838q-42 -67 -73 -140.5t-48 -151.5q-9 -42 -14 -83.5t-5 -85.5q0 -57 9 -114q14 -90 47.5 -170t79.5 -155h-51q-48 69 -78.5 150.5t-44.5 169.5q-5 32 -7.5 65t-2.5 66q0 64 10 126t30 121q19 53 42.5 103.5t54.5 98.5h51v0zM561 380h-118v-216h118v216z" />
    <glyph glyph-name="uni247A" unicode="&#x247a;" 
d="M960 390q0 -33 -2.5 -66t-7.5 -65q-14 -88 -44.5 -170t-78.5 -151h-51q46 75 79.5 155.5t47.5 170.5q9 57 9 114q0 44 -5 85.5t-14 83.5q-17 78 -48 151t-73 140h51q31 -48 54.5 -98t42.5 -103q20 -59 30 -121t10 -126zM536 53h-225l245 550h-345v109h554v-114zM230 838
q-42 -67 -73 -140.5t-48 -151.5q-9 -42 -14 -83.5t-5 -85.5q0 -57 9 -114q14 -90 47.5 -170t79.5 -155h-51q-48 69 -78.5 150.5t-44.5 169.5q-5 32 -7.5 65t-2.5 66q0 64 10 126t30 121q19 53 42.5 103.5t54.5 98.5h51v0z" />
    <glyph glyph-name="uni247B" unicode="&#x247b;" 
d="M960 390q0 -33 -2.5 -66t-7.5 -65q-14 -88 -44.5 -170t-78.5 -151h-51q46 75 79.5 155.5t47.5 170.5q9 57 9 114q0 44 -5 85.5t-14 83.5q-17 78 -48 151t-73 140h51q31 -48 54.5 -98t42.5 -103q20 -59 30 -121t10 -126zM235 58v271l100 68l-100 56v259h530v-259l-90 -56
l90 -68v-271h-530zM230 838q-42 -67 -73 -140.5t-48 -151.5q-9 -42 -14 -83.5t-5 -85.5q0 -57 9 -114q14 -90 47.5 -170t79.5 -155h-51q-48 69 -78.5 150.5t-44.5 169.5q-5 32 -7.5 65t-2.5 66q0 64 10 126t30 121q19 53 42.5 103.5t54.5 98.5h51v0zM560 606h-115v-156h115
v156zM560 343h-115v-179h115v179z" />
    <glyph glyph-name="uni247C" unicode="&#x247c;" 
d="M960 390q0 -33 -2.5 -66t-7.5 -65q-14 -88 -44.5 -170t-78.5 -151h-51q46 75 79.5 155.5t47.5 170.5q9 57 9 114q0 44 -5 85.5t-14 83.5q-17 78 -48 151t-73 140h51q31 -48 54.5 -98t42.5 -103q20 -59 30 -121t10 -126zM265 58l-38 111h330v122h-322v421h538v-654h-508z
M230 838q-42 -67 -73 -140.5t-48 -151.5q-9 -42 -14 -83.5t-5 -85.5q0 -57 9 -114q14 -90 47.5 -170t79.5 -155h-51q-48 69 -78.5 150.5t-44.5 169.5q-5 32 -7.5 65t-2.5 66q0 64 10 126t30 121q19 53 42.5 103.5t54.5 98.5h51v0zM557 609h-105v-213h105v213z" />
    <glyph glyph-name="uni247D" unicode="&#x247d;" 
d="M960 390q0 -33 -2.5 -66t-7.5 -65q-14 -88 -44.5 -170t-78.5 -151h-51q46 75 79.5 155.5t47.5 170.5q9 57 9 114q0 44 -5 85.5t-14 83.5q-17 78 -48 151t-73 140h51q31 -48 54.5 -98t42.5 -103q20 -59 30 -121t10 -126zM421 59v653h385v-653h-385zM202 59v548h-32v105
h212v-653h-180zM230 838q-42 -67 -73 -140.5t-48 -151.5q-9 -42 -14 -83.5t-5 -85.5q0 -57 9 -114q14 -90 47.5 -170t79.5 -155h-51q-48 69 -78.5 150.5t-44.5 169.5q-5 32 -7.5 65t-2.5 66q0 64 10 126t30 121q19 53 42.5 103.5t54.5 98.5h51v0zM639 607h-52v-443h52v443z
" />
    <glyph glyph-name="uni247E" unicode="&#x247e;" 
d="M960 390q0 -33 -2.5 -66t-7.5 -65q-14 -88 -44.5 -170t-78.5 -151h-51q46 75 79.5 155.5t47.5 170.5q9 57 9 113q0 44 -5 86t-14 84q-17 78 -48 151t-73 140h51q31 -48 54.5 -98t42.5 -103q20 -59 30 -121t10 -126zM577 59v548h-52v105h232v-653h-180zM251 59v548h-52
v105h232v-653h-180zM230 838q-42 -67 -73 -140.5t-48 -151.5q-9 -42 -14 -83.5t-5 -85.5q0 -57 9 -114q14 -90 47.5 -170t79.5 -155h-51q-48 69 -78.5 150.5t-44.5 169.5q-5 32 -7.5 65t-2.5 66q0 64 10 126t30 121q19 53 42.5 103.5t54.5 98.5h51v0z" />
    <glyph glyph-name="uni247F" unicode="&#x247f;" 
d="M960 390q0 -33 -2.5 -66t-7.5 -65q-14 -88 -44.5 -170t-78.5 -151h-51q46 75 79.5 155.5t47.5 170.5q9 57 9 113q0 44 -5 86t-14 84q-17 78 -48 151t-73 140h51q31 -48 54.5 -98t42.5 -103q20 -59 30 -121t10 -126zM793 59h-383v107l226 274v167h-215v105h385v-344
l-167 -204h194zM202 59v548h-32v105h212v-653h-180zM230 838q-42 -67 -73 -140.5t-48 -151.5q-9 -42 -14 -83.5t-5 -85.5q0 -57 9 -114q14 -90 47.5 -170t79.5 -155h-51q-48 69 -78.5 150.5t-44.5 169.5q-5 32 -7.5 65t-2.5 66q0 64 10 126t30 121q19 53 42.5 103.5
t54.5 98.5h51v0z" />
    <glyph glyph-name="uni2480" unicode="&#x2480;" 
d="M960 390q0 -33 -2.5 -66t-7.5 -65q-14 -88 -44.5 -170t-78.5 -151h-51q46 75 79.5 155.5t47.5 170.5q9 57 9 113q0 44 -5 86t-14 84q-17 78 -48 151t-73 140h51q31 -48 54.5 -98t42.5 -103q20 -59 30 -121t10 -126zM410 59v105h226v171h-143v106h143v167h-224v104h394
v-255l-63 -58l63 -60v-280h-396zM202 59v548h-32v105h212v-653h-180zM230 838q-42 -67 -73 -140.5t-48 -151.5q-9 -42 -14 -83.5t-5 -85.5q0 -57 9 -114q14 -90 47.5 -170t79.5 -155h-51q-48 69 -78.5 150.5t-44.5 169.5q-5 32 -7.5 65t-2.5 66q0 64 10 126t30 121
q19 53 42.5 103.5t54.5 98.5h51v0z" />
    <glyph glyph-name="uni2481" unicode="&#x2481;" 
d="M960 390q0 -33 -2.5 -66t-7.5 -65q-14 -88 -44.5 -170t-78.5 -151h-51q46 75 79.5 155.5t47.5 170.5q9 57 9 113q0 44 -5 86t-14 84q-17 78 -48 151t-73 140h51q31 -48 54.5 -98t42.5 -103q20 -59 30 -121.5t10 -125.5zM811 178v-119h-176v119h-247v103l261 431h162v-431
h59v-103h-59zM202 59v548h-32v105h212v-653h-180zM230 838q-42 -67 -73 -140.5t-48 -151.5q-9 -42 -14 -83.5t-5 -85.5q0 -57 9 -114q14 -90 47.5 -170t79.5 -155h-51q-48 69 -78.5 150.5t-44.5 169.5q-5 32 -7.5 65t-2.5 66q0 63 10 125.5t30 121.5q19 53 42.5 103.5
t54.5 98.5h51v0zM635 499l-124 -218h124v218z" />
    <glyph glyph-name="uni2482" unicode="&#x2482;" 
d="M960 390q0 -33 -2.5 -66t-7.5 -65q-14 -88 -44.5 -170t-78.5 -151h-51q46 75 79.5 155.5t47.5 170.5q9 57 9 113q0 44 -5 86t-14 84q-17 78 -48 151t-73 140h51q31 -48 54.5 -98t42.5 -103q20 -59 30 -121t10 -126zM590 608v-124h216v-425h-371l-36 105h237v216h-215v332
h169v-90l50 90h167v-104h-217zM202 59v548h-32v105h212v-653h-180zM230 838q-42 -67 -73 -140.5t-48 -151.5q-9 -42 -14 -83.5t-5 -85.5q0 -57 9 -114q14 -90 47.5 -170t79.5 -155h-51q-48 69 -78.5 150.5t-44.5 169.5q-5 32 -7.5 65t-2.5 66q0 64 10 126t30 121
q19 53 42.5 103.5t54.5 98.5h51v0z" />
    <glyph glyph-name="uni2483" unicode="&#x2483;" 
d="M960 390q0 -33 -2.5 -66t-7.5 -65q-14 -88 -44.5 -170t-78.5 -151h-51q46 75 79.5 155.5t47.5 170.5q9 57 9 113q0 44 -5 86t-14 84q-17 78 -48 151t-73 140h51q31 -48 54.5 -98t42.5 -103q20 -59 30 -121t10 -126zM421 58v654h385v-105h-217v-123h217v-426h-385zM202 59
v548h-32v105h212v-653h-180zM230 838q-42 -67 -73 -140.5t-48 -151.5q-9 -42 -14 -83.5t-5 -85.5q0 -57 9 -114q14 -90 47.5 -170t79.5 -155h-51q-48 69 -78.5 150.5t-44.5 169.5q-5 32 -7.5 65t-2.5 66q0 64 10 126t30 121q19 53 42.5 103.5t54.5 98.5h51v0zM638 380h-49
v-216h49v216z" />
    <glyph glyph-name="uni2484" unicode="&#x2484;" 
d="M960 390q0 -33 -2.5 -66t-7.5 -65q-14 -88 -44.5 -170t-78.5 -151h-51q46 75 79.5 155.5t47.5 170.5q9 57 9 113q0 44 -5 86t-14 84q-17 78 -48 151t-73 140h51q31 -48 54.5 -98t42.5 -103q20 -59 30 -121t10 -126zM647 59h-196l196 544h-208v109h392v-114zM220 59v548
h-39v105h219v-653h-180zM230 838q-42 -67 -73 -140.5t-48 -151.5q-9 -42 -14 -83.5t-5 -85.5q0 -57 9 -114q14 -90 47.5 -170t79.5 -155h-51q-48 69 -78.5 150.5t-44.5 169.5q-5 32 -7.5 65t-2.5 66q0 64 10 126t30 121q19 53 42.5 103.5t54.5 98.5h51v0z" />
    <glyph glyph-name="uni2485" unicode="&#x2485;" 
d="M960 390q0 -33 -2.5 -66t-7.5 -65q-14 -88 -44.5 -170t-78.5 -151h-51q46 75 79.5 155.5t47.5 170.5q9 57 9 113q0 44 -5 86t-14 84q-17 78 -48 151t-73 140h51q31 -48 54.5 -98t42.5 -103q20 -59 30 -121t10 -126zM421 58v271l100 68l-100 56v259h385v-259l-90 -56
l90 -68v-271h-385zM202 59v548h-32v105h212v-653h-180zM230 838q-42 -67 -73 -140.5t-48 -151.5q-9 -42 -14 -83.5t-5 -85.5q0 -57 9 -114q14 -90 47.5 -170t79.5 -155h-51q-48 69 -78.5 150.5t-44.5 169.5q-5 32 -7.5 65t-2.5 66q0 64 10 126t30 121q19 53 42.5 103.5
t54.5 98.5h51v0zM637 607h-48v-158h48v158zM637 344h-48v-180h48v180z" />
    <glyph glyph-name="uni2486" unicode="&#x2486;" 
d="M960 390q0 -33 -2.5 -66t-7.5 -65q-14 -88 -44.5 -170t-78.5 -151h-51q46 75 79.5 155.5t47.5 170.5q9 57 9 113q0 44 -5 86t-14 84q-17 78 -48 151t-73 140h51q31 -48 54.5 -98t42.5 -103q20 -59 30 -121t10 -126zM442 59l-38 105h233v127h-216v421h385v-653h-364z
M202 59v548h-32v105h212v-653h-180zM230 838q-42 -67 -73 -140.5t-48 -151.5q-9 -42 -14 -83.5t-5 -85.5q0 -57 9 -114q14 -90 47.5 -170t79.5 -155h-51q-48 69 -78.5 150.5t-44.5 169.5q-5 32 -7.5 65t-2.5 66q0 64 10 126t30 121q19 53 42.5 103.5t54.5 98.5h51v0z
M637 607h-48v-211h48v211z" />
    <glyph glyph-name="uni2487" unicode="&#x2487;" 
d="M960 390q0 -33 -2.5 -66t-7.5 -65q-14 -88 -44.5 -170t-78.5 -151h-51q46 75 79.5 155.5t47.5 170.5q9 57 9 113q0 44 -5 86t-14 84q-17 78 -48 151t-73 140h51q31 -48 54.5 -98t42.5 -103q20 -59 30 -121t10 -126zM507 59v653h328v-653h-328zM464 59h-299v107l161 274
v167h-152v105h304v-336l-122 -212h140zM230 838q-42 -67 -73 -140.5t-48 -151.5q-9 -42 -14 -83.5t-5 -85.5q0 -57 9 -114q14 -90 47.5 -170t79.5 -155h-51q-48 69 -78.5 150.5t-44.5 169.5q-5 32 -7.5 65t-2.5 66q0 64 10 126t30 121q19 53 42.5 103.5t54.5 98.5h51v0z
M689 607h-37v-443h37v443z" />
    <glyph glyph-name="uni2488" unicode="&#x2488;" 
d="M708 0q3 8 5.5 16t2.5 16v71q0 5 -2 16t-6 18h150q-3 -7 -4.5 -18t-1.5 -16v-71q0 -8 1 -16t5 -16h-150zM403 0v663h-130v99h330v-762h-200z" />
    <glyph glyph-name="uni2489" unicode="&#x2489;" 
d="M815 0q3 8 5.5 16t2.5 16v71q0 5 -2 16t-6 18h150q-3 -7 -4.5 -18t-1.5 -16v-71q0 -8 1 -16t5 -16h-150zM746 0h-549v120l369 345v198h-363v99h554v-358l-322 -305h351z" />
    <glyph glyph-name="uni248A" unicode="&#x248a;" 
d="M815 0q3 8 5.5 16t2.5 16v71q0 5 -2 16t-6 18h150q-3 -7 -4.5 -18t-1.5 -16v-71q0 -8 1 -16t5 -16h-150zM188 0v98h378v236h-272v98h262v230h-357v100h548v-320l-94 -51l104 -77v-314h-569z" />
    <glyph glyph-name="uni248B" unicode="&#x248b;" 
d="M815 0q3 8 5.5 16t2.5 16v71q0 5 -2 16t-6 18h150q-3 -7 -4.5 -18t-1.5 -16v-71q0 -8 1 -16t5 -16h-150zM713 133v-133h-194v133h-364v98l385 531h173v-530h80v-99h-80zM519 564l-245 -332h245v332z" />
    <glyph glyph-name="uni248C" unicode="&#x248c;" 
d="M815 0q3 8 5.5 16t2.5 16v71q0 5 -2 16t-6 18h150q-3 -7 -4.5 -18t-1.5 -16v-71q0 -8 1 -16t5 -16h-150zM395 662v-191h362v-471h-538l-33 98h380v272h-363v392h192v-83l63 83h307v-100h-370z" />
    <glyph glyph-name="uni248D" unicode="&#x248d;" 
d="M815 0q3 8 5.5 16t2.5 16v71q0 5 -2 16t-6 18h150q-3 -7 -4.5 -18t-1.5 -16v-71q0 -8 1 -16t5 -16h-150zM203 0v762h554v-100h-362v-183h362v-479h-554zM566 379h-171v-280h171v280z" />
    <glyph glyph-name="uni248E" unicode="&#x248e;" 
d="M725 0q3 8 5.5 16t2.5 16v71q0 5 -2 16t-6 18h150q-3 -7 -4.5 -18t-1.5 -16v-71q0 -8 1 -16t5 -16h-150zM528 0h-205l237 663h-365v99h561v-118z" />
    <glyph glyph-name="uni248F" unicode="&#x248f;" 
d="M815 0q3 8 5.5 16t2.5 16v71q0 5 -2 16t-6 18h150q-3 -7 -4.5 -18t-1.5 -16v-71q0 -8 1 -16t5 -16h-150zM198 0v334l125 70l-108 64v294h530v-294l-102 -64l119 -70v-334h-564zM554 663h-147v-215h147v215zM570 350h-180v-252h180v252z" />
    <glyph glyph-name="uni2490" unicode="&#x2490;" 
d="M815 0q3 8 5.5 16t2.5 16v71q0 5 -2 16t-6 18h150q-3 -7 -4.5 -18t-1.5 -16v-71q0 -8 1 -16t5 -16h-150zM227 0l-32 98h371v172h-363v492h554v-762h-530zM566 663h-171v-294h171v294z" />
    <glyph glyph-name="uni2491" unicode="&#x2491;" 
d="M844 0q3 8 5.5 16t2.5 16v71q0 5 -2 16t-6 18h150q-3 -7 -4.5 -18t-1.5 -16v-71q0 -8 1 -16t5 -16h-150zM371 0v762h433v-762h-433zM131 0v663h-73v99h247v-762h-174zM631 663h-89v-564h89v564z" />
    <glyph glyph-name="uni2492" unicode="&#x2492;" 
d="M575 0v663h-90v99h264v-762h-174zM807 0q3 8 5.5 16t2.5 16v71q0 5 -2 16t-6 18h150q-3 -7 -4.5 -18t-1.5 -16v-71q0 -8 1 -16t5 -16h-150zM188 0v663h-90v99h264v-762h-174z" />
    <glyph glyph-name="uni2493" unicode="&#x2493;" 
d="M844 0q3 8 5.5 16t2.5 16v71q0 5 -2 16t-6 18h150q-3 -7 -4.5 -18t-1.5 -16v-71q0 -8 1 -16t5 -16h-150zM794 0h-429v120l266 348v195h-261v99h433v-345l-241 -318h264zM131 0v663h-73v99h247v-762h-174z" />
    <glyph glyph-name="uni2494" unicode="&#x2494;" 
d="M844 0q3 8 5.5 16t2.5 16v71q0 5 -2 16t-6 18h150q-3 -7 -4.5 -18t-1.5 -16v-71q0 -8 1 -16t5 -16h-150zM357 0v99h276v235h-170v98h160v231h-255v99h427v-320l-94 -51l104 -77v-314h-448zM131 0v663h-73v99h247v-762h-174z" />
    <glyph glyph-name="uni2495" unicode="&#x2495;" 
d="M844 0q3 8 5.5 16t2.5 16v71q0 5 -2 16t-6 18h150q-3 -7 -4.5 -18t-1.5 -16v-71q0 -8 1 -16t5 -16h-150zM782 133v-133h-174v133h-289v98l311 531h152v-530h53v-99h-53zM131 0v663h-73v99h247v-762h-174zM608 556l-188 -324h188v324z" />
    <glyph glyph-name="uni2496" unicode="&#x2496;" 
d="M844 0q3 8 5.5 16t2.5 16v71q0 5 -2 16t-6 18h150q-3 -7 -4.5 -18t-1.5 -16v-71q0 -8 1 -16t5 -16h-150zM542 663v-192h262v-471h-418l-33 99h278v271h-261v392h172v-83l63 83h207v-99h-270zM131 0v663h-73v99h247v-762h-174z" />
    <glyph glyph-name="uni2497" unicode="&#x2497;" 
d="M844 0q3 8 5.5 16t2.5 16v71q0 5 -2 16t-6 18h150q-3 -7 -4.5 -18t-1.5 -16v-71q0 -8 1 -16t5 -16h-150zM370 0v762h433v-99h-261v-184h261v-479h-433zM131 0v663h-73v99h247v-762h-174zM631 379h-89v-280h89v280z" />
    <glyph glyph-name="uni2498" unicode="&#x2498;" 
d="M646 0h-184l209 663h-279v99h455v-118zM785 0q3 8 5.5 16t2.5 16v71q0 5 -2 16t-6 18h150q-3 -7 -4.5 -18t-1.5 -16v-71q0 -8 1 -16t5 -16h-150zM165 0v663h-73v99h247v-762h-174z" />
    <glyph glyph-name="uni2499" unicode="&#x2499;" 
d="M844 0q3 8 5.5 16t2.5 16v71q0 5 -2 16t-6 18h150q-3 -7 -4.5 -18t-1.5 -16v-71q0 -8 1 -16t5 -16h-150zM359 0v334l125 70l-108 64v294h416v-294l-102 -64l119 -70v-334h-450zM131 0v663h-73v99h247v-762h-174zM621 663h-73v-215h73v215zM637 350h-106v-251h106v251z
" />
    <glyph glyph-name="uni249A" unicode="&#x249a;" 
d="M844 0q3 8 5.5 16t2.5 16v71q0 5 -2 16t-6 18h150q-3 -7 -4.5 -18t-1.5 -16v-71q0 -8 1 -16t5 -16h-150zM386 0l-32 99h277v171h-263v492h436v-762h-418zM131 0v663h-73v99h247v-762h-174zM631 663h-93v-294h93v294z" />
    <glyph glyph-name="uni249B" unicode="&#x249b;" 
d="M451 0v762h363v-762h-363zM844 1q3 8 5.5 16t2.5 16v71q0 5 -2 16t-6 18h150q-3 -7 -4.5 -18t-1.5 -16v-71q0 -8 1 -16t5 -16h-150zM403 0h-364v120l215 348v195h-211v99h367v-345l-197 -318h216zM661 663h-57v-564h57v564z" />
    <glyph glyph-name="SF100000" unicode="&#x2500;" 
d="M-10 383v40h1020v-40h-1020z" />
    <glyph glyph-name="uni2501" unicode="&#x2501;" 
d="M-10 343v80h1020v-80h-1020z" />
    <glyph glyph-name="SF110000" unicode="&#x2502;" 
d="M460 -127v1020h40v-1020h-40z" />
    <glyph glyph-name="uni2503" unicode="&#x2503;" 
d="M460 -127v1020h80v-1020h-80z" />
    <glyph glyph-name="uni2504" unicode="&#x2504;" 
d="M729 363v40h196v-40h-196zM402 363v40h196v-40h-196zM76 363v40h196v-40h-196z" />
    <glyph glyph-name="uni2505" unicode="&#x2505;" 
d="M734 343v80h196v-80h-196zM402 343v80h196v-80h-196zM70 343v80h196v-80h-196z" />
    <glyph glyph-name="uni2506" unicode="&#x2506;" 
d="M480 617v196h40v-196h-40zM480 285v196h40v-196h-40zM480 -47v196h40v-196h-40z" />
    <glyph glyph-name="uni2507" unicode="&#x2507;" 
d="M460 617v196h80v-196h-80zM460 285v196h80v-196h-80zM460 -47v196h80v-196h-80z" />
    <glyph glyph-name="uni2508" unicode="&#x2508;" 
d="M794 363v40h160v-40h-160zM546 363v40h160v-40h-160zM294 363v40h160v-40h-160zM46 363v40h160v-40h-160z" />
    <glyph glyph-name="uni2509" unicode="&#x2509;" 
d="M794 343v80h160v-80h-160zM546 343v80h160v-80h-160zM294 343v80h160v-80h-160zM46 343v80h160v-80h-160z" />
    <glyph glyph-name="uni250A" unicode="&#x250a;" 
d="M480 677v160h40v-160h-40zM480 429v160h40v-160h-40zM480 177v160h40v-160h-40zM480 -71v160h40v-160h-40z" />
    <glyph glyph-name="uni250B" unicode="&#x250b;" 
d="M460 677v160h80v-160h-80zM460 429v160h80v-160h-80zM460 177v160h80v-160h-80zM460 -71v160h80v-160h-80z" />
    <glyph glyph-name="SF010000" unicode="&#x250c;" 
d="M500 383v-510h-40v550h550v-40h-510z" />
    <glyph glyph-name="uni250D" unicode="&#x250d;" 
d="M500 343v-470h-40v550h550v-80h-510z" />
    <glyph glyph-name="uni250E" unicode="&#x250e;" 
d="M540 383v-510h-80v550h550v-40h-470z" />
    <glyph glyph-name="uni250F" unicode="&#x250f;" 
d="M540 343v-470h-80v550h550v-80h-470z" />
    <glyph glyph-name="SF030000" unicode="&#x2510;" 
d="M460 -127v510h-470v40h510v-550h-40z" />
    <glyph glyph-name="uni2511" unicode="&#x2511;" 
d="M460 -127v470h-470v80h510v-550h-40z" />
    <glyph glyph-name="uni2512" unicode="&#x2512;" 
d="M460 -127v510h-470v40h550v-550h-80z" />
    <glyph glyph-name="uni2513" unicode="&#x2513;" 
d="M460 -127v470h-470v80h550v-550h-80z" />
    <glyph glyph-name="SF020000" unicode="&#x2514;" 
d="M460 383v510h40v-470h510v-40h-550z" />
    <glyph glyph-name="uni2515" unicode="&#x2515;" 
d="M460 343v550h40v-470h510v-80h-550z" />
    <glyph glyph-name="uni2516" unicode="&#x2516;" 
d="M460 383v510h80v-470h470v-40h-550z" />
    <glyph glyph-name="uni2517" unicode="&#x2517;" 
d="M460 343v550h80v-470h470v-80h-550z" />
    <glyph glyph-name="SF040000" unicode="&#x2518;" 
d="M-10 383v40h470v470h40v-510h-510z" />
    <glyph glyph-name="uni2519" unicode="&#x2519;" 
d="M-10 343v80h470v470h40v-550h-510z" />
    <glyph glyph-name="uni251A" unicode="&#x251a;" 
d="M-10 383v40h470v470h80v-510h-550z" />
    <glyph glyph-name="uni251B" unicode="&#x251b;" 
d="M-10 343v80h470v470h80v-550h-550z" />
    <glyph glyph-name="SF080000" unicode="&#x251c;" 
d="M500 383v-510h-40v1020h40v-470h510v-40h-510z" />
    <glyph glyph-name="uni251D" unicode="&#x251d;" 
d="M500 343v-470h-40v1020h40v-470h510v-80h-510z" />
    <glyph glyph-name="uni251E" unicode="&#x251e;" 
d="M500 383v-510h-40v1020h80v-470h470v-40h-510z" />
    <glyph glyph-name="uni251F" unicode="&#x251f;" 
d="M540 383v-510h-80v1020h40v-470h510v-40h-470z" />
    <glyph glyph-name="uni2520" unicode="&#x2520;" 
d="M540 383v-510h-80v1020h80v-470h470v-40h-470z" />
    <glyph glyph-name="uni2521" unicode="&#x2521;" 
d="M500 343v-470h-40v1020h80v-470h470v-80h-510z" />
    <glyph glyph-name="uni2522" unicode="&#x2522;" 
d="M540 343v-470h-80v1020h40v-470h510v-80h-470z" />
    <glyph glyph-name="uni2523" unicode="&#x2523;" 
d="M540 343v-470h-80v1020h80v-470h470v-80h-470z" />
    <glyph glyph-name="SF090000" unicode="&#x2524;" 
d="M460 -127v510h-470v40h470v470h40v-1020h-40z" />
    <glyph glyph-name="uni2525" unicode="&#x2525;" 
d="M460 -127v470h-470v80h470v470h40v-1020h-40z" />
    <glyph glyph-name="uni2526" unicode="&#x2526;" 
d="M500 383v-510h-40v510h-470v40h470v470h80v-510h-40z" />
    <glyph glyph-name="uni2527" unicode="&#x2527;" 
d="M460 -127v510h-470v40h470v470h40v-470h40v-550h-80z" />
    <glyph glyph-name="uni2528" unicode="&#x2528;" 
d="M460 -127v510h-470v40h470v470h80v-1020h-80z" />
    <glyph glyph-name="uni2529" unicode="&#x2529;" 
d="M500 343v-470h-40v470h-470v80h470v470h80v-550h-40z" />
    <glyph glyph-name="uni252A" unicode="&#x252a;" 
d="M460 -127v470h-470v80h470v470h40v-470h40v-550h-80z" />
    <glyph glyph-name="uni252B" unicode="&#x252b;" 
d="M460 -127v470h-470v80h470v470h80v-1020h-80z" />
    <glyph glyph-name="SF060000" unicode="&#x252c;" 
d="M500 383v-510h-40v510h-470v40h1020v-40h-510z" />
    <glyph glyph-name="uni252D" unicode="&#x252d;" 
d="M500 383v-510h-40v470h-470v80h1020v-40h-510z" />
    <glyph glyph-name="uni252E" unicode="&#x252e;" 
d="M500 343v-470h-40v510h-470v40h1020v-80h-510z" />
    <glyph glyph-name="uni252F" unicode="&#x252f;" 
d="M500 343v-470h-40v470h-470v80h1020v-80h-510z" />
    <glyph glyph-name="uni2530" unicode="&#x2530;" 
d="M540 383v-510h-80v510h-470v40h1020v-40h-470z" />
    <glyph glyph-name="uni2531" unicode="&#x2531;" 
d="M540 383v-510h-80v470h-470v80h1020v-40h-470z" />
    <glyph glyph-name="uni2532" unicode="&#x2532;" 
d="M540 343v-470h-80v510h-470v40h1020v-80h-470z" />
    <glyph glyph-name="uni2533" unicode="&#x2533;" 
d="M540 343v-470h-80v470h-470v80h1020v-80h-470z" />
    <glyph glyph-name="SF070000" unicode="&#x2534;" 
d="M-10 383v40h470v470h40v-470h510v-40h-1020z" />
    <glyph glyph-name="uni2535" unicode="&#x2535;" 
d="M540 383v-40h-550v80h470v470h40v-470h510v-40h-470z" />
    <glyph glyph-name="uni2536" unicode="&#x2536;" 
d="M460 343v40h-470v40h470v470h40v-470h510v-80h-550z" />
    <glyph glyph-name="uni2537" unicode="&#x2537;" 
d="M-10 343v80h470v470h40v-470h510v-80h-1020z" />
    <glyph glyph-name="uni2538" unicode="&#x2538;" 
d="M-10 383v40h470v470h80v-470h470v-40h-1020z" />
    <glyph glyph-name="uni2539" unicode="&#x2539;" 
d="M540 383v-40h-550v80h470v470h80v-470h470v-40h-470z" />
    <glyph glyph-name="uni253A" unicode="&#x253a;" 
d="M460 343v40h-470v40h470v470h80v-470h470v-80h-550z" />
    <glyph glyph-name="uni253B" unicode="&#x253b;" 
d="M-10 343v80h470v470h80v-470h470v-80h-1020z" />
    <glyph glyph-name="SF050000" unicode="&#x253c;" 
d="M500 383v-510h-40v510h-470v40h470v470h40v-470h510v-40h-510z" />
    <glyph glyph-name="uni253D" unicode="&#x253d;" 
d="M500 383v-510h-40v470h-470v80h470v470h40v-470h510v-40h-510z" />
    <glyph glyph-name="uni253E" unicode="&#x253e;" 
d="M500 343v-470h-40v510h-470v40h470v470h40v-470h510v-80h-510z" />
    <glyph glyph-name="uni253F" unicode="&#x253f;" 
d="M500 343v-470h-40v470h-470v80h470v470h40v-470h510v-80h-510z" />
    <glyph glyph-name="uni2540" unicode="&#x2540;" 
d="M500 383v-510h-40v510h-470v40h470v470h80v-470h470v-40h-510z" />
    <glyph glyph-name="uni2541" unicode="&#x2541;" 
d="M540 383v-510h-80v510h-470v40h470v470h40v-470h510v-40h-470z" />
    <glyph glyph-name="uni2542" unicode="&#x2542;" 
d="M540 383v-510h-80v510h-470v40h470v470h80v-470h470v-40h-470z" />
    <glyph glyph-name="uni2543" unicode="&#x2543;" 
d="M540 383v-40h-40v-470h-40v470h-470v80h470v470h80v-470h470v-40h-470z" />
    <glyph glyph-name="uni2544" unicode="&#x2544;" 
d="M500 343v-470h-40v510h-470v40h470v470h80v-470h470v-80h-510z" />
    <glyph glyph-name="uni2545" unicode="&#x2545;" 
d="M540 383v-510h-80v470h-470v80h470v470h40v-470h510v-40h-470z" />
    <glyph glyph-name="uni2546" unicode="&#x2546;" 
d="M540 343v-470h-80v510h-470v40h470v470h40v-470h510v-80h-470z" />
    <glyph glyph-name="uni2547" unicode="&#x2547;" 
d="M500 343v-470h-40v470h-470v80h470v470h80v-470h470v-80h-510z" />
    <glyph glyph-name="uni2548" unicode="&#x2548;" 
d="M540 343v-470h-80v470h-470v80h470v470h40v-470h510v-80h-470z" />
    <glyph glyph-name="uni2549" unicode="&#x2549;" 
d="M540 383v-510h-80v470h-470v80h470v470h80v-470h470v-40h-470z" />
    <glyph glyph-name="uni254A" unicode="&#x254a;" 
d="M540 343v-470h-80v510h-470v40h470v470h80v-470h470v-80h-470z" />
    <glyph glyph-name="uni254B" unicode="&#x254b;" 
d="M540 343v-470h-80v470h-470v80h470v470h80v-470h470v-80h-470z" />
    <glyph glyph-name="SF430000" unicode="&#x2550;" 
 />
    <glyph glyph-name="SF240000" unicode="&#x2551;" 
 />
    <glyph glyph-name="SF510000" unicode="&#x2552;" 
 />
    <glyph glyph-name="SF520000" unicode="&#x2553;" 
 />
    <glyph glyph-name="SF390000" unicode="&#x2554;" 
 />
    <glyph glyph-name="SF220000" unicode="&#x2555;" 
 />
    <glyph glyph-name="SF210000" unicode="&#x2556;" 
 />
    <glyph glyph-name="SF250000" unicode="&#x2557;" 
 />
    <glyph glyph-name="SF500000" unicode="&#x2558;" 
 />
    <glyph glyph-name="SF490000" unicode="&#x2559;" 
 />
    <glyph glyph-name="SF380000" unicode="&#x255a;" 
 />
    <glyph glyph-name="SF280000" unicode="&#x255b;" 
 />
    <glyph glyph-name="SF270000" unicode="&#x255c;" 
 />
    <glyph glyph-name="SF260000" unicode="&#x255d;" 
 />
    <glyph glyph-name="SF360000" unicode="&#x255e;" 
 />
    <glyph glyph-name="SF370000" unicode="&#x255f;" 
 />
    <glyph glyph-name="SF420000" unicode="&#x2560;" 
 />
    <glyph glyph-name="SF190000" unicode="&#x2561;" 
 />
    <glyph glyph-name="SF200000" unicode="&#x2562;" 
 />
    <glyph glyph-name="SF230000" unicode="&#x2563;" 
 />
    <glyph glyph-name="SF470000" unicode="&#x2564;" 
 />
    <glyph glyph-name="SF480000" unicode="&#x2565;" 
 />
    <glyph glyph-name="SF410000" unicode="&#x2566;" 
 />
    <glyph glyph-name="SF450000" unicode="&#x2567;" 
 />
    <glyph glyph-name="SF460000" unicode="&#x2568;" 
 />
    <glyph glyph-name="SF400000" unicode="&#x2569;" 
 />
    <glyph glyph-name="SF540000" unicode="&#x256a;" 
 />
    <glyph glyph-name="SF530000" unicode="&#x256b;" 
 />
    <glyph glyph-name="SF440000" unicode="&#x256c;" 
 />
    <glyph glyph-name="uni256D" unicode="&#x256d;" 
 />
    <glyph glyph-name="uni256E" unicode="&#x256e;" 
 />
    <glyph glyph-name="uni256F" unicode="&#x256f;" 
 />
    <glyph glyph-name="uni2570" unicode="&#x2570;" 
 />
    <glyph glyph-name="uni2571" unicode="&#x2571;" 
 />
    <glyph glyph-name="uni2572" unicode="&#x2572;" 
 />
    <glyph glyph-name="uni2573" unicode="&#x2573;" 
 />
    <glyph glyph-name="uni2581" unicode="&#x2581;" 
 />
    <glyph glyph-name="uni2582" unicode="&#x2582;" 
 />
    <glyph glyph-name="uni2583" unicode="&#x2583;" 
 />
    <glyph glyph-name="dnblock" unicode="&#x2584;" 
 />
    <glyph glyph-name="uni2585" unicode="&#x2585;" 
 />
    <glyph glyph-name="uni2586" unicode="&#x2586;" 
 />
    <glyph glyph-name="uni2587" unicode="&#x2587;" 
 />
    <glyph glyph-name="block" unicode="&#x2588;" 
 />
    <glyph glyph-name="uni2589" unicode="&#x2589;" 
 />
    <glyph glyph-name="uni258A" unicode="&#x258a;" 
 />
    <glyph glyph-name="uni258B" unicode="&#x258b;" 
 />
    <glyph glyph-name="lfblock" unicode="&#x258c;" 
 />
    <glyph glyph-name="uni258D" unicode="&#x258d;" 
 />
    <glyph glyph-name="uni258E" unicode="&#x258e;" 
 />
    <glyph glyph-name="uni258F" unicode="&#x258f;" 
 />
    <glyph glyph-name="dkshade" unicode="&#x2593;" 
 />
    <glyph glyph-name="uni2594" unicode="&#x2594;" 
 />
    <glyph glyph-name="uni2595" unicode="&#x2595;" 
 />
    <glyph glyph-name="filledbox" unicode="&#x25a0;" 
d="M135 18v729h730v-729h-730z" />
    <glyph glyph-name="H22073" unicode="&#x25a1;" 
d="M135 18v729h730v-729h-730zM782 663h-567v-561h567v561z" />
    <glyph glyph-name="triagup" unicode="&#x25b2;" 
d="M128 17l364 780l380 -780h-744z" />
    <glyph glyph-name="uni25B3" unicode="&#x25b3;" 
d="M128 17l364 780l380 -780h-744zM494 601l-235 -500h478z" />
    <glyph glyph-name="triagdn" unicode="&#x25bc;" 
 />
    <glyph glyph-name="uni25BD" unicode="&#x25bd;" 
 />
    <glyph glyph-name="uni25C6" unicode="&#x25c6;" 
d="M500 -87l-415 468l415 468l415 -468z" />
    <glyph glyph-name="uni25C7" unicode="&#x25c7;" 
d="M500 -87l-415 468l415 468l415 -468zM500 725l-305 -344l305 -344l306 345z" />
    <glyph glyph-name="circle" unicode="&#x25cb;" 
d="M916 385q0 -86 -32.5 -162t-89 -132.5t-132.5 -89t-162 -32.5t-162 32.5t-132.5 89t-89 132.5t-32.5 162t32.5 162t89 132.5t132.5 89t162 32.5t162 -32.5t132.5 -89t89 -132.5t32.5 -162zM833 381q0 69 -26.5 130t-72 106.5t-106.5 72t-130 26.5t-130 -26.5t-106.5 -72
t-72 -106.5t-26.5 -130t26.5 -130t72 -106.5t106.5 -72t130 -26.5t130 26.5t106.5 72t72 106.5t26.5 130z" />
    <glyph glyph-name="uni25CE" unicode="&#x25ce;" 
d="M909 382q0 -85 -32 -159.5t-87.5 -130t-130 -87.5t-159.5 -32t-159.5 32t-130 87.5t-87.5 130t-32 159.5t32 159.5t87.5 130t130 87.5t159.5 32t159.5 -32t130 -87.5t87.5 -130t32 -159.5zM819 382q0 66 -25 124t-68.5 101.5t-101.5 68.5t-124 25t-124 -25t-101.5 -68.5
t-68.5 -101.5t-25 -124t25 -124t68.5 -101.5t101.5 -68.5t124 -25t124 25t101.5 68.5t68.5 101.5t25 124zM755 382q0 -53 -20 -99.5t-54.5 -81t-81 -54.5t-99.5 -20t-99.5 20t-81 54.5t-54.5 81t-20 99.5t20 99.5t54.5 81t81 54.5t99.5 20t99.5 -20t81 -54.5t54.5 -81
t20 -99.5zM666 382q0 35 -13 65t-35.5 52.5t-52.5 35.5t-65 13q-34 0 -64.5 -13t-53 -35.5t-35.5 -52.5t-13 -65q0 -34 13 -64.5t35.5 -53t53 -35.5t64.5 -13q35 0 65 13t52.5 35.5t35.5 53t13 64.5z" />
    <glyph glyph-name="H18533" unicode="&#x25cf;" 
d="M906 383q0 -84 -32 -158t-87 -129t-129 -87t-158 -32t-158 32t-129 87t-87 129t-32 158t32 158t87 129t129 87t158 32t158 -32t129 -87t87 -129t32 -158z" />
    <glyph glyph-name="uni25E2" unicode="&#x25e2;" 
 />
    <glyph glyph-name="uni25E3" unicode="&#x25e3;" 
 />
    <glyph glyph-name="uni25E4" unicode="&#x25e4;" 
 />
    <glyph glyph-name="uni25E5" unicode="&#x25e5;" 
 />
    <glyph glyph-name="uni2605" unicode="&#x2605;" 
d="M680 292l117 -342l-298 213l-292 -209l112 334l-292 212h361l110 331l113 -331h362z" />
    <glyph glyph-name="uni2606" unicode="&#x2606;" 
d="M680 292l117 -342l-298 213l-292 -209l112 334l-292 212h361l110 331l113 -331h362zM555 421l-55 160l-55 -160h-170l138 -99l-55 -158l139 96l142 -101l-53 163l136 96z" />
    <glyph glyph-name="uni2609" unicode="&#x2609;" 
 />
    <glyph glyph-name="female" unicode="&#x2640;" 
d="M544 253v-284h-116v284h-239v109h239v57q-25 7 -47.5 23.5t-39.5 39t-27.5 49.5t-10.5 55v5q0 47 20 86.5t59 67.5q20 15 46 22.5t54 7.5q29 0 57 -8t49 -25q37 -28 57 -66t20 -83v-11.5t-1 -11.5q-3 -24 -13.5 -47t-26.5 -43.5t-36.5 -35.5t-43.5 -22v-60h238v-109h-238
zM557 594q0 30 -21 51t-51 21t-51 -21t-21 -51t21 -51t51 -21t51 21t21 51z" />
    <glyph glyph-name="male" unicode="&#x2642;" 
d="M631 489l-90 89v-264q20 -6 38.5 -18t34 -28t26.5 -35t17 -38q7 -24 7 -50q0 -38 -16 -73.5t-47 -63.5q-24 -22 -55 -32.5t-63 -10.5q-35 0 -65 12q-50 20 -82 65.5t-32 99.5v4q0 24 6.5 49.5t21.5 48t38.5 40.5t57.5 27v266l-91 -88l-76 76l228 223l220 -224zM556 144
q0 30 -21.5 51.5t-51.5 21.5t-51.5 -21.5t-21.5 -51.5t21.5 -51.5t51.5 -21.5t51.5 21.5t21.5 51.5z" />
    <glyph glyph-name="uni2E80" unicode="&#x2e80;" 
 />
    <glyph glyph-name="uniE815" unicode="&#xe815;" 
 />
    <glyph glyph-name="uniE815" unicode="&#x2e81;" 
 />
    <glyph glyph-name="uni2E82" unicode="&#x2e82;" 
 />
    <glyph glyph-name="uni2E83" unicode="&#x2e83;" 
 />
    <glyph glyph-name="uniE819" unicode="&#xe819;" 
 />
    <glyph glyph-name="uniE819" unicode="&#x2e84;" 
 />
    <glyph glyph-name="uni2E85" unicode="&#x2e85;" 
 />
    <glyph glyph-name="uni2E86" unicode="&#x2e86;" 
 />
    <glyph glyph-name="uni2E87" unicode="&#x2e87;" 
 />
    <glyph glyph-name="uniE81C" unicode="&#xe81c;" 
 />
    <glyph glyph-name="uniE81C" unicode="&#x2e88;" 
 />
    <glyph glyph-name="uni2E89" unicode="&#x2e89;" 
 />
    <glyph glyph-name="uni2E8A" unicode="&#x2e8a;" 
 />
    <glyph glyph-name="uniE81D" unicode="&#xe81d;" 
 />
    <glyph glyph-name="uniE81D" unicode="&#x2e8b;" 
 />
    <glyph glyph-name="uniE822" unicode="&#xe822;" 
 />
    <glyph glyph-name="uniE822" unicode="&#x2e8c;" 
 />
    <glyph glyph-name="uni2E8D" unicode="&#x2e8d;" 
 />
    <glyph glyph-name="uni2E8E" unicode="&#x2e8e;" 
 />
    <glyph glyph-name="uni2E8F" unicode="&#x2e8f;" 
 />
    <glyph glyph-name="uni2E90" unicode="&#x2e90;" 
 />
    <glyph glyph-name="uni2E91" unicode="&#x2e91;" 
 />
    <glyph glyph-name="uni2E92" unicode="&#x2e92;" 
 />
    <glyph glyph-name="uni2E93" unicode="&#x2e93;" 
 />
    <glyph glyph-name="uni2E94" unicode="&#x2e94;" 
 />
    <glyph glyph-name="uni2E95" unicode="&#x2e95;" 
 />
    <glyph glyph-name="uni2E96" unicode="&#x2e96;" 
 />
    <glyph glyph-name="uniE823" unicode="&#xe823;" 
 />
    <glyph glyph-name="uniE823" unicode="&#x2e97;" 
 />
    <glyph glyph-name="uni2E98" unicode="&#x2e98;" 
 />
    <glyph glyph-name="uni2E99" unicode="&#x2e99;" 
 />
    <glyph glyph-name="uni2E9B" unicode="&#x2e9b;" 
 />
    <glyph glyph-name="uni2E9C" unicode="&#x2e9c;" 
 />
    <glyph glyph-name="uni2E9D" unicode="&#x2e9d;" 
 />
    <glyph glyph-name="uni2E9E" unicode="&#x2e9e;" 
 />
    <glyph glyph-name="uni2E9F" unicode="&#x2e9f;" 
 />
    <glyph glyph-name="uni2EA0" unicode="&#x2ea0;" 
 />
    <glyph glyph-name="uni2EA1" unicode="&#x2ea1;" 
 />
    <glyph glyph-name="uni2EA2" unicode="&#x2ea2;" 
 />
    <glyph glyph-name="uni2EA3" unicode="&#x2ea3;" 
 />
    <glyph glyph-name="uni2EA4" unicode="&#x2ea4;" 
 />
    <glyph glyph-name="uni2EA5" unicode="&#x2ea5;" 
 />
    <glyph glyph-name="uni2EA6" unicode="&#x2ea6;" 
 />
    <glyph glyph-name="uniE830" unicode="&#xe830;" 
 />
    <glyph glyph-name="uniE830" unicode="&#x2ea7;" 
 />
    <glyph glyph-name="uni2EA8" unicode="&#x2ea8;" 
 />
    <glyph glyph-name="uni2EA9" unicode="&#x2ea9;" 
 />
    <glyph glyph-name="uniE833" unicode="&#xe833;" 
 />
    <glyph glyph-name="uniE833" unicode="&#x2eaa;" 
 />
    <glyph glyph-name="uni2EAB" unicode="&#x2eab;" 
 />
    <glyph glyph-name="uni2EAC" unicode="&#x2eac;" 
 />
    <glyph glyph-name="uni2EAD" unicode="&#x2ead;" 
 />
    <glyph glyph-name="uniE836" unicode="&#xe836;" 
 />
    <glyph glyph-name="uniE836" unicode="&#x2eae;" 
 />
    <glyph glyph-name="uni2EAF" unicode="&#x2eaf;" 
 />
    <glyph glyph-name="uni2EB0" unicode="&#x2eb0;" 
 />
    <glyph glyph-name="uni2EB1" unicode="&#x2eb1;" 
 />
    <glyph glyph-name="uni2EB2" unicode="&#x2eb2;" 
 />
    <glyph glyph-name="uniE838" unicode="&#xe838;" 
 />
    <glyph glyph-name="uniE838" unicode="&#x2eb3;" 
 />
    <glyph glyph-name="uni2EB4" unicode="&#x2eb4;" 
 />
    <glyph glyph-name="uni2EB5" unicode="&#x2eb5;" 
 />
    <glyph glyph-name="uniE839" unicode="&#xe839;" 
 />
    <glyph glyph-name="uniE839" unicode="&#x2eb6;" 
 />
    <glyph glyph-name="uniE83A" unicode="&#xe83a;" 
 />
    <glyph glyph-name="uniE83A" unicode="&#x2eb7;" 
 />
    <glyph glyph-name="uni2EB8" unicode="&#x2eb8;" 
 />
    <glyph glyph-name="uni2EB9" unicode="&#x2eb9;" 
 />
    <glyph glyph-name="uni2EBA" unicode="&#x2eba;" 
 />
    <glyph glyph-name="uniE83E" unicode="&#xe83e;" 
 />
    <glyph glyph-name="uniE83E" unicode="&#x2ebb;" 
 />
    <glyph glyph-name="uni2EBC" unicode="&#x2ebc;" 
 />
    <glyph glyph-name="uni2EBD" unicode="&#x2ebd;" 
 />
    <glyph glyph-name="uni2EBE" unicode="&#x2ebe;" 
 />
    <glyph glyph-name="uni2EBF" unicode="&#x2ebf;" 
 />
    <glyph glyph-name="uni2EC0" unicode="&#x2ec0;" 
 />
    <glyph glyph-name="uni2EC1" unicode="&#x2ec1;" 
 />
    <glyph glyph-name="uni2EC2" unicode="&#x2ec2;" 
 />
    <glyph glyph-name="uni2EC3" unicode="&#x2ec3;" 
 />
    <glyph glyph-name="uni2EC4" unicode="&#x2ec4;" 
 />
    <glyph glyph-name="uni2EC5" unicode="&#x2ec5;" 
 />
    <glyph glyph-name="uni2EC6" unicode="&#x2ec6;" 
 />
    <glyph glyph-name="uni2EC7" unicode="&#x2ec7;" 
 />
    <glyph glyph-name="uni2EC8" unicode="&#x2ec8;" 
 />
    <glyph glyph-name="uni2EC9" unicode="&#x2ec9;" 
 />
    <glyph glyph-name="uniE848" unicode="&#xe848;" 
 />
    <glyph glyph-name="uniE848" unicode="&#x2eca;" 
 />
    <glyph glyph-name="uni2ECB" unicode="&#x2ecb;" 
 />
    <glyph glyph-name="uni2ECC" unicode="&#x2ecc;" 
 />
    <glyph glyph-name="uni2ECD" unicode="&#x2ecd;" 
 />
    <glyph glyph-name="uni2ECE" unicode="&#x2ece;" 
 />
    <glyph glyph-name="uni2ECF" unicode="&#x2ecf;" 
 />
    <glyph glyph-name="uni2ED0" unicode="&#x2ed0;" 
 />
    <glyph glyph-name="uni2ED1" unicode="&#x2ed1;" 
 />
    <glyph glyph-name="uni2ED2" unicode="&#x2ed2;" 
 />
    <glyph glyph-name="uni2ED3" unicode="&#x2ed3;" 
 />
    <glyph glyph-name="uni2ED4" unicode="&#x2ed4;" 
 />
    <glyph glyph-name="uni2ED5" unicode="&#x2ed5;" 
 />
    <glyph glyph-name="uni2ED6" unicode="&#x2ed6;" 
 />
    <glyph glyph-name="uni2ED7" unicode="&#x2ed7;" 
 />
    <glyph glyph-name="uni2ED8" unicode="&#x2ed8;" 
 />
    <glyph glyph-name="uni2ED9" unicode="&#x2ed9;" 
 />
    <glyph glyph-name="uni2EDA" unicode="&#x2eda;" 
 />
    <glyph glyph-name="uni2EDB" unicode="&#x2edb;" 
 />
    <glyph glyph-name="uni2EDC" unicode="&#x2edc;" 
 />
    <glyph glyph-name="uni2EDD" unicode="&#x2edd;" 
 />
    <glyph glyph-name="uni2EDE" unicode="&#x2ede;" 
 />
    <glyph glyph-name="uni2EDF" unicode="&#x2edf;" 
 />
    <glyph glyph-name="uni2EE0" unicode="&#x2ee0;" 
 />
    <glyph glyph-name="uni2EE1" unicode="&#x2ee1;" 
 />
    <glyph glyph-name="uni2EE2" unicode="&#x2ee2;" 
 />
    <glyph glyph-name="uni2EE3" unicode="&#x2ee3;" 
 />
    <glyph glyph-name="uni2EE4" unicode="&#x2ee4;" 
 />
    <glyph glyph-name="uni2EE5" unicode="&#x2ee5;" 
 />
    <glyph glyph-name="uni2EE6" unicode="&#x2ee6;" 
 />
    <glyph glyph-name="uni2EE7" unicode="&#x2ee7;" 
 />
    <glyph glyph-name="uni2EE8" unicode="&#x2ee8;" 
 />
    <glyph glyph-name="uni2EE9" unicode="&#x2ee9;" 
 />
    <glyph glyph-name="uni2EEA" unicode="&#x2eea;" 
 />
    <glyph glyph-name="uni2EEB" unicode="&#x2eeb;" 
 />
    <glyph glyph-name="uni2EEC" unicode="&#x2eec;" 
 />
    <glyph glyph-name="uni2EED" unicode="&#x2eed;" 
 />
    <glyph glyph-name="uni2EEE" unicode="&#x2eee;" 
 />
    <glyph glyph-name="uni2EEF" unicode="&#x2eef;" 
 />
    <glyph glyph-name="uni2EF0" unicode="&#x2ef0;" 
 />
    <glyph glyph-name="uni2EF1" unicode="&#x2ef1;" 
 />
    <glyph glyph-name="uni2EF2" unicode="&#x2ef2;" 
 />
    <glyph glyph-name="uni2EF3" unicode="&#x2ef3;" 
 />
    <glyph glyph-name="uni4E00" unicode="&#x4e00;" 
d="M78 351v111h854v-111h-854z" />
    <glyph glyph-name="uni4E00" unicode="&#x2f00;" 
d="M78 351v111h854v-111h-854z" />
    <glyph glyph-name="uni4E28" unicode="&#x4e28;" 
d="M398 -55v883h208v-883h-208z" />
    <glyph glyph-name="uni4E28" unicode="&#x2f01;" 
d="M398 -55v883h208v-883h-208z" />
    <glyph glyph-name="uni4E36" unicode="&#x4e36;" 
d="M473 245l-187 302h242l191 -302h-246z" />
    <glyph glyph-name="uni4E36" unicode="&#x2f02;" 
d="M473 245l-187 302h242l191 -302h-246z" />
    <glyph glyph-name="uni4E3F" unicode="&#x4e3f;" 
d="M467 -50h-234l171 229v655h200v-700z" />
    <glyph glyph-name="uni4E3F" unicode="&#x2f03;" 
d="M467 -50h-234l171 229v655h200v-700z" />
    <glyph glyph-name="uni4E59" unicode="&#x4e59;" 
d="M910 -47h-831v324l580 440h-570v101h817v-133l-621 -473v-158h670z" />
    <glyph glyph-name="uni4E59" unicode="&#x2f04;" 
d="M910 -47h-831v324l580 440h-570v101h817v-133l-621 -473v-158h670z" />
    <glyph glyph-name="uni4E85" unicode="&#x4e85;" 
 />
    <glyph glyph-name="uni4E85" unicode="&#x2f05;" 
 />
    <glyph glyph-name="uni4E8C" unicode="&#x4e8c;" 
d="M126 629v111h757v-111h-757zM78 38v111h854v-111h-854z" />
    <glyph glyph-name="uni4E8C" unicode="&#x2f06;" 
d="M126 629v111h757v-111h-757zM78 38v111h854v-111h-854z" />
    <glyph glyph-name="uni4EA0" unicode="&#x4ea0;" 
d="M59 603v104h344l-44 123h216l43 -123h331v-104h-890z" />
    <glyph glyph-name="uni4EA0" unicode="&#x2f07;" 
d="M59 603v104h344l-44 123h216l43 -123h331v-104h-890z" />
    <glyph glyph-name="uni4EBA" unicode="&#x4eba;" 
d="M749 -52l-249 537l-243 -537h-217l407 888h211l-139 -311h175l269 -577h-214z" />
    <glyph glyph-name="uni4EBA" unicode="&#x2f08;" 
d="M749 -52l-249 537l-243 -537h-217l407 888h211l-139 -311h175l269 -577h-214z" />
    <glyph glyph-name="uni513F" unicode="&#x513f;" 
d="M916 -52h-300v886h195v-782h148zM263 -52h-219l138 251v635h194v-682z" />
    <glyph glyph-name="uni513F" unicode="&#x2f09;" 
d="M916 -52h-300v886h195v-782h148zM263 -52h-219l138 251v635h194v-682z" />
    <glyph glyph-name="uni5165" unicode="&#x5165;" 
d="M758 -56l-258 527l-254 -527h-205l308 636l98 -1l-119 243h210l429 -878h-209z" />
    <glyph glyph-name="uni5165" unicode="&#x2f0a;" 
d="M758 -56l-258 527l-254 -527h-205l308 636l98 -1l-119 243h210l429 -878h-209z" />
    <glyph glyph-name="uni516B" unicode="&#x516b;" 
d="M762 -56l-208 893h200l207 -893h-199zM241 -56h-195l210 893h198z" />
    <glyph glyph-name="uni516B" unicode="&#x2f0b;" 
d="M762 -56l-208 893h200l207 -893h-199zM241 -56h-195l210 893h198z" />
    <glyph glyph-name="uni5182" unicode="&#x5182;" 
d="M597 -49l-54 101h200v668h-476v-768h-190v871h855v-872h-335z" />
    <glyph glyph-name="uni5182" unicode="&#x2f0c;" 
d="M597 -49l-54 101h200v668h-476v-768h-190v871h855v-872h-335z" />
    <glyph glyph-name="uni5196" unicode="&#x5196;" 
d="M744 547v164h-483v-164h-191v264h866v-264h-192z" />
    <glyph glyph-name="uni5196" unicode="&#x2f0d;" 
d="M744 547v164h-483v-164h-191v264h866v-264h-192z" />
    <glyph glyph-name="uni51AB" unicode="&#x51ab;" 
d="M180 475l-104 358h200l104 -358h-200zM256 -47h-200l126 461h200z" />
    <glyph glyph-name="uni51AB" unicode="&#x2f0e;" 
d="M180 475l-104 358h200l104 -358h-200zM256 -47h-200l126 461h200z" />
    <glyph glyph-name="uni51E0" unicode="&#x51e0;" 
d="M950 -53h-312v773h-281v-593l-143 -180h-205l155 198v678h669v-777h156z" />
    <glyph glyph-name="uni51E0" unicode="&#x2f0f;" 
d="M950 -53h-312v773h-281v-593l-143 -180h-205l155 198v678h669v-777h156z" />
    <glyph glyph-name="uni51F5" unicode="&#x51f5;" 
d="M78 -47v878h194v-776h463v776h192v-878h-849z" />
    <glyph glyph-name="uni51F5" unicode="&#x2f10;" 
d="M78 -47v878h194v-776h463v776h192v-878h-849z" />
    <glyph glyph-name="uni5200" unicode="&#x5200;" 
d="M521 -53l-48 102h246v672h-278v-509l-189 -265h-221l212 305v469h-173v102h847v-876h-396z" />
    <glyph glyph-name="uni5200" unicode="&#x2f11;" 
d="M521 -53l-48 102h246v672h-278v-509l-189 -265h-221l212 305v469h-173v102h847v-876h-396z" />
    <glyph glyph-name="uni529B" unicode="&#x529b;" 
d="M475 -54l-49 104h311v567h-290v-436l-174 -235h-244l223 290v381h-181v102h181v114h195v-114h482v-773h-454z" />
    <glyph glyph-name="uni529B" unicode="&#x2f12;" 
d="M475 -54l-49 104h311v567h-290v-436l-174 -235h-244l223 290v381h-181v102h181v114h195v-114h482v-773h-454z" />
    <glyph glyph-name="uni52F9" unicode="&#x52f9;" 
d="M570 -48l-65 98h235v585h-420l-66 -177h-209l142 378h205l-37 -100h575v-784h-360z" />
    <glyph glyph-name="uni52F9" unicode="&#x2f13;" 
d="M570 -48l-65 98h235v585h-420l-66 -177h-209l142 378h205l-37 -100h575v-784h-360z" />
    <glyph glyph-name="uni5315" unicode="&#x5315;" 
d="M912 -48h-821v885h200v-417h340l115 336h195l-149 -438h-501v-264h662z" />
    <glyph glyph-name="uni5315" unicode="&#x2f14;" 
d="M912 -48h-821v885h200v-417h340l115 336h195l-149 -438h-501v-264h662z" />
    <glyph glyph-name="uni531A" unicode="&#x531a;" 
d="M927 -49h-851v870h859l2 -99h-660v-673h687z" />
    <glyph glyph-name="uni531A" unicode="&#x2f15;" 
d="M927 -49h-851v870h859l2 -99h-660v-673h687z" />
    <glyph glyph-name="uni5338" unicode="&#x5338;" 
 />
    <glyph glyph-name="uni5338" unicode="&#x2f16;" 
 />
    <glyph glyph-name="uni5341" unicode="&#x5341;" 
d="M606 374v-427h-204v427h-344v102h344v356h204v-356h345v-102h-345z" />
    <glyph glyph-name="uni5341" unicode="&#x2f17;" 
d="M606 374v-427h-204v427h-344v102h344v356h204v-356h345v-102h-345z" />
    <glyph glyph-name="uni535C" unicode="&#x535c;" 
d="M728 97l-244 582h205l244 -582h-205zM229 -54v894h206v-894h-206z" />
    <glyph glyph-name="uni535C" unicode="&#x2f18;" 
d="M728 97l-244 582h205l244 -582h-205zM229 -54v894h206v-894h-206z" />
    <glyph glyph-name="uni5369" unicode="&#x5369;" 
d="M715 66l-46 99h81v554h-91v-770h-184v875h457v-758h-217z" />
    <glyph glyph-name="uni5369" unicode="&#x2f19;" 
d="M715 66l-46 99h81v554h-91v-770h-184v875h457v-758h-217z" />
    <glyph glyph-name="uni5382" unicode="&#x5382;" 
d="M295 721v-656l-41 -115h-210l51 145v726h856v-100h-656z" />
    <glyph glyph-name="uni5382" unicode="&#x2f1a;" 
d="M295 721v-656l-41 -115h-210l51 145v726h856v-100h-656z" />
    <glyph glyph-name="uni53B6" unicode="&#x53b6;" 
d="M763 -44l-24 93l-71 -93h-597v102l252 776h214l-252 -776h452l-164 633h192l192 -735h-194z" />
    <glyph glyph-name="uni53B6" unicode="&#x2f1b;" 
d="M763 -44l-24 93l-71 -93h-597v102l252 776h214l-252 -776h452l-164 633h192l192 -735h-194z" />
    <glyph glyph-name="uni53C8" unicode="&#x53c8;" 
d="M711 -54l-205 248l-207 -248h-248l328 400l-258 316h249l133 -162l175 218h-595v104h849v-94l-305 -380l332 -402h-248z" />
    <glyph glyph-name="uni53C8" unicode="&#x2f1c;" 
d="M711 -54l-205 248l-207 -248h-248l328 400l-258 316h249l133 -162l175 218h-595v104h849v-94l-305 -380l332 -402h-248z" />
    <glyph glyph-name="uni53E3" unicode="&#x53e3;" 
d="M93 -25v824h822v-824h-822zM719 694h-432v-614h432v614z" />
    <glyph glyph-name="uni53E3" unicode="&#x2f1d;" 
d="M93 -25v824h822v-824h-822zM719 694h-432v-614h432v614z" />
    <glyph glyph-name="uni56D7" unicode="&#x56d7;" 
d="M91 -29v825h822v-825h-822zM721 695h-435v-623h435v623z" />
    <glyph glyph-name="uni56D7" unicode="&#x2f1e;" 
d="M91 -29v825h822v-825h-822zM721 695h-435v-623h435v623z" />
    <glyph glyph-name="uni571F" unicode="&#x571f;" 
d="M59 -47v101h344v400h-299v102h299v279h202v-279h299v-102h-299v-400h349v-101h-895z" />
    <glyph glyph-name="uni571F" unicode="&#x2f1f;" 
d="M59 -47v101h344v400h-299v102h299v279h202v-279h299v-102h-299v-400h349v-101h-895z" />
    <glyph glyph-name="uni58EB" unicode="&#x58eb;" 
d="M601 451v-397h300v-103h-797v103h298v397h-348v104h348v276h199v-276h348v-104h-348z" />
    <glyph glyph-name="uni58EB" unicode="&#x2f20;" 
d="M601 451v-397h300v-103h-797v103h298v397h-348v104h348v276h199v-276h348v-104h-348z" />
    <glyph glyph-name="uni5902" unicode="&#x5902;" 
d="M692 -43l-200 183l-176 -183h-280l307 319l-159 145h-132l263 391h252l-74 -110h392v-154l-265 -276l352 -315h-280zM424 600l-93 -139h78l60 -54l186 193h-231z" />
    <glyph glyph-name="uni5902" unicode="&#x2f21;" 
d="M692 -43l-200 183l-176 -183h-280l307 319l-159 145h-132l263 391h252l-74 -110h392v-154l-265 -276l352 -315h-280zM424 600l-93 -139h78l60 -54l186 193h-231z" />
    <glyph glyph-name="uni590A" unicode="&#x590a;" 
 />
    <glyph glyph-name="uni590A" unicode="&#x2f22;" 
 />
    <glyph glyph-name="uni5915" unicode="&#x5915;" 
d="M609 -52h-480l-63 100h383l35 67l-275 284h245l114 -114l161 320h-350l-95 -167h-223l222 388h223l-69 -121h496v-116z" />
    <glyph glyph-name="uni5915" unicode="&#x2f23;" 
d="M609 -52h-480l-63 100h383l35 67l-275 284h245l114 -114l161 320h-350l-95 -167h-223l222 388h223l-69 -121h496v-116z" />
    <glyph glyph-name="uni5927" unicode="&#x5927;" 
d="M746 -51l-245 417l-228 -417h-219l323 589h-311v104h335v193h197v-193h341v-104h-341l-33 -58h91l305 -531h-215z" />
    <glyph glyph-name="uni5927" unicode="&#x2f24;" 
d="M746 -51l-245 417l-228 -417h-219l323 589h-311v104h335v193h197v-193h341v-104h-341l-33 -58h91l305 -531h-215z" />
    <glyph glyph-name="uni5973" unicode="&#x5973;" 
d="M636 -52l-127 79l-131 -79h-331l296 182l-186 117v317h-88v101h88v165h196v-165h302v165h197v-165h86v-101h-86v-321l-181 -113l292 -182h-327zM655 564h-302v-235l154 -97l148 94v238z" />
    <glyph glyph-name="uni5973" unicode="&#x2f25;" 
d="M636 -52l-127 79l-131 -79h-331l296 182l-186 117v317h-88v101h88v165h196v-165h302v165h197v-165h86v-101h-86v-321l-181 -113l292 -182h-327zM655 564h-302v-235l154 -97l148 94v238z" />
    <glyph glyph-name="uni5B50" unicode="&#x5b50;" 
d="M600 313v-365h-324l-52 102h179v263h-347v102h347v111l223 192h-514v103h775v-106l-287 -247v-53h350v-102h-350z" />
    <glyph glyph-name="uni5B50" unicode="&#x2f26;" 
d="M600 313v-365h-324l-52 102h179v263h-347v102h347v111l223 192h-514v103h775v-106l-287 -247v-53h350v-102h-350z" />
    <glyph glyph-name="uni5B80" unicode="&#x5b80;" 
d="M746 493v135h-487v-135h-191v235h345l-33 106h208l33 -106h317v-235h-192z" />
    <glyph glyph-name="uni5B80" unicode="&#x2f27;" 
d="M746 493v135h-487v-135h-191v235h345l-33 106h208l33 -106h317v-235h-192z" />
    <glyph glyph-name="uni5BF8" unicode="&#x5bf8;" 
d="M823 560v-613h-344l-61 107h204v506h-571v102h571v173h201v-173h128v-102h-128zM333 135l-181 379h218l181 -379h-218z" />
    <glyph glyph-name="uni5BF8" unicode="&#x2f28;" 
d="M823 560v-613h-344l-61 107h204v506h-571v102h571v173h201v-173h128v-102h-128zM333 135l-181 379h218l181 -379h-218z" />
    <glyph glyph-name="uni5C0F" unicode="&#x5c0f;" 
d="M761 16l-114 646h192l116 -646h-194zM321 -49l-48 100h133v780h194v-880h-279zM247 16h-195l113 646h191z" />
    <glyph glyph-name="uni5C0F" unicode="&#x2f29;" 
d="M761 16l-114 646h192l116 -646h-194zM321 -49l-48 100h133v780h194v-880h-279zM247 16h-195l113 646h191z" />
    <glyph glyph-name="uni5C22" unicode="&#x5c22;" 
d="M915 -51h-396v575h193v-472h252zM479 563l-201 -614h-213l200 614h-198v101h231l58 168h211l-55 -168h426v-101h-459z" />
    <glyph glyph-name="uni5C22" unicode="&#x2f2a;" 
d="M915 -51h-396v575h193v-472h252zM479 563l-201 -614h-213l200 614h-198v101h231l58 168h211l-55 -168h426v-101h-459z" />
    <glyph glyph-name="uni5C38" unicode="&#x5c38;" 
d="M288 424v-354l-42 -117h-195l44 139v726h839v-394h-646zM746 715h-458v-189h458v189z" />
    <glyph glyph-name="uni5C38" unicode="&#x2f2b;" 
d="M288 424v-354l-42 -117h-195l44 139v726h839v-394h-646zM746 715h-458v-189h458v189z" />
    <glyph glyph-name="uni5C6E" unicode="&#x5c6e;" 
d="M596 262v-314h-187v314h-329v488h188v-387h141v468h187v-468h141v387h188v-488h-329z" />
    <glyph glyph-name="uni5C6E" unicode="&#x2f2c;" 
d="M596 262v-314h-187v314h-329v488h188v-387h141v468h187v-468h141v387h188v-488h-329z" />
    <glyph glyph-name="uni5C71" unicode="&#x5c71;" 
d="M84 -51v760h180v-657h141v779h196v-779h145v657h180v-760h-842z" />
    <glyph glyph-name="uni5C71" unicode="&#x2f2d;" 
d="M84 -51v760h180v-657h141v779h196v-779h145v657h180v-760h-842z" />
    <glyph glyph-name="uni5DDB" unicode="&#x5ddb;" 
d="M760 -48l-124 440l110 435h197l-110 -435l128 -440h-201zM474 -48l-119 440l110 435h185l-109 -435l124 -440h-191zM184 -48l-123 440l113 435h197l-112 -435l124 -440h-199z" />
    <glyph glyph-name="uni5DDB" unicode="&#x2f2e;" 
d="M760 -48l-124 440l110 435h197l-110 -435l128 -440h-201zM474 -48l-119 440l110 435h185l-109 -435l124 -440h-191zM184 -48l-123 440l113 435h197l-112 -435l124 -440h-199z" />
    <glyph glyph-name="uni5DE5" unicode="&#x5de5;" 
d="M71 11v102h333v542h-297v102h798v-102h-298v-542h334v-102h-870z" />
    <glyph glyph-name="uni5DE5" unicode="&#x2f2f;" 
d="M71 11v102h333v542h-297v102h798v-102h-298v-542h334v-102h-870z" />
    <glyph glyph-name="uni5DF1" unicode="&#x5df1;" 
d="M900 -53h-822v531h647v242h-658v102h854v-447h-647v-328h676z" />
    <glyph glyph-name="uni5DF1" unicode="&#x2f30;" 
d="M900 -53h-822v531h647v242h-658v102h854v-447h-647v-328h676z" />
    <glyph glyph-name="uni5DFE" unicode="&#x5dfe;" 
d="M692 40l-50 101h116v426h-157v-620h-195v620h-152v-526h-183v627h335v164h195v-164h336v-628h-245z" />
    <glyph glyph-name="uni5DFE" unicode="&#x2f31;" 
d="M692 40l-50 101h116v426h-157v-620h-195v620h-152v-526h-183v627h335v164h195v-164h336v-628h-245z" />
    <glyph glyph-name="uni5E72" unicode="&#x5e72;" 
d="M601 358v-411h-199v411h-348v102h348v259h-299v101h801v-101h-303v-259h353v-102h-353z" />
    <glyph glyph-name="uni5E72" unicode="&#x2f32;" 
d="M601 358v-411h-199v411h-348v102h348v259h-299v101h801v-101h-303v-259h353v-102h-353z" />
    <glyph glyph-name="uni5E7A" unicode="&#x5e7a;" 
d="M756 -49l-38 86l-51 -86h-596v108l357 322h-338v104l385 349h267l-393 -354h191l140 129h269l-623 -558h386l-87 200h204l133 -300h-206z" />
    <glyph glyph-name="uni5E7A" unicode="&#x2f33;" 
d="M756 -49l-38 86l-51 -86h-596v108l357 322h-338v104l385 349h267l-393 -354h191l140 129h269l-623 -558h386l-87 200h204l133 -300h-206z" />
    <glyph glyph-name="uni5E7F" unicode="&#x5e7f;" 
d="M291 654v-609l-40 -95h-208l46 127v679h329l-23 81h220l24 -81h309v-102h-657z" />
    <glyph glyph-name="uni5E7F" unicode="&#x2f34;" 
d="M291 654v-609l-40 -95h-208l46 127v679h329l-23 81h220l24 -81h309v-102h-657z" />
    <glyph glyph-name="uni5EF4" unicode="&#x5ef4;" 
d="M919 -48h-535l-80 80l-62 -80h-208l148 201l-143 142h119l27 -26l1 113h-122v95l107 226h-116v96h299v-95l-107 -228h105v-365l65 -62h540z" />
    <glyph glyph-name="uni5EF4" unicode="&#x2f35;" 
d="M919 -48h-535l-80 80l-62 -80h-208l148 201l-143 142h119l27 -26l1 113h-122v95l107 226h-116v96h299v-95l-107 -228h105v-365l65 -62h540z" />
    <glyph glyph-name="uni5EFE" unicode="&#x5efe;" 
d="M799 361v-415h-190v415h-214v-275l-95 -140h-225l129 192v223h-137v104h137v368h191v-368h214v368h190v-368h139v-104h-139z" />
    <glyph glyph-name="uni5EFE" unicode="&#x2f36;" 
d="M799 361v-415h-190v415h-214v-275l-95 -140h-225l129 192v223h-137v104h137v368h191v-368h214v368h190v-368h139v-104h-139z" />
    <glyph glyph-name="uni5F0B" unicode="&#x5f0b;" 
d="M653 646l-76 165h202l74 -165h-200zM903 -50h-389l-175 517l-286 -19v99l253 21l-90 263h209l82 -249l431 36v-100l-394 -35l147 -431h269z" />
    <glyph glyph-name="uni5F0B" unicode="&#x2f37;" 
d="M653 646l-76 165h202l74 -165h-200zM903 -50h-389l-175 517l-286 -19v99l253 21l-90 263h209l82 -249l431 36v-100l-394 -35l147 -431h269z" />
    <glyph glyph-name="uni5F13" unicode="&#x5f13;" 
d="M214 -51l-35 100h569v198h-676v337h660v138h-674v102h863v-339h-659v-135h675v-401h-723z" />
    <glyph glyph-name="uni5F13" unicode="&#x2f38;" 
d="M214 -51l-35 100h569v198h-676v337h660v138h-674v102h863v-339h-659v-135h675v-401h-723z" />
    <glyph glyph-name="uni5F50" unicode="&#x5f50;" 
d="M69 -50v101h647v286h-627v99h627v286h-647v101h846v-873h-846z" />
    <glyph glyph-name="uni5F50" unicode="&#x2f39;" 
d="M69 -50v101h647v286h-627v99h627v286h-647v101h846v-873h-846z" />
    <glyph glyph-name="uni5F61" unicode="&#x5f61;" 
d="M447 565h-296l436 267h294zM438 270h-299l439 270h297zM420 -49h-301l461 296h302z" />
    <glyph glyph-name="uni5F61" unicode="&#x2f3a;" 
d="M447 565h-296l436 267h294zM438 270h-299l439 270h297zM420 -49h-301l461 296h302z" />
    <glyph glyph-name="uni5F73" unicode="&#x5f73;" 
d="M274 613h140l-143 -214h52v-446h-190v406h-87l156 236h-144l154 234h204z" />
    <glyph glyph-name="uni5F73" unicode="&#x2f3b;" 
d="M274 613h140l-143 -214h52v-446h-190v406h-87l156 236h-144l154 234h204z" />
    <glyph glyph-name="uni5FC3" unicode="&#x5fc3;" 
d="M563 567l-88 263h195l81 -263h-188zM765 88l-103 439h196l103 -439h-196zM778 -48h-455v733h180v-633h331zM233 62h-182l71 465h180z" />
    <glyph glyph-name="uni5FC3" unicode="&#x2f3c;" 
d="M563 567l-88 263h195l81 -263h-188zM765 88l-103 439h196l103 -439h-196zM778 -48h-455v733h180v-633h331zM233 62h-182l71 465h180z" />
    <glyph glyph-name="uni6208" unicode="&#x6208;" 
d="M662 655l-97 166h204l94 -166h-201zM623 203l49 -154h280l-49 -100h-395l-41 126l-153 -126h-272l369 299l-78 242l-267 -19v101l235 17l-78 243h194l76 -230l444 32v-101l-411 -29l41 -125l121 99h265z" />
    <glyph glyph-name="uni6208" unicode="&#x2f3d;" 
d="M662 655l-97 166h204l94 -166h-201zM623 203l49 -154h280l-49 -100h-395l-41 126l-153 -126h-272l369 299l-78 242l-267 -19v101l235 17l-78 243h194l76 -230l444 32v-101l-411 -29l41 -125l121 99h265z" />
    <glyph glyph-name="uni6236" unicode="&#x6236;" 
 />
    <glyph glyph-name="uni6236" unicode="&#x2f3e;" 
 />
    <glyph glyph-name="uni624B" unicode="&#x624b;" 
d="M621 219v-267h-367l-49 98h217v169h-363v100h363v133h-313v100h313v136h-334v101h622l14 45h215l-41 -146h-277v-136h303v-100h-303v-133h329v-100h-329z" />
    <glyph glyph-name="uni624B" unicode="&#x2f3f;" 
d="M621 219v-267h-367l-49 98h217v169h-363v100h363v133h-313v100h313v136h-334v101h622l14 45h215l-41 -146h-277v-136h303v-100h-303v-133h329v-100h-329z" />
    <glyph glyph-name="uni652F" unicode="&#x652f;" 
d="M684 -49l-177 125l-178 -125h-285l317 225l-262 185l281 1l124 -86l169 118h-578v101h308v116h-349v100h349v117h203v-117h344v-100h-344v-116h306v-128l-263 -190l326 -226h-291z" />
    <glyph glyph-name="uni652F" unicode="&#x2f40;" 
d="M684 -49l-177 125l-178 -125h-285l317 225l-262 185l281 1l124 -86l169 118h-578v101h308v116h-349v100h349v117h203v-117h344v-100h-344v-116h306v-128l-263 -190l326 -226h-291z" />
    <glyph glyph-name="uni6534" unicode="&#x6534;" 
d="M702 -49l-199 150l-193 -150h-269l328 255l-216 165h272l78 -59l121 93h-539v101h285v329h202v-113h353v-102h-353v-114h323v-101l-256 -198l332 -256h-269z" />
    <glyph glyph-name="uni6534" unicode="&#x2f41;" 
d="M702 -49l-199 150l-193 -150h-269l328 255l-216 165h272l78 -59l121 93h-539v101h285v329h202v-113h353v-102h-353v-114h323v-101l-256 -198l332 -256h-269z" />
    <glyph glyph-name="uni6587" unicode="&#x6587;" 
d="M718 -52l-214 243l-209 -243h-244l338 375l-234 270h230l118 -135l153 171h-588v102h331l-19 101h210l20 -101h327v-102h-55l-263 -305l333 -376h-234z" />
    <glyph glyph-name="uni6587" unicode="&#x2f42;" 
d="M718 -52l-214 243l-209 -243h-244l338 375l-234 270h230l118 -135l153 171h-588v102h331l-19 101h210l20 -101h327v-102h-55l-263 -305l333 -376h-234z" />
    <glyph glyph-name="uni6597" unicode="&#x6597;" 
d="M314 567l-197 245h250l200 -245h-253zM823 172v-220l-195 1v202l-572 -44v99l572 50v575h195v-558l130 12v-104zM300 285l-197 250h246l201 -250h-250z" />
    <glyph glyph-name="uni6597" unicode="&#x2f43;" 
d="M314 567l-197 245h250l200 -245h-253zM823 172v-220l-195 1v202l-572 -44v99l572 50v575h195v-558l130 12v-104zM300 285l-197 250h246l201 -250h-250z" />
    <glyph glyph-name="uni65A4" unicode="&#x65a4;" 
d="M757 417v-469h-191v469h-272v-303l-67 -166h-196l72 190v660h613l14 36h214l-41 -138h-609v-178h654v-101h-191z" />
    <glyph glyph-name="uni65A4" unicode="&#x2f44;" 
d="M757 417v-469h-191v469h-272v-303l-67 -166h-196l72 190v660h613l14 36h214l-41 -138h-609v-178h654v-101h-191z" />
    <glyph glyph-name="uni65B9" unicode="&#x65b9;" 
d="M373 640v-124h527v-567h-359l-57 100h227v366l-338 -2v-264l-107 -200h-211l126 244v447h-126v103h357l-26 91h206l26 -91h331v-103h-576z" />
    <glyph glyph-name="uni65B9" unicode="&#x2f45;" 
d="M373 640v-124h527v-567h-359l-57 100h227v366l-338 -2v-264l-107 -200h-211l126 244v447h-126v103h357l-26 91h206l26 -91h331v-103h-576z" />
    <glyph glyph-name="uni65E0" unicode="&#x65e0;" 
d="M917 -51h-429v307l-206 -307h-238l303 446h-294v99h335v227h-298v101h828v-101h-331v-227h366v-99h-372l-33 -48h137v-298h287z" />
    <glyph glyph-name="uni65E0" unicode="&#x2f46;" 
d="M917 -51h-429v307l-206 -307h-238l303 446h-294v99h335v227h-298v101h828v-101h-331v-227h366v-99h-372l-33 -48h137v-298h287z" />
    <glyph glyph-name="uni65E5" unicode="&#x65e5;" 
d="M101 -50v869h806v-869h-806zM721 719h-435v-271h435v271zM721 348h-435v-297h435v297z" />
    <glyph glyph-name="uni65E5" unicode="&#x2f47;" 
d="M101 -50v869h806v-869h-806zM721 719h-435v-271h435v271zM721 348h-435v-297h435v297z" />
    <glyph glyph-name="uni66F0" unicode="&#x66f0;" 
d="M86 -33v837h835v-837h-835zM729 701h-451v-257h397v-103h-397v-271h451v631z" />
    <glyph glyph-name="uni66F0" unicode="&#x2f48;" 
d="M86 -33v837h835v-837h-835zM729 701h-451v-257h397v-103h-397v-271h451v631z" />
    <glyph glyph-name="uni6708" unicode="&#x6708;" 
d="M560 -50l-48 95h202v183h-408v-124l-58 -154h-197l64 177v694h791v-871h-346zM714 721h-408v-149h408v149zM714 477h-408v-150h408v150z" />
    <glyph glyph-name="uni6708" unicode="&#x2f49;" 
d="M560 -50l-48 95h202v183h-408v-124l-58 -154h-197l64 177v694h791v-871h-346zM714 721h-408v-149h408v149zM714 477h-408v-150h408v150z" />
    <glyph glyph-name="uni6728" unicode="&#x6728;" 
d="M759 -16l-127 565h195l126 -565h-194zM602 589v-638h-196v638h-339v102h339v142h196v-142h333v-102h-333zM256 -16h-197l121 565h194z" />
    <glyph glyph-name="uni6728" unicode="&#x2f4a;" 
d="M759 -16l-127 565h195l126 -565h-194zM602 589v-638h-196v638h-339v102h339v142h196v-142h333v-102h-333zM256 -16h-197l121 565h194z" />
    <glyph glyph-name="uni6B20" unicode="&#x6b20;" 
d="M736 412v193h-384l-91 -219h-202l185 445h200l-49 -123h527v-296h-186zM677 -51l-171 171l-181 -171h-271l349 332v272h200v-278h22l328 -326h-276z" />
    <glyph glyph-name="uni6B20" unicode="&#x2f4b;" 
d="M736 412v193h-384l-91 -219h-202l185 445h200l-49 -123h527v-296h-186zM677 -51l-171 171l-181 -171h-271l349 332v272h200v-278h22l328 -326h-276z" />
    <glyph glyph-name="uni6B62" unicode="&#x6b62;" 
d="M71 -47v101h72v592h183v-592h117v776h193v-283h284v-101h-284v-392h304v-101h-869z" />
    <glyph glyph-name="uni6B62" unicode="&#x2f4c;" 
d="M71 -47v101h72v592h183v-592h117v776h193v-283h284v-101h-284v-392h304v-101h-869z" />
    <glyph glyph-name="uni6B79" unicode="&#x6b79;" 
d="M491 720l-69 -112h487v-152l-336 -508h-457l-51 100h352l41 63l-291 228h281l108 -86l173 259h-367l-87 -140h-219l219 348h-206v101h871v-101h-449z" />
    <glyph glyph-name="uni6B79" unicode="&#x2f4d;" 
d="M491 720l-69 -112h487v-152l-336 -508h-457l-51 100h352l41 63l-291 228h281l108 -86l173 259h-367l-87 -140h-219l219 348h-206v101h871v-101h-449z" />
    <glyph glyph-name="uni6BB3" unicode="&#x6bb3;" 
d="M921 446h-282v274h-295v-185l-74 -89h-223l102 120v254h684v-274h133zM665 -51l-161 95l-160 -95h-300l304 187l-242 145h306l89 -55l139 84h-548v101h812v-124l-249 -150l317 -188h-307z" />
    <glyph glyph-name="uni6BB3" unicode="&#x2f4e;" 
d="M921 446h-282v274h-295v-185l-74 -89h-223l102 120v254h684v-274h133zM665 -51l-161 95l-160 -95h-300l304 187l-242 145h306l89 -55l139 84h-548v101h812v-124l-249 -150l317 -188h-307z" />
    <glyph glyph-name="uni6BCB" unicode="&#x6bcb;" 
d="M887 426l-9 -199h62v-98h-66l-8 -177h-317l-50 95h184l4 82h-129l-210 -177h-270l210 177h-178l12 297h-56v97h63l15 296h762l-10 -296h50v-97h-59zM611 723l-10 -200h105l8 200h-103zM326 723l-9 -200h104l8 200h-103zM596 426l-10 -199h104l11 199h-105zM310 426
l-11 -199h108l9 199h-106z" />
    <glyph glyph-name="uni6BCB" unicode="&#x2f4f;" 
d="M887 426l-9 -199h62v-98h-66l-8 -177h-317l-50 95h184l4 82h-129l-210 -177h-270l210 177h-178l12 297h-56v97h63l15 296h762l-10 -296h50v-97h-59zM611 723l-10 -200h105l8 200h-103zM326 723l-9 -200h104l8 200h-103zM596 426l-10 -199h104l11 199h-105zM310 426
l-11 -199h108l9 199h-106z" />
    <glyph glyph-name="uni6BD4" unicode="&#x6bd4;" 
d="M903 -50h-408v880h188v-256h39l48 182h182l-72 -281h-197v-425h277zM437 -50h-352v880h188v-256h195v-99h-195v-425h211z" />
    <glyph glyph-name="uni6BD4" unicode="&#x2f50;" 
d="M903 -50h-408v880h188v-256h39l48 182h182l-72 -281h-197v-425h277zM437 -50h-352v880h188v-256h195v-99h-195v-425h211z" />
    <glyph glyph-name="uni6BDB" unicode="&#x6bdb;" 
d="M912 -51h-545v270h-296v100h296v144h-262v101h262v135h-284v100h631l13 36h220l-51 -136h-329v-135h336v-101h-336v-144h373v-100h-373v-169h393z" />
    <glyph glyph-name="uni6BDB" unicode="&#x2f51;" 
d="M912 -51h-545v270h-296v100h296v144h-262v101h262v135h-284v100h631l13 36h220l-51 -136h-329v-135h336v-101h-336v-144h373v-100h-373v-169h393z" />
    <glyph glyph-name="uni6C0F" unicode="&#x6c0f;" 
d="M905 -51h-291l-76 422h-262v-321h226l-54 -101h-365v852h631l15 30h221l-48 -133h-228l39 -228h230v-99h-212l56 -321h170zM479 698h-203v-228h243z" />
    <glyph glyph-name="uni6C0F" unicode="&#x2f52;" 
d="M905 -51h-291l-76 422h-262v-321h226l-54 -101h-365v852h631l15 30h221l-48 -133h-228l39 -228h230v-99h-212l56 -321h170zM479 698h-203v-228h243z" />
    <glyph glyph-name="uni6C14" unicode="&#x6c14;" 
d="M302 679l-69 -155h-198l135 308h200l-23 -53h602v-100h-647zM284 530v95h597v-95h-597zM921 -46h-231v426h-620v100h811v-427h86z" />
    <glyph glyph-name="uni6C14" unicode="&#x2f53;" 
d="M302 679l-69 -155h-198l135 308h200l-23 -53h602v-100h-647zM284 530v95h597v-95h-597zM921 -46h-231v426h-620v100h811v-427h86z" />
    <glyph glyph-name="uni6C34" unicode="&#x6c34;" 
d="M817 428h-192l137 302h192zM765 -28l-139 415h188l143 -415h-192zM348 -50l-60 99h117v785h195v-884h-252zM231 -28h-181l145 589h-133v103h306v-143z" />
    <glyph glyph-name="uni6C34" unicode="&#x2f54;" 
d="M817 428h-192l137 302h192zM765 -28l-139 415h188l143 -415h-192zM348 -50l-60 99h117v785h195v-884h-252zM231 -28h-181l145 589h-133v103h306v-143z" />
    <glyph glyph-name="uni706B" unicode="&#x706b;" 
d="M837 389h-194l108 377h195zM709 -53l-201 245l-206 -245h-251l356 421v464h196v-511h48l310 -374h-252zM170 389l-103 377h194l106 -377h-197z" />
    <glyph glyph-name="uni706B" unicode="&#x2f55;" 
d="M837 389h-194l108 377h195zM709 -53l-201 245l-206 -245h-251l356 421v464h196v-511h48l310 -374h-252zM170 389l-103 377h194l106 -377h-197z" />
    <glyph glyph-name="uni722A" unicode="&#x722a;" 
d="M765 -52l-88 721h188l90 -721h-190zM902 697h-609v-603l-41 -146h-197l48 181v671h616l10 35h222zM404 -52v721h186v-721h-186z" />
    <glyph glyph-name="uni722A" unicode="&#x2f56;" 
d="M765 -52l-88 721h188l90 -721h-190zM902 697h-609v-603l-41 -146h-197l48 181v671h616l10 35h222zM404 -52v721h186v-721h-186z" />
    <glyph glyph-name="uni7236" unicode="&#x7236;" 
d="M745 508l-189 325h212l186 -325h-209zM272 508h-213l182 325h212zM703 -52l-196 178l-195 -178h-264l330 296l-256 235h253l131 -118l129 118h258l-256 -235l326 -296h-260z" />
    <glyph glyph-name="uni7236" unicode="&#x2f57;" 
d="M745 508l-189 325h212l186 -325h-209zM272 508h-213l182 325h212zM703 -52l-196 178l-195 -178h-264l330 296l-256 235h253l131 -118l129 118h258l-256 -235l326 -296h-260z" />
    <glyph glyph-name="uni723B" unicode="&#x723b;" 
d="M651 452l-149 93l-142 -93h-297l294 191l-288 190h283l147 -98l146 98h292l-288 -191l290 -190h-288zM682 -51l-179 139l-180 -139h-272l315 245l-292 230h274l154 -126l156 126h271l-288 -230l315 -245h-274z" />
    <glyph glyph-name="uni723B" unicode="&#x2f58;" 
d="M651 452l-149 93l-142 -93h-297l294 191l-288 190h283l147 -98l146 98h292l-288 -191l290 -190h-288zM682 -51l-179 139l-180 -139h-272l315 245l-292 230h274l154 -126l156 126h271l-288 -230l315 -245h-274z" />
    <glyph glyph-name="uni723F" unicode="&#x723f;" 
d="M697 -46v336h-303v-240l-88 -96h-233l129 141v195h-117v98h612v101l-543 2v318h193v-222h350v245h192v-878h-192z" />
    <glyph glyph-name="uni723F" unicode="&#x2f59;" 
d="M697 -46v336h-303v-240l-88 -96h-233l129 141v195h-117v98h612v101l-543 2v318h193v-222h350v245h192v-878h-192z" />
    <glyph glyph-name="uni7247" unicode="&#x7247;" 
d="M298 486v-128h533v-405h-192v303h-341v-162l-50 -141h-197l56 166v712h191v-243h254v243h189v-243h204v-102h-647z" />
    <glyph glyph-name="uni7247" unicode="&#x2f5a;" 
d="M298 486v-128h533v-405h-192v303h-341v-162l-50 -141h-197l56 166v712h191v-243h254v243h189v-243h204v-102h-647z" />
    <glyph glyph-name="uni7259" unicode="&#x7259;" 
d="M817 392v-442h-329l-52 99h191v343h-542v94l122 203h201l-116 -195h335v225h-557v103h866v-103h-119v-225h134v-102h-134zM258 -30h-207l245 383h210z" />
    <glyph glyph-name="uni7259" unicode="&#x2f5b;" 
d="M817 392v-442h-329l-52 99h191v343h-542v94l122 203h201l-116 -195h335v225h-557v103h866v-103h-119v-225h134v-102h-134zM258 -30h-207l245 383h210z" />
    <glyph glyph-name="uni725B" unicode="&#x725b;" 
d="M600 216v-268h-197v268h-348v102h348v219h-128l-33 -140h-187l79 376h188l-27 -135h108v194h197v-194h311v-101h-311v-219h349v-102h-349z" />
    <glyph glyph-name="uni725B" unicode="&#x2f5c;" 
d="M600 216v-268h-197v268h-348v102h348v219h-128l-33 -140h-187l79 376h188l-27 -135h108v194h197v-194h311v-101h-311v-219h349v-102h-349z" />
    <glyph glyph-name="uni72AC" unicode="&#x72ac;" 
d="M726 620l-59 188h176l58 -188h-175zM735 -52l-231 361l-210 -361h-237l326 528h-316v101h332v252h206v-252h334v-101h-340l-36 -64h99l300 -464h-227z" />
    <glyph glyph-name="uni72AC" unicode="&#x2f5d;" 
d="M726 620l-59 188h176l58 -188h-175zM735 -52l-231 361l-210 -361h-237l326 528h-316v101h332v252h206v-252h334v-101h-340l-36 -64h99l300 -464h-227z" />
    <glyph glyph-name="uni7384" unicode="&#x7384;" 
d="M758 -49l-38 85l-40 -85h-586v104l281 235h-282v94l291 242h-324v102h342l-36 105h206l37 -105h340v-102h-301l-280 -236h127l135 113h272l-541 -452h353l-80 177h202l125 -277h-203z" />
    <glyph glyph-name="uni7384" unicode="&#x2f5e;" 
d="M758 -49l-38 85l-40 -85h-586v104l281 235h-282v94l291 242h-324v102h342l-36 105h206l37 -105h340v-102h-301l-280 -236h127l135 113h272l-541 -452h353l-80 177h202l125 -277h-203z" />
    <glyph glyph-name="uni7389" unicode="&#x7389;" 
d="M719 101l-60 214h187l61 -214h-188zM70 -48v104h334v312h-296v98h296v256h-313v102h826v-102h-312v-256h301v-98h-301v-312h337v-104h-872z" />
    <glyph glyph-name="uni7389" unicode="&#x2f5f;" 
d="M719 101l-60 214h187l61 -214h-188zM70 -48v104h334v312h-296v98h296v256h-313v102h826v-102h-312v-256h301v-98h-301v-312h337v-104h-872z" />
    <glyph glyph-name="uni74DC" unicode="&#x74dc;" 
d="M770 -52l-86 713h186l86 -713h-186zM906 698h-614v-602l-47 -148h-203l58 190v659h620l14 34h221zM638 -52l-11 76l-30 -76h-199v713h182v-615h44l-30 207h102l45 -305h-103z" />
    <glyph glyph-name="uni74DC" unicode="&#x2f60;" 
d="M770 -52l-86 713h186l86 -713h-186zM906 698h-614v-602l-47 -148h-203l58 190v659h620l14 34h221zM638 -52l-11 76l-30 -76h-199v713h182v-615h44l-30 207h102l45 -305h-103z" />
    <glyph glyph-name="uni74E6" unicode="&#x74e6;" 
d="M919 -53h-283v540h-294l-69 -440h279l-40 -100h-437v87l111 686h-129v102h896v-102h-575l-21 -133h470v-537h135zM432 130l-78 289h180l79 -289h-181z" />
    <glyph glyph-name="uni74E6" unicode="&#x2f61;" 
d="M919 -53h-283v540h-294l-69 -440h279l-40 -100h-437v87l111 686h-129v102h896v-102h-575l-21 -133h470v-537h135zM432 130l-78 289h180l79 -289h-181z" />
    <glyph glyph-name="uni7518" unicode="&#x7518;" 
d="M859 583v-631h-714v631h-88v102h88v150h191v-150h328v150h195v-150h91v-102h-91zM664 583h-328v-199h328v199zM664 281l-328 2v-231h328v229z" />
    <glyph glyph-name="uni7518" unicode="&#x2f62;" 
d="M859 583v-631h-714v631h-88v102h88v150h191v-150h328v150h195v-150h91v-102h-91zM664 583h-328v-199h328v199zM664 281l-328 2v-231h328v229z" />
    <glyph glyph-name="uni751F" unicode="&#x751f;" 
d="M59 -53v100h344v230h-304v100h304v193h-135l-34 -142h-191l85 361h193l-28 -116h110v158h198v-158h321v-103h-321v-193h296v-100h-296v-230h347v-100h-889z" />
    <glyph glyph-name="uni751F" unicode="&#x2f63;" 
d="M59 -53v100h344v230h-304v100h304v193h-135l-34 -142h-191l85 361h193l-28 -116h110v158h198v-158h321v-103h-321v-193h296v-100h-296v-230h347v-100h-889z" />
    <glyph glyph-name="uni7528" unicode="&#x7528;" 
d="M666 -49l-41 102h114v171h-134v-264h-191v264h-133v-172l-33 -101h-200l42 135v738h834v-873h-258zM737 722h-132v-148h132v148zM737 473h-132v-148h132v148zM414 722h-133v-148h133v148zM414 473h-133v-148h133v148z" />
    <glyph glyph-name="uni7528" unicode="&#x2f64;" 
d="M666 -49l-41 102h114v171h-134v-264h-191v264h-133v-172l-33 -101h-200l42 135v738h834v-873h-258zM737 722h-132v-148h132v148zM737 473h-132v-148h132v148zM414 722h-133v-148h133v148zM414 473h-133v-148h133v148z" />
    <glyph glyph-name="uni7530" unicode="&#x7530;" 
d="M85 -48v867h838v-867h-838zM731 720h-133v-275h133v275zM409 720h-133v-275h133v275zM731 345h-133v-295h133v295zM409 345h-133v-295h133v295z" />
    <glyph glyph-name="uni7530" unicode="&#x2f65;" 
d="M85 -48v867h838v-867h-838zM731 720h-133v-275h133v275zM409 720h-133v-275h133v275zM731 345h-133v-295h133v295zM409 345h-133v-295h133v295z" />
    <glyph glyph-name="uni758B" unicode="&#x758b;" 
d="M923 -52h-501l-146 80l-32 -80h-199l70 176v446h191v-433l105 -58v642h-338v100h849v-254h-191v154h-127v-286h312v-98h-312v-292h355z" />
    <glyph glyph-name="uni758B" unicode="&#x2f66;" 
d="M923 -52h-501l-146 80l-32 -80h-199l70 176v446h191v-433l105 -58v642h-338v100h849v-254h-191v154h-127v-286h312v-98h-312v-292h355z" />
    <glyph glyph-name="uni7592" unicode="&#x7592;" 
d="M370 650v-568l-65 -132h-208l85 181v619h293l-28 83h211l28 -83h258v-100h-574zM75 473l-21 277h91l22 -277h-92zM145 131h-96l28 300h90z" />
    <glyph glyph-name="uni7592" unicode="&#x2f67;" 
d="M370 650v-568l-65 -132h-208l85 181v619h293l-28 83h211l28 -83h258v-100h-574zM75 473l-21 277h91l22 -277h-92zM145 131h-96l28 300h90z" />
    <glyph glyph-name="uni7676" unicode="&#x7676;" 
 />
    <glyph glyph-name="uni7676" unicode="&#x2f68;" 
 />
    <glyph glyph-name="uni767D" unicode="&#x767d;" 
d="M91 -48v758h227l58 124h209l-55 -124h381v-758h-820zM718 610h-434v-220h434v220zM718 289h-434v-237h434v237z" />
    <glyph glyph-name="uni767D" unicode="&#x2f69;" 
d="M91 -48v758h227l58 124h209l-55 -124h381v-758h-820zM718 610h-434v-220h434v220zM718 289h-434v-237h434v237z" />
    <glyph glyph-name="uni76AE" unicode="&#x76ae;" 
d="M702 -52l-113 87l-94 -87h-242l202 189l-175 137v-177l-49 -149h-187l45 143v647h341v96h194v-96h309v-240h-183v133h-126v-186h273v-117l-187 -178l265 -202h-273zM430 631h-150v-186h150v186zM280 347v-42h226l70 -53l100 95h-396z" />
    <glyph glyph-name="uni76AE" unicode="&#x2f6a;" 
d="M702 -52l-113 87l-94 -87h-242l202 189l-175 137v-177l-49 -149h-187l45 143v647h341v96h194v-96h309v-240h-183v133h-126v-186h273v-117l-187 -178l265 -202h-273zM430 631h-150v-186h150v186zM280 347v-42h226l70 -53l100 95h-396z" />
    <glyph glyph-name="uni76BF" unicode="&#x76bf;" 
d="M47 -48v99h45v769h820v-769h44v-99h-909zM732 719h-59v-668h59v668zM531 719h-59v-668h59v668zM329 719h-60v-668h60v668z" />
    <glyph glyph-name="uni76BF" unicode="&#x2f6b;" 
d="M47 -48v99h45v769h820v-769h44v-99h-909zM732 719h-59v-668h59v668zM531 719h-59v-668h59v668zM329 719h-60v-668h60v668z" />
    <glyph glyph-name="uni76EE" unicode="&#x76ee;" 
d="M94 -50v871h818v-871h-818zM721 721h-433v-152h433v152zM721 470h-433v-156h433v156zM721 216h-433v-167h433v167z" />
    <glyph glyph-name="uni76EE" unicode="&#x2f6c;" 
d="M94 -50v871h818v-871h-818zM721 721h-433v-152h433v152zM721 470h-433v-156h433v156zM721 216h-433v-167h433v167z" />
    <glyph glyph-name="uni77DB" unicode="&#x77db;" 
d="M753 122v286h-120v-458h-267l-65 100h135v358h-371v99h326l-192 177h230l70 -64l132 105h-528v97h786v-100l-269 -215h318v-385h-185zM240 -28h-192l161 395h189z" />
    <glyph glyph-name="uni77DB" unicode="&#x2f6d;" 
d="M753 122v286h-120v-458h-267l-65 100h135v358h-371v99h326l-192 177h230l70 -64l132 105h-528v97h786v-100l-269 -215h318v-385h-185zM240 -28h-192l161 395h189z" />
    <glyph glyph-name="uni77E2" unicode="&#x77e2;" 
d="M730 -52l-233 253l-217 -253h-236l317 371h-298v101h342v215h-106l-58 -152h-194l130 351h201l-39 -97h569v-102h-306v-215h342v-101h-346l-35 -42h102l305 -329h-240z" />
    <glyph glyph-name="uni77E2" unicode="&#x2f6e;" 
d="M730 -52l-233 253l-217 -253h-236l317 371h-298v101h342v215h-106l-58 -152h-194l130 351h201l-39 -97h569v-102h-306v-215h342v-101h-346l-35 -42h102l305 -329h-240z" />
    <glyph glyph-name="uni77F3" unicode="&#x77f3;" 
d="M524 720l-164 -259h539v-511h-771v351h-97l270 419h-245v98h895v-98h-427zM707 360h-385v-312h385v312z" />
    <glyph glyph-name="uni77F3" unicode="&#x2f6f;" 
d="M524 720l-164 -259h539v-511h-771v351h-97l270 419h-245v98h895v-98h-427zM707 360h-385v-312h385v312z" />
    <glyph glyph-name="uni793A" unicode="&#x793a;" 
d="M120 719v101h774v-101h-774zM768 -14l-127 389h193l128 -389h-194zM604 447v-496h-284l-43 101h127v395h-337v101h877v-101h-340zM241 -14h-195l128 389h192z" />
    <glyph glyph-name="uni793A" unicode="&#x2f70;" 
d="M120 719v101h774v-101h-774zM768 -14l-127 389h193l128 -389h-194zM604 447v-496h-284l-43 101h127v395h-337v101h877v-101h-340zM241 -14h-195l128 389h192z" />
    <glyph glyph-name="uni79B8" unicode="&#x79b8;" 
 />
    <glyph glyph-name="uni79B8" unicode="&#x2f71;" 
 />
    <glyph glyph-name="uni79BE" unicode="&#x79be;" 
d="M772 -6l-128 412h189l127 -412h-188zM888 694h-289v-134h344v-98h-344v-513h-193v513h-342v98h342v134h-319v99h608l22 41h228zM242 -6h-194l119 412h195z" />
    <glyph glyph-name="uni79BE" unicode="&#x2f72;" 
d="M772 -6l-128 412h189l127 -412h-188zM888 694h-289v-134h344v-98h-344v-513h-193v513h-342v98h342v134h-319v99h608l22 41h228zM242 -6h-194l119 412h195z" />
    <glyph glyph-name="uni7A74" unicode="&#x7a74;" 
d="M754 -49l-193 559h190v101h-500v-101h200l-185 -559h-211l174 523h-160v239h326l-43 119h222l44 -119h316v-239h-155l185 -523h-210z" />
    <glyph glyph-name="uni7A74" unicode="&#x2f73;" 
d="M754 -49l-193 559h190v101h-500v-101h200l-185 -559h-211l174 523h-160v239h326l-43 119h222l44 -119h316v-239h-155l185 -523h-210z" />
    <glyph glyph-name="uni7ACB" unicode="&#x7acb;" 
d="M89 586v100h321l-24 144h209l25 -144h295v-100h-826zM62 -49v102h487l136 473h191l-133 -473h205v-102h-886zM270 102l-145 424h195l146 -424h-196z" />
    <glyph glyph-name="uni7ACB" unicode="&#x2f74;" 
d="M89 586v100h321l-24 144h209l25 -144h295v-100h-826zM62 -49v102h487l136 473h191l-133 -473h205v-102h-886zM270 102l-145 424h195l146 -424h-196z" />
    <glyph glyph-name="uni7AF9" unicode="&#x7af9;" 
d="M858 621v-670h-300l-48 101h163v569h-29l-38 -192h-143l79 405h144l-22 -113h287v-100h-93zM415 621v-670h-185v670h-10l-38 -192h-142l77 405h143l-21 -113h255v-100h-79z" />
    <glyph glyph-name="uni7AF9" unicode="&#x2f75;" 
d="M858 621v-670h-300l-48 101h163v569h-29l-38 -192h-143l79 405h144l-22 -113h287v-100h-93zM415 621v-670h-185v670h-10l-38 -192h-142l77 405h143l-21 -113h255v-100h-79z" />
    <glyph glyph-name="uni7C73" unicode="&#x7c73;" 
d="M839 531h-195l102 260h192zM773 -31l-140 373h191l145 -373h-196zM597 382v-436h-188v436h-344v103h344v353h188v-353h347v-103h-347zM166 531l-99 260h194l100 -260h-195zM237 -31h-190l138 373h189z" />
    <glyph glyph-name="uni7C73" unicode="&#x2f76;" 
d="M839 531h-195l102 260h192zM773 -31l-140 373h191l145 -373h-196zM597 382v-436h-188v436h-344v103h344v353h188v-353h347v-103h-347zM166 531l-99 260h194l100 -260h-195zM237 -31h-190l138 373h189z" />
    <glyph glyph-name="uni7CF8" unicode="&#x7cf8;" 
d="M770 288l-39 71l-39 -71h-94v-337h-263l-43 97h120v240h-345v100h105l203 134h-292v108l305 204h275l-322 -215h182l152 101h277l-496 -332h260l-61 114h201l113 -214h-199zM764 -37l-136 281h196l135 -281h-195zM247 -37h-192l129 281h195z" />
    <glyph glyph-name="uni7CF8" unicode="&#x2f77;" 
d="M770 288l-39 71l-39 -71h-94v-337h-263l-43 97h120v240h-345v100h105l203 134h-292v108l305 204h275l-322 -215h182l152 101h277l-496 -332h260l-61 114h201l113 -214h-199zM764 -37l-136 281h196l135 -281h-195zM247 -37h-192l129 281h195z" />
    <glyph glyph-name="uni7F36" unicode="&#x7f36;" 
d="M602 346v-297h126v233h189v-333h-824v333h189v-233h126v297h-353v101h353v189h-107l-53 -138h-204l130 337h204l-37 -98h575v-101h-314v-189h353v-101h-353z" />
    <glyph glyph-name="uni7F36" unicode="&#x2f78;" 
d="M602 346v-297h126v233h189v-333h-824v333h189v-233h126v297h-353v101h353v189h-107l-53 -138h-204l130 337h204l-37 -98h575v-101h-314v-189h353v-101h-353z" />
    <glyph glyph-name="uni7F51" unicode="&#x7f51;" 
d="M633 -51l-56 99h175v40h-95l-31 107l-31 -107h-113l8 30h-74l-25 84l-32 -114h-102v-139h-180v873h853v-873h-297zM752 723h-496v-45h102l29 -104l28 104h174l33 -104l30 104h100v45zM752 643l-74 -255l74 -265v520zM504 599l-60 -211l60 -224l64 224zM256 643v-520
l77 265z" />
    <glyph glyph-name="uni7F51" unicode="&#x2f79;" 
d="M633 -51l-56 99h175v40h-95l-31 107l-31 -107h-113l8 30h-74l-25 84l-32 -114h-102v-139h-180v873h853v-873h-297zM752 723h-496v-45h102l29 -104l28 104h174l33 -104l30 104h100v45zM752 643l-74 -255l74 -265v520zM504 599l-60 -211l60 -224l64 224zM256 643v-520
l77 265z" />
    <glyph glyph-name="uni7F8A" unicode="&#x7f8a;" 
d="M608 151v-201h-203v201h-348v98h348v122h-299v97h299v120h-326v97h146l-55 150h204l54 -150h144l62 150h205l-61 -150h148v-97h-318v-120h292v-97h-292v-122h342v-98h-342z" />
    <glyph glyph-name="uni7F8A" unicode="&#x2f7a;" 
d="M608 151v-201h-203v201h-348v98h348v122h-299v97h299v120h-326v97h146l-55 150h204l54 -150h144l62 150h205l-61 -150h148v-97h-318v-120h292v-97h-292v-122h342v-98h-342z" />
    <glyph glyph-name="uni7FBD" unicode="&#x7fbd;" 
d="M574 431l-67 256h166l66 -256h-165zM630 -52l-54 102h173v676h-233v98h415v-876h-301zM664 78h-165l71 322h164zM129 431l-65 256h168l64 -256h-167zM203 -52l-57 102h161v676h-244v98h427v-876h-287zM213 78h-164l78 322h162z" />
    <glyph glyph-name="uni7FBD" unicode="&#x2f7b;" 
d="M574 431l-67 256h166l66 -256h-165zM630 -52l-54 102h173v676h-233v98h415v-876h-301zM664 78h-165l71 322h164zM129 431l-65 256h168l64 -256h-167zM203 -52l-57 102h161v676h-244v98h427v-876h-287zM213 78h-164l78 322h162z" />
    <glyph glyph-name="uni8001" unicode="&#x8001;" 
d="M917 -52h-768v240h-101l147 214h-135v98h284v126h-257v95h257v110h192v-110h141v-44l76 112h209l-189 -289h180v-98h-545l-66 -98v-43h351l42 106h202l-82 -200h-513v-123h621zM536 626v-126h23l84 126h-107z" />
    <glyph glyph-name="uni8001" unicode="&#x2f7c;" 
d="M917 -52h-768v240h-101l147 214h-135v98h284v126h-257v95h257v110h192v-110h141v-44l76 112h209l-189 -289h180v-98h-545l-66 -98v-43h351l42 106h202l-82 -200h-513v-123h621zM536 626v-126h23l84 126h-107z" />
    <glyph glyph-name="uni800C" unicode="&#x800c;" 
d="M615 720l-34 -117h346v-654h-199l-38 85v-60h-154v531h-60v-531h-150v531h-59v-556h-180v654h293l33 117h-357v99h899v-99h-340zM750 505h-60v-458h60v458z" />
    <glyph glyph-name="uni800C" unicode="&#x2f7d;" 
d="M615 720l-34 -117h346v-654h-199l-38 85v-60h-154v531h-60v-531h-150v531h-59v-556h-180v654h293l33 117h-357v99h899v-99h-340zM750 505h-60v-458h60v458z" />
    <glyph glyph-name="uni8012" unicode="&#x8012;" 
d="M765 -28l-137 310h199l139 -310h-201zM601 314v-364h-194v364h-347v101h347v70h-310v99h310v68h-336v98h336v87h194v-87h331v-98h-331v-68h307v-99h-307v-70h347v-101h-347zM249 -28h-205l134 310h201z" />
    <glyph glyph-name="uni8012" unicode="&#x2f7e;" 
d="M765 -28l-137 310h199l139 -310h-201zM601 314v-364h-194v364h-347v101h347v70h-310v99h310v68h-336v98h336v87h194v-87h331v-98h-331v-68h307v-99h-307v-70h347v-101h-347zM249 -28h-205l134 310h201z" />
    <glyph glyph-name="uni8033" unicode="&#x8033;" 
d="M856 99v-150l-195 -1v137l-600 -45v99l93 7v577h-88v100h872v-100h-82v-523l95 6v-99zM661 723h-312v-107h312v107zM661 514h-312v-115h312v115zM661 300h-312v-140l312 24v116z" />
    <glyph glyph-name="uni8033" unicode="&#x2f7f;" 
d="M856 99v-150l-195 -1v137l-600 -45v99l93 7v577h-88v100h872v-100h-82v-523l95 6v-99zM661 723h-312v-107h312v107zM661 514h-312v-115h312v115zM661 300h-312v-140l312 24v116z" />
    <glyph glyph-name="uni807F" unicode="&#x807f;" 
d="M597 65v-115h-190v115h-348v92h348v63h-316v91h316v56h-301v91h301v62h-340v90h340v57h-301v92h301v71h190v-71h304v-149h46v-90h-46v-153h-304v-56h318v-91h-318v-63h356v-92h-356zM716 667h-119v-57h119v57zM716 520h-119v-62h119v62z" />
    <glyph glyph-name="uni807F" unicode="&#x2f80;" 
d="M597 65v-115h-190v115h-348v92h348v63h-316v91h316v56h-301v91h301v62h-340v90h340v57h-301v92h301v71h190v-71h304v-149h46v-90h-46v-153h-304v-56h318v-91h-318v-63h356v-92h-356zM716 667h-119v-57h119v57zM716 520h-119v-62h119v62z" />
    <glyph glyph-name="uni8089" unicode="&#x8089;" 
d="M598 -50l-48 99h198v29h-168l-76 180l-88 -180h-157v-128h-183v772h320l47 111h185l-47 -111h351v-772h-334zM748 623h-210l-14 -35h134l90 -177v212zM503 539l-54 -124h117zM748 380h-165l-9 20l-42 -86h134l82 -192v258zM259 623v-216l93 216h-93zM259 380v-250
l122 250h-122z" />
    <glyph glyph-name="uni8089" unicode="&#x2f81;" 
d="M598 -50l-48 99h198v29h-168l-76 180l-88 -180h-157v-128h-183v772h320l47 111h185l-47 -111h351v-772h-334zM748 623h-210l-14 -35h134l90 -177v212zM503 539l-54 -124h117zM748 380h-165l-9 20l-42 -86h134l82 -192v258zM259 623v-216l93 216h-93zM259 380v-250
l122 250h-122z" />
    <glyph glyph-name="uni81E3" unicode="&#x81e3;" 
d="M912 -54h-833v878h862v-100h-271v-162h238v-342h-238v-171h291zM479 724h-211v-162h211v162zM719 466h-451v-148h451v148zM479 220h-211v-171h211v171z" />
    <glyph glyph-name="uni81E3" unicode="&#x2f82;" 
d="M912 -54h-833v878h862v-100h-271v-162h238v-342h-238v-171h291zM479 724h-211v-162h211v162zM719 466h-451v-148h451v148zM479 220h-211v-171h211v171z" />
    <glyph glyph-name="uni81EA" unicode="&#x81ea;" 
d="M87 -47v773h272l38 111h209l-36 -111h351v-773h-834zM731 629h-450v-124h450v124zM731 407h-450v-127h450v127zM731 185h-450v-137h450v137z" />
    <glyph glyph-name="uni81EA" unicode="&#x2f83;" 
d="M87 -47v773h272l38 111h209l-36 -111h351v-773h-834zM731 629h-450v-124h450v124zM731 407h-450v-127h450v127zM731 185h-450v-137h450v137z" />
    <glyph glyph-name="uni81F3" unicode="&#x81f3;" 
d="M62 -49v98h343v152h-311v98h311v114h-311v109l181 201h-207v101h871v-101h-439l-186 -208h357l-104 163h209l171 -265h-210l-55 85l-44 -85h-33v-114h310v-98h-310v-152h344v-98h-887z" />
    <glyph glyph-name="uni81F3" unicode="&#x2f84;" 
d="M62 -49v98h343v152h-311v98h311v114h-311v109l181 201h-207v101h871v-101h-439l-186 -208h357l-104 163h209l171 -265h-210l-55 85l-44 -85h-33v-114h310v-98h-310v-152h344v-98h-887z" />
    <glyph glyph-name="uni81FC" unicode="&#x81fc;" 
d="M79 -49v841h226l10 42h206l-37 -145h-211v-263h189v-100h-189v-276h463v276h-189v100h189v263h-192v101h385v-839h-850z" />
    <glyph glyph-name="uni81FC" unicode="&#x2f85;" 
d="M79 -49v841h226l10 42h206l-37 -145h-211v-263h189v-100h-189v-276h463v276h-189v100h189v263h-192v101h385v-839h-850z" />
    <glyph glyph-name="uni820C" unicode="&#x820c;" 
d="M600 483v-120h300v-416h-791v416h297v120h-349v96h349v118h-316v96h620l16 43h212l-51 -139h-287v-118h352v-96h-352zM710 267h-411v-224h411v224z" />
    <glyph glyph-name="uni820C" unicode="&#x2f86;" 
d="M600 483v-120h300v-416h-791v416h297v120h-349v96h349v118h-316v96h620l16 43h212l-51 -139h-287v-118h352v-96h-352zM710 267h-411v-224h411v224z" />
    <glyph glyph-name="uni821B" unicode="&#x821b;" 
d="M864 164v-216h-182v216h-187v123l31 267h138l-31 -293h49v359h-182v97h182v114h182v-114h81v-97h-81v-359h89v-97h-89zM266 -52h-225l135 193l-97 265h160l42 -115l14 19v311h-38l-42 -182h-169l93 392h167l-26 -113h198v-464z" />
    <glyph glyph-name="uni821B" unicode="&#x2f87;" 
d="M864 164v-216h-182v216h-187v123l31 267h138l-31 -293h49v359h-182v97h182v114h182v-114h81v-97h-81v-359h89v-97h-89zM266 -52h-225l135 193l-97 265h160l42 -115l14 19v311h-38l-42 -182h-169l93 392h167l-26 -113h198v-464z" />
    <glyph glyph-name="uni821F" unicode="&#x821f;" 
d="M901 327v-377h-345l-59 99h216v278h-414v-227l-47 -150h-202l59 180v197h-52v97h52v323h248l31 85h205l-31 -85h339v-323h52v-97h-52zM469 88l-136 210h207l135 -210h-206zM713 649h-414v-225h414v225zM454 452l-111 169h205l109 -169h-203z" />
    <glyph glyph-name="uni821F" unicode="&#x2f88;" 
d="M901 327v-377h-345l-59 99h216v278h-414v-227l-47 -150h-202l59 180v197h-52v97h52v323h248l31 85h205l-31 -85h339v-323h52v-97h-52zM469 88l-136 210h207l135 -210h-206zM713 649h-414v-225h414v225zM454 452l-111 169h205l109 -169h-203z" />
    <glyph glyph-name="uni826E" unicode="&#x826e;" 
d="M274 354v-311h280l-40 -96h-433v875h836v-468h-643zM710 -53l-425 376h246l105 -92l84 92h231l-187 -203l200 -173h-254zM721 723h-447v-84h447v84zM721 541h-447v-88h447v88z" />
    <glyph glyph-name="uni826E" unicode="&#x2f89;" 
d="M274 354v-311h280l-40 -96h-433v875h836v-468h-643zM710 -53l-425 376h246l105 -92l84 92h231l-187 -203l200 -173h-254zM721 723h-447v-84h447v84zM721 541h-447v-88h447v88z" />
    <glyph glyph-name="uni8272" unicode="&#x8272;" 
d="M916 -49h-812v544h-63l212 337h219l-40 -65h377v-92l-74 -121h176v-367h-619v-140h671zM370 670l-72 -116h219l73 116h-220zM724 454h-130v-170h130v170zM418 454h-126v-170h126v170z" />
    <glyph glyph-name="uni8272" unicode="&#x2f8a;" 
d="M916 -49h-812v544h-63l212 337h219l-40 -65h377v-92l-74 -121h176v-367h-619v-140h671zM370 670l-72 -116h219l73 116h-220zM724 454h-130v-170h130v170zM418 454h-126v-170h126v170z" />
    <glyph glyph-name="uni8278" unicode="&#x8278;" 
 />
    <glyph glyph-name="uni8278" unicode="&#x2f8b;" 
 />
    <glyph glyph-name="uni864D" unicode="&#x864d;" 
d="M751 368v111h-467v-413l-47 -117h-195l51 119v510h310v253h201v-79h326v-101h-326v-73h334v-210h-187zM911 -51h-501v221l-101 -14v101l101 12v183h193v-157l292 38v-98l-292 -40v-143h356z" />
    <glyph glyph-name="uni864D" unicode="&#x2f8c;" 
d="M751 368v111h-467v-413l-47 -117h-195l51 119v510h310v253h201v-79h326v-101h-326v-73h334v-210h-187zM911 -51h-501v221l-101 -14v101l101 12v183h193v-157l292 38v-98l-292 -40v-143h356z" />
    <glyph glyph-name="uni866B" unicode="&#x866b;" 
d="M783 -53l-15 42l-700 -51v99l338 25v179h-317v451h317v142h192v-142h317v-451h-317v-164l137 11l-42 127h183l89 -268h-182zM726 588h-128v-246h128v246zM406 588h-127v-246h127v246z" />
    <glyph glyph-name="uni866B" unicode="&#x2f8d;" 
d="M783 -53l-15 42l-700 -51v99l338 25v179h-317v451h317v142h192v-142h317v-451h-317v-164l137 11l-42 127h183l89 -268h-182zM726 588h-128v-246h128v246zM406 588h-127v-246h127v246z" />
    <glyph glyph-name="uni8840" unicode="&#x8840;" 
d="M54 -48v99h44v650h261l41 134h204l-42 -134h346v-650h47v-99h-901zM737 601h-59v-550h59v550zM535 601h-60v-550h60v550zM331 601h-58v-550h58v550z" />
    <glyph glyph-name="uni8840" unicode="&#x2f8e;" 
d="M54 -48v99h44v650h261l41 134h204l-42 -134h346v-650h47v-99h-901zM737 601h-59v-550h59v550zM535 601h-60v-550h60v550zM331 601h-58v-550h58v550z" />
    <glyph glyph-name="uni884C" unicode="&#x884c;" 
d="M396 716v102h526v-102h-526zM822 431v-481h-365l-59 100h232v381h-280v101h595v-101h-123zM259 399h46v-449h-190v406h-77l135 239h-129l137 238h193l-118 -206h131z" />
    <glyph glyph-name="uni884C" unicode="&#x2f8f;" 
d="M396 716v102h526v-102h-526zM822 431v-481h-365l-59 100h232v381h-280v101h595v-101h-123zM259 399h46v-449h-190v406h-77l135 239h-129l137 238h193l-118 -206h131z" />
    <glyph glyph-name="uni8863" unicode="&#x8863;" 
d="M753 -50l-319 547l-133 -151h45v-295h306l-44 -101h-453v358h-111l276 314h-259v99h352l-29 115h214l29 -115h320v-99h-401l-59 -66h124l78 -134l72 145h186l-155 -320l173 -297h-212z" />
    <glyph glyph-name="uni8863" unicode="&#x2f90;" 
d="M753 -50l-319 547l-133 -151h45v-295h306l-44 -101h-453v358h-111l276 314h-259v99h352l-29 115h214l29 -115h320v-99h-401l-59 -66h124l78 -134l72 145h186l-155 -320l173 -297h-212z" />
    <glyph glyph-name="uni897E" unicode="&#x897e;" 
 />
    <glyph glyph-name="uni897E" unicode="&#x2f91;" 
 />
    <glyph glyph-name="uni898B" unicode="&#x898b;" 
 />
    <glyph glyph-name="uni898B" unicode="&#x2f92;" 
 />
    <glyph glyph-name="uni89D2" unicode="&#x89d2;" 
d="M588 -51l-24 51h-137v142h-140v-98l-43 -95h-195l50 114v481h-55l203 288h210l-29 -43h356v-100l-65 -90h209v-650h-340zM740 501h-140v-86h140v86zM360 690l-65 -91h209l65 91h-209zM740 322h-140v-86h140v86zM427 501h-140v-86h140v86zM740 142h-140v-93h140v93z
M427 322h-140v-86h140v86z" />
    <glyph glyph-name="uni89D2" unicode="&#x2f93;" 
d="M588 -51l-24 51h-137v142h-140v-98l-43 -95h-195l50 114v481h-55l203 288h210l-29 -43h356v-100l-65 -90h209v-650h-340zM740 501h-140v-86h140v86zM360 690l-65 -91h209l65 91h-209zM740 322h-140v-86h140v86zM427 501h-140v-86h140v86zM740 142h-140v-93h140v93z
M427 322h-140v-86h140v86z" />
    <glyph glyph-name="uni8A00" unicode="&#x8a00;" 
d="M55 652v100h346l-15 80h208l16 -80h342v-100h-897zM104 498v97h796v-97h-796zM104 341v94h796v-94h-796zM106 -49v323h794v-323h-794zM706 176h-402v-129h402v129z" />
    <glyph glyph-name="uni8A00" unicode="&#x2f94;" 
d="M55 652v100h346l-15 80h208l16 -80h342v-100h-897zM104 498v97h796v-97h-796zM104 341v94h796v-94h-796zM106 -49v323h794v-323h-794zM706 176h-402v-129h402v129z" />
    <glyph glyph-name="uni8C37" unicode="&#x8c37;" 
d="M729 601l-202 232h222l209 -232h-229zM274 601h-226l211 232h227zM893 294v-344h-777v344h-73l255 303h411l258 -303h-74zM565 497h-118l-141 -169h400zM701 230h-394v-182h394v182z" />
    <glyph glyph-name="uni8C37" unicode="&#x2f95;" 
d="M729 601l-202 232h222l209 -232h-229zM274 601h-226l211 232h227zM893 294v-344h-777v344h-73l255 303h411l258 -303h-74zM565 497h-118l-141 -169h400zM701 230h-394v-182h394v182z" />
    <glyph glyph-name="uni8C46" unicode="&#x8c46;" 
d="M74 727v98h855v-98h-855zM104 280v366h799v-366h-799zM56 -50v98h189l-95 192h205l94 -192h97l109 192h209l-108 -192h198v-98h-898zM705 550h-402v-174h402v174z" />
    <glyph glyph-name="uni8C46" unicode="&#x2f96;" 
d="M74 727v98h855v-98h-855zM104 280v366h799v-366h-799zM56 -50v98h189l-95 192h205l94 -192h97l109 192h209l-108 -192h198v-98h-898zM705 550h-402v-174h402v174z" />
    <glyph glyph-name="uni8C55" unicode="&#x8c55;" 
d="M850 381h-188l98 280h187zM768 -27l-107 360h196l109 -360h-198zM452 724l-69 -87h260v-686h-247l-53 95h109v162l-191 -235h-222l227 279h186v217l-161 -189h-226l162 197h225v65h-147l-31 -38h-226l178 220h-167v97h895v-97h-502z" />
    <glyph glyph-name="uni8C55" unicode="&#x2f97;" 
d="M850 381h-188l98 280h187zM768 -27l-107 360h196l109 -360h-198zM452 724l-69 -87h260v-686h-247l-53 95h109v162l-191 -235h-222l227 279h186v217l-161 -189h-226l162 197h225v65h-147l-31 -38h-226l178 220h-167v97h895v-97h-502z" />
    <glyph glyph-name="uni8C78" unicode="&#x8c78;" 
d="M608 525h177l1 -573h-325l-34 100h170v333l-209 -150h-264l213 152h260v47h-136l-50 -24h-285l139 81l-61 99h179l15 -20l90 53l-19 30l-70 -40h-276l377 218h274l-203 -118h59l20 -35h217zM337 -5h-240l268 226h225z" />
    <glyph glyph-name="uni8C78" unicode="&#x2f98;" 
d="M608 525h177l1 -573h-325l-34 100h170v333l-209 -150h-264l213 152h260v47h-136l-50 -24h-285l139 81l-61 99h179l15 -20l90 53l-19 30l-70 -40h-276l377 218h274l-203 -118h59l20 -35h217zM337 -5h-240l268 226h225z" />
    <glyph glyph-name="uni8C9D" unicode="&#x8c9d;" 
 />
    <glyph glyph-name="uni8C9D" unicode="&#x2f99;" 
 />
    <glyph glyph-name="uni8D64" unicode="&#x8d64;" 
d="M798 44l-69 345h163l72 -345h-166zM710 435v-483h-217l-41 98h77v385h-59v-336l-112 -146h-214l144 189v293h-230v100h350v118h-301v99h301v81h189v-81h303v-99h-303v-118h352v-100h-239zM209 44h-158l59 345h155z" />
    <glyph glyph-name="uni8D64" unicode="&#x2f9a;" 
d="M798 44l-69 345h163l72 -345h-166zM710 435v-483h-217l-41 98h77v385h-59v-336l-112 -146h-214l144 189v293h-230v100h350v118h-301v99h301v81h189v-81h303v-99h-303v-118h352v-100h-239zM209 44h-158l59 345h155z" />
    <glyph glyph-name="uni8D70" unicode="&#x8d70;" 
d="M929 -51h-491l-167 99l-29 -99h-194l114 402h195l-55 -196l108 -66v317h-351v97h351v123h-313v97h313v109h190v-109h314v-97h-314v-123h356v-97h-356v-111h319v-96h-319v-150h364z" />
    <glyph glyph-name="uni8D70" unicode="&#x2f9b;" 
d="M929 -51h-491l-167 99l-29 -99h-194l114 402h195l-55 -196l108 -66v317h-351v97h351v123h-313v97h313v109h190v-109h314v-97h-314v-123h356v-97h-356v-111h319v-96h-319v-150h364z" />
    <glyph glyph-name="uni8DB3" unicode="&#x8db3;" 
d="M924 -50h-498l-170 104l-23 -104h-183l94 429h183l-47 -216l142 -88v369h-327v382h810v-382h-295v-125h318v-98h-318v-169h351zM711 728h-422v-185h422v185z" />
    <glyph glyph-name="uni8DB3" unicode="&#x2f9c;" 
d="M924 -50h-498l-170 104l-23 -104h-183l94 429h183l-47 -216l142 -88v369h-327v382h810v-382h-295v-125h318v-98h-318v-169h351zM711 728h-422v-185h422v185z" />
    <glyph glyph-name="uni8EAB" unicode="&#x8eab;" 
d="M863 249v-298h-303l-54 94h164v105l-300 -153h-335l432 225h-408v96h35v453h220l33 62h213l-30 -62h333v-468h106zM670 672h-382v-58h382v58zM670 526h-382v-58h382v58zM670 379h-382v-61h382v61z" />
    <glyph glyph-name="uni8EAB" unicode="&#x2f9d;" 
d="M863 249v-298h-303l-54 94h164v105l-300 -153h-335l432 225h-408v96h35v453h220l33 62h213l-30 -62h333v-468h106zM670 672h-382v-58h382v58zM670 526h-382v-58h382v58zM670 379h-382v-61h382v61z" />
    <glyph glyph-name="uni8ECA" unicode="&#x8eca;" 
 />
    <glyph glyph-name="uni8ECA" unicode="&#x2f9e;" 
 />
    <glyph glyph-name="uni8F9B" unicode="&#x8f9b;" 
d="M80 648v99h322l-19 84h209l16 -84h319v-99h-847zM603 335v-119h305v-100h-305v-165h-199v165h-303v100h303v119h-347v101h211l-87 178h189l90 -178h83l101 178h195l-98 -178h208v-101h-346z" />
    <glyph glyph-name="uni8F9B" unicode="&#x2f9f;" 
d="M80 648v99h322l-19 84h209l16 -84h319v-99h-847zM603 335v-119h305v-100h-305v-165h-199v165h-303v100h303v119h-347v101h211l-87 178h189l90 -178h83l101 178h195l-98 -178h208v-101h-346z" />
    <glyph glyph-name="uni8FB0" unicode="&#x8fb0;" 
d="M320 543v96h587v-96h-587zM755 -48l-235 292v-192h118l-43 -100h-260v408h-55v-277l-48 -131h-196l53 147v725h851v-100h-660v-266h669v-98h-429v-40h148l60 -74l41 74h174l-111 -202l133 -166h-210z" />
    <glyph glyph-name="uni8FB0" unicode="&#x2fa0;" 
d="M320 543v96h587v-96h-587zM755 -48l-235 292v-192h118l-43 -100h-260v408h-55v-277l-48 -131h-196l53 147v725h851v-100h-660v-266h669v-98h-429v-40h148l60 -74l41 74h174l-111 -202l133 -166h-210z" />
    <glyph glyph-name="uni8FB5" unicode="&#x8fb5;" 
 />
    <glyph glyph-name="uni8FB5" unicode="&#x2fa1;" 
 />
    <glyph glyph-name="uni9091" unicode="&#x9091;" 
d="M104 538v284h800v-284h-800zM926 -47h-843v538h842v-326h-657v-116h696zM713 725h-421v-93h421v93zM740 397h-152v-137h152v137zM421 397h-153v-137h153v137z" />
    <glyph glyph-name="uni9091" unicode="&#x2fa2;" 
d="M104 538v284h800v-284h-800zM926 -47h-843v538h842v-326h-657v-116h696zM713 725h-421v-93h421v93zM740 397h-152v-137h152v137zM421 397h-153v-137h153v137z" />
    <glyph glyph-name="uni9149" unicode="&#x9149;" 
d="M683 724v-94h230v-680h-819v680h230v94h-268v97h893v-97h-266zM527 724h-48v-94h48v94zM730 536h-47v-165h47v165zM730 352l-39 -75h-164v259h-48v-153l-54 -106h-148v-57h453v132zM324 536h-47v-224l47 87v137zM730 125h-453v-79h453v79z" />
    <glyph glyph-name="uni9149" unicode="&#x2fa3;" 
d="M683 724v-94h230v-680h-819v680h230v94h-268v97h893v-97h-266zM527 724h-48v-94h48v94zM730 536h-47v-165h47v165zM730 352l-39 -75h-164v259h-48v-153l-54 -106h-148v-57h453v132zM324 536h-47v-224l47 87v137zM730 125h-453v-79h453v79z" />
    <glyph glyph-name="uni91C6" unicode="&#x91c6;" 
 />
    <glyph glyph-name="uni91C6" unicode="&#x2fa4;" 
 />
    <glyph glyph-name="uni91CC" unicode="&#x91cc;" 
d="M52 -52v98h355v91h-313v97h313v81h-313v506h824v-506h-315v-81h314v-97h-314v-91h355v-98h-906zM730 721h-127v-107h127v107zM730 522h-127v-107h127v107zM407 721h-128v-107h128v107zM407 522h-128v-107h128v107z" />
    <glyph glyph-name="uni91CC" unicode="&#x2fa5;" 
d="M52 -52v98h355v91h-313v97h313v81h-313v506h824v-506h-315v-81h314v-97h-314v-91h355v-98h-906zM730 721h-127v-107h127v107zM730 522h-127v-107h127v107zM407 721h-128v-107h128v107zM407 522h-128v-107h128v107z" />
    <glyph glyph-name="uni91D1" unicode="&#x91d1;" 
d="M825 88h-196l80 184h197zM750 462l-26 58h-123v-113h317v-94h-317v-267h345v-95h-880v95h343v267h-316v94h316v113h-132l-27 -58h-201l160 356h592l160 -356h-211zM187 88l-82 184h194l84 -184h-196zM632 721h-262l-48 -104h358z" />
    <glyph glyph-name="uni91D1" unicode="&#x2fa6;" 
d="M825 88h-196l80 184h197zM750 462l-26 58h-123v-113h317v-94h-317v-267h345v-95h-880v95h343v267h-316v94h316v113h-132l-27 -58h-201l160 356h592l160 -356h-211zM187 88l-82 184h194l84 -184h-196zM632 721h-262l-48 -104h358z" />
    <glyph glyph-name="uni9577" unicode="&#x9577;" 
 />
    <glyph glyph-name="uni9577" unicode="&#x2fa7;" 
 />
    <glyph glyph-name="uni9580" unicode="&#x9580;" 
 />
    <glyph glyph-name="uni9580" unicode="&#x2fa8;" 
 />
    <glyph glyph-name="uni961C" unicode="&#x961c;" 
d="M603 81v-131h-194v131h-353v95h353v53h-315v546h233l30 58h213l-27 -58h347v-247h-606v-49h633v-250h-314v-53h351v-95h-351zM699 680h-415v-58h415v58zM724 384h-440v-60h440v60z" />
    <glyph glyph-name="uni961C" unicode="&#x2fa9;" 
d="M603 81v-131h-194v131h-353v95h353v53h-315v546h233l30 58h213l-27 -58h347v-247h-606v-49h633v-250h-314v-53h351v-95h-351zM699 680h-415v-58h415v58zM724 384h-440v-60h440v60z" />
    <glyph glyph-name="uni96B6" unicode="&#x96b6;" 
d="M845 201h-218l113 136h215zM902 509v-150h-302v-409h-248l-45 86l-49 -86h-209l133 223h202l-70 -124h96v310h-305v95h305v55h-354v96h354v55h-306v97h306v73h190v-73h302v-152h49v-96h-49zM761 -50l-137 223h203l139 -223h-205zM169 201l-118 136h216l115 -136h-213z
M720 660h-120v-55h120v55zM720 509h-120v-55h120v55z" />
    <glyph glyph-name="uni96B6" unicode="&#x2faa;" 
d="M845 201h-218l113 136h215zM902 509v-150h-302v-409h-248l-45 86l-49 -86h-209l133 223h202l-70 -124h96v310h-305v95h305v55h-354v96h354v55h-306v97h306v73h190v-73h302v-152h49v-96h-49zM761 -50l-137 223h203l139 -223h-205zM169 201l-118 136h216l115 -136h-213z
M720 660h-120v-55h120v55zM720 509h-120v-55h120v55z" />
    <glyph glyph-name="uni96B9" unicode="&#x96b9;" 
d="M110 -48v513h-63l119 367h197l-42 -138h152l-34 138h200l37 -138h263v-93h-267v-119h243v-95h-243v-120h246v-93h-246v-128h269v-94h-831zM481 601h-179v-119h179v119zM481 387h-179v-120h179v120zM481 174h-179v-128h179v128z" />
    <glyph glyph-name="uni96B9" unicode="&#x2fab;" 
d="M110 -48v513h-63l119 367h197l-42 -138h152l-34 138h200l37 -138h263v-93h-267v-119h243v-95h-243v-120h246v-93h-246v-128h269v-94h-831zM481 601h-179v-119h179v119zM481 387h-179v-120h179v120zM481 174h-179v-128h179v128z" />
    <glyph glyph-name="uni96E8" unicode="&#x96e8;" 
d="M628 315l-19 196h103l17 -196h-101zM592 726v-80h337v-695h-240l-46 93h109v508h-160v-601h-173v601h-159v-601h-177v695h336v80h-353v95h869v-95h-343zM632 71l-17 201h102l20 -201h-105zM295 314l-19 198h103l19 -198h-103zM296 69l-18 202h105l19 -202h-106z" />
    <glyph glyph-name="uni96E8" unicode="&#x2fac;" 
d="M628 315l-19 196h103l17 -196h-101zM592 726v-80h337v-695h-240l-46 93h109v508h-160v-601h-173v601h-159v-601h-177v695h336v80h-353v95h869v-95h-343zM632 71l-17 201h102l20 -201h-105zM295 314l-19 198h103l19 -198h-103zM296 69l-18 202h105l19 -202h-106z" />
    <glyph glyph-name="uni9751" unicode="&#x9751;" 
 />
    <glyph glyph-name="uni9751" unicode="&#x2fad;" 
 />
    <glyph glyph-name="uni975E" unicode="&#x975e;" 
d="M738 125v-175h-191v879h191v-121h199v-97h-199v-143h179v-95h-179v-150h202v-98h-202zM271 -50v175h-202v98h202v150h-180v95h180v142h-204v97h204v122h192v-879h-192z" />
    <glyph glyph-name="uni975E" unicode="&#x2fae;" 
d="M738 125v-175h-191v879h191v-121h199v-97h-199v-143h179v-95h-179v-150h202v-98h-202zM271 -50v175h-202v98h202v150h-180v95h180v142h-204v97h204v122h192v-879h-192z" />
    <glyph glyph-name="uni9762" unicode="&#x9762;" 
d="M601 726l-34 -100h348v-678h-821v678h280l33 100h-346v97h883v-97h-343zM741 531h-50v-486h50v486zM540 531h-69v-97h69v97zM540 339h-69v-98h69v98zM540 149h-69v-104h69v104zM319 531h-53v-486h53v486z" />
    <glyph glyph-name="uni9762" unicode="&#x2faf;" 
d="M601 726l-34 -100h348v-678h-821v678h280l33 100h-346v97h883v-97h-343zM741 531h-50v-486h50v486zM540 531h-69v-97h69v97zM540 339h-69v-98h69v98zM540 149h-69v-104h69v104zM319 531h-53v-486h53v486z" />
    <glyph glyph-name="uni9769" unicode="&#x9769;" 
d="M601 57v-106h-192v106h-345v95h345v50h-300v264h300v48h-192v154h-147v91h147v70h189v-70h200v70h187v-70h150v-91h-150v-154h-192v-48h306v-264h-306v-50h344v-95h-344zM606 668h-200v-60h200v60zM718 372h-117v-78h117v78zM409 372h-115v-78h115v78z" />
    <glyph glyph-name="uni9769" unicode="&#x2fb0;" 
d="M601 57v-106h-192v106h-345v95h345v50h-300v264h300v48h-192v154h-147v91h147v70h189v-70h200v70h187v-70h150v-91h-150v-154h-192v-48h306v-264h-306v-50h344v-95h-344zM606 668h-200v-60h200v60zM718 372h-117v-78h117v78zM409 372h-115v-78h115v78z" />
    <glyph glyph-name="uni97CB" unicode="&#x97cb;" 
 />
    <glyph glyph-name="uni97CB" unicode="&#x2fb1;" 
 />
    <glyph glyph-name="uni97ED" unicode="&#x97ed;" 
d="M71 -49v94h212v128h-204v94h204v123h-185v92h185v125h-206v94h206v131h188v-787h67v787h190v-131h201v-94h-201v-125h181v-92h-181v-123h203v-94h-203v-128h213v-94h-870z" />
    <glyph glyph-name="uni97ED" unicode="&#x2fb2;" 
d="M71 -49v94h212v128h-204v94h204v123h-185v92h185v125h-206v94h206v131h188v-787h67v787h190v-131h201v-94h-201v-125h181v-92h-181v-123h203v-94h-203v-128h213v-94h-870z" />
    <glyph glyph-name="uni97F3" unicode="&#x97f3;" 
d="M93 652v91h324l-23 87h199l25 -87h302v-91h-827zM942 413h-869v93h170l-60 117h193l58 -117h140l61 117h196l-59 -117h171zM122 -52v417h773v-417h-773zM701 269h-389v-66h389v66zM701 111h-389v-68h389v68z" />
    <glyph glyph-name="uni97F3" unicode="&#x2fb3;" 
d="M93 652v91h324l-23 87h199l25 -87h302v-91h-827zM942 413h-869v93h170l-60 117h193l58 -117h140l61 117h196l-59 -117h171zM122 -52v417h773v-417h-773zM701 269h-389v-66h389v66zM701 111h-389v-68h389v68z" />
    <glyph glyph-name="uni9801" unicode="&#x9801;" 
 />
    <glyph glyph-name="uni9801" unicode="&#x2fb4;" 
 />
    <glyph glyph-name="uni98A8" unicode="&#x98a8;" 
 />
    <glyph glyph-name="uni98A8" unicode="&#x2fb5;" 
 />
    <glyph glyph-name="uni98DB" unicode="&#x98db;" 
 />
    <glyph glyph-name="uni98DB" unicode="&#x2fb6;" 
 />
    <glyph glyph-name="uni98DF" unicode="&#x98df;" 
d="M894 495v-283h-592v-169h216l-48 -94h-362v546h-85l187 326h588l180 -326h-84zM701 -51l-370 229h280l99 -68l64 71h186l-120 -144l143 -88h-282zM641 727h-274l-83 -131h121l-18 89h194l18 -89h125zM702 501h-400v-57h400v57zM702 361h-400v-58h400v58z" />
    <glyph glyph-name="uni98DF" unicode="&#x2fb7;" 
d="M894 495v-283h-592v-169h216l-48 -94h-362v546h-85l187 326h588l180 -326h-84zM701 -51l-370 229h280l99 -68l64 71h186l-120 -144l143 -88h-282zM641 727h-274l-83 -131h121l-18 89h194l18 -89h125zM702 501h-400v-57h400v57zM702 361h-400v-58h400v58z" />
    <glyph glyph-name="uni9996" unicode="&#x9996;" 
d="M607 634l-28 -78h321v-604h-790v604h277l29 78h-357v93h154l-55 96h209l53 -96h168l53 96h209l-56 -96h153v-93h-340zM709 463h-408v-76h408v76zM709 298h-408v-81h408v81zM709 126h-408v-82h408v82z" />
    <glyph glyph-name="uni9996" unicode="&#x2fb8;" 
d="M607 634l-28 -78h321v-604h-790v604h277l29 78h-357v93h154l-55 96h209l53 -96h168l53 96h209l-56 -96h153v-93h-340zM709 463h-408v-76h408v76zM709 298h-408v-81h408v81zM709 126h-408v-82h408v82z" />
    <glyph glyph-name="uni9999" unicode="&#x9999;" 
d="M599 558v-197h-192v197h-338v87h338v55h-315v88h638l12 35h194l-34 -123h-303v-55h340v-87h-340zM892 312v-362h-775v362h-67l121 212h202l-105 -185h477l-106 185h199l123 -212h-69zM702 251h-395v-61h395v61zM702 101h-395v-63h395v63z" />
    <glyph glyph-name="uni9999" unicode="&#x2fb9;" 
d="M599 558v-197h-192v197h-338v87h338v55h-315v88h638l12 35h194l-34 -123h-303v-55h340v-87h-340zM892 312v-362h-775v362h-67l121 212h202l-105 -185h477l-106 185h199l123 -212h-69zM702 251h-395v-61h395v61zM702 101h-395v-63h395v63z" />
    <glyph glyph-name="uni99AC" unicode="&#x99ac;" 
 />
    <glyph glyph-name="uni99AC" unicode="&#x2fba;" 
 />
    <glyph glyph-name="uni9AA8" unicode="&#x9aa8;" 
d="M902 370v-421h-328l-63 93h201v42h-417v-135h-189v421h-47v192h45v262h799v-262h47v-192h-48zM714 730h-422v-43h331v-125h91v168zM440 611h-148v-49h148v49zM759 468h-510v-43h510v43zM712 335h-417v-42h417v42zM712 209h-417v-43h417v43z" />
    <glyph glyph-name="uni9AA8" unicode="&#x2fbb;" 
d="M902 370v-421h-328l-63 93h201v42h-417v-135h-189v421h-47v192h45v262h799v-262h47v-192h-48zM714 730h-422v-43h331v-125h91v168zM440 611h-148v-49h148v49zM759 468h-510v-43h510v43zM712 335h-417v-42h417v42zM712 209h-417v-43h417v43z" />
    <glyph glyph-name="uni9AD8" unicode="&#x9ad8;" 
d="M67 677v93h333l-19 57h204l22 -57h328v-93h-868zM147 404v231h710v-231h-710zM692 -51l-27 51h-350v240h380v-202h43v238h-466v-327h-180v413h824v-413h-224zM675 550h-344v-58h344v58zM541 155h-66v-69h66v69z" />
    <glyph glyph-name="uni9AD8" unicode="&#x2fbc;" 
d="M67 677v93h333l-19 57h204l22 -57h328v-93h-868zM147 404v231h710v-231h-710zM692 -51l-27 51h-350v240h380v-202h43v238h-466v-327h-180v413h824v-413h-224zM675 550h-344v-58h344v58zM541 155h-66v-69h66v69z" />
    <glyph glyph-name="uni9ADF" unicode="&#x9adf;" 
d="M733 560h-231l225 275h229zM721 -54h-232l18 23h-135l-8 45l-32 -68h-277v95l72 203h-73v98h35v482h429v-98h-243v-64h218v-94h-218v-66h218v-94h-218v-66h244v-54l208 254h229l-224 -272h-213v-26h-205l-70 -199h113l-33 160h169l43 -202l204 249h230z" />
    <glyph glyph-name="uni9ADF" unicode="&#x2fbd;" 
d="M733 560h-231l225 275h229zM721 -54h-232l18 23h-135l-8 45l-32 -68h-277v95l72 203h-73v98h35v482h429v-98h-243v-64h218v-94h-218v-66h218v-94h-218v-66h244v-54l208 254h229l-224 -272h-213v-26h-205l-70 -199h113l-33 160h169l43 -202l204 249h230z" />
    <glyph glyph-name="uni9B25" unicode="&#x9b25;" 
 />
    <glyph glyph-name="uni9B25" unicode="&#x2fbe;" 
 />
    <glyph glyph-name="uni9B2F" unicode="&#x9b2f;" 
d="M77 316v486h161l-36 35h183l120 -113l52 49h-72l-57 64h120l36 -39l42 39h188l-37 -33h150v-488h-850zM908 -48h-827v345h181v-92h441l35 81h196l-72 -175h-600v-65h704zM747 774l-92 -86h55l37 -41v127zM747 568h-48l-79 89l-23 -21l150 -144v76zM747 452h-144l-102 96
l-56 -54h87l67 -77h148v35zM261 779v-91h67l63 -68l19 18zM318 569l-57 61v-130l74 69h-17zM425 477l-25 -24h-139v-36h216z" />
    <glyph glyph-name="uni9B2F" unicode="&#x2fbf;" 
d="M77 316v486h161l-36 35h183l120 -113l52 49h-72l-57 64h120l36 -39l42 39h188l-37 -33h150v-488h-850zM908 -48h-827v345h181v-92h441l35 81h196l-72 -175h-600v-65h704zM747 774l-92 -86h55l37 -41v127zM747 568h-48l-79 89l-23 -21l150 -144v76zM747 452h-144l-102 96
l-56 -54h87l67 -77h148v35zM261 779v-91h67l63 -68l19 18zM318 569l-57 61v-130l74 69h-17zM425 477l-25 -24h-139v-36h216z" />
    <glyph glyph-name="uni9B32" unicode="&#x9b32;" 
d="M54 730v94h895v-94h-895zM113 454v232h777v-232h-777zM681 -47l-56 94h116v268h-471v-362h-190v457h849v-457h-248zM593 101v-148h-174v148h-123v89h41l-39 95h159l37 -95h24l29 95h159l-29 -95h41v-89h-125zM704 596h-403v-53h403v53z" />
    <glyph glyph-name="uni9B32" unicode="&#x2fc0;" 
d="M54 730v94h895v-94h-895zM113 454v232h777v-232h-777zM681 -47l-56 94h116v268h-471v-362h-190v457h849v-457h-248zM593 101v-148h-174v148h-123v89h41l-39 95h159l37 -95h24l29 95h159l-29 -95h41v-89h-125zM704 596h-403v-53h403v53z" />
    <glyph glyph-name="uni9B3C" unicode="&#x9b3c;" 
d="M868 80l-19 66l-37 -66h-166v84l57 112h142l-53 -105h50l-15 55h86l43 -146h-88zM914 -50h-469v195l-167 -195h-238l307 356h-255v447h244l46 80h218l-45 -80h358v-447h-330l-28 -34h67v-226h343zM728 658h-136v-82h136v82zM728 483h-136v-81h136v81zM413 658h-136v-82
h136v82zM414 483h-137v-81h137v81z" />
    <glyph glyph-name="uni9B3C" unicode="&#x2fc1;" 
d="M868 80l-19 66l-37 -66h-166v84l57 112h142l-53 -105h50l-15 55h86l43 -146h-88zM914 -50h-469v195l-167 -195h-238l307 356h-255v447h244l46 80h218l-45 -80h358v-447h-330l-28 -34h67v-226h343zM728 658h-136v-82h136v82zM728 483h-136v-81h136v81zM413 658h-136v-82
h136v82zM414 483h-137v-81h137v81z" />
    <glyph glyph-name="uni9B5A" unicode="&#x9b5a;" 
 />
    <glyph glyph-name="uni9B5A" unicode="&#x2fc2;" 
 />
    <glyph glyph-name="uni9CE5" unicode="&#x9ce5;" 
 />
    <glyph glyph-name="uni9CE5" unicode="&#x2fc3;" 
 />
    <glyph glyph-name="uni9E75" unicode="&#x9e75;" 
 />
    <glyph glyph-name="uni9E75" unicode="&#x2fc4;" 
 />
    <glyph glyph-name="uni9E7F" unicode="&#x9e7f;" 
d="M924 -50h-319v365h169v-82h46l13 55h111l-32 -145h-138v-101h188zM715 670v-68h204v-264h-659v-281l-31 -107h-181l37 134v681h336l-18 66h211l18 -66h306v-95h-223zM546 -50h-240v365h171v-82h105v-90h-105v-101h119zM776 511h-61v-83h61v83zM549 670h-62v-68h62v68z
M549 511h-62v-83h62v83zM323 670h-63v-68h63v68zM323 511h-63v-83h63v83z" />
    <glyph glyph-name="uni9E7F" unicode="&#x2fc5;" 
d="M924 -50h-319v365h169v-82h46l13 55h111l-32 -145h-138v-101h188zM715 670v-68h204v-264h-659v-281l-31 -107h-181l37 134v681h336l-18 66h211l18 -66h306v-95h-223zM546 -50h-240v365h171v-82h105v-90h-105v-101h119zM776 511h-61v-83h61v83zM549 670h-62v-68h62v68z
M549 511h-62v-83h62v83zM323 670h-63v-68h63v68zM323 511h-63v-83h63v83z" />
    <glyph glyph-name="uni9EA5" unicode="&#x9ea5;" 
 />
    <glyph glyph-name="uni9EA5" unicode="&#x2fc6;" 
 />
    <glyph glyph-name="uni9EBB" unicode="&#x9ebb;" 
d="M897 -16l-25 440h60l24 -440h-59zM856 466v-518h-156v518h-85v93h85v81h156v-81h85l1 -93h-86zM253 669v-581l-32 -140h-179l42 184v633h338l-26 68h205l28 -68h320v-96h-696zM670 -16h-57l12 440h57zM545 -16l-14 440h59l11 -440h-56zM515 466v-518h-159v518h-84v93h84
v81h159v-81h78v-93h-78zM331 -16h-59l12 440h58z" />
    <glyph glyph-name="uni9EBB" unicode="&#x2fc7;" 
d="M897 -16l-25 440h60l24 -440h-59zM856 466v-518h-156v518h-85v93h85v81h156v-81h85l1 -93h-86zM253 669v-581l-32 -140h-179l42 184v633h338l-26 68h205l28 -68h320v-96h-696zM670 -16h-57l12 440h57zM545 -16l-14 440h59l11 -440h-56zM515 466v-518h-159v518h-84v93h84
v81h159v-81h78v-93h-78zM331 -16h-59l12 440h58z" />
    <glyph glyph-name="uni9EC3" unicode="&#x9ec3;" 
 />
    <glyph glyph-name="uni9EC3" unicode="&#x2fc8;" 
 />
    <glyph glyph-name="uni9ECD" unicode="&#x9ecd;" 
d="M599 565v-143h-189v143h-341v92h341v50h-308v91h610l18 33h208l-63 -124h-276v-50h342v-92h-342zM864 199l-44 -63h-194l76 114l-46 60h-302l-44 -56l74 -118h-199l-38 63h-93l148 182h-147l117 158h208l-103 -143h460l-102 143h209l110 -158h-138l139 -182h-91zM752 -36
l-111 141h201l113 -141h-203zM381 -53l-45 93h76v231h188v-324h-219zM266 -36h-207l100 141h204z" />
    <glyph glyph-name="uni9ECD" unicode="&#x2fc9;" 
d="M599 565v-143h-189v143h-341v92h341v50h-308v91h610l18 33h208l-63 -124h-276v-50h342v-92h-342zM864 199l-44 -63h-194l76 114l-46 60h-302l-44 -56l74 -118h-199l-38 63h-93l148 182h-147l117 158h208l-103 -143h460l-102 143h209l110 -158h-138l139 -182h-91zM752 -36
l-111 141h201l113 -141h-203zM381 -53l-45 93h76v231h188v-324h-219zM266 -36h-207l100 141h204z" />
    <glyph glyph-name="uni9ED1" unicode="&#x9ed1;" 
d="M75 157v93h336v49h-310v90h310v46h-307v387h802v-387h-309v-46h310v-90h-310v-49h344v-93h-866zM773 -48l-46 178h174l47 -178h-175zM552 -48l-46 178h173l46 -178h-173zM335 -48l-46 178h173l46 -178h-173zM238 -48h-177l44 178h177zM731 733h-134v-210h134v210z
M411 733h-132v-210h132v210zM691 558h-80l26 140h82zM318 558l-27 140h81l27 -140h-81z" />
    <glyph glyph-name="uni9ED1" unicode="&#x2fca;" 
d="M75 157v93h336v49h-310v90h310v46h-307v387h802v-387h-309v-46h310v-90h-310v-49h344v-93h-866zM773 -48l-46 178h174l47 -178h-175zM552 -48l-46 178h173l46 -178h-173zM335 -48l-46 178h173l46 -178h-173zM238 -48h-177l44 178h177zM731 733h-134v-210h134v210z
M411 733h-132v-210h132v210zM691 558h-80l26 140h82zM318 558l-27 140h81l27 -140h-81z" />
    <glyph glyph-name="uni9EF9" unicode="&#x9ef9;" 
d="M890 669h-167l50 142h169zM111 669l-44 142h170l44 -142h-170zM594 543v-132h38l55 106h188l-54 -106h97v-460h-228l-46 94h94v269h-144v-363h-180v363h-142l-1 -362h-181v459h98l-54 106h189l55 -106h36v132h-360v97h241v191h172v-191h70v191h172v-191h244v-97h-359z
M641 76l-33 198h84l36 -198h-87zM369 21h-90l35 253h88z" />
    <glyph glyph-name="uni9EF9" unicode="&#x2fcb;" 
d="M890 669h-167l50 142h169zM111 669l-44 142h170l44 -142h-170zM594 543v-132h38l55 106h188l-54 -106h97v-460h-228l-46 94h94v269h-144v-363h-180v363h-142l-1 -362h-181v459h98l-54 106h189l55 -106h36v132h-360v97h241v191h172v-191h70v191h172v-191h244v-97h-359z
M641 76l-33 198h84l36 -198h-87zM369 21h-90l35 253h88z" />
    <glyph glyph-name="uni9EFD" unicode="&#x9efd;" 
 />
    <glyph glyph-name="uni9EFD" unicode="&#x2fcc;" 
 />
    <glyph glyph-name="uni9F0E" unicode="&#x9f0e;" 
d="M292 374v449h425v-449h-425zM765 -48v149h-59v-149h-172v383h221v441h173v-529h-222v-55h224v-240h-165zM306 -48v149h-42v-80l-31 -69h-172l39 82v67h-35v91h241v55h-223v529h173v-441h221v-383h-171zM557 732h-104v-38h104v38zM557 617h-104v-39h104v39zM557 505h-104
v-39h104v39z" />
    <glyph glyph-name="uni9F0E" unicode="&#x2fcd;" 
d="M292 374v449h425v-449h-425zM765 -48v149h-59v-149h-172v383h221v441h173v-529h-222v-55h224v-240h-165zM306 -48v149h-42v-80l-31 -69h-172l39 82v67h-35v91h241v55h-223v529h173v-441h221v-383h-171zM557 732h-104v-38h104v38zM557 617h-104v-39h104v39zM557 505h-104
v-39h104v39z" />
    <glyph glyph-name="uni9F13" unicode="&#x9f13;" 
d="M779 -54l-60 98l-69 -98h-174l35 53l-454 -41v94l231 20l43 128h157l-34 -112l66 6v-80l115 170l-104 173h173l24 -36l53 80h-256v93h122v136h-130v43h-129v-65h111v-94h-416v94h129v65h-152v94h152v71h176v-71h134v-44h125v112h174v-112h133v-93h-133v-136h118v-118
l-128 -193l145 -237h-177zM84 226v250h414v-250h-414zM125 91l-31 109h162l28 -109h-159zM326 385h-70v-69h70v69z" />
    <glyph glyph-name="uni9F13" unicode="&#x2fce;" 
d="M779 -54l-60 98l-69 -98h-174l35 53l-454 -41v94l231 20l43 128h157l-34 -112l66 6v-80l115 170l-104 173h173l24 -36l53 80h-256v93h122v136h-130v43h-129v-65h111v-94h-416v94h129v65h-152v94h152v71h176v-71h134v-44h125v112h174v-112h133v-93h-133v-136h118v-118
l-128 -193l145 -237h-177zM84 226v250h414v-250h-414zM125 91l-31 109h162l28 -109h-159zM326 385h-70v-69h70v69z" />
    <glyph glyph-name="uni9F20" unicode="&#x9f20;" 
d="M89 419v377h206l12 33h202l-39 -124h-195v-52h195v-88h-195v-53h455v53h-197v88h197v52h-208v92h392v-378h-825zM927 -50h-181l-33 444h177l28 -352h40zM609 247l-22 127h99l23 -127h-100zM615 76l-25 138h101l23 -138h-99zM691 -50h-288v444h170v-352h152zM287 247
l-21 127h97l21 -127h-97zM288 76l-21 138h98l21 -138h-98zM354 -50h-279v444h174v-352h135z" />
    <glyph glyph-name="uni9F20" unicode="&#x2fcf;" 
d="M89 419v377h206l12 33h202l-39 -124h-195v-52h195v-88h-195v-53h455v53h-197v88h197v52h-208v92h392v-378h-825zM927 -50h-181l-33 444h177l28 -352h40zM609 247l-22 127h99l23 -127h-100zM615 76l-25 138h101l23 -138h-99zM691 -50h-288v444h170v-352h152zM287 247
l-21 127h97l21 -127h-97zM288 76l-21 138h98l21 -138h-98zM354 -50h-279v444h174v-352h135z" />
    <glyph glyph-name="uni9F3B" unicode="&#x9f3b;" 
d="M123 483v310h247l21 40h201l-15 -40h304v-310h-758zM91 202v254h824v-254h-824zM789 91v-142h-188v142h-180v-80l-101 -62h-263l169 106v36h-166v82h885v-82h-156zM694 728h-384v-28h384v28zM694 654h-384v-28h384v28zM694 579h-384v-30h384v30zM730 384h-140v-31h140v31
zM730 305h-140v-32h140v32zM416 384h-140v-31h140v31zM416 305h-140v-32h140v32z" />
    <glyph glyph-name="uni9F3B" unicode="&#x2fd0;" 
d="M123 483v310h247l21 40h201l-15 -40h304v-310h-758zM91 202v254h824v-254h-824zM789 91v-142h-188v142h-180v-80l-101 -62h-263l169 106v36h-166v82h885v-82h-156zM694 728h-384v-28h384v28zM694 654h-384v-28h384v28zM694 579h-384v-30h384v30zM730 384h-140v-31h140v31
zM730 305h-140v-32h140v32zM416 384h-140v-31h140v31zM416 305h-140v-32h140v32z" />
    <glyph glyph-name="uni9F4A" unicode="&#x9f4a;" 
 />
    <glyph glyph-name="uni9F4A" unicode="&#x2fd1;" 
 />
    <glyph glyph-name="uni9F52" unicode="&#x9f52;" 
 />
    <glyph glyph-name="uni9F52" unicode="&#x2fd2;" 
 />
    <glyph glyph-name="uni9F8D" unicode="&#x9f8d;" 
 />
    <glyph glyph-name="uni9F8D" unicode="&#x2fd3;" 
 />
    <glyph glyph-name="uni9F9C" unicode="&#x9f9c;" 
 />
    <glyph glyph-name="uni9F9C" unicode="&#x2fd4;" 
 />
    <glyph glyph-name="uni9FA0" unicode="&#x9fa0;" 
d="M663 344v222h253v-222h-253zM752 587l-60 79v-65h-370v60l-62 -74h-226l190 233h566l177 -233h-215zM377 344v222h259v-222h-259zM95 344v222h253v-222h-253zM729 -51l-34 90h48v34h-54v-124h-157v124h-55v-124h-156v124h-54v-124h-172v363h821v-363h-187zM810 479h-43
v-49h43v49zM645 727h-270l-36 -43h339zM527 479h-44v-49h44v49zM743 220h-54v-61h54v61zM532 220h-55v-61h55v61zM243 479h-43v-49h43v49zM321 220h-54v-61h54v61z" />
    <glyph glyph-name="uni9FA0" unicode="&#x2fd5;" 
d="M663 344v222h253v-222h-253zM752 587l-60 79v-65h-370v60l-62 -74h-226l190 233h566l177 -233h-215zM377 344v222h259v-222h-259zM95 344v222h253v-222h-253zM729 -51l-34 90h48v34h-54v-124h-157v124h-55v-124h-156v124h-54v-124h-172v363h821v-363h-187zM810 479h-43
v-49h43v49zM645 727h-270l-36 -43h339zM527 479h-44v-49h44v49zM743 220h-54v-61h54v61zM532 220h-55v-61h55v61zM243 479h-43v-49h43v49zM321 220h-54v-61h54v61z" />
    <glyph glyph-name="uniE7E8" unicode="&#xe7e8;" 
 />
    <glyph glyph-name="uniE7E8" unicode="&#x2ff0;" 
 />
    <glyph glyph-name="uniE7E9" unicode="&#xe7e9;" 
 />
    <glyph glyph-name="uniE7E9" unicode="&#x2ff1;" 
 />
    <glyph glyph-name="uniE7EA" unicode="&#xe7ea;" 
 />
    <glyph glyph-name="uniE7EA" unicode="&#x2ff2;" 
 />
    <glyph glyph-name="uniE7EB" unicode="&#xe7eb;" 
 />
    <glyph glyph-name="uniE7EB" unicode="&#x2ff3;" 
 />
    <glyph glyph-name="uniE7EC" unicode="&#xe7ec;" 
 />
    <glyph glyph-name="uniE7EC" unicode="&#x2ff4;" 
 />
    <glyph glyph-name="uniE7ED" unicode="&#xe7ed;" 
 />
    <glyph glyph-name="uniE7ED" unicode="&#x2ff5;" 
 />
    <glyph glyph-name="uniE7EE" unicode="&#xe7ee;" 
 />
    <glyph glyph-name="uniE7EE" unicode="&#x2ff6;" 
 />
    <glyph glyph-name="uniE7EF" unicode="&#xe7ef;" 
 />
    <glyph glyph-name="uniE7EF" unicode="&#x2ff7;" 
 />
    <glyph glyph-name="uniE7F0" unicode="&#xe7f0;" 
 />
    <glyph glyph-name="uniE7F0" unicode="&#x2ff8;" 
 />
    <glyph glyph-name="uniE7F1" unicode="&#xe7f1;" 
 />
    <glyph glyph-name="uniE7F1" unicode="&#x2ff9;" 
 />
    <glyph glyph-name="uniE7F2" unicode="&#xe7f2;" 
 />
    <glyph glyph-name="uniE7F2" unicode="&#x2ffa;" 
 />
    <glyph glyph-name="uniE7F3" unicode="&#xe7f3;" 
 />
    <glyph glyph-name="uniE7F3" unicode="&#x2ffb;" 
 />
    <glyph glyph-name="uni3000" unicode="&#x3000;" 
 />
    <glyph glyph-name="uni3001" unicode="&#x3001;" 
d="M257 -40l-167 286h199l170 -286h-202z" />
    <glyph glyph-name="uni3002" unicode="&#x3002;" 
d="M427 117q0 -34 -13 -63.5t-35 -51.5t-51.5 -35t-63.5 -13t-63.5 13t-51.5 35t-35 51.5t-13 63.5t13 63.5t35 51.5t51.5 35t63.5 13t63.5 -13t51.5 -35t35 -51.5t13 -63.5zM339 118q0 28 -17.5 51.5t-57.5 23.5q-31 0 -53 -22t-22 -53t22 -53t53 -22t53 22t22 53z" />
    <glyph glyph-name="uni3003" unicode="&#x3003;" 
d="M532 216l-52 21l108 340l99 -39zM365 221l-52 19l107 337l98 -39z" />
    <glyph glyph-name="uni3005" unicode="&#x3005;" 
d="M608 176l172 -138h-222l-345 273h222l54 -40l148 235h-209l-97 -153h-191l231 365h191l-82 -128h321v-108z" />
    <glyph glyph-name="uni3006" unicode="&#x3006;" 
 />
    <glyph glyph-name="uni3007" unicode="&#x3007;" 
d="M957 385v-14.5t-1 -14.5q-5 -73 -30.5 -141t-71.5 -122q-82 -95 -194 -135q-75 -27 -157 -27q-47 0 -97 9q-69 13 -132.5 51.5t-112.5 94.5q-38 43 -64.5 92t-37.5 102q-5 27 -8 54t-3 53q0 115 51 212q43 80 113 141q54 46 122.5 71.5t142.5 29.5q7 1 13.5 1h13.5
q54 0 106.5 -12t98.5 -37q35 -18 67.5 -44t60.5 -56.5t50.5 -65t36.5 -69.5q17 -41 25 -84.5t8 -88.5zM911 386q0 47 -10 92.5t-30 86.5q-26 52 -69.5 99t-94.5 78q-45 27 -98 40t-109 13h-21q-60 -2 -115 -20.5t-100 -52.5q-41 -31 -72 -67.5t-53 -78.5q-46 -90 -46 -192
q0 -17 1 -34.5t4 -35.5q8 -50 30.5 -97t57.5 -89q42 -51 96 -87.5t114 -51.5q52 -13 106 -13q83 0 156 30q94 38 164 120q40 47 61.5 106.5t26.5 123.5q1 8 1 15v15z" />
    <glyph glyph-name="uni3008" unicode="&#x3008;" 
d="M696 -64l-239 448l239 448h201l-239 -449l239 -447h-201z" />
    <glyph glyph-name="uni3009" unicode="&#x3009;" 
d="M306 -64h-201l239 447l-239 449h201l239 -448z" />
    <glyph glyph-name="uni300A" unicode="&#x300a;" 
d="M845 -64l-258 448l258 448h109l-258 -449l258 -447h-109zM690 -64l-258 448l258 448h109l-258 -449l258 -447h-109z" />
    <glyph glyph-name="uni300B" unicode="&#x300b;" 
d="M311 -64h-109l258 447l-258 449h109l258 -448zM156 -64h-109l258 447l-258 449h109l258 -448z" />
    <glyph glyph-name="uni300C" unicode="&#x300c;" 
d="M667 665v-729h-171v896h385v-167h-214z" />
    <glyph glyph-name="uni300D" unicode="&#x300d;" 
d="M119 -64v167h214v729h171v-896h-385z" />
    <glyph glyph-name="uni300E" unicode="&#x300e;" 
d="M744 593v-657h-243v896h425v-239h-182zM835 741h-242v-714h59v657h183v57z" />
    <glyph glyph-name="uni300F" unicode="&#x300f;" 
d="M74 -64v239h182v657h243v-896h-425zM407 741h-59v-657h-183v-57h242v714z" />
    <glyph glyph-name="uni3010" unicode="&#x3010;" 
d="M573 -65v897h291q-63 -98 -97 -214.5t-34 -240.5q0 -67 10.5 -133.5t33.5 -130.5q17 -48 39 -91.5t48 -86.5h-291z" />
    <glyph glyph-name="uni3011" unicode="&#x3011;" 
d="M140 -64q63 98 97 214.5t34 240.5q0 67 -10.5 133.5t-33.5 130.5q-17 47 -39 90.5t-48 86.5h291v-896h-291z" />
    <glyph glyph-name="uni3012" unicode="&#x3012;" 
 />
    <glyph glyph-name="uni3013" unicode="&#x3013;" 
d="M150 453v221h701v-221h-701zM150 100v221h701v-221h-701z" />
    <glyph glyph-name="uni3014" unicode="&#x3014;" 
d="M771 -99l-261 191v578l261 191l105 -134l-186 -138v-417l186 -138z" />
    <glyph glyph-name="uni3015" unicode="&#x3015;" 
d="M230 -99l-105 133l186 138v417l-186 138l105 134l261 -191v-578z" />
    <glyph glyph-name="uni3016" unicode="&#x3016;" 
d="M547 -65v897h337q-54 -94 -82.5 -207.5t-28.5 -232.5q0 -66 6 -123t19.5 -111t34.5 -108t51 -115h-337zM747 27q-30 80 -45 167.5t-15 197.5q0 47 5.5 96.5t14 96t19 87t21.5 69.5h-110v-714h110v0z" />
    <glyph glyph-name="uni3017" unicode="&#x3017;" 
d="M116 -65q30 61 51 115t34.5 108t19.5 111t6 123q0 119 -28.5 232.5t-82.5 207.5h337v-897h-337zM363 741h-110q11 -29 21.5 -69.5t19 -87t14 -96t5.5 -96.5q0 -110 -15 -197.5t-45 -167.5h110v714z" />
    <glyph glyph-name="uni301D" unicode="&#x301d;" 
 />
    <glyph glyph-name="uni301E" unicode="&#x301e;" 
 />
    <glyph glyph-name="uni3021" unicode="&#x3021;" 
 />
    <glyph glyph-name="uni3022" unicode="&#x3022;" 
 />
    <glyph glyph-name="uni3023" unicode="&#x3023;" 
 />
    <glyph glyph-name="uni3024" unicode="&#x3024;" 
 />
    <glyph glyph-name="uni3025" unicode="&#x3025;" 
 />
    <glyph glyph-name="uni3026" unicode="&#x3026;" 
 />
    <glyph glyph-name="uni3027" unicode="&#x3027;" 
 />
    <glyph glyph-name="uni3028" unicode="&#x3028;" 
 />
    <glyph glyph-name="uni3029" unicode="&#x3029;" 
 />
    <glyph glyph-name="uni3033" unicode="&#x3033;" 
 />
    <glyph glyph-name="uni3034" unicode="&#x3034;" 
 />
    <glyph glyph-name="uni3035" unicode="&#x3035;" 
 />
    <glyph glyph-name="uni3038" unicode="&#x3038;" 
 />
    <glyph glyph-name="uni3039" unicode="&#x3039;" 
 />
    <glyph glyph-name="uni303A" unicode="&#x303a;" 
 />
    <glyph glyph-name="uniE7E7" unicode="&#xe7e7;" 
 />
    <glyph glyph-name="uniE7E7" unicode="&#x303e;" 
 />
    <glyph glyph-name="uni303F" unicode="&#x303f;" 
 />
    <glyph glyph-name="uni3041" unicode="&#x3041;" 
d="M847 221q0 -26 -4.5 -51t-14.5 -46q-17 -39 -38.5 -77.5t-48.5 -73.5h-201q15 10 32 27t33.5 37.5t31 42t25.5 40.5q11 20 19.5 41t13.5 44q3 17 3 35q0 16 -2.5 30.5t-7.5 23.5q-40 -50 -80.5 -100.5t-90.5 -95.5l6 -125h-152l-2 29q-38 -11 -72 -11q-7 0 -13.5 0.5
t-13.5 1.5q-30 5 -56 20.5t-43 40.5q-17 23 -24.5 52t-7.5 58v11t1 11q5 45 25 82t51 70q20 22 55.5 43.5t69.5 35.5l-4 79l-184 -6v84l176 5l-2 82h149l5 -76l339 11v-84l-332 -11l4 -53q14 1 28 1.5t28 0.5q41 0 80 -5.5t75 -19.5q38 -15 70 -41t53 -67q11 -21 16 -45.5
t5 -50.5zM627 354q-24 8 -50 10.5t-52 2.5h-28l11 -161q33 36 63 72.5t56 75.5zM348 326q-25 -15 -48.5 -35.5t-37.5 -46.5q-19 -33 -19 -68q0 -5 0.5 -10.5t1.5 -10.5q4 -21 16.5 -40.5t32.5 -29.5q8 -4 15 -5t14 -1q23 0 40 12z" />
    <glyph glyph-name="uni3042" unicode="&#x3042;" 
d="M923 276q0 -44 -14 -91q-17 -59 -49.5 -113t-70.5 -100h-242q24 24 49 50t47 53t40.5 54.5t30.5 54.5q12 26 19 56.5t7 60.5q0 34 -10 61q-47 -65 -99.5 -127.5t-114.5 -117.5l9 -145h-181l-2 37q-19 -6 -40.5 -9.5t-44.5 -3.5h-11.5t-11.5 1q-36 4 -66 16.5t-53 41.5
q-26 30 -38.5 69t-12.5 81v4q0 51 20 101.5t53 88.5q35 40 80.5 69t91.5 46l-5 94l-214 -7l-2 97l207 7l-5 102h178l9 -95l413 16l1 -97l-407 -15l3 -66q10 1 21.5 1h25.5q38 0 82 -3t82 -12q58 -14 107.5 -44t82.5 -87q35 -61 35 -129zM651 434q-57 19 -127 19h-15t-15 -1
l15 -198q40 45 74.5 89.5t67.5 90.5zM318 390q-11 -6 -22.5 -16.5t-22 -22.5t-19 -23t-11.5 -17q-12 -20 -20 -47.5t-8 -54.5v-13.5t2 -12.5q5 -23 18 -41t39 -28q7 -3 14.5 -4t15.5 -1t15.5 1t15.5 4z" />
    <glyph glyph-name="uni3043" unicode="&#x3043;" 
d="M695 177l-163 405h167l167 -405h-171zM470 -24h-159q-44 63 -69 133.5t-37 147.5q-8 54 -11.5 108t-3.5 110q0 46 2 92l4 92h156q-2 -38 -3.5 -75t-1.5 -74q0 -43 2 -85t7 -84q7 -57 19 -111.5t32 -107.5l52 123h124z" />
    <glyph glyph-name="uni3044" unicode="&#x3044;" 
d="M726 225l-190 485h212l192 -485h-214zM458 -27h-184q-48 68 -77.5 145t-46.5 161q-18 90 -23.5 182.5t-5.5 183.5q0 40 0.5 78t1.5 76h188q0 -15 -0.5 -31t-0.5 -33q0 -79 4.5 -168.5t16.5 -177.5q9 -63 22 -121t33 -106l60 135h146z" />
    <glyph glyph-name="uni3045" unicode="&#x3045;" 
d="M453 496l-234 158h268l235 -158h-269zM828 277q0 -30 -9 -58.5t-26 -51.5q-51 -67 -116 -112.5t-133 -81.5h-313q53 25 111 55t114 64.5t106.5 73.5t87.5 81q29 33 29 63q0 5 -2 15q-6 22 -29.5 35.5t-60.5 14.5h-30q-48 0 -99.5 -3.5t-103 -9.5t-101.5 -14.5t-95 -18.5
v85q91 20 186 32t192 12q19 0 37 -0.5t37 -1.5q42 -2 85.5 -10.5t77.5 -34.5q26 -20 39.5 -54t15.5 -69v-11v0z" />
    <glyph glyph-name="uni3046" unicode="&#x3046;" 
d="M447 611l-288 193h319l287 -193h-318zM900 358q0 -16 -3 -33q-8 -51 -37 -97t-64 -83q-22 -25 -52 -49.5t-63.5 -47.5t-69 -43.5t-70.5 -36.5h-361q56 28 121.5 62t130.5 74t126 84.5t108 93.5q52 55 52 98v9t-2 9q-8 26 -37.5 42.5t-80.5 18.5q-12 1 -24.5 1h-25.5
q-109 0 -227 -15.5t-230 -35.5v100q51 11 109.5 20.5t120 16.5t124 11.5t120.5 4.5q63 0 118 -6q42 -5 82 -15.5t72 -39.5q32 -28 47.5 -65t15.5 -78z" />
    <glyph glyph-name="uni3047" unicode="&#x3047;" 
d="M274 577v89l460 -41v-87zM840 -26h-179q-23 0 -44 7t-38 19q-36 27 -42 67q-3 23 -3 49q0 11 0.5 23t0.5 25t-9 13q-3 0 -7 -2.5t-6 -4.5l-160 -198h-213l331 412l-291 -7v89l645 20v-90l-138 -4l-107 -137q11 3 23 5.5t23 2.5q8 0 12 -1q26 -5 42 -21q21 -23 21 -62v-6
q-1 -9 -1 -19.5v-21.5v-21.5t2 -18.5q2 -14 15 -24.5t33 -10.5h142z" />
    <glyph glyph-name="uni3048" unicode="&#x3048;" 
d="M225 707v102l552 -45v-99zM912 -27h-259q-18 0 -37.5 9.5t-36.5 28.5q-14 17 -24 41t-10 53v98q0 8 -7.5 11.5t-15.5 3.5q-13 0 -18 -6l-198 -241h-252l409 503l-354 -9v99l782 21v-99l-176 -6l-138 -176q39 15 69 15q21 0 37 -6q26 -9 40.5 -30.5t14.5 -50.5v-96
q0 -65 64 -65h157z" />
    <glyph glyph-name="uni3049" unicode="&#x3049;" 
d="M698 424l-133 206h172l133 -206h-172zM849 172q0 -45 -16 -84t-51 -68q-25 -20 -55 -31t-63 -15q-6 -1 -13.5 -1h-16.5q-29 0 -63 4t-53 13v150q23 -4 44.5 -8t44.5 -4q16 0 31 3q25 5 39 21t16 36v9q0 24 -14.5 47t-46.5 36q-22 9 -47.5 11.5t-50.5 2.5h-26.5t-23.5 -1
v-187q0 -31 -19.5 -61t-47.5 -47q-18 -11 -40.5 -16.5t-45.5 -5.5q-31 0 -58 8q-38 12 -69 39t-42 66q-7 22 -7 50q0 30 8 59.5t22 52.5q25 42 64.5 73.5t80.5 51.5v44v63l-171 -7v91l171 7v85h154v-79l104 5v-90l-104 -5v-72q17 2 34 3t34 1q30 0 59.5 -4t57.5 -12
q45 -14 81.5 -39.5t61.5 -65.5q37 -58 37 -129zM330 248q-27 -17 -49 -42t-34 -54q-5 -13 -5 -27q0 -17 8 -35q6 -12 16.5 -20t24.5 -8q7 0 10 1q12 2 20.5 11t8.5 23v151z" />
    <glyph glyph-name="uni304A" unicode="&#x304a;" 
d="M736 521l-153 245h204l152 -245h-203zM917 211q0 -40 -9 -78t-29 -68q-16 -24 -38.5 -41t-48 -27.5t-51 -16.5t-47.5 -8q-33 -3 -66 -3q-26 0 -51.5 1.5t-51.5 3.5v188q22 -4 45.5 -6.5t46.5 -2.5h13.5t13.5 1q23 2 43 12t33 34q12 23 12 46q0 26 -14 47
q-15 24 -36.5 38.5t-47.5 19.5q-20 4 -42.5 5.5t-45.5 1.5q-17 0 -33 -0.5t-31 -1.5v-182q0 -42 -7 -76.5t-36 -67.5q-26 -31 -57.5 -43t-69.5 -16q-6 -1 -12.5 -1h-12.5q-39 0 -76.5 12t-66.5 39q-31 29 -46.5 68.5t-15.5 81.5v9q2 48 21 92.5t52 81.5q30 33 66.5 59
t74.5 42v138l-207 -10v96l207 11v108l186 2v-101l124 6v-97l-124 -7v-95q17 1 35 1.5t35 0.5q33 0 65 -2.5t63 -9.5q41 -9 78 -26t68 -45q74 -67 88 -167q3 -22 3 -47zM296 302q-25 -15 -47 -33.5t-39 -42.5q-12 -17 -19 -36t-7 -39t7 -38q8 -20 26 -34t38 -14q17 0 29 16.5
t12 36.5v184z" />
    <glyph glyph-name="uni304B" unicode="&#x304b;" 
d="M767 314l-144 417h189l144 -417h-189zM686 359q0 -68 -6 -139.5t-17 -128.5q-12 -58 -48 -88q-37 -31 -99 -31h-126l-41 97h71q21 0 33.5 12.5t16.5 35.5q13 72 20 146t7 150v22q0 48 -19 78t-49 33l-175 -570h-198l166 548q-32 -5 -63.5 -12t-59.5 -14v93
q14 5 34.5 10.5t42 11t42 9.5t35.5 6l55 175h199l-48 -159q28 -2 55 -6.5t52 -14.5q25 -11 45.5 -26.5t35.5 -38.5q20 -29 27.5 -61.5t9.5 -67.5q1 -17 1.5 -34t0.5 -36z" />
    <glyph glyph-name="uni304C" unicode="&#x304c;" 
d="M931 639l-53 137h75l53 -137h-75zM831 639l-50 137h72l52 -137h-74zM743 309l-162 422h192l163 -422h-193zM664 377q-1 -78 -8 -156.5t-24 -155.5q-12 -48 -41 -70q-18 -14 -43 -19t-56 -5h-113l-51 95h62q26 0 42 15.5t20 39.5q13 81 19.5 167.5t6.5 167.5
q0 29 -16.5 51.5t-39.5 31.5l-169 -568h-199l165 548q-30 -3 -62 -11.5t-57 -16.5v99q14 5 33 10t39.5 9.5l41 9t36.5 7.5l51 172h199l-47 -157q65 0 121 -39q25 -17 43.5 -40.5t29.5 -52.5q11 -28 14 -58t3 -62v-12v0z" />
    <glyph glyph-name="uni304D" unicode="&#x304d;" 
d="M694 483l140 -212l-175 -48q-38 15 -81.5 24t-88.5 9h-14.5t-14.5 -1q-34 -3 -57.5 -10t-38.5 -21q-14 -12 -14 -30q0 -19 18 -33q16 -12 45.5 -15.5t64.5 -5.5q11 -1 22 -1h23q50 0 104.5 4t105.5 9t93.5 11t67.5 10v-166q-82 -13 -172 -24t-180 -11h-22q-28 0 -65 3
t-74.5 9.5t-72.5 16.5t-60 25q-42 25 -63.5 64t-23.5 85v9q0 41 16 78.5t49 63.5q29 23 66.5 34t73.5 16q27 3 54 3q36 0 71 -4.5t67 -11.5l-63 98l-402 -42v93l345 34l-45 70l-279 -29v94l221 23l-64 98h216l48 -75l354 37v-94l-295 -33l42 -66l278 29v-93z" />
    <glyph glyph-name="uni304E" unicode="&#x304e;" 
d="M894 676l-61 118h91l66 -118h-96zM766 676l-63 118h93l61 -118h-91zM893 9q-90 -17 -183.5 -28.5t-188.5 -11.5q-39 0 -78 2.5t-77 7.5q-29 4 -58.5 12.5t-56 23t-48 35.5t-33.5 49q-16 38 -16 78q0 38 13.5 73t42.5 61q35 32 78.5 46t91.5 17q8 1 15 1h15
q39 0 77.5 -5.5t73.5 -13.5l-68 101l-402 -49v93l345 42l-46 70l-274 -31v93l215 26l-64 96l215 1l48 -73l188 22v-92l-131 -16l49 -72l256 31v-93l-200 -24l139 -207l-174 -58q-31 16 -68 25t-75 11h-17q-27 0 -53.5 -4t-50.5 -12q-17 -6 -29.5 -20t-12.5 -28q0 -4 1 -6
q5 -18 21.5 -28.5t49.5 -12.5q19 -2 37.5 -2h37.5q101 0 200 12t195 22v-164v0z" />
    <glyph glyph-name="uni304F" unicode="&#x304f;" 
d="M613 -29l-514 435l502 391h292l-504 -398l517 -428h-293z" />
    <glyph glyph-name="uni3050" unicode="&#x3050;" 
d="M749 405l-50 144h112l49 -144h-111zM617 -26l-518 426l501 400h292l-310 -251h81l48 -144h-108l-44 128l-173 -136l519 -423h-288z" />
    <glyph glyph-name="uni3051" unicode="&#x3051;" 
d="M803 510v-341l-137 -198h-236l177 257v282h-286v99h286v197h196v-197h130v-99h-130zM121 -29q-17 118 -27 233t-10 230q0 94 7 186t23 187h197q-12 -112 -20.5 -225.5t-8.5 -228.5q0 -97 8 -192.5t28 -189.5h-197z" />
    <glyph glyph-name="uni3052" unicode="&#x3052;" 
d="M926 656l-42 119h83l42 -119h-83zM785 506v-343l-140 -196h-231l178 254v285h-274v99h274v196h193v-26h70l44 -119h-85l-29 79v-130h145v-99h-145zM114 -33q-14 98 -21 206t-7 217q0 115 7 220.5t19 190.5h194q-11 -97 -18.5 -210t-7.5 -234q0 -99 6.5 -197.5
t21.5 -192.5h-194z" />
    <glyph glyph-name="uni3053" unicode="&#x3053;" 
d="M111 674v100h789v-100h-789zM909 21q-47 -6 -105 -11t-120.5 -8t-127.5 -5t-126 -2q-74 0 -136 3q-63 2 -104 24.5t-64 57.5q-29 46 -29 108q0 38 10 78q3 13 9.5 32t15.5 40t19.5 42t21.5 38h228q-26 -42 -51 -84.5t-36 -90.5q-2 -10 -2 -15q0 -17 11 -28.5t31 -12.5
q26 -2 51.5 -2h51.5q115 0 226.5 10.5t225.5 29.5v-204v0z" />
    <glyph glyph-name="uni3054" unicode="&#x3054;" 
d="M795 471l-57 146h108l57 -146h-108zM112 678l1 98h778v-98h-779zM653 471l-59 146h109l57 -146h-107zM909 24q-109 -10 -226 -18t-234 -8q-51 0 -100 1.5t-97 6.5q-47 5 -78 25t-49 51q-14 24 -21 52.5t-7 58.5q0 21 3 42q3 20 10 44t16 48t19 47t19 41h233
q-28 -41 -50.5 -83.5t-36.5 -89.5q-1 -4 -1.5 -7t-0.5 -6q0 -17 13 -27.5t32 -11.5q22 -1 43 -1h43q120 0 235.5 8.5t234.5 24.5v-198v0z" />
    <glyph glyph-name="uni3055" unicode="&#x3055;" 
d="M927 627l-280 -26l178 -278l-185 -55q-49 27 -97.5 42.5t-102.5 15.5h-13t-13 -1q-29 -2 -55 -12.5t-41 -36.5q-9 -16 -9 -33q0 -28 21 -46q18 -16 43.5 -24.5t46.5 -10.5q33 -3 74 -3q48 0 101.5 4t107 10.5t103.5 14.5t90 16v-187q-37 -8 -85 -15.5t-102 -12.5t-110 -8
t-109 -3q-41 0 -77.5 1.5t-66.5 6.5q-58 8 -109 31t-86 73q-20 28 -29 60t-9 67q0 30 8 64q7 30 24.5 56t41 46.5t51.5 35t56 20.5q41 9 80 9t77 -6.5t76 -16.5l-102 161l-339 -26v100l277 23l-77 118l232 -1l67 -101l343 27z" />
    <glyph glyph-name="uni3056" unicode="&#x3056;" 
d="M860 717l-71 106h108l71 -106h-108zM714 717l-74 106h110l73 -106h-109zM657 583l169 -267l-186 -52q-42 26 -91.5 41t-99.5 15h-12.5t-12.5 -1q-26 -2 -51 -7t-42 -24q-21 -24 -21 -50q0 -20 14 -40q14 -19 41.5 -26t50.5 -10q16 -2 35 -3t40 -1q44 0 95.5 4t103 10
t99.5 13.5t85 14.5v-184q-96 -20 -192.5 -32t-199.5 -12h-43.5t-44.5 2q-38 2 -75 10t-69.5 24t-59.5 41t-47 61q-26 49 -26 106q0 60 29 112q23 41 60 68t82 40q21 6 43 8.5t45 2.5q40 0 79.5 -7t74.5 -20l-94 147l-351 -24v97l290 20l-85 140h225l82 -125l302 22v-97z" />
    </font>
</defs>
</svg>
