<?xml version="1.0" standalone="no"?>
<!DOCTYPE svg PUBLIC "-//W3C//DTD SVG 1.1//EN" "http://www.w3.org/Graphics/SVG/1.1/DTD/svg11.dtd" >
<svg xmlns="http://www.w3.org/2000/svg" xmlns:xlink="http://www.w3.org/1999/xlink" version="1.1">
<metadata></metadata>
<defs>
<font id="fontuploaded_file" horiz-adv-x="1331" >
<font-face units-per-em="2048" ascent="1638" descent="-410" />
<missing-glyph horiz-adv-x="500" />
<glyph horiz-adv-x="0" />
<glyph unicode="&#xd;" />
<glyph unicode=" " />
<glyph unicode="!" d="M545 0v236h239v-236h-239zM582 426v1008h168v-1008h-168z" />
<glyph unicode="&#x22;" d="M477 975v459h129v-459h-129zM727 975v459h129v-459h-129z" />
<glyph unicode="#" d="M117 612v123h272l21 279h-228v121h234l22 299h131l-20 -299h272l21 299h133l-21 -299h258v-121h-266l-18 -279h219v-123h-227l-19 -295h-133l18 295h-272l-18 -295h-134l19 295h-264zM522 735h273l18 279h-272z" />
<glyph unicode="$" d="M106 494l177 34q16 -90 38 -154q24 -69 61 -118q38 -50 96 -80q59 -30 145 -41q0 184 1 275t1 274q-229 61 -341 157q-112 95 -112 242q0 75 30 142q30 68 88 120q57 51 143 83q85 31 194 36v123h90v-127q82 -7 163 -36q74 -27 133 -75q57 -46 97 -118q37 -66 53 -162 l-168 -37q-13 56 -31 98q-19 44 -53 81q-33 36 -80 59q-45 22 -116 28v-471q154 -46 246 -86q98 -43 156 -95q59 -53 83 -116q25 -66 25 -145q0 -87 -33 -164q-33 -76 -97 -131t-160 -87q-98 -33 -222 -34v-170h-90v174q-232 22 -361 154q-127 130 -156 367zM344 1083 q0 -39 13 -71q14 -35 46 -61q36 -29 87 -52q54 -24 135 -47v451q-70 -1 -127 -21q-51 -17 -87 -49q-33 -29 -51 -69q-16 -36 -16 -81zM713 129q91 0 156 21q67 22 106 55q40 34 60 82t20 100q0 47 -15 84q-16 39 -51 69q-38 32 -103 60q-69 30 -171 59q0 -177 -1 -265 t-1 -265z" />
<glyph unicode="%" d="M164 1368q0 100 30 176q30 77 76 126q48 51 109 75t123 24t123 -24q58 -23 109 -75q48 -50 78 -126t30 -176q0 -96 -24 -175q-24 -78 -67 -135q-43 -56 -108 -87t-141 -31q-158 0 -248 113t-90 315zM250 557l762 442l69 -122l-762 -443zM305 1366q0 -136 49 -216 q49 -81 148 -81q98 0 148 81q50 82 50 216q0 139 -53 206q-53 66 -145 66t-145 -66q-52 -65 -52 -206zM487 100q0 100 30 176t77 126q49 52 108 75q64 25 123 25t123 -25q60 -23 110 -75q48 -50 78 -126q29 -74 29 -176q0 -99 -23 -175t-68 -135q-43 -57 -107 -87 q-65 -31 -142 -31q-157 0 -247 113q-91 114 -91 315zM629 98q0 -136 49 -216q50 -81 147 -81q99 0 149 81q50 82 50 216q0 139 -53 206t-146 67q-91 0 -144 -67q-52 -65 -52 -206z" />
<glyph unicode="&#x26;" d="M133 383q0 57 13 115q13 56 44 117q29 56 80 115q49 57 121 106q-48 59 -81 122q-34 65 -34 164q0 68 26 132q25 62 72 109q48 48 111 74q66 27 146 27q141 0 236 -81q95 -82 122 -236l-151 -33q-16 87 -63 143t-142 56q-92 0 -140 -56q-49 -57 -49 -133q0 -65 28 -113 q25 -43 75 -93l393 -381v266h152v-389l170 -148l-101 -123l-112 99q-17 -52 -54 -101q-39 -51 -93 -87q-56 -37 -131 -61t-169 -24q-92 0 -176 24t-150 75q-64 50 -104 129q-39 78 -39 186zM297 393q0 -68 25 -120t67 -82q45 -33 98 -47q55 -15 117 -15q129 0 211 61 t103 158l-414 389q-103 -62 -155 -150t-52 -194z" />
<glyph unicode="'" d="M600 975v459h129v-459h-129z" />
<glyph unicode="(" d="M408 610q0 224 55 398q56 178 127 303t137 202q66 76 88 97l109 -88q-68 -79 -131 -164q-64 -87 -112 -195q-49 -110 -77 -243q-29 -137 -29 -308q0 -143 31 -281q30 -132 80 -251t112 -216q65 -102 126 -179l-109 -88q-16 16 -50 57q-38 46 -81 109q-40 58 -94 157 q-45 82 -89 199q-40 106 -67 232q-26 120 -26 259z" />
<glyph unicode=")" d="M408 -315l108 -88q16 16 50 57q38 46 81 109q40 58 94 157q45 82 89 199q40 106 67 232q27 125 27 259q0 221 -56 398q-56 178 -127 303t-137 202q-66 76 -88 97l-108 -88q68 -79 131 -164q61 -83 111 -195q49 -110 77 -243q29 -137 29 -308q0 -143 -31 -281 q-30 -132 -80 -251q-52 -124 -111 -216q-65 -102 -126 -179z" />
<glyph unicode="*" d="M287 1163l71 115l240 -139v295h135v-295l242 139l69 -117l-249 -147l190 -228l-104 -92l-215 267l-213 -267l-105 92l189 228z" />
<glyph unicode="+" d="M184 711v135h408v414h147v-414h408v-135h-408v-465h-147v465h-408z" />
<glyph unicode="," d="M545 0v242h241v-211q0 -51 -12 -94q-12 -42 -41 -76q-29 -33 -75 -54q-43 -19 -113 -24v92q60 10 79 43q19 32 19 82h-98z" />
<glyph unicode="-" d="M328 623v151h673v-151h-673z" />
<glyph unicode="." d="M545 0v242h241v-242h-241z" />
<glyph unicode="/" d="M238 -31l737 1557l137 -62l-737 -1552z" />
<glyph unicode="0" d="M127 729q0 186 46 323q47 140 121 230q76 93 172 137q98 45 200 45q100 0 199 -47q96 -46 172 -140q74 -92 121 -233q46 -138 46 -323q0 -208 -46 -349q-47 -144 -121 -233q-75 -90 -172 -130q-96 -40 -199 -40q-104 0 -202 42q-97 42 -172 132q-74 89 -120 235 q-45 144 -45 351zM307 729q0 -47 3 -89q4 -53 7 -81l662 483q-47 134 -128 197q-82 64 -185 64q-79 0 -144 -34t-112 -105q-49 -74 -75 -178q-28 -112 -28 -257zM348 410q44 -142 128 -212q82 -69 190 -69q74 0 141 35q65 34 114 107q47 71 75 185q28 115 28 265 q0 92 -12 172z" />
<glyph unicode="1" d="M174 0v154h422v1085l-393 -248v185l413 258h138v-1280h403v-154h-983z" />
<glyph unicode="2" d="M195 995q5 113 42 200t102 147q68 63 153 92q88 30 190 30q115 0 195 -33q85 -35 141 -91q59 -59 86 -132q29 -78 29 -159q0 -106 -36 -178q-37 -74 -93 -127q-54 -51 -130 -94q-19 -11 -141 -77q-24 -13 -63.5 -34.5t-48.5 -26.5q-53 -29 -86 -50q-43 -28 -65 -47 q-28 -25 -46 -55q-26 -43 -33 -82q-8 -46 -8 -108h754v-170h-934v129q0 103 16 174q16 73 57 133q47 71 124 124q84 57 196 116q154 86 163 91q72 41 117 82q44 40 69 91q24 50 24 117q0 43 -17 91q-16 46 -51 82q-34 35 -90 58q-57 23 -133 23q-140 0 -226 -86t-94 -246z " />
<glyph unicode="3" d="M166 471l166 33q24 -192 104 -287q79 -94 246 -94q84 0 142 23q62 25 100 63q39 39 57 89t18 105q0 154 -79 223q-78 68 -234 68h-102v148h43q23 0 83 5q55 5 107 27q53 22 93 69q40 46 40 128q0 114 -71 176q-73 64 -195 64q-124 0 -197 -73q-71 -71 -88 -200l-159 29 q8 91 45 164q38 75 95 126q60 54 136 80q78 27 170 27q90 0 168 -24q75 -23 136 -73q58 -47 91 -120q33 -72 33 -166q0 -65 -21 -116q-19 -47 -54 -88q-32 -38 -71 -61q-42 -25 -77 -32v-4q53 -12 102 -42q50 -30 87 -76q39 -48 61 -113t22 -150q0 -90 -35 -171 q-34 -78 -98 -136q-63 -57 -151 -90q-89 -33 -195 -33q-100 0 -190 29q-88 28 -156 89q-67 60 -113 156q-44 92 -59 228z" />
<glyph unicode="4" d="M102 332v153l650 949h258v-947h178v-155h-178v-332h-164v332h-744zM285 487h561v818h-4z" />
<glyph unicode="5" d="M160 367l162 57q16 -62 45 -117q28 -54 70 -95q40 -39 100 -64q55 -23 135 -23q153 0 243 94q91 96 91 262q0 160 -91 249t-235 89q-64 0 -115 -15q-48 -14 -90 -40q-36 -22 -67 -55q-29 -31 -48 -62l-151 66l129 721h706v-156h-577l-82 -453l2 -2q39 51 122 93t206 42 q95 0 174 -33q82 -34 145 -96q64 -62 101 -150q36 -85 36 -200q0 -120 -37 -213q-37 -94 -106 -161q-68 -67 -159 -101q-93 -35 -197 -35q-105 0 -189 30q-82 29 -148 83q-65 53 -109 126q-43 71 -66 159z" />
<glyph unicode="6" d="M131 694q0 170 42 313q41 139 116 243q72 100 176 158q100 56 223 56q100 0 177 -30q75 -30 130 -81q52 -49 86 -117q31 -62 47 -136l-155 -41q-16 55 -37 99q-22 45 -57 80q-32 32 -83 53q-49 20 -112 20q-71 0 -138 -35t-120 -109t-86 -185t-33 -265l2 -2q6 18 37 62 q26 38 79 79q50 40 122 68q71 28 170 28t183 -32q89 -34 154 -96q66 -63 105 -151q39 -89 39 -202q0 -120 -38 -214t-105 -158q-66 -63 -158 -97q-90 -33 -195 -33q-106 0 -208 39q-104 40 -184 126t-130 225q-49 137 -49 335zM354 489q0 -79 26 -146q26 -68 72 -115 q47 -49 110 -75q67 -28 140 -28q161 0 246 94q86 95 86 250q0 154 -90 247t-248 93q-74 0 -137 -27q-65 -28 -108 -71q-45 -45 -71 -103t-26 -119z" />
<glyph unicode="7" d="M248 1276v158h903v-177l-678 -1257h-184l692 1272v4h-733z" />
<glyph unicode="8" d="M160 406q0 74 23 132q23 59 62 108q37 47 86 81q47 32 97 49v4q-73 30 -132 110q-58 79 -58 206q0 71 28 136q29 68 84 118q56 52 135 83q78 31 183 31q104 0 182 -31q79 -31 135 -83q55 -50 84 -118q29 -67 29 -136q0 -62 -17 -115q-17 -51 -43 -91q-28 -42 -61 -68 t-70 -42v-4q53 -19 100 -51q46 -32 85 -80q36 -45 58 -107q21 -60 21 -132q0 -110 -36 -188q-37 -80 -105 -136q-67 -55 -160 -84t-202 -29t-204 29q-94 29 -161 84q-68 56 -105 136q-38 82 -38 188zM334 412q0 -124 87 -203q88 -80 247 -80t245 80t86 203q0 64 -24 116 q-24 53 -69 93q-41 37 -104 59q-57 20 -134 20t-134 -20q-63 -22 -106 -58q-45 -38 -70 -92q-24 -52 -24 -118zM401 1079q0 -102 72 -171q71 -68 195 -68q121 0 192 68q72 69 72 171q0 42 -16 88q-14 42 -47 76q-30 32 -82 52q-51 20 -119 20q-69 0 -120 -20t-83 -52 q-33 -33 -48 -76q-16 -46 -16 -88z" />
<glyph unicode="9" d="M156 979q0 113 39 202q40 90 103 152q65 63 151 98q82 33 182 33q118 0 218 -44q99 -44 172 -136t113 -233q40 -139 40 -336q0 -208 -40 -349q-41 -144 -109 -231t-161 -127q-92 -39 -196 -39q-184 0 -300 101t-155 260l158 49q11 -47 35 -96t58 -82q39 -37 87 -57 q51 -21 119 -21q163 0 251 140q90 143 91 448h-4q-6 -19 -30 -56q-21 -33 -68 -72q-46 -38 -112 -64q-69 -27 -165 -27q-105 0 -188 33q-85 34 -151 98q-63 61 -101 153q-37 89 -37 203zM319 979q0 -153 89 -245q88 -91 235 -91q69 0 131 25q61 24 102 67q40 41 65 104 q24 60 24 132q0 69 -25 133q-22 57 -69 107q-43 46 -105 73t-135 27q-65 0 -123 -23q-59 -23 -99 -65q-42 -43 -66 -105t-24 -139z" />
<glyph unicode=":" d="M545 0v242h241v-242h-241zM545 844v241h241v-241h-241z" />
<glyph unicode=";" d="M545 0v242h241v-211q0 -51 -12 -94q-12 -42 -41 -76q-29 -33 -75 -54q-43 -19 -113 -24v92q60 10 79 43q19 32 19 82h-98zM545 844v241h241v-241h-241z" />
<glyph unicode="&#x3c;" d="M227 649l2 144l799 477l76 -123l-715 -426l715 -432l-78 -121z" />
<glyph unicode="=" d="M190 510v143h949v-143h-949zM190 854v143h949v-143h-949z" />
<glyph unicode="&#x3e;" d="M125 289l78 -121l798 481l-2 144l-798 477l-76 -123l715 -426z" />
<glyph unicode="?" d="M219 1014q1 91 33 178q29 81 89 142t143 95q87 35 200 35q95 0 172 -28q74 -27 134 -79q55 -48 88 -121q32 -72 32 -153q0 -76 -16 -127q-17 -55 -46 -94q-31 -42 -71 -76q-30 -25 -90 -71q-76 -60 -88 -69q-36 -26 -62 -52q-23 -23 -36 -49q-11 -22 -11 -60v-96h-162 v113q0 31 9 67q8 32 27 60q21 31 52 59q39 35 82 68q17 13 48.5 35.5t45.5 33.5q43 33 76 70q34 39 53 81t19 101q0 41 -13 80q-13 40 -44 75q-29 33 -80 55q-52 22 -123 22q-81 0 -139 -28q-52 -25 -89 -72q-34 -43 -49 -100q-13 -49 -18 -112zM496 0v236h239v-236h-239z " />
<glyph unicode="@" d="M131 709q0 162 37 297q38 138 107 238t174 160q101 58 233 58q129 0 226 -57q98 -57 162 -156q64 -98 97 -232t33 -288q0 -139 -14 -217q-15 -87 -41 -132q-28 -49 -65 -67q-38 -18 -83 -18q-60 0 -101 26q-38 24 -60 66h-5q-22 -38 -75 -65q-52 -27 -123 -27 q-111 0 -183 63q-73 64 -73 174q0 96 54 155q53 58 198 97q91 26 133 49q37 21 37 68t-30 83t-101 36q-59 0 -96 -35q-35 -34 -52 -113l-112 27q11 108 82 171q72 63 174 63q110 0 182 -63t72 -191v-390q0 -44 18 -65t65 -21q21 0 39 16q16 15 28 52q11 36 16 99q6 84 6 155 q0 131 -24 247q-25 118 -73 202q-50 86 -127 135t-184 49q-108 0 -190 -49t-138 -138q-57 -90 -83 -206q-27 -119 -27 -256q0 -138 25 -251q25 -116 78 -201q52 -85 132 -133q79 -48 191 -48q92 0 169 27q72 25 117 57l56 -92q-44 -34 -134 -66q-91 -33 -208 -33 q-136 0 -236 57q-103 58 -168 154q-66 97 -101 234q-34 133 -34 295zM502 535q0 -72 48 -99q46 -26 103 -26q55 0 100 36q46 37 46 115v193h-4q-6 -14 -31 -30q-25 -15 -94 -38q-55 -18 -84 -31q-37 -17 -51 -31q-19 -19 -26 -39t-7 -50z" />
<glyph unicode="A" d="M100 0l475 1434h179l475 -1434h-178l-97 281h-587l-88 -281h-179zM414 428h491l-239 778h-4z" />
<glyph unicode="B" d="M199 0v1434h495q94 0 175 -29q79 -29 135 -78q55 -49 85 -117q29 -65 29 -147q0 -117 -55 -185q-55 -69 -129 -102v-6q44 -15 85 -43t76 -72q34 -43 55 -100t21 -131q0 -98 -29 -175q-29 -78 -93 -134q-62 -54 -160 -85q-96 -30 -230 -30h-460zM375 156h262q174 0 267 60 t93 208q0 139 -89 196q-87 56 -267 56h-266v-520zM375 827h289q145 0 213 59q67 58 67 167q0 111 -75 168t-207 57h-287v-451z" />
<glyph unicode="C" d="M158 729q0 185 45 323q46 140 121 230q78 93 176 137q100 45 209 45q103 0 187 -37q86 -38 150 -103q62 -64 106 -159q42 -91 54 -200l-172 -31q-11 77 -34 140q-26 71 -62 117q-41 52 -96 81q-59 31 -133 31q-79 0 -146 -34q-67 -35 -117 -105q-49 -70 -76 -178 q-28 -112 -28 -257q0 -153 27 -266q28 -116 74 -188q47 -73 116 -110q67 -36 150 -36q79 0 138 32q58 31 97 87q41 58 61 129q21 74 27 155l178 -22q-7 -121 -47 -223t-104 -171q-67 -72 -155 -109q-90 -38 -195 -38q-109 0 -208 42q-100 42 -176 132q-77 90 -122 235 q-45 144 -45 351z" />
<glyph unicode="D" d="M197 0v1434h393q118 0 231 -42q114 -43 200 -130q87 -89 140 -223q53 -135 53 -320q0 -209 -55 -344q-56 -137 -144 -221q-89 -84 -204 -119q-116 -35 -233 -35h-381zM373 156h190q107 0 194 30q85 29 147 99q60 68 93 175q33 108 33 259q0 135 -32 242q-32 105 -91 175 q-60 70 -143 106q-84 36 -189 36h-202v-1122z" />
<glyph unicode="E" d="M270 0v1434h848v-156h-672v-465h615v-151h-615v-506h672v-156h-848z" />
<glyph unicode="F" d="M287 0v1434h831v-156h-653v-518h596v-150h-596v-610h-178z" />
<glyph unicode="G" d="M150 731q0 187 46 322q47 139 123 228q77 90 180 137q101 46 210 46q95 0 176 -34t145 -98q65 -65 107 -149t59 -192l-170 -30q-12 69 -36 132q-24 62 -62 108q-40 47 -93 74q-56 28 -126 28q-79 0 -147 -34q-69 -35 -120 -105q-52 -72 -80 -178t-28 -255q0 -155 28 -266 q28 -109 79 -187q49 -74 119 -112q68 -37 149 -37q151 0 242 111q87 106 87 291v16h-360v155h530v-139q0 -140 -38 -252q-37 -109 -105 -186q-66 -75 -159 -116q-90 -40 -197 -40q-110 0 -212 42t-179 134q-74 89 -122 237q-46 142 -46 349z" />
<glyph unicode="H" d="M190 0v1434h177v-617h600v617h174v-1434h-174v666h-600v-666h-177z" />
<glyph unicode="I" d="M236 0v154h342v1126h-342v154h860v-154h-344v-1126h344v-154h-860z" />
<glyph unicode="J" d="M213 397l166 43q16 -70 34 -124t50 -98q29 -40 77 -65q46 -24 113 -24q136 0 196 81t60 267v803h-544v154h716v-967q0 -255 -111 -377q-111 -121 -308 -121q-100 0 -176 33q-78 34 -132 89q-56 57 -91 135q-34 76 -50 171z" />
<glyph unicode="K" d="M229 0v1434h174v-701h5l581 701h213l-524 -627l582 -807h-209l-488 678h-4l-156 -182v-496h-174z" />
<glyph unicode="L" d="M340 0v1434h176v-1278h678v-156h-854z" />
<glyph unicode="M" d="M180 0v1434h230l254 -811h4l254 811h229v-1434h-156v1204h-4l-299 -925h-53l-299 925h-4v-1204h-156z" />
<glyph unicode="N" d="M207 0v1434h178l571 -1143h5v1143h163v-1434h-174l-575 1143h-4v-1143h-164z" />
<glyph unicode="O" d="M123 729q0 186 46 323q47 139 123 230q77 92 174 137q98 45 200 45q100 0 199 -47q97 -46 174 -140q76 -93 123 -233q46 -138 46 -323q0 -208 -46 -349q-47 -143 -123 -233q-76 -89 -174 -130q-96 -40 -199 -40q-104 0 -203 42q-97 41 -173 132q-74 88 -121 235 q-46 142 -46 351zM307 729q0 -149 28 -266q26 -109 75 -188q46 -74 112 -110t144 -36q74 0 141 35q65 34 114 107q47 71 75 185q28 115 28 265q0 145 -28 259q-26 107 -74 181q-46 72 -114 107q-67 35 -142 35q-79 0 -144 -34t-112 -105q-49 -74 -75 -178q-28 -112 -28 -257 z" />
<glyph unicode="P" d="M238 0v1434h493q104 0 194 -29q89 -29 153 -84q65 -56 101 -138q35 -80 35 -192q0 -107 -34 -188q-33 -79 -99 -137q-63 -56 -151 -84q-90 -29 -195 -29h-323v-553h-174zM412 709h313q64 0 119 16q56 16 100 51q43 34 69 88q25 51 25 127q0 80 -26 132q-27 54 -71 89 q-46 37 -101 51q-57 15 -119 15h-309v-569z" />
<glyph unicode="Q" d="M123 729q0 186 46 323q47 139 123 230q77 92 174 137q98 45 200 45q100 0 199 -47q97 -46 174 -140q76 -93 123 -233q46 -138 46 -323q0 -172 -32 -293q-33 -124 -86 -215l151 -152l-98 -94l-139 137q-71 -71 -159 -103t-179 -32q-104 0 -203 42q-97 41 -173 132 q-74 88 -121 235q-46 142 -46 351zM307 729q0 -149 28 -266q26 -109 75 -188q46 -74 112 -110t144 -36q60 0 117 24q58 24 102 70l-342 342l98 94l317 -317q31 72 49 163q17 88 17 216q0 145 -28 259q-26 107 -74 181q-46 72 -114 107q-67 35 -142 35q-79 0 -144 -34 t-112 -105q-49 -74 -75 -178q-28 -112 -28 -257z" />
<glyph unicode="R" d="M238 0v1434h454q110 0 198 -27q90 -28 152 -79q66 -55 99 -133q35 -82 35 -187q0 -91 -27 -160q-28 -71 -75 -121q-50 -53 -113 -83q-65 -31 -142 -46l320 -598h-191l-311 586h-225v-586h-174zM412 737h270q61 0 122 14q58 13 102 45q45 33 70 84t25 128q0 76 -24 128 t-68 84t-102 45t-129 13h-266v-541z" />
<glyph unicode="S" d="M143 494l181 34q15 -97 39 -173q24 -75 68 -125q43 -49 111 -75q67 -26 165 -26q75 0 132 21t91 55q33 33 52 80q17 43 17 92q0 57 -11 94q-12 42 -49 77t-110 72q-62 31 -190 78q-104 38 -187 78q-86 41 -135 85q-54 48 -80 103q-28 59 -28 134q0 76 31 144 q30 65 88 116q57 49 137 78q78 28 178 28q89 0 167 -23q81 -24 145 -73q67 -51 109 -124q44 -76 56 -175l-170 -37q-11 61 -31 109t-59 85q-36 34 -90 56q-52 21 -127 21q-64 0 -115 -17q-49 -16 -81 -44q-32 -27 -47 -65q-15 -37 -15 -79q0 -36 10 -65t45 -59 q34 -29 101 -63q65 -33 176 -73q129 -46 216 -90q87 -43 140 -95t77 -114q24 -63 24 -154q0 -81 -31 -160q-28 -73 -91 -132q-57 -54 -149 -90q-87 -34 -203 -34q-252 0 -389 134q-138 135 -168 391z" />
<glyph unicode="T" d="M96 1278v156h1137v-156h-481v-1278h-172v1278h-484z" />
<glyph unicode="U" d="M152 467v967h174v-955q0 -174 85 -262t253 -88q170 0 256 89t86 257v959h172v-967q0 -248 -138 -374q-136 -124 -376 -124t-376 124t-136 374z" />
<glyph unicode="V" d="M100 1434h187l381 -1227h4l372 1227h185l-455 -1434h-209z" />
<glyph unicode="W" d="M117 1434h174l112 -1184h5l204 835h109l203 -835h4l112 1184h174l-161 -1434h-199l-186 758h-4l-185 -758h-200z" />
<glyph unicode="X" d="M119 0l442 748l-405 686h194l320 -566h4l307 566h190l-397 -701l436 -733h-192l-352 612h-4l-351 -612h-192z" />
<glyph unicode="Y" d="M106 1434h193l365 -666h4l364 666h193l-473 -830v-604h-172v604z" />
<glyph unicode="Z" d="M158 0v139l803 1135v4h-766v156h979v-140l-805 -1132v-4h788v-158h-999z" />
<glyph unicode="[" d="M408 -373v1868h516v-141h-365v-1585h365v-142h-516z" />
<glyph unicode="\" d="M217 1462l137 64l738 -1557l-138 -59z" />
<glyph unicode="]" d="M408 -231v-142h516v1868h-516v-141h364v-1585h-364z" />
<glyph unicode="^" d="M260 666l354 768h101l354 -768h-154l-249 571l-252 -571h-154z" />
<glyph unicode="_" d="M152 -143h1028v-140h-1028v140z" />
<glyph unicode="`" d="M481 1466h207l160 -247h-146z" />
<glyph unicode="a" d="M236 279q0 69 20 119t65 92q43 40 114 72q74 33 169 56q76 19 131 36q63 20 98 38q40 21 61 48t21 69q0 66 -59 112t-168 46q-61 0 -109 -17t-77 -46q-33 -33 -49 -68q-19 -41 -29 -84l-156 45q12 67 45 126q32 57 85 101q54 45 124 68q72 24 160 24q91 0 164 -23 q74 -23 131 -68q56 -44 86 -107q31 -65 31 -144v-774h-152v119h-4q-11 -19 -38 -46q-24 -24 -66 -49q-40 -24 -98 -39q-61 -16 -130 -16q-94 0 -166 25q-70 24 -114 67q-46 45 -68 100q-22 56 -22 118zM403 289q0 -72 48 -122q46 -48 167 -48q79 0 136 18q56 18 96 50 q39 31 57 74q19 44 19 87v270h-4q-5 -10 -19 -24t-42 -28q-35 -18 -82 -35q-54 -20 -136 -42q-86 -24 -120 -40q-41 -19 -72 -46q-26 -23 -37 -53t-11 -61z" />
<glyph unicode="b" d="M254 0v1495h168v-514h4q38 47 116 92q74 43 185 43q99 0 187 -41q87 -41 152 -116q64 -74 100 -180q36 -105 36 -236q0 -134 -34 -237q-35 -108 -96 -180q-65 -77 -150 -116q-90 -41 -195 -41q-61 0 -112 14q-56 15 -90 33q-40 21 -69 44q-31 25 -46 44h-4v-104h-152z M422 360q0 -49 20 -90t58 -76t88 -54t112 -19q165 0 247 111q83 112 83 311q0 198 -83 310t-247 112q-64 0 -119 -25q-52 -24 -87 -62q-37 -40 -54 -86q-18 -48 -18 -96v-336z" />
<glyph unicode="c" d="M229 543q0 136 40 241q41 108 108 181q66 72 158 112q90 39 192 39q88 0 164 -30q78 -30 134 -81q58 -52 96 -125t50 -161l-157 -33q-11 54 -32 104q-21 49 -56 89q-33 37 -84 62q-50 24 -115 24q-143 0 -235 -109q-93 -110 -93 -313q0 -201 88 -311q89 -111 242 -111 q67 0 116 25q50 26 86 68t57 95q23 57 30 107l162 -33q-12 -92 -52 -171q-41 -80 -98 -130q-61 -54 -136 -83q-76 -30 -167 -30q-105 0 -198 38q-89 37 -157 112q-68 76 -105 180q-38 108 -38 244z" />
<glyph unicode="d" d="M168 543q0 134 37 239q39 110 101 181q63 71 152 113q86 40 185 40q111 0 185 -43q78 -45 116 -92h4v514h168v-1495h-151v104h-4q-14 -17 -47 -44q-29 -23 -69 -44q-34 -18 -90 -33q-51 -14 -112 -14q-108 0 -196 41q-85 39 -149 116q-61 72 -96 180q-34 103 -34 237z M340 543q0 -199 83 -311q83 -111 247 -111q62 0 112 19t88 54t58 76t20 90v336q0 48 -18 96t-53 86t-87 62q-55 25 -120 25q-164 0 -247 -112t-83 -310z" />
<glyph unicode="e" d="M170 543q0 129 38 237q37 106 104 182q64 72 158 114q90 40 200 40q106 0 196 -39q91 -39 156 -112q63 -70 102 -181q37 -105 37 -241v-49h-819q0 -76 20 -140q21 -66 62 -120q40 -52 103 -82q65 -31 147 -31q84 0 137 23q56 24 91 58q38 37 57 70q6 11 18.5 32.5 t17.5 31.5l138 -90q-29 -56 -68 -104q-43 -52 -97 -88q-55 -36 -129 -61q-72 -24 -161 -24q-110 0 -202 40q-95 41 -161 115q-67 74 -106 180q-39 105 -39 239zM346 627h645q-2 61 -19 119q-18 61 -56 109q-38 49 -98 79q-62 31 -148 31q-89 0 -150 -34q-62 -35 -99 -85 q-38 -52 -56 -111q-19 -63 -19 -108z" />
<glyph unicode="f" d="M233 936v149h342v166q0 72 19 121q19 48 50 75q32 27 76 38q41 10 97 10h221v-149h-190q-63 0 -85 -25t-22 -102v-134h396v-149h-394v-936h-168v936h-342z" />
<glyph unicode="g" d="M162 543q0 131 38 239t102 181q63 72 153 113q87 40 186 40q105 0 180 -37q76 -37 125 -98h4v104h166v-1101q0 -238 -119 -357t-319 -119q-85 0 -157 23q-74 24 -124 62q-53 41 -91 94q-36 51 -58 116l145 76q14 -41 36 -83q21 -40 54 -70q37 -34 79 -50q46 -18 112 -18 q133 0 204 77q70 76 70 214v145h-4q-39 -45 -108 -84q-73 -41 -193 -41q-107 0 -194 40q-89 41 -152 114t-99 180t-36 240zM334 543q0 -201 85 -311q85 -111 249 -111q62 0 112 19q51 19 89 53q39 35 59 74q20 40 20 89v344q0 46 -18 93t-54 86q-34 37 -89 62 q-53 24 -119 24q-162 0 -248 -112t-86 -310z" />
<glyph unicode="h" d="M246 0v1495h168v-518h4q43 57 131 99q84 40 186 40q86 0 155 -25q70 -25 123 -77q51 -50 82 -128q29 -74 29 -177v-709h-168v664q0 138 -59 218q-60 81 -192 81q-135 0 -213 -78t-78 -203v-682h-168z" />
<glyph unicode="i" d="M256 0v143h377v799h-367v143h533v-942h358v-143h-901zM621 1305v190h192v-190h-192z" />
<glyph unicode="j" d="M291 -256l106 119q3 -3 31 -34q17 -19 44 -36q27 -18 57 -29q31 -12 71 -12q78 0 128 45t50 156v983h-416v149h584v-1132q0 -94 -28 -159q-27 -64 -76 -109q-45 -42 -111 -64q-60 -20 -131 -20q-66 0 -115 16q-50 16 -91 39q-37 20 -65 47q-26 24 -38 41zM743 1305v190 h191v-190h-191z" />
<glyph unicode="k" d="M297 0v1495h168v-907h4l457 497h223l-397 -430l446 -655h-203l-368 551h-4l-158 -174v-377h-168z" />
<glyph unicode="l" d="M270 0v150h363v1196h-352v149h520v-1345h370v-150h-901z" />
<glyph unicode="m" d="M209 0v1085h151v-104h5q21 60 67 97q47 38 107 38q45 0 77 -13q34 -14 56 -36q24 -24 38 -51q15 -29 23 -60h4q11 29 29 58q18 28 45 51q26 22 61 37q32 14 80 14q72 0 118 -26q50 -28 76 -76q28 -52 40 -119q12 -69 12 -156v-739h-156v688q0 138 -22 205q-23 70 -98 70 q-78 0 -110 -69q-32 -70 -32 -192v-702h-149v688q0 136 -24 205q-24 70 -101 70q-38 0 -66 -22q-25 -19 -44 -56q-16 -30 -24 -83q-7 -45 -7 -100v-702h-156z" />
<glyph unicode="n" d="M238 0v1085h159v-104h4q43 57 126 96t180 39q176 0 282 -106q107 -107 107 -297v-713h-168v659q0 147 -59 226q-59 78 -187 78q-124 0 -201 -71q-75 -69 -75 -200v-692h-168z" />
<glyph unicode="o" d="M172 543q0 137 41 245t110 180q70 74 158 110q91 38 189 38q95 0 185 -38q89 -38 157 -110q65 -69 107 -180q40 -105 40 -245q0 -138 -38 -246q-37 -106 -104 -179t-156 -111q-90 -38 -191 -38q-104 0 -195 38q-89 37 -158 111q-66 71 -106 179q-39 107 -39 246zM344 543 q0 -104 26 -185q26 -80 69 -132q43 -51 104 -79q58 -26 127 -26q66 0 124 27q55 25 101 81q44 53 68 132t24 182q0 101 -24 181q-23 77 -67 132t-100 81q-61 28 -126 28q-69 0 -129 -27t-104 -80t-68 -132q-25 -83 -25 -183z" />
<glyph unicode="p" d="M231 -461v1546h160v-104h4q17 21 45 45q30 25 69 44q42 20 89 33q48 13 109 13q99 0 185 -40q88 -41 151 -113q66 -75 103 -181q38 -108 38 -239q0 -133 -36 -240q-37 -108 -98 -180q-63 -74 -151 -114q-87 -40 -192 -40q-54 0 -105 14q-54 15 -88 33q-44 24 -68 44 q-29 24 -43 44h-4v-565h-168zM399 356q0 -47 21 -89q21 -43 57 -74q39 -34 88 -53q50 -19 113 -19q165 0 250 111q86 112 86 311t-87 310q-88 112 -249 112q-68 0 -119 -24q-53 -25 -87 -62q-36 -39 -54 -86q-19 -49 -19 -93v-344z" />
<glyph unicode="q" d="M145 543q0 131 38 239q37 106 103 181q64 73 152 113q87 40 187 40q58 0 106 -13q47 -13 89 -33q39 -19 69 -44q30 -26 47 -45h4v104h160v-1546h-168v565h-4q-5 -7 -37 -39q-24 -24 -63 -46q-33 -19 -89 -35q-51 -15 -116 -15q-106 0 -193 40q-86 39 -150 114 q-63 73 -99 180t-36 240zM317 543q0 -201 85 -311q86 -111 249 -111q63 0 113 19q51 19 89 53q37 33 58 74q21 42 21 89v344q0 44 -19 93q-18 47 -54 86q-35 38 -88 62t-120 24q-162 0 -248 -112t-86 -310z" />
<glyph unicode="r" d="M377 0v1085h160v-157h4q17 32 49 66q34 36 70 57q40 24 89 39q45 14 101 14q122 0 214 -66q91 -65 134 -194l-164 -70q-23 79 -73 119q-52 41 -138 41q-58 0 -110 -23t-88 -65q-38 -44 -59 -105q-21 -62 -21 -137v-604h-168z" />
<glyph unicode="s" d="M207 369l160 30q18 -141 102 -213q83 -71 244 -71q156 0 220 49t64 123q0 40 -10 66q-12 30 -45 53q-35 24 -103 48t-188 54q-141 36 -211 66q-82 35 -124 72q-42 36 -58 82q-12 34 -12 84v15q2 52 27 104t77 93q54 43 127 67q75 25 176 25q104 0 177 -23q76 -24 134 -65 q56 -40 91 -96q35 -57 53 -119l-150 -49q-33 94 -103 151q-72 58 -200 58q-63 0 -111 -14q-49 -14 -76 -33q-29 -20 -44 -46q-14 -24 -14 -49q0 -30 6 -54t38 -45q31 -21 101 -45q56 -20 197 -56q145 -39 221 -73q80 -36 119 -77q38 -40 49 -88q11 -47 12 -106v-11 q0 -55 -19 -106q-21 -57 -74 -101q-56 -46 -137 -72q-89 -28 -208 -28q-125 0 -218 32q-91 31 -153 87q-59 54 -95 128q-34 72 -42 153z" />
<glyph unicode="t" d="M195 936v149h348v267h164v-267h391v-149h-389v-600q0 -92 24 -133t109 -41h184v-162h-192q-161 0 -227 81t-66 234v621h-346z" />
<glyph unicode="u" d="M246 379v706h168v-682q0 -153 58 -215q58 -63 194 -63q122 0 188 76t66 211v673h167v-1085h-165v104h-4q-27 -36 -72 -67q-31 -25 -89 -47q-54 -21 -128 -21q-175 0 -280 100q-103 99 -103 310z" />
<glyph unicode="v" d="M156 1085h176l332 -849h4l331 849h177l-439 -1085h-143z" />
<glyph unicode="w" d="M154 1083h165l113 -817h4l146 469h151l141 -469h5l133 817h164l-199 -1083h-154l-166 537h-4l-166 -537h-155z" />
<glyph unicode="x" d="M188 0l367 557l-344 528h188l265 -417h4l264 417h186l-342 -528l367 -557h-191l-286 446h-4l-283 -446h-191z" />
<glyph unicode="y" d="M143 1085h181l321 -788h4l289 788h176l-584 -1546h-170l205 543z" />
<glyph unicode="z" d="M215 0v131l682 797v4h-643v153h864v-127l-676 -798v-4h678v-156h-905z" />
<glyph unicode="{" d="M381 492v182h57q61 0 84 29q25 31 25 96v409q0 90 19 144q19 55 56 87t86 44q50 12 109 12h131v-143h-108q-73 0 -108 -38q-34 -37 -34 -140v-381q0 -66 -20 -105q-21 -40 -45 -63q-25 -23 -48 -32q-24 -9 -30 -9q1 0 4.5 -2t10 -4.5t12.5 -5.5q24 -9 49 -32 q25 -22 47 -63q20 -37 20 -98v-428q0 -103 34 -140q35 -38 110 -38h106v-144h-131q-59 0 -109 12q-51 12 -86 43q-37 32 -56 88t-19 144v457q0 64 -25 92q-24 27 -84 27h-57z" />
<glyph unicode="|" d="M584 -614v2201h164v-2201h-164z" />
<glyph unicode="}" d="M381 -227v-144h131q60 0 110 12q51 12 86 43q36 31 55 88q19 56 19 144v457q0 64 25 92q24 27 84 27h57v182h-57q-61 0 -84 29q-25 31 -25 96v409q0 90 -19 144q-20 56 -55 87q-37 32 -86 44q-50 12 -110 12h-131v-143h109q72 0 107 -38q34 -37 34 -140v-381 q0 -66 20 -105q21 -40 45 -63q25 -23 48 -32q24 -9 30 -9q-1 0 -4.5 -2t-9 -4.5t-12.5 -5.5q-25 -10 -50 -32t-47 -63q-20 -37 -20 -98v-428q0 -103 -34 -140q-35 -38 -110 -38h-106z" />
<glyph unicode="~" d="M168 653q11 53 35 108t56 93q36 42 81 67q46 25 109 25q76 0 133 -27q56 -27 107 -62q45 -32 96 -61q48 -28 98 -28q44 0 70 17q30 20 46 44q18 27 30 60q3 9 10.5 30t11.5 31l112 -35q-11 -51 -35 -107q-24 -55 -56 -93q-36 -42 -81 -67q-46 -25 -108 -25q-75 0 -134 27 t-109 62q-45 32 -96 61q-48 28 -95 28q-44 0 -71 -18q-30 -20 -46 -44q-19 -28 -30 -59q-4 -11 -11 -32l-10 -30z" />
<glyph unicode="&#xa0;" />
<glyph unicode="&#xa1;" d="M545 850h239v235h-239v-235zM582 -348h168v1007h-168v-1007z" />
<glyph unicode="&#xa2;" d="M193 543q0 131 35 232q36 103 98 176q63 74 144 115q82 42 179 48v178h72v-178q79 -6 151 -37q71 -31 123 -83q54 -54 88 -123q35 -72 47 -152l-157 -33q-11 50 -30 96q-20 47 -50 85q-31 38 -73 64q-43 26 -99 32v-840q56 6 101 34t76 68q32 41 51 90q21 53 28 101 l162 -33q-12 -91 -48 -164q-36 -74 -91 -127q-57 -55 -126 -84q-75 -31 -153 -37v-196h-72v196q-99 6 -184 47q-82 39 -144 114q-61 73 -95 176q-33 99 -33 235zM358 543q0 -187 78 -296t213 -124v840q-129 -15 -210 -121t-81 -299z" />
<glyph unicode="&#xa3;" d="M164 0v156h76q68 0 96 27q29 27 29 98v370h-201v129h201v252q0 108 28 188q29 81 81 135q54 55 125 82q72 27 161 27q174 0 275 -100q102 -100 126 -291l-155 -33q-22 134 -76 203q-53 68 -168 68q-230 0 -230 -291v-240h412v-129h-412v-495h635v-156h-1003z" />
<glyph unicode="&#xa4;" d="M143 233l133 134q-47 64 -71 141q-25 81 -25 166q0 83 25 163q23 74 71 142l-133 133l82 82l129 -131q64 54 142 85q79 32 168 32q93 0 172 -30q78 -30 141 -83l127 127l82 -82l-131 -131q45 -66 69 -142q25 -80 25 -165q0 -87 -25 -168q-24 -77 -71 -141l133 -132 l-82 -81l-131 129q-63 -51 -139 -77q-81 -28 -170 -28t-170 28q-76 26 -138 79l-131 -131zM365 672q0 -99 26 -161q27 -65 69 -105q43 -41 96 -59q51 -17 110 -17q56 0 106 17q52 18 96 59q43 40 70 105t27 161q0 99 -27 165q-28 68 -70 107q-46 43 -96 60q-52 18 -106 18 q-56 0 -110 -18q-52 -17 -96 -60q-42 -40 -69 -107q-26 -64 -26 -165z" />
<glyph unicode="&#xa5;" d="M111 1434h186l367 -662h4l366 662h187l-394 -691h306v-139h-381v-182h381v-137h-383v-285h-166v285h-385v137h381v182h-381v139h305z" />
<glyph unicode="&#xa6;" d="M588 -268v669h164v-669h-164zM588 657v670h164v-670h-164z" />
<glyph unicode="&#xa7;" d="M160 608q-2 100 50 171q55 75 126 120q-36 40 -56 91q-22 55 -22 122q0 78 30 142q31 66 81 112q53 48 120 73q68 25 152 25q86 0 156 -23q74 -24 130 -70q54 -44 93 -116q37 -68 49 -161l-164 -31q-22 132 -86 190t-172 58q-61 0 -103 -18q-43 -18 -68 -45 q-26 -28 -38 -62t-12 -70q0 -73 44 -125q42 -50 136 -88l299 -119q145 -57 205 -129q60 -71 61 -170q2 -100 -52 -171q-55 -73 -126 -119q38 -40 59 -92t21 -121q0 -78 -30 -143q-31 -66 -80 -111q-52 -48 -121 -73q-70 -26 -152 -26q-84 0 -156 24q-77 26 -130 69 q-54 44 -93 116q-37 67 -49 162l164 31q23 -134 86 -191t172 -57q63 0 103 17q43 18 68 45t38 63q12 34 12 69q0 77 -44 127q-42 47 -136 86l-297 119q-146 57 -206 129q-61 73 -62 170zM330 618q0 -115 180 -184l297 -115q37 -16 41 -18q16 -7 33 -18q47 33 86 84 q37 49 37 108q0 115 -183 184l-295 115q-6 2 -21 9t-22 10q-5 2 -10.5 5t-12 6t-9.5 5q-47 -34 -84 -82q-37 -49 -37 -109z" />
<glyph unicode="&#xa8;" d="M375 1251v187h186v-187h-186zM768 1251v187h186v-187h-186z" />
<glyph unicode="&#xa9;" d="M147 725q0 133 41 248q39 111 112 199q71 86 167 134t207 48q106 0 198 -48t161 -134q68 -85 109 -199q40 -113 40 -248t-40 -249q-41 -117 -109 -201t-161 -133q-92 -48 -198 -48q-111 0 -207 48q-98 49 -167 133q-72 88 -112 201q-41 117 -41 249zM248 725 q0 -115 33 -212t90 -168q58 -72 135 -112t168 -40q87 0 161 40t129 112t86 168t31 212q0 114 -31 210t-86 168q-53 69 -129 110q-74 40 -161 40q-91 0 -168 -40q-79 -41 -135 -110q-57 -71 -90 -168t-33 -210zM412 713q0 99 21 172t59 125q38 51 86 76q50 26 104 26 q52 0 92 -21q41 -21 71 -59q28 -36 47 -85q16 -43 21 -103l-106 -21q-4 36 -12 70q-6 27 -24 59q-14 26 -37 42q-22 16 -52 16q-65 0 -112 -74q-46 -73 -46 -223q0 -145 46 -213q47 -70 112 -70q63 0 93 57t36 142l107 -21q-12 -119 -72 -199q-60 -79 -164 -79 q-54 0 -104 24q-47 23 -86 74t-59 121q-21 72 -21 164z" />
<glyph unicode="&#xaa;" d="M408 950q0 83 49 126q52 46 166 75q95 23 137 44q39 19 39 60q0 35 -28 61q-26 25 -95 25q-77 0 -108 -35q-32 -36 -42 -85l-102 39q16 76 78 130t172 54q53 0 96 -13t79 -41q32 -25 53 -72q20 -45 20 -108v-424h-105v66h-2q-7 -12 -17 -23q-11 -12 -36 -27 q-24 -14 -56 -24q-33 -10 -79 -10q-117 0 -168 54t-51 128zM524 958q0 -40 26 -64t87 -24q87 0 128 38q40 37 40 85v142h-2q-3 -4 -9 -14q-4 -6 -22 -16q-20 -11 -46 -20t-79 -22q-44 -11 -65 -22q-28 -14 -37 -23q-12 -12 -17 -28q-4 -13 -4 -32z" />
<glyph unicode="&#xab;" d="M276 575l222 381h168l-224 -381l224 -374h-168zM664 575l221 381h168l-224 -381l224 -374h-168z" />
<glyph unicode="&#xac;" d="M176 770v154h977v-508h-164v354h-813z" />
<glyph unicode="&#xad;" d="M328 623v151h673v-151h-673z" />
<glyph unicode="&#xae;" d="M305 1085q0 74 28 142q26 63 77 114t114 77q68 28 142 28q73 0 141 -28q64 -26 115 -77q50 -50 76 -114q28 -68 28 -142q0 -73 -28 -141q-27 -66 -76 -115t-115 -76q-68 -28 -141 -28q-74 0 -142 28q-64 26 -114 76q-51 51 -77 115q-28 68 -28 141zM369 1085 q0 -64 22 -118q23 -57 63 -97t94 -64t118 -24q62 0 118 24t96 64q37 37 63 97q24 55 24 118t-24 119t-63 95q-40 41 -96 63q-54 22 -118 22q-65 0 -118 -22t-94 -63t-63 -95t-22 -119zM541 868v430h131q71 0 113 -30t42 -97q0 -56 -29 -84q-28 -27 -77 -38l96 -181h-65 l-90 176h-66v-176h-55zM596 1096h78q38 0 65 14q29 15 29 61t-28 62q-25 14 -68 14h-76v-151z" />
<glyph unicode="&#xaf;" d="M371 1270v125h590v-125h-590z" />
<glyph unicode="&#xb0;" d="M385 1286q0 58 22 113q21 53 58 93q35 38 88 63q51 24 111 24t112 -23q53 -24 89 -62q38 -41 59 -93q20 -50 20 -115t-20 -115q-21 -52 -59 -92q-37 -39 -89 -60q-53 -22 -112 -22q-61 0 -113 23q-51 22 -88 61q-35 37 -57 91q-21 52 -21 114zM522 1286q0 -47 13 -81 q12 -32 31 -51q20 -20 45 -27q24 -7 53 -7t51 7q24 7 45 27t33 51t12 81q0 49 -12 82q-12 32 -33 52q-23 21 -45 28q-26 8 -51 8q-26 0 -53 -8q-24 -7 -45 -28q-19 -19 -31 -52q-13 -36 -13 -82z" />
<glyph unicode="&#xb1;" d="M150 856v143h438v342h153v-342h439v-143h-439v-385h-153v385h-438zM207 197v143h934v-143h-934z" />
<glyph unicode="&#xb2;" d="M367 1561q7 140 90 217q81 75 219 75q127 0 205 -72q77 -71 77 -192q0 -59 -20 -99q-22 -44 -53 -75q-32 -32 -75 -58q-40 -24 -85 -46q-104 -57 -121 -67q-42 -25 -59 -52q-15 -18 -18 -40q-3 -21 -3 -48h441v-135h-590v106q0 62 13 104q14 45 40 81q30 40 79 68 q86 48 114 63q16 10 86 47q42 23 66 44q28 25 42 50t14 65q0 50 -37 93t-116 43q-82 0 -126 -50q-45 -51 -52 -139z" />
<glyph unicode="&#xb3;" d="M352 1257l133 29q12 -103 58 -154t133 -51t130 41q42 40 42 105q0 71 -47 110q-46 39 -133 39h-54v109h41q22 0 52 5q26 4 50 18t39 36t15 58q0 60 -37 94q-38 35 -104 35q-69 0 -103 -40q-35 -41 -45 -106l-127 25q11 113 86 178t193 65q55 0 103 -15q45 -14 85 -46 q36 -29 58 -74q20 -41 20 -98q0 -41 -12 -71q-11 -28 -31 -51t-39 -34q-22 -12 -37 -18v-4q22 -6 50 -23q30 -18 52 -43q25 -28 39 -65q15 -39 15 -92q0 -57 -21 -103q-22 -49 -58 -82q-37 -34 -94 -55t-128 -21q-127 0 -217 73q-89 72 -107 226z" />
<glyph unicode="&#xb4;" d="M483 1219l160 247h205l-219 -247h-146z" />
<glyph unicode="&#xb5;" d="M223 -461v1546h168v-657q0 -153 78 -228t203 -75q124 0 196 77q72 76 72 206v677h166v-1085h-164v104h-4q-5 -6 -25 -28q-21 -22 -55 -46q-33 -23 -85 -42t-114 -19q-75 0 -150 25q-71 24 -122 78v-533h-164z" />
<glyph unicode="&#xb6;" d="M203 971q0 84 26 145q28 65 73 107t108 65t131 23h587v-1590h-141v1440h-303v-1440h-152v910q-67 1 -128 26q-58 23 -105 70q-45 45 -71 107q-25 60 -25 137z" />
<glyph unicode="&#xb7;" d="M545 659v242h241v-242h-241z" />
<glyph unicode="&#xb8;" d="M442 -356l60 82q29 -21 59 -38q39 -22 94 -22q54 0 89 23q34 22 34 69q0 48 -27 66t-71 18q-29 0 -53 -6q-23 -6 -43 -14q-20 -7 -41 -19l-60 33l97 164h88l-76 -119q5 5 36 17t83 12q33 0 64 -9t56 -29q26 -21 40 -48q16 -30 16 -68q0 -77 -56 -133q-55 -55 -182 -55 q-66 0 -120 24q-51 23 -87 52z" />
<glyph unicode="&#xb9;" d="M371 969v127h237v590l-188 -117v149l201 125h120v-747h220v-127h-590z" />
<glyph unicode="&#xba;" d="M377 1108q0 85 23 145q25 65 64 107q40 43 92 64q55 22 112 22q55 0 108 -22q51 -21 91 -64q39 -42 64 -107q23 -60 23 -145q0 -83 -22 -145q-22 -63 -62 -107q-38 -42 -91 -65q-54 -23 -111 -23q-60 0 -114 23q-52 22 -92 65t-63 107q-22 62 -22 145zM498 1108 q0 -115 48 -172t122 -57q72 0 118 59q48 62 48 170q0 109 -48 169q-46 58 -118 58q-74 0 -122 -57t-48 -170z" />
<glyph unicode="&#xbb;" d="M174 201h168l221 374l-221 381h-168l223 -381zM561 201h168l221 374l-221 381h-168l223 -381z" />
<glyph unicode="&#xbc;" d="M225 655v123h881v-123h-881zM350 -55l332 547h195v-547h106v-125h-106v-203h-134v203h-393v125zM371 948v127h237v590l-188 -117v150l201 125h120v-748h220v-127h-590zM475 -55h268v432h-4z" />
<glyph unicode="&#xbd;" d="M225 655v123h881v-123h-881zM367 209q7 140 90 217q82 76 219 76q126 0 205 -73q77 -71 77 -191q0 -60 -20 -100q-22 -44 -53 -75q-32 -32 -75 -58q-40 -24 -85 -46q-104 -57 -121 -67q-42 -25 -59 -52q-15 -18 -18 -40q-3 -21 -3 -48h441v-135h-590v107q0 61 13 103 q14 45 40 81q30 40 79 68q86 48 114 63q16 10 86 47q42 23 66 44q28 25 42 50t14 66q0 49 -37 92t-116 43q-83 0 -126 -49q-45 -51 -52 -139zM371 948v127h237v590l-188 -117v150l201 125h120v-748h220v-127h-590z" />
<glyph unicode="&#xbe;" d="M225 655v123h881v-123h-881zM350 -55l332 547h195v-547h106v-125h-106v-203h-134v203h-393v125zM354 1237l133 29q12 -104 58 -155q45 -50 133 -50q87 0 130 41q42 40 42 104q0 72 -47 111t-133 39h-54v108h41q22 0 52 5q23 4 50 19q24 14 39 36t15 57q0 60 -37 94 q-38 35 -104 35q-69 0 -103 -40q-35 -41 -45 -105l-127 24q11 113 86 178q77 66 193 66q55 0 103 -15q45 -14 85 -46q36 -29 58 -74q20 -41 20 -99q0 -40 -12 -70q-11 -28 -31 -51t-39 -34q-27 -15 -37 -19v-4q25 -7 50 -22q30 -18 52 -43q24 -27 39 -66t15 -92 q0 -56 -21 -102q-22 -49 -58 -82q-39 -36 -94 -56q-54 -20 -128 -20q-127 0 -217 73q-89 72 -107 226zM475 -55h268v432h-4z" />
<glyph unicode="&#xbf;" d="M219 2q0 73 17 127q17 55 46 94q33 44 70 76q40 35 90 72q63 50 88 68q32 23 62 53q23 23 36 49q11 22 11 59v96h162v-112q0 -36 -8 -68q-7 -28 -28 -59q-23 -34 -52 -60q-32 -29 -82 -67q-17 -12 -48 -35.5t-45 -34.5q-49 -37 -77 -69q-32 -36 -52 -81t-20 -102 q0 -41 13 -80q12 -36 45 -74q31 -36 79 -56q50 -21 123 -21q85 0 140 27q52 25 89 72q32 40 48 101q13 49 18 111l166 -16q-1 -91 -33 -178q-30 -82 -89 -143q-60 -61 -143 -95q-87 -35 -200 -35q-93 0 -172 29q-74 27 -134 79q-55 48 -88 121q-32 72 -32 152zM594 850v235 h240v-235h-240z" />
<glyph unicode="&#xc0;" d="M100 0l475 1434h179l475 -1434h-178l-97 281h-587l-88 -281h-179zM373 1815h207l159 -248h-145zM414 428h491l-239 778h-4z" />
<glyph unicode="&#xc1;" d="M100 0l475 1434h179l475 -1434h-178l-97 281h-587l-88 -281h-179zM414 428h491l-239 778h-4zM596 1567l162 248h205l-222 -248h-145z" />
<glyph unicode="&#xc2;" d="M100 0l475 1434h179l475 -1434h-178l-97 281h-587l-88 -281h-179zM414 428h491l-239 778h-4zM420 1608l135 174h223l135 -174l-98 -78l-149 188l-150 -188z" />
<glyph unicode="&#xc3;" d="M100 0l475 1434h179l475 -1434h-178l-97 281h-587l-88 -281h-179zM379 1567q6 36 18 71q12 34 34 61q21 25 53 42q31 16 77 16q40 0 70 -12q25 -10 57 -26q18 -9 52 -25q28 -13 55 -13q57 0 73 66h90q-6 -37 -18 -72t-33 -60q-21 -26 -52 -42q-32 -17 -77 -17 q-38 0 -71 13q-45 18 -59 25q-36 18 -53 26q-25 12 -52 12q-33 0 -49 -17q-18 -20 -25 -48h-90zM414 428h491l-239 778h-4z" />
<glyph unicode="&#xc4;" d="M100 0l475 1434h179l475 -1434h-178l-97 281h-587l-88 -281h-179zM379 1567v186h186v-186h-186zM414 428h491l-239 778h-4zM772 1567v186h186v-186h-186z" />
<glyph unicode="&#xc5;" d="M100 0l475 1434h179l475 -1434h-178l-97 281h-587l-88 -281h-179zM414 428h491l-239 778h-4zM465 1610q0 44 15 81t42 66t64 45q39 17 80 17q89 0 145 -61q55 -59 55 -148q0 -93 -55 -151t-145 -58t-146 60q-55 59 -55 149zM569 1612q0 -59 30 -89t67 -30t67 30 q31 31 31 89q0 61 -31 89t-67 28t-67 -28q-30 -27 -30 -89z" />
<glyph unicode="&#xc6;" d="M72 0l538 1434h617v-156h-340v-465h282v-149h-282v-508h340v-156h-500v305h-369l-112 -305h-174zM410 453h317v845h-4z" />
<glyph unicode="&#xc7;" d="M158 729q0 185 45 323q46 140 121 230q78 93 176 137q100 45 209 45q103 0 187 -37q86 -38 150 -103q62 -64 106 -159q42 -91 54 -200l-172 -31q-11 77 -34 140q-26 71 -62 117q-41 52 -96 81q-59 31 -133 31q-79 0 -146 -34q-67 -35 -117 -105q-49 -70 -76 -178 q-28 -112 -28 -257q0 -153 27 -266q28 -116 74 -188q47 -73 116 -110q67 -36 150 -36q79 0 138 32q58 31 97 87q41 58 61 129q21 74 27 155l178 -22q-7 -121 -47 -223t-104 -171q-67 -72 -155 -109q-90 -38 -195 -38q-109 0 -208 42q-100 42 -176 132q-77 90 -122 235 q-45 144 -45 351zM549 -356l59 82q25 -19 60 -38q39 -22 94 -22q54 0 89 23q34 22 34 69t-28 66q-27 18 -71 18q-29 0 -53 -6t-43 -14q-20 -7 -41 -19l-59 33l96 164h88l-76 -119q5 5 36 17q32 12 83 12q33 0 65 -9q31 -9 56 -29q26 -21 40 -48q15 -29 15 -68 q0 -78 -55 -133t-182 -55q-66 0 -120 24q-51 23 -87 52z" />
<glyph unicode="&#xc8;" d="M270 0v1434h848v-156h-672v-465h615v-151h-615v-506h672v-156h-848zM457 1815h207l159 -248h-145z" />
<glyph unicode="&#xc9;" d="M270 0v1434h848v-156h-672v-465h615v-151h-615v-506h672v-156h-848zM614 1567l162 248h205l-221 -248h-146z" />
<glyph unicode="&#xca;" d="M270 0v1434h848v-156h-672v-465h615v-151h-615v-506h672v-156h-848zM453 1608l135 174h223l135 -174l-98 -78l-150 188l-149 -188z" />
<glyph unicode="&#xcb;" d="M270 0v1434h848v-156h-672v-465h615v-151h-615v-506h672v-156h-848zM410 1567v186h186v-186h-186zM803 1567v186h186v-186h-186z" />
<glyph unicode="&#xcc;" d="M236 0v154h342v1126h-342v154h860v-154h-344v-1126h344v-154h-860zM375 1815h207l159 -248h-145z" />
<glyph unicode="&#xcd;" d="M236 0v154h342v1126h-342v154h860v-154h-344v-1126h344v-154h-860zM571 1567l162 248h205l-221 -248h-146z" />
<glyph unicode="&#xce;" d="M236 0v154h342v1126h-342v154h860v-154h-344v-1126h344v-154h-860zM420 1608l135 174h223l135 -174l-98 -78l-149 188l-150 -188z" />
<glyph unicode="&#xcf;" d="M236 0v154h342v1126h-342v154h860v-154h-344v-1126h344v-154h-860zM377 1567v186h186v-186h-186zM770 1567v186h186v-186h-186z" />
<glyph unicode="&#xd0;" d="M106 655v160h140v619h325q120 0 231 -42q112 -42 198 -130q87 -89 140 -223q52 -132 52 -320q0 -207 -54 -344q-53 -135 -144 -221q-90 -85 -202 -119q-116 -35 -233 -35h-313v655h-140zM416 156h129q106 0 193 30t148 99q60 68 93 175q33 108 33 259q0 135 -32 242 q-32 105 -91 175t-144 106q-84 36 -188 36h-141v-463h381v-160h-381v-499z" />
<glyph unicode="&#xd1;" d="M203 0v1434h178l571 -1143h4v1143h164v-1434h-174l-575 1143h-4v-1143h-164zM401 1567q5 30 19 71q12 34 34 61q21 25 53 42q31 16 77 16q39 0 69 -12t58 -26q18 -9 52 -25q28 -13 54 -13q57 0 74 66h90q-6 -37 -18 -72t-33 -60q-21 -26 -52 -42q-32 -17 -77 -17 q-39 0 -72 13q-40 16 -58 25q-20 10 -54 26q-25 12 -52 12q-33 0 -49 -17q-16 -18 -24 -48h-91z" />
<glyph unicode="&#xd2;" d="M123 729q0 186 46 323q47 139 123 230q77 92 174 137q98 45 200 45q100 0 199 -47q97 -46 174 -140q76 -93 123 -233q46 -138 46 -323q0 -208 -46 -349q-47 -143 -123 -233q-76 -89 -174 -130q-96 -40 -199 -40q-104 0 -203 42q-97 41 -173 132q-74 88 -121 235 q-46 142 -46 351zM307 729q0 -149 28 -266q26 -109 75 -188q46 -74 112 -110t144 -36q74 0 141 35q65 34 114 107q47 71 75 185q28 115 28 265q0 145 -28 259q-26 107 -74 181q-46 72 -114 107q-67 35 -142 35q-79 0 -144 -34t-112 -105q-49 -74 -75 -178q-28 -112 -28 -257 zM383 1815h207l160 -248h-146z" />
<glyph unicode="&#xd3;" d="M123 729q0 186 46 323q47 139 123 230q77 92 174 137q98 45 200 45q100 0 199 -47q97 -46 174 -140q76 -93 123 -233q46 -138 46 -323q0 -208 -46 -349q-47 -143 -123 -233q-76 -89 -174 -130q-96 -40 -199 -40q-104 0 -203 42q-97 41 -173 132q-74 88 -121 235 q-46 142 -46 351zM307 729q0 -149 28 -266q26 -109 75 -188q46 -74 112 -110t144 -36q74 0 141 35q65 34 114 107q47 71 75 185q28 115 28 265q0 145 -28 259q-26 107 -74 181q-46 72 -114 107q-67 35 -142 35q-79 0 -144 -34t-112 -105q-49 -74 -75 -178q-28 -112 -28 -257 zM590 1567l162 248h204l-221 -248h-145z" />
<glyph unicode="&#xd4;" d="M123 729q0 186 46 323q47 139 123 230q77 92 174 137q98 45 200 45q100 0 199 -47q97 -46 174 -140q76 -93 123 -233q46 -138 46 -323q0 -208 -46 -349q-47 -143 -123 -233q-76 -89 -174 -130q-96 -40 -199 -40q-104 0 -203 42q-97 41 -173 132q-74 88 -121 235 q-46 142 -46 351zM307 729q0 -149 28 -266q26 -109 75 -188q46 -74 112 -110t144 -36q74 0 141 35q65 34 114 107q47 71 75 185q28 115 28 265q0 145 -28 259q-26 107 -74 181q-46 72 -114 107q-67 35 -142 35q-79 0 -144 -34t-112 -105q-49 -74 -75 -178q-28 -112 -28 -257 zM436 1608l135 174h224l135 -174l-99 -78l-149 188l-150 -188z" />
<glyph unicode="&#xd5;" d="M123 729q0 186 46 323q47 139 123 230q77 92 174 137q98 45 200 45q100 0 199 -47q97 -46 174 -140q76 -93 123 -233q46 -138 46 -323q0 -208 -46 -349q-47 -143 -123 -233q-76 -89 -174 -130q-96 -40 -199 -40q-104 0 -203 42q-97 41 -173 132q-74 88 -121 235 q-46 142 -46 351zM307 729q0 -149 28 -266q26 -109 75 -188q46 -74 112 -110t144 -36q74 0 141 35q65 34 114 107q47 71 75 185q28 115 28 265q0 145 -28 259q-26 107 -74 181q-46 72 -114 107q-67 35 -142 35q-79 0 -144 -34t-112 -105q-49 -74 -75 -178q-28 -112 -28 -257 zM391 1567q5 30 19 71q13 36 33 61q20 24 54 42q31 16 76 16q40 0 70 -12q25 -10 57 -26q2 -1 53 -25q28 -13 54 -13q57 0 74 66h90q-5 -32 -19 -72q-13 -37 -32 -60q-21 -25 -53 -42t-76 -17q-39 0 -72 13q-45 18 -59 25q-36 18 -53 26q-26 12 -52 12q-33 0 -49 -17 q-18 -20 -25 -48h-90z" />
<glyph unicode="&#xd6;" d="M123 729q0 186 46 323q47 139 123 230q77 92 174 137q98 45 200 45q100 0 199 -47q97 -46 174 -140q76 -93 123 -233q46 -138 46 -323q0 -208 -46 -349q-47 -143 -123 -233q-76 -89 -174 -130q-96 -40 -199 -40q-104 0 -203 42q-97 41 -173 132q-74 88 -121 235 q-46 142 -46 351zM307 729q0 -149 28 -266q26 -109 75 -188q46 -74 112 -110t144 -36q74 0 141 35q65 34 114 107q47 71 75 185q28 115 28 265q0 145 -28 259q-26 107 -74 181q-46 72 -114 107q-67 35 -142 35q-79 0 -144 -34t-112 -105q-49 -74 -75 -178q-28 -112 -28 -257 zM385 1567v186h186v-186h-186zM778 1567v186h187v-186h-187z" />
<glyph unicode="&#xd7;" d="M217 344l346 344l-325 326l104 102l324 -323l325 323l103 -102l-326 -326l346 -344l-102 -102l-346 344l-344 -344z" />
<glyph unicode="&#xd8;" d="M127 729q0 186 46 323q47 140 121 230q76 93 172 137q98 45 200 45q80 0 157 -28q80 -29 146 -88l67 116l84 -49l-82 -141q75 -90 121 -231q45 -138 45 -322q0 -208 -46 -349q-47 -144 -121 -233q-75 -90 -172 -130q-96 -40 -199 -40q-84 0 -165 26q-79 25 -147 83 l-61 -109l-84 47l76 136q-71 90 -115 233q-43 139 -43 344zM307 729q0 -256 76 -407l504 882q-90 99 -221 99q-79 0 -144 -34t-112 -105q-49 -74 -75 -178q-28 -112 -28 -257zM442 231q46 -53 102 -77q59 -25 122 -25q74 0 141 35q65 34 114 107q47 71 75 185q28 115 28 265 q0 131 -20 224q-20 95 -56 169z" />
<glyph unicode="&#xd9;" d="M152 467v967h174v-955q0 -174 85 -262t253 -88q170 0 256 89t86 257v959h172v-967q0 -248 -138 -374q-136 -124 -376 -124t-376 124t-136 374zM412 1815h206l160 -248h-145z" />
<glyph unicode="&#xda;" d="M152 467v967h174v-955q0 -174 85 -262t253 -88q170 0 256 89t86 257v959h172v-967q0 -248 -138 -374q-136 -124 -376 -124t-376 124t-136 374zM602 1567l162 248h205l-221 -248h-146z" />
<glyph unicode="&#xdb;" d="M152 467v967h174v-955q0 -174 85 -262t253 -88q170 0 256 89t86 257v959h172v-967q0 -248 -138 -374q-136 -124 -376 -124t-376 124t-136 374zM440 1608l135 174h224l135 -174l-98 -78l-150 188l-149 -188z" />
<glyph unicode="&#xdc;" d="M152 467v967h174v-955q0 -174 85 -262t253 -88q170 0 256 89t86 257v959h172v-967q0 -248 -138 -374q-136 -124 -376 -124t-376 124t-136 374zM389 1567v186h186v-186h-186zM782 1567v186h187v-186h-187z" />
<glyph unicode="&#xdd;" d="M106 1434h193l365 -666h4l364 666h193l-473 -830v-604h-172v604zM580 1567l161 248h205l-221 -248h-145z" />
<glyph unicode="&#xde;" d="M270 0v1434h170v-238h260q110 0 203 -29t159 -86q65 -56 103 -143q37 -84 37 -199q0 -230 -133 -342t-369 -112h-260v-285h-170zM440 440h252q71 0 136 17q63 17 109 52q47 36 72 93q25 56 25 137q0 82 -25 138t-71 94q-43 36 -109 53q-61 16 -137 16h-252v-600z" />
<glyph unicode="&#xdf;" d="M268 0v1008q0 113 35 200t94 143t139 85q78 28 169 28q88 0 164 -27q74 -26 132 -78q56 -50 88 -121q31 -69 31 -159q0 -71 -21 -120q-20 -47 -50 -82q-26 -31 -57 -51q-21 -14 -40 -21v-4q21 -7 58 -27q38 -20 77 -61t68 -109q29 -69 29 -166q0 -216 -116 -327 t-361 -111h-66v147h66q158 0 238 77q79 76 79 218q0 134 -69 203q-70 70 -216 70h-98v139h59q56 0 103 12t83 39q34 26 56 69q21 42 21 99q0 106 -65 173t-187 67q-147 0 -210 -92q-63 -91 -63 -252v-969h-170z" />
<glyph unicode="&#xe0;" d="M236 279q0 69 20 119t65 92q43 40 114 72q74 33 169 56q76 19 131 36q63 20 98 38q40 21 61 48t21 69q0 66 -59 112t-168 46q-61 0 -109 -17t-77 -46q-33 -33 -49 -68q-19 -41 -29 -84l-156 45q12 67 45 126q32 57 85 101q54 45 124 68q72 24 160 24q91 0 164 -23 q74 -23 131 -68q56 -44 86 -107q31 -65 31 -144v-774h-152v119h-4q-11 -19 -38 -46q-24 -24 -66 -49q-40 -24 -98 -39q-61 -16 -130 -16q-94 0 -166 25q-70 24 -114 67q-46 45 -68 100q-22 56 -22 118zM403 289q0 -72 48 -122q46 -48 167 -48q79 0 136 18q56 18 96 50 q39 31 57 74q19 44 19 87v270h-4q-5 -10 -19 -24t-42 -28q-35 -18 -82 -35q-54 -20 -136 -42q-86 -24 -120 -40q-41 -19 -72 -46q-26 -23 -37 -53t-11 -61zM403 1466h207l160 -247h-145z" />
<glyph unicode="&#xe1;" d="M236 279q0 69 20 119t65 92q43 40 114 72q74 33 169 56q76 19 131 36q63 20 98 38q40 21 61 48t21 69q0 66 -59 112t-168 46q-61 0 -109 -17t-77 -46q-33 -33 -49 -68q-19 -41 -29 -84l-156 45q12 67 45 126q32 57 85 101q54 45 124 68q72 24 160 24q91 0 164 -23 q74 -23 131 -68q56 -44 86 -107q31 -65 31 -144v-774h-152v119h-4q-11 -19 -38 -46q-24 -24 -66 -49q-40 -24 -98 -39q-61 -16 -130 -16q-94 0 -166 25q-70 24 -114 67q-46 45 -68 100q-22 56 -22 118zM403 289q0 -72 48 -122q46 -48 167 -48q79 0 136 18q56 18 96 50 q39 31 57 74q19 44 19 87v270h-4q-5 -10 -19 -24t-42 -28q-35 -18 -82 -35q-54 -20 -136 -42q-86 -24 -120 -40q-41 -19 -72 -46q-26 -23 -37 -53t-11 -61zM616 1219l160 247h205l-219 -247h-146z" />
<glyph unicode="&#xe2;" d="M236 279q0 69 20 119t65 92q43 40 114 72q74 33 169 56q76 19 131 36q63 20 98 38q40 21 61 48t21 69q0 66 -59 112t-168 46q-61 0 -109 -17t-77 -46q-33 -33 -49 -68q-19 -41 -29 -84l-156 45q12 67 45 126q32 57 85 101q54 45 124 68q72 24 160 24q91 0 164 -23 q74 -23 131 -68q56 -44 86 -107q31 -65 31 -144v-774h-152v119h-4q-11 -19 -38 -46q-24 -24 -66 -49q-40 -24 -98 -39q-61 -16 -130 -16q-94 0 -166 25q-70 24 -114 67q-46 45 -68 100q-22 56 -22 118zM403 289q0 -72 48 -122q46 -48 167 -48q79 0 136 18q56 18 96 50 q39 31 57 74q19 44 19 87v270h-4q-5 -10 -19 -24t-42 -28q-35 -18 -82 -35q-54 -20 -136 -42q-86 -24 -120 -40q-41 -19 -72 -46q-26 -23 -37 -53t-11 -61zM440 1270l135 174h224l135 -174l-98 -78l-150 188l-149 -188z" />
<glyph unicode="&#xe3;" d="M236 279q0 69 20 119t65 92q43 40 114 72q74 33 169 56q76 19 131 36q63 20 98 38q40 21 61 48t21 69q0 66 -59 112t-168 46q-61 0 -109 -17t-77 -46q-33 -33 -49 -68q-19 -41 -29 -84l-156 45q12 67 45 126q32 57 85 101q54 45 124 68q72 24 160 24q91 0 164 -23 q74 -23 131 -68q56 -44 86 -107q31 -65 31 -144v-774h-152v119h-4q-11 -19 -38 -46q-24 -24 -66 -49q-40 -24 -98 -39q-61 -16 -130 -16q-94 0 -166 25q-70 24 -114 67q-46 45 -68 100q-22 56 -22 118zM379 1233q6 37 18 72q11 31 34 61q20 26 53 43q31 16 77 16 q40 0 70 -12t57 -27q18 -10 52 -26q26 -12 55 -12q57 0 73 67h90q-6 -37 -18 -72q-12 -34 -33 -61t-52 -43t-77 -16q-41 0 -71 12q-37 15 -59 27q-12 7 -53 26q-25 12 -52 12q-33 0 -49 -17q-18 -20 -25 -50h-90zM403 289q0 -72 48 -122q46 -48 167 -48q79 0 136 18 q56 18 96 50q39 31 57 74q19 44 19 87v270h-4q-5 -10 -19 -24t-42 -28q-35 -18 -82 -35q-54 -20 -136 -42q-86 -24 -120 -40q-41 -19 -72 -46q-26 -23 -37 -53t-11 -61z" />
<glyph unicode="&#xe4;" d="M236 279q0 69 20 119t65 92q43 40 114 72q74 33 169 56q76 19 131 36q63 20 98 38q40 21 61 48t21 69q0 66 -59 112t-168 46q-61 0 -109 -17t-77 -46q-33 -33 -49 -68q-19 -41 -29 -84l-156 45q12 67 45 126q32 57 85 101q54 45 124 68q72 24 160 24q91 0 164 -23 q74 -23 131 -68q56 -44 86 -107q31 -65 31 -144v-774h-152v119h-4q-11 -19 -38 -46q-24 -24 -66 -49q-40 -24 -98 -39q-61 -16 -130 -16q-94 0 -166 25q-70 24 -114 67q-46 45 -68 100q-22 56 -22 118zM379 1251v187h186v-187h-186zM403 289q0 -72 48 -122q46 -48 167 -48 q79 0 136 18q56 18 96 50q39 31 57 74q19 44 19 87v270h-4q-5 -10 -19 -24t-42 -28q-35 -18 -82 -35q-54 -20 -136 -42q-86 -24 -120 -40q-41 -19 -72 -46q-26 -23 -37 -53t-11 -61zM772 1251v187h186v-187h-186z" />
<glyph unicode="&#xe5;" d="M236 279q0 69 20 119t65 92q43 40 114 72q74 33 169 56q76 19 131 36q63 20 98 38q40 21 61 48t21 69q0 66 -59 112t-168 46q-61 0 -109 -17t-77 -46q-33 -33 -49 -68q-19 -41 -29 -84l-156 45q12 67 45 126q32 57 85 101q54 45 124 68q72 24 160 24q91 0 164 -23 q74 -23 131 -68q56 -44 86 -107q31 -65 31 -144v-774h-152v119h-4q-11 -19 -38 -46q-24 -24 -66 -49q-40 -24 -98 -39q-61 -16 -130 -16q-94 0 -166 25q-70 24 -114 67q-46 45 -68 100q-22 56 -22 118zM403 289q0 -72 48 -122q46 -48 167 -48q79 0 136 18q56 18 96 50 q39 31 57 74q19 44 19 87v270h-4q-5 -10 -19 -24t-42 -28q-35 -18 -82 -35q-54 -20 -136 -42q-86 -24 -120 -40q-41 -19 -72 -46q-26 -23 -37 -53t-11 -61zM465 1280q0 44 15 81t42 66q29 31 64 46q36 16 80 16q89 0 145 -61q55 -59 55 -148q0 -93 -55 -151t-145 -58 t-146 60q-55 59 -55 149zM569 1282q0 -61 30 -91t67 -30t67 30q31 31 31 91q0 59 -31 87t-67 28t-67 -28q-30 -27 -30 -87z" />
<glyph unicode="&#xe6;" d="M94 281q0 133 69 212q68 78 183 125q116 50 164 93q45 41 45 94q0 64 -35 114t-100 50q-68 0 -106 -60t-48 -151l-137 28q6 73 30 133q25 63 62 104q41 46 89 69q49 24 108 24q83 0 154 -44q72 -45 102 -144q44 90 104 139q61 49 146 49q148 0 230 -150q83 -151 83 -423 v-49h-512q0 -75 13 -140q14 -69 40 -120t65 -82t91 -31q43 0 70 23q28 24 48 60q17 30 30 76q16 54 20 70l133 -49q-16 -75 -41 -130q-28 -61 -64 -105q-39 -47 -84 -71q-49 -26 -108 -26q-98 0 -169 60q-72 62 -118 172q-16 -48 -42 -91q-28 -45 -62 -73q-40 -32 -85 -49 q-51 -19 -110 -19q-61 0 -109 24q-49 25 -81 65q-31 39 -50 100q-18 57 -18 123zM248 289q0 -73 32 -122q32 -48 97 -48q39 0 74 18q34 18 60 50q24 30 40 74q14 39 14 87v277h-4q-5 -25 -44 -51q-45 -30 -134 -78q-66 -37 -100 -88q-35 -52 -35 -119zM729 629h356 q0 53 -8 117q-8 61 -27 110q-19 48 -51 80q-31 31 -73 31q-54 0 -92 -35q-36 -33 -61 -85q-23 -48 -34 -110q-10 -57 -10 -108z" />
<glyph unicode="&#xe7;" d="M229 543q0 136 40 241q41 108 108 181q66 72 158 112q90 39 192 39q88 0 164 -30q78 -30 134 -81q58 -52 96 -125t50 -161l-157 -33q-11 54 -32 104q-21 49 -56 89q-33 37 -84 62q-50 24 -115 24q-143 0 -235 -109q-93 -110 -93 -313q0 -201 88 -311q89 -111 242 -111 q67 0 116 25q50 26 86 68t57 95q23 57 30 107l162 -33q-12 -92 -52 -171q-41 -80 -98 -130q-61 -54 -136 -83q-76 -30 -167 -30q-105 0 -198 38q-89 37 -157 112q-68 76 -105 180q-38 108 -38 244zM530 -356l60 82q29 -21 59 -38q39 -22 94 -22t90 23q33 22 33 69 q0 48 -27 66t-71 18q-29 0 -53 -6t-43 -14q-20 -7 -41 -19l-60 33l97 164h88l-76 -119q5 5 36 17q32 12 83 12q33 0 64 -9q33 -9 57 -29t39 -48q16 -30 16 -68q0 -78 -55 -133t-183 -55q-66 0 -120 24q-51 23 -87 52z" />
<glyph unicode="&#xe8;" d="M170 543q0 129 38 237q37 106 104 182q64 72 158 114q90 40 200 40q106 0 196 -39q91 -39 156 -112q63 -70 102 -181q37 -105 37 -241v-49h-819q0 -76 20 -140q21 -66 62 -120q40 -52 103 -82q65 -31 147 -31q84 0 137 23q56 24 91 58q38 37 57 70q6 11 18.5 32.5 t17.5 31.5l138 -90q-29 -56 -68 -104q-43 -52 -97 -88q-55 -36 -129 -61q-72 -24 -161 -24q-110 0 -202 40q-95 41 -161 115q-67 74 -106 180q-39 105 -39 239zM346 627h645q-2 61 -19 119q-18 61 -56 109q-38 49 -98 79q-62 31 -148 31q-89 0 -150 -34q-62 -35 -99 -85 q-38 -52 -56 -111q-19 -63 -19 -108zM408 1466h206l160 -247h-145z" />
<glyph unicode="&#xe9;" d="M170 543q0 129 38 237q37 106 104 182q64 72 158 114q90 40 200 40q106 0 196 -39q91 -39 156 -112q63 -70 102 -181q37 -105 37 -241v-49h-819q0 -76 20 -140q21 -66 62 -120q40 -52 103 -82q65 -31 147 -31q84 0 137 23q56 24 91 58q38 37 57 70q6 11 18.5 32.5 t17.5 31.5l138 -90q-29 -56 -68 -104q-43 -52 -97 -88q-55 -36 -129 -61q-72 -24 -161 -24q-110 0 -202 40q-95 41 -161 115q-67 74 -106 180q-39 105 -39 239zM346 627h645q-2 61 -19 119q-18 61 -56 109q-38 49 -98 79q-62 31 -148 31q-89 0 -150 -34q-62 -35 -99 -85 q-38 -52 -56 -111q-19 -63 -19 -108zM606 1219l160 247h205l-219 -247h-146z" />
<glyph unicode="&#xea;" d="M170 543q0 129 38 237q37 106 104 182q64 72 158 114q90 40 200 40q106 0 196 -39q91 -39 156 -112q63 -70 102 -181q37 -105 37 -241v-49h-819q0 -76 20 -140q21 -66 62 -120q40 -52 103 -82q65 -31 147 -31q84 0 137 23q56 24 91 58q38 37 57 70q6 11 18.5 32.5 t17.5 31.5l138 -90q-29 -56 -68 -104q-43 -52 -97 -88q-55 -36 -129 -61q-72 -24 -161 -24q-110 0 -202 40q-95 41 -161 115q-67 74 -106 180q-39 105 -39 239zM346 627h645q-2 61 -19 119q-18 61 -56 109q-38 49 -98 79q-62 31 -148 31q-89 0 -150 -34q-62 -35 -99 -85 q-38 -52 -56 -111q-19 -63 -19 -108zM432 1270l135 174h224l135 -174l-99 -78l-149 188l-150 -188z" />
<glyph unicode="&#xeb;" d="M170 543q0 129 38 237q37 106 104 182q64 72 158 114q90 40 200 40q106 0 196 -39q91 -39 156 -112q63 -70 102 -181q37 -105 37 -241v-49h-819q0 -76 20 -140q21 -66 62 -120q40 -52 103 -82q65 -31 147 -31q84 0 137 23q56 24 91 58q38 37 57 70q6 11 18.5 32.5 t17.5 31.5l138 -90q-29 -56 -68 -104q-43 -52 -97 -88q-55 -36 -129 -61q-72 -24 -161 -24q-110 0 -202 40q-95 41 -161 115q-67 74 -106 180q-39 105 -39 239zM346 627h645q-2 61 -19 119q-18 61 -56 109q-38 49 -98 79q-62 31 -148 31q-89 0 -150 -34q-62 -35 -99 -85 q-38 -52 -56 -111q-19 -63 -19 -108zM391 1251v187h187v-187h-187zM784 1251v187h187v-187h-187z" />
<glyph unicode="&#xec;" d="M256 0v143h377v799h-367v143h533v-942h358v-143h-901zM422 1466h207l159 -247h-145z" />
<glyph unicode="&#xed;" d="M256 0v143h377v799h-367v143h533v-942h358v-143h-901zM633 1219l160 247h204l-219 -247h-145z" />
<glyph unicode="&#xee;" d="M256 0v143h377v799h-367v143h533v-942h358v-143h-901zM459 1270l135 174h223l135 -174l-98 -78l-149 188l-150 -188z" />
<glyph unicode="&#xef;" d="M256 0v143h377v799h-367v143h533v-942h358v-143h-901zM416 1251v187h186v-187h-186zM809 1251v187h186v-187h-186z" />
<glyph unicode="&#xf0;" d="M182 545q0 143 37 248q39 110 99 179q63 72 146 108q82 36 177 36q99 0 171 -33q74 -34 110 -73l4 2q-27 88 -73 173q-40 75 -99 156l-303 -84l-27 89l268 73q-28 35 -74 83q-52 54 -79 81v4h188q26 -27 54 -62q17 -21 53 -67l270 76l26 -88l-241 -68q120 -182 191 -394 q73 -217 73 -437q0 -142 -35 -252q-34 -107 -98 -180q-62 -71 -152 -109q-87 -37 -194 -37q-112 0 -201 37q-90 38 -155 110q-64 71 -100 180q-36 108 -36 249zM342 541q0 -218 89 -321q88 -101 243 -101q153 0 234 103q81 104 81 319q0 202 -81 316t-253 114 q-139 0 -226 -104q-87 -103 -87 -326z" />
<glyph unicode="&#xf1;" d="M238 0v1085h159v-104h4q43 57 126 96t180 39q176 0 282 -106q107 -107 107 -297v-713h-168v659q0 147 -59 226q-59 78 -187 78q-124 0 -201 -71q-75 -69 -75 -200v-692h-168zM395 1233q5 32 19 72q12 34 33 61q19 25 54 43q31 16 77 16q39 0 69 -12q34 -13 58 -27 q18 -10 52 -26q25 -12 54 -12q58 0 74 67h90q-5 -32 -19 -72q-12 -36 -32 -61q-20 -26 -53 -43q-31 -16 -76 -16q-42 0 -72 12q-34 13 -58 27q-7 4 -54 26q-25 12 -52 12q-33 0 -49 -17q-18 -20 -25 -50h-90z" />
<glyph unicode="&#xf2;" d="M172 543q0 137 41 245t110 180q70 74 158 110q91 38 189 38q95 0 185 -38q89 -38 157 -110q65 -69 107 -180q40 -105 40 -245q0 -138 -38 -246q-37 -106 -104 -179t-156 -111q-90 -38 -191 -38q-104 0 -195 38q-89 37 -158 111q-66 71 -106 179q-39 107 -39 246zM344 543 q0 -104 26 -185q26 -80 69 -132q43 -51 104 -79q58 -26 127 -26q66 0 124 27q55 25 101 81q44 53 68 132t24 182q0 101 -24 181q-23 77 -67 132t-100 81q-61 28 -126 28q-69 0 -129 -27t-104 -80t-68 -132q-25 -83 -25 -183zM367 1466h206l160 -247h-145z" />
<glyph unicode="&#xf3;" d="M172 543q0 137 41 245t110 180q70 74 158 110q91 38 189 38q95 0 185 -38q89 -38 157 -110q65 -69 107 -180q40 -105 40 -245q0 -138 -38 -246q-37 -106 -104 -179t-156 -111q-90 -38 -191 -38q-104 0 -195 38q-89 37 -158 111q-66 71 -106 179q-39 107 -39 246zM344 543 q0 -104 26 -185q26 -80 69 -132q43 -51 104 -79q58 -26 127 -26q66 0 124 27q55 25 101 81q44 53 68 132t24 182q0 101 -24 181q-23 77 -67 132t-100 81q-61 28 -126 28q-69 0 -129 -27t-104 -80t-68 -132q-25 -83 -25 -183zM610 1219l160 247h205l-219 -247h-146z" />
<glyph unicode="&#xf4;" d="M172 543q0 137 41 245t110 180q70 74 158 110q91 38 189 38q95 0 185 -38q89 -38 157 -110q65 -69 107 -180q40 -105 40 -245q0 -138 -38 -246q-37 -106 -104 -179t-156 -111q-90 -38 -191 -38q-104 0 -195 38q-89 37 -158 111q-66 71 -106 179q-39 107 -39 246zM344 543 q0 -104 26 -185q26 -80 69 -132q43 -51 104 -79q58 -26 127 -26q66 0 124 27q55 25 101 81q44 53 68 132t24 182q0 101 -24 181q-23 77 -67 132t-100 81q-61 28 -126 28q-69 0 -129 -27t-104 -80t-68 -132q-25 -83 -25 -183zM436 1270l135 174h224l135 -174l-99 -78 l-149 188l-150 -188z" />
<glyph unicode="&#xf5;" d="M172 543q0 137 41 245t110 180q70 74 158 110q91 38 189 38q95 0 185 -38q89 -38 157 -110q65 -69 107 -180q40 -105 40 -245q0 -138 -38 -246q-37 -106 -104 -179t-156 -111q-90 -38 -191 -38q-104 0 -195 38q-89 37 -158 111q-66 71 -106 179q-39 107 -39 246zM344 543 q0 -104 26 -185q26 -80 69 -132q43 -51 104 -79q58 -26 127 -26q66 0 124 27q55 25 101 81q44 53 68 132t24 182q0 101 -24 181q-23 77 -67 132t-100 81q-61 28 -126 28q-69 0 -129 -27t-104 -80t-68 -132q-25 -83 -25 -183zM397 1233q5 32 19 72q11 31 34 61q20 26 53 43 q31 16 77 16q39 0 69 -12q34 -13 58 -27q18 -10 52 -26q25 -12 54 -12q58 0 74 67h90q-5 -32 -19 -72q-12 -36 -32 -61q-20 -26 -53 -43q-31 -16 -76 -16q-42 0 -72 12q-34 13 -58 27q-7 4 -54 26q-25 12 -52 12q-33 0 -49 -17q-18 -20 -25 -50h-90z" />
<glyph unicode="&#xf6;" d="M172 543q0 137 41 245t110 180q70 74 158 110q91 38 189 38q95 0 185 -38q89 -38 157 -110q65 -69 107 -180q40 -105 40 -245q0 -138 -38 -246q-37 -106 -104 -179t-156 -111q-90 -38 -191 -38q-104 0 -195 38q-89 37 -158 111q-66 71 -106 179q-39 107 -39 246zM344 543 q0 -104 26 -185q26 -80 69 -132q43 -51 104 -79q58 -26 127 -26q66 0 124 27q55 25 101 81q44 53 68 132t24 182q0 101 -24 181q-23 77 -67 132t-100 81q-61 28 -126 28q-69 0 -129 -27t-104 -80t-68 -132q-25 -83 -25 -183zM395 1251v187h187v-187h-187zM788 1251v187h187 v-187h-187z" />
<glyph unicode="&#xf7;" d="M272 653v144h787v-144h-787zM520 289q0 61 42 103t102 42q63 0 105 -42t42 -103q0 -62 -42 -104t-105 -42q-60 0 -102 42t-42 104zM520 1159q0 61 42 105q42 43 102 43q63 0 105 -43q42 -44 42 -105q0 -59 -42 -101t-105 -42q-60 0 -102 42t-42 101z" />
<glyph unicode="&#xf8;" d="M176 543q0 140 40 245q42 110 109 180q70 73 157 110q90 38 188 38q82 0 160 -29q79 -30 141 -81l80 102l67 -53l-88 -113q58 -70 92 -171q33 -99 33 -228q0 -138 -38 -246t-103 -179q-69 -75 -154 -111q-90 -38 -190 -38q-87 0 -169 28q-79 27 -143 83l-79 -103l-68 52 l88 112q-59 71 -91 172q-32 102 -32 230zM342 543q0 -87 16 -151q17 -68 45 -118l471 607q-84 84 -204 84q-69 0 -129 -27t-104 -80q-43 -52 -69 -132q-26 -81 -26 -183zM457 205q89 -84 213 -84q66 0 124 27q55 25 101 81q43 53 69 132q25 78 25 182q0 86 -16 150 q-17 68 -45 118z" />
<glyph unicode="&#xf9;" d="M246 379v706h168v-682q0 -153 58 -215q58 -63 194 -63q122 0 188 76t66 211v673h167v-1085h-165v104h-4q-27 -36 -72 -67q-31 -25 -89 -47q-54 -21 -128 -21q-175 0 -280 100q-103 99 -103 310zM399 1466h207l160 -247h-145z" />
<glyph unicode="&#xfa;" d="M246 379v706h168v-682q0 -153 58 -215q58 -63 194 -63q122 0 188 76t66 211v673h167v-1085h-165v104h-4q-27 -36 -72 -67q-31 -25 -89 -47q-54 -21 -128 -21q-175 0 -280 100q-103 99 -103 310zM598 1219l160 247h205l-220 -247h-145z" />
<glyph unicode="&#xfb;" d="M246 379v706h168v-682q0 -153 58 -215q58 -63 194 -63q122 0 188 76t66 211v673h167v-1085h-165v104h-4q-27 -36 -72 -67q-31 -25 -89 -47q-54 -21 -128 -21q-175 0 -280 100q-103 99 -103 310zM436 1270l135 174h224l135 -174l-99 -78l-149 188l-150 -188z" />
<glyph unicode="&#xfc;" d="M246 379v706h168v-682q0 -153 58 -215q58 -63 194 -63q122 0 188 76t66 211v673h167v-1085h-165v104h-4q-27 -36 -72 -67q-31 -25 -89 -47q-54 -21 -128 -21q-175 0 -280 100q-103 99 -103 310zM389 1251v187h186v-187h-186zM782 1251v187h187v-187h-187z" />
<glyph unicode="&#xfd;" d="M143 1085h181l321 -788h4l289 788h176l-584 -1546h-170l205 543zM618 1219l160 247h205l-219 -247h-146z" />
<glyph unicode="&#xfe;" d="M272 -461v1956h164v-512h4q44 55 120 94q75 39 185 39q102 0 188 -40q88 -41 150 -113q63 -74 101 -181q37 -105 37 -239q0 -132 -35 -240q-34 -104 -99 -180q-63 -74 -151 -114q-87 -40 -195 -40q-43 0 -90 11q-46 11 -85 28q-38 17 -71 42q-35 27 -51 48h-4v-559h-168z M440 356q0 -47 21 -89q22 -43 57 -73q40 -34 88 -52q50 -19 113 -19q165 0 250 110q86 112 86 310t-87 309t-249 111q-68 0 -119 -24q-52 -24 -87 -61t-54 -85q-19 -49 -19 -93v-344z" />
<glyph unicode="&#xff;" d="M143 1085h181l321 -788h4l289 788h176l-584 -1546h-170l205 543zM393 1251v187h187v-187h-187zM786 1251v187h187v-187h-187z" />
<glyph unicode="&#x152;" d="M152 729q0 189 32 323q34 140 85 230q53 92 120 137t135 45q76 0 126 -38q51 -39 69 -89h4v97h498v-156h-320v-449h262v-149h-262v-524h320v-156h-498v96h-4q-30 -66 -83 -97q-52 -30 -112 -30q-65 0 -131 42t-120 132q-53 88 -88 235q-33 138 -33 351zM334 729 q0 -176 19 -287q20 -115 51 -182q31 -66 73 -96q41 -29 84 -29q55 0 98 40t64 124v834q-17 68 -56 115q-41 48 -106 48q-98 0 -163 -134q-64 -132 -64 -433z" />
<glyph unicode="&#x153;" d="M106 543q0 136 26 245t69 180q44 73 100 110q58 38 121 38q40 0 79 -16q38 -15 74 -47q37 -32 63 -77q29 -49 40 -106h4q33 118 100 182t144 64q133 0 215 -148t82 -425v-49h-457q0 -72 15 -140q15 -66 41 -120q25 -51 59 -82t69 -31q32 0 53 22q19 20 35 56q15 34 24 70 q7 30 15 69l135 -33q-13 -77 -32 -133q-21 -61 -54 -106q-34 -47 -77 -71q-46 -26 -103 -26q-92 0 -162 65q-69 65 -102 181h-4q-11 -55 -40 -105q-26 -45 -63 -77q-36 -32 -74 -47q-42 -17 -79 -17q-65 0 -123 38q-55 36 -100 111q-44 73 -68 179q-25 111 -25 246zM262 543 q0 -211 50 -317q50 -105 110 -105q65 0 114 107q50 109 50 315q0 207 -49 314q-49 108 -115 108q-60 0 -110 -107q-50 -108 -50 -315zM770 629h305q0 61 -11 116q-12 62 -31 109q-19 48 -47 81q-27 32 -60 32q-41 0 -70 -35q-28 -34 -48 -85t-29 -110q-9 -60 -9 -108z" />
<glyph unicode="&#x178;" d="M106 1434h193l365 -666h4l364 666h193l-473 -830v-604h-172v604zM377 1567v186h186v-186h-186zM770 1567v186h186v-186h-186z" />
<glyph unicode="&#x2c6;" d="M418 1270l135 174h223l135 -174l-98 -78l-149 188l-150 -188z" />
<glyph unicode="&#x2dc;" d="M375 1233q6 37 18 72q11 31 34 61q20 26 53 43q31 16 77 16q40 0 70 -12t57 -27q18 -10 52 -26q26 -12 55 -12q57 0 73 67h90q-6 -37 -18 -72q-12 -34 -33 -61t-52 -43t-77 -16q-42 0 -72 12q-34 13 -58 27q-12 7 -53 26q-26 12 -52 12q-34 0 -50 -17q-17 -18 -24 -50 h-90z" />
<glyph unicode="&#x2000;" horiz-adv-x="926" />
<glyph unicode="&#x2001;" horiz-adv-x="1853" />
<glyph unicode="&#x2002;" horiz-adv-x="926" />
<glyph unicode="&#x2003;" horiz-adv-x="1853" />
<glyph unicode="&#x2004;" horiz-adv-x="617" />
<glyph unicode="&#x2005;" horiz-adv-x="463" />
<glyph unicode="&#x2006;" horiz-adv-x="308" />
<glyph unicode="&#x2007;" horiz-adv-x="308" />
<glyph unicode="&#x2008;" horiz-adv-x="231" />
<glyph unicode="&#x2009;" horiz-adv-x="370" />
<glyph unicode="&#x200a;" horiz-adv-x="102" />
<glyph unicode="&#x2010;" d="M328 623v151h673v-151h-673z" />
<glyph unicode="&#x2011;" d="M328 623v151h673v-151h-673z" />
<glyph unicode="&#x2012;" d="M328 623v151h673v-151h-673z" />
<glyph unicode="&#x2013;" d="M154 625v149h1022v-149h-1022z" />
<glyph unicode="&#x2014;" d="M82 625v149h1167v-149h-1167z" />
<glyph unicode="&#x2018;" d="M545 975v211q0 50 12 94q12 42 41 76q27 31 75 53q45 20 113 25v-93q-59 -10 -78 -43q-20 -34 -20 -81h98v-242h-241z" />
<glyph unicode="&#x2019;" d="M545 975v92q60 10 79 43q19 32 19 82h-98v242h241v-211q0 -51 -12 -95q-11 -40 -41 -75q-29 -33 -75 -54q-43 -19 -113 -24z" />
<glyph unicode="&#x201a;" d="M545 0v242h241v-211q0 -51 -12 -94q-12 -42 -41 -76q-29 -33 -75 -54q-43 -19 -113 -24v92q60 10 79 43q19 32 19 82h-98z" />
<glyph unicode="&#x201c;" d="M358 975v211q0 47 13 94q12 42 41 76q28 32 74 53q45 20 114 25v-93q-60 -10 -79 -43q-19 -32 -19 -81h98v-242h-242zM729 975v211q0 50 12 94q12 42 41 76q27 31 75 53q45 20 114 25v-93q-60 -10 -79 -43q-20 -34 -20 -81h99v-242h-242z" />
<glyph unicode="&#x201d;" d="M360 975v92q60 10 79 43q20 34 20 82h-99v242h242v-211q0 -51 -12 -95q-11 -40 -41 -75q-29 -33 -75 -54q-43 -19 -114 -24zM729 975v92q60 10 79 43q19 32 19 82h-98v242h242v-211q0 -48 -13 -95q-12 -42 -40 -75t-75 -54q-43 -19 -114 -24z" />
<glyph unicode="&#x201e;" d="M360 0v242h242v-211q0 -51 -12 -94q-12 -42 -41 -76q-29 -33 -75 -54q-43 -19 -114 -24v92q60 10 79 43q20 34 20 82h-99zM729 0v242h242v-211q0 -47 -13 -94q-12 -44 -40 -76q-28 -33 -75 -54q-43 -19 -114 -24v92q60 10 79 43q19 32 19 82h-98z" />
<glyph unicode="&#x2022;" d="M479 733q0 84 50 137q51 54 137 54q85 0 136 -54q50 -53 50 -137q0 -82 -50 -135t-136 -53q-87 0 -137 53t-50 135z" />
<glyph unicode="&#x2026;" d="M135 0v242h242v-242h-242zM551 0v242h242v-242h-242zM954 0v242h242v-242h-242z" />
<glyph unicode="&#x202f;" horiz-adv-x="370" />
<glyph unicode="&#x2039;" d="M469 575l223 381h164l-223 -381l227 -380h-166z" />
<glyph unicode="&#x203a;" d="M367 195h166l225 380l-223 381h-164l223 -381z" />
<glyph unicode="&#x205f;" horiz-adv-x="463" />
<glyph unicode="&#x20ac;" d="M143 481v137h82q-1 9 -2 27.5t-1 27.5q-1 18 -1 56v34q0 12 2 34h-80v137h93q21 136 68 232q48 100 113 166q66 68 144 100q77 32 166 32q95 0 173 -37t138 -103q58 -64 97 -159q37 -90 49 -200l-172 -31q-11 74 -30 140q-20 69 -54 117q-36 52 -84 81q-51 31 -117 31 q-113 0 -197 -89t-114 -280h434v-137h-449v-68q0 -38 1 -56q0 -9 2 -27.5t2 -27.5h444v-137h-428q33 -180 113 -266t192 -86q70 0 120 32q51 33 85 87q35 57 53 129q20 80 25 155l178 -22q-7 -121 -44 -223q-36 -101 -96 -171q-61 -71 -142 -109q-82 -38 -179 -38 q-83 0 -162 29q-77 28 -142 90t-113 159q-47 96 -70 234h-97z" />
<glyph unicode="&#x2122;" d="M145 1325v109h406v-109h-139v-586h-115v586h-152zM610 739v695h158l111 -271h4l108 271h160v-695h-115v539h-4l-110 -283h-82l-111 281h-4v-537h-115z" />
<glyph unicode="&#x25fc;" horiz-adv-x="1085" d="M0 0v1085h1085v-1085h-1085z" />
</font>
</defs>
</svg>
