<?xml version="1.0" standalone="no"?>
<!DOCTYPE svg PUBLIC "-//W3C//DTD SVG 1.1//EN" "http://www.w3.org/Graphics/SVG/1.1/DTD/svg11.dtd" >
<svg>
<metadata>
Created by FontForge 20090914 at Mon Oct 12 10:22:57 2015
 By www-data
Copyright (C) 1996 Emigre Graphics, Designed by Zuzana Licko
</metadata>
<defs>
<font id="MrsEaves-Bold" horiz-adv-x="625" >
  <font-face 
    font-family="MrsEaves"
    font-weight="700"
    font-stretch="normal"
    units-per-em="1000"
    panose-1="2 11 8 0 0 0 0 0 0 0"
    ascent="800"
    descent="-200"
    x-height="332.999"
    cap-height="600.002"
    bbox="-107.999 -300.999 1090 874"
    underline-thickness="25"
    underline-position="-62"
    unicode-range="U+0020-U+2122"
  />
<missing-glyph horiz-adv-x="502" 
d="M-1 0h500v500h-500v-500zM9 10v480h480v-480h-480z" />
    <glyph glyph-name=".notdef" horiz-adv-x="502" 
d="M-1 0h500v500h-500v-500zM9 10v480h480v-480h-480z" />
    <glyph glyph-name="space" unicode=" " horiz-adv-x="233" 
 />
    <glyph glyph-name="exclam" unicode="!" horiz-adv-x="329" 
d="M90 540c0 -17.333 1.50098 -32.3301 4.50098 -44.9971s7.5 -28 13.5 -46c10.667 -32.667 19.5 -66.834 26.5 -102.501s11.5 -86.834 13.5 -153.501h34c2 66 6.66699 117 14 153s16.666 70.333 27.999 103c6.66699 18.667 11.5 34.167 14.5 46.5s4.5 27.166 4.5 44.499
c0 20.667 -7.66699 38.667 -23 54s-33.666 23 -54.999 23c-20.667 0 -38.334 -7.66699 -53.001 -23s-22 -33.333 -22 -54zM223.001 49.0029c0 16 -5.66699 29.667 -17 41s-25 17 -41 17s-29.333 -5.66699 -40 -17s-16 -25 -16 -41c0 -15.333 5.33301 -28.666 16 -39.999
s24 -17 40 -17s29.667 5.66699 41 17s17 24.666 17 39.999z" />
    <glyph glyph-name="quotedbl" unicode="&#x22;" horiz-adv-x="428" 
d="M57 549c0 -9.33301 4.33398 -26.668 13.001 -52.001c10 -30.667 18.333 -60.167 25 -88.5s11.667 -63.166 15 -104.499h23c3.33301 42 8.66602 77.333 15.999 106s16 57.667 26 87c9.33301 26 14 43.333 14 52c0 18.667 -6.66699 34.667 -20 48s-29 20 -47 20
s-33.333 -6.66699 -46 -20s-19 -29.333 -19 -48zM240.001 548.998c0 -8.66699 4.33301 -26 13 -52c10 -30 18.333 -59.167 25 -87.5s11.667 -63.5 15 -105.5h24c3.33301 41.333 8.5 76.5 15.5 105.5s15.833 58.5 26.5 88.5c9.33301 25.333 14 42.333 14 51
c0 18.667 -6.83301 34.667 -20.5 48s-29.5 20 -47.5 20s-33.333 -6.66699 -46 -20s-19 -29.333 -19 -48z" />
    <glyph glyph-name="numbersign" unicode="#" horiz-adv-x="435" 
d="M311 323l16 94h70l12 69h-70l19 114h-56l-19 -114h-90l20 114h-57l-19 -114h-69l-13 -69h69l-16 -94h-69l-12 -70h70l-19 -114h56l19 114h90l-20 -114h57l18 114h70l13 70h-70zM165 323l16 94h89l-16 -94h-89z" />
    <glyph glyph-name="dollar" unicode="$" horiz-adv-x="498" 
d="M260 589v94.0029h-52v-92c-45.333 -2.66699 -82.666 -17.334 -111.999 -44.001s-44 -59.667 -44 -99c0 -34 10.167 -64.333 30.5 -91s46.166 -48 77.499 -64l48 -25v-216c-24 4.66699 -42.667 13.334 -56 26.001s-26.333 28.667 -39 48
c-8 12.667 -14.833 21.834 -20.5 27.501s-12.167 8.5 -19.5 8.5c-4.66699 0 -10 -1.33301 -16 -4c-10.667 -4.66699 -16 -13.334 -16 -26.001c0 -10 3.83301 -21.333 11.5 -34s18.834 -25.167 33.501 -37.5s32.5 -23 53.5 -32s43.833 -15.167 68.5 -18.5v-93h52v91
c49.333 3.33301 90.5 20.333 123.5 51s49.5 70.667 49.5 120c0 27.333 -8.83301 54 -26.5 80s-43.167 47.667 -76.5 65l-70 36v185c14 -4.66699 25.167 -11.834 33.5 -21.501s17.166 -21.834 26.499 -36.501c8 -12 14.667 -21 20 -27s12 -9 20 -9c2.66699 0 6 0.666992 10 2
c18 5.33301 27 16.666 27 33.999c0 20.667 -12.333 41.5 -37 62.5s-58 34.167 -100 39.5zM260 49.0029l-0.00195312 192.001c24.667 -14 43.834 -29.833 57.501 -47.5s20.5 -37.834 20.5 -60.501c0 -23.333 -7.16699 -42.333 -21.5 -57s-33.166 -23.667 -56.499 -27z
M207.998 548.004v-160.002c-21.333 12.667 -36.833 25.834 -46.5 39.501s-14.5 29.834 -14.5 48.501c0 18 5.83301 33.5 17.5 46.5s26.167 21.5 43.5 25.5z" />
    <glyph glyph-name="percent" unicode="%" horiz-adv-x="763" 
d="M372 473c0 19.333 -4.16699 37.6689 -12.5 55.002s-20.166 32.833 -35.499 46.5s-33 24.167 -53 31.5s-41 11 -63 11s-43 -3.66699 -63 -11s-37.667 -17.666 -53 -30.999s-27.333 -28.833 -36 -46.5s-13 -36.167 -13 -55.5c0 -18.667 4.33301 -36.834 13 -54.501
s20.667 -33.167 36 -46.5s33 -23.666 53 -30.999s41 -11 63 -11s43 3.66699 63 11s37.667 17.666 53 30.999s27.166 28.666 35.499 45.999s12.5 35.666 12.5 54.999zM273 473.003c0 -27.333 -5.66699 -51.668 -17 -73.001s-27.333 -32 -48 -32s-36.834 10.833 -48.501 32.5
s-17.5 45.834 -17.5 72.501c0 27.333 5.83301 51.666 17.5 72.999s27.834 32 48.501 32s36.667 -10.667 48 -32s17 -45.666 17 -72.999zM587 598.001l-39 22l-370 -617l40 -21zM719 128.001c0 19.333 -4.16699 37.666 -12.5 54.999s-20.166 32.666 -35.499 45.999
s-33 23.666 -53 30.999s-41 11 -63 11s-43 -3.66699 -63 -11s-37.667 -17.666 -53 -30.999s-27.166 -28.666 -35.499 -45.999s-12.5 -35.666 -12.5 -54.999s4.16699 -37.666 12.5 -54.999s20.166 -32.833 35.499 -46.5s33 -24.167 53 -31.5s41 -11 63 -11s43 3.66699 63 11
s37.667 17.666 53 30.999s27.166 28.833 35.499 46.5s12.5 36.167 12.5 55.5zM621 128.001c0 -27.333 -5.83301 -51.666 -17.5 -72.999s-27.834 -32 -48.501 -32s-36.834 10.667 -48.501 32s-17.5 45.666 -17.5 72.999s5.83301 51.666 17.5 72.999s27.834 32 48.501 32
s36.834 -10.667 48.501 -32s17.5 -45.666 17.5 -72.999z" />
    <glyph glyph-name="ampersand" unicode="&#x26;" horiz-adv-x="657" 
d="M249 368c-10.667 19.333 -18.332 38.666 -22.999 57.999s-7 40.333 -7 63c0 20.667 6.5 39.334 19.5 56.001s29.833 25 50.5 25c18 0 32.833 -6 44.5 -18s17.5 -28.667 17.5 -50c0 -28 -8.83301 -52.167 -26.5 -72.5s-42.834 -40.833 -75.501 -61.5zM374.002 67
c-28 -24.667 -57.666 -37 -88.999 -37c-32.667 0 -60.334 11.5 -83.001 34.5s-34 51.5 -34 85.5c0 22.667 3 43 9 61s14.667 34.667 26 50c30.667 -41.333 87.667 -106 171 -194zM405.003 38c19.333 -16.667 38.667 -30 58 -40s37.333 -15 54 -15
c23.333 0 45.166 7.83301 65.499 23.5s40.5 38.167 60.5 67.5l-20 19c-23.333 -23.333 -45 -35 -65 -35c-30 0 -62.333 18.333 -97 55c10 21.333 17.333 39.666 22 54.999c8.66699 24 16 42.167 22 54.5s13 22.166 21 29.499s17.667 12.5 29 15.5s26.333 4.5 45 4.5v29h-234
v-29c32 0 54.833 -3.16699 68.5 -9.5s20.5 -17.5 20.5 -33.5c0 -9.33301 -2.33301 -21.333 -7 -36c-5.33301 -18 -11.333 -33.333 -18 -46c-5.33301 6 -10.666 11.667 -15.999 17l-88 99.5c-20 23 -37 44.5 -51 64.5l52 33c41.333 24 71.833 45.833 91.5 65.5
s29.5 44.834 29.5 75.501c0 36.667 -15.333 65 -46 85s-68.334 30 -113.001 30c-52 0 -95.667 -13.167 -131 -39.5s-53 -61.166 -53 -104.499c0 -46 19.333 -97.667 58 -155c-37.333 -24 -66.166 -48 -86.499 -72s-30.5 -53.333 -30.5 -88
c0 -55.333 19.833 -98.333 59.5 -129s88.5 -46 146.5 -46c62.667 0 113.667 18.333 153 55z" />
    <glyph glyph-name="quotesingle" unicode="'" horiz-adv-x="245" 
d="M57 549c0 -9.33301 4.33398 -26.668 13.001 -52.001c10 -30.667 18.333 -60.167 25 -88.5s11.667 -63.166 15 -104.499h23c3.33301 42 8.66602 77.333 15.999 106s16 57.667 26 87c9.33301 26 14 43.333 14 52c0 18.667 -6.66699 34.667 -20 48s-29 20 -47 20
s-33.333 -6.66699 -46 -20s-19 -29.333 -19 -48z" />
    <glyph glyph-name="parenleft" unicode="(" horiz-adv-x="358" 
d="M334 -86c-18 20 -35.5 41.6631 -52.5 64.9961s-33.333 50.833 -49 82.5s-28.667 67.334 -39 107.001s-15.5 81.834 -15.5 126.501s5.16699 86.834 15.5 126.501s23.333 75.334 39 107.001s32 59 49 82s34.5 44.833 52.5 65.5l-27 25c-34 -28 -65.167 -56.833 -93.5 -86.5
s-53.5 -61.167 -75.5 -94.5s-39.333 -68.833 -52 -106.5s-19 -77.167 -19 -118.5c0 -40.667 6.33301 -80 19 -118s30 -73.667 52 -107s47.333 -64.833 76 -94.5s60 -58.5 94 -86.5z" />
    <glyph glyph-name="parenright" unicode=")" horiz-adv-x="358" 
d="M292 295c0 41.333 -6.33301 80.833 -19 118.5s-30 73.167 -52 106.5s-47.167 64.833 -75.5 94.5s-59.5 58.5 -93.5 86.5l-28 -25c18 -20 35.5 -41.667 52.5 -65s33.5 -51 49.5 -83s29.167 -67.667 39.5 -107s15.5 -81.333 15.5 -126s-5.16699 -86.834 -15.5 -126.501
s-23.5 -75.167 -39.5 -106.5s-32.5 -58.666 -49.5 -81.999s-34.5 -45.333 -52.5 -66l27 -25c34.667 28 66.167 56.833 94.5 86.5s53.5 61.167 75.5 94.5s39.333 69 52 107s19 77.333 19 118z" />
    <glyph glyph-name="asterisk" unicode="*" horiz-adv-x="425" 
d="M181 429c-18 -6 -41.332 -9.66504 -69.999 -10.998c-20 -1.33301 -33.667 -4 -41 -8c-8 -4.66699 -14.5 -11.5 -19.5 -20.5s-7.5 -18.167 -7.5 -27.5c0 -10 2.33301 -18.667 7 -26c9.33301 -17.333 24.666 -26 45.999 -26c10 0 19 2.66699 27 8
c8 4.66699 18 15.334 30 32.001c15.333 23.333 30.333 40.666 45 51.999c-4 -18.667 -12.333 -40 -25 -64c-10 -18.667 -15 -32.334 -15 -41.001c0 -14.667 5.5 -27.5 16.5 -38.5s23.833 -16.5 38.5 -16.5s27 5.5 37 16.5s15 23.833 15 38.5c0 9.33301 -4.66699 23 -14 41
c-12 24 -19.667 45.333 -23 64c14 -12 28.667 -29.667 44 -53c11.333 -17.333 21 -28.333 29 -33c7.33301 -4.66699 16 -7 26 -7c9.33301 0 18.5 2.33301 27.5 7s15.833 11.334 20.5 20.001c4 7.33301 6 15.333 6 24c0 22 -9 38 -27 48
c-8.66699 4.66699 -23.334 7.66699 -44.001 9c-26.667 2 -49 6 -67 12c18.667 6.66699 42.334 10.667 71.001 12c20 0.666992 33.667 3 41 7c18 10.667 27 27 27 49c0 9.33301 -2.33301 18 -7 26c-9.33301 17.333 -24.666 26 -45.999 26c-10 0 -19 -2.66699 -27 -8
c-8 -4 -18.333 -15 -31 -33c-14.667 -22 -29 -39 -43 -51c3.33301 18 11.333 39 24 63c10 18.667 15 32.667 15 42c0 14.667 -5.33301 27.5 -16 38.5s-23.334 16.5 -38.001 16.5s-27.167 -5.5 -37.5 -16.5s-15.5 -23.833 -15.5 -38.5c0 -9.33301 4.66699 -23.333 14 -42
c12.667 -24.667 20.667 -46.334 24 -65.001c-14.667 12.667 -29.667 30.667 -45 54c-11.333 18 -21 29.333 -29 34c-7.33301 4.66699 -16 7 -26 7c-9.33301 0 -18.5 -2.33301 -27.5 -7s-15.833 -11.334 -20.5 -20.001c-4 -7.33301 -6 -15.666 -6 -24.999c0 -22 9 -38 27 -48
c7.33301 -4.66699 21 -7.33398 41 -8.00098c27.333 -2 50.333 -6.33301 69 -13z" />
    <glyph glyph-name="plus" unicode="+" horiz-adv-x="458" 
d="M268 260v140h-78v-140h-140v-77h140v-141h78v141h140v77h-140z" />
    <glyph glyph-name="comma" unicode="," horiz-adv-x="313" 
d="M108 -139c36 22.667 63.834 50.668 83.501 84.001s29.5 65.666 29.5 96.999c0 24 -7.33301 43 -22 57s-31.667 21 -51 21c-17.333 0 -32 -6.33301 -44 -19s-18 -27.667 -18 -45s6 -32.333 18 -45s26.667 -19 44 -19h5c-4.66699 -34 -26.334 -71 -65.001 -111z" />
    <glyph glyph-name="hyphen" unicode="-" horiz-adv-x="458" 
d="M375 166v77h-292v-77h292z" />
    <glyph glyph-name="period" unicode="." horiz-adv-x="313" 
d="M213 56c0 17.333 -6.5 32.333 -19.5 45s-28.167 19 -45.5 19s-32 -6.33301 -44 -19s-18 -27.667 -18 -45s6 -32.333 18 -45s26.667 -19 44 -19s32.5 6.33301 45.5 19s19.5 27.667 19.5 45z" />
    <glyph glyph-name="slash" unicode="/" horiz-adv-x="348" 
d="M334 601l-49 19l-271 -621l49 -17z" />
    <glyph glyph-name="zero" unicode="0" horiz-adv-x="592" 
d="M296 450c-31.333 0 -61.166 -6 -89.499 -18s-53.333 -28.833 -75 -50.5s-38.5 -46.667 -50.5 -75s-18 -58.166 -18 -89.499s6 -61.333 18 -90s28.833 -53.834 50.5 -75.501s46.667 -38.5 75 -50.5s58.166 -18 89.499 -18s61.166 6 89.499 18s53.333 28.833 75 50.5
s38.5 46.834 50.5 75.501s18 58.667 18 90s-6 61.166 -18 89.499s-28.833 53.333 -50.5 75s-46.667 38.5 -75 50.5s-58.166 18 -89.499 18zM296 366c19.333 0 37.667 -3.83301 55 -11.5s32.666 -18.334 45.999 -32.001s23.833 -29.667 31.5 -48s11.5 -37.5 11.5 -57.5
s-3.66699 -39.167 -11 -57.5s-17.833 -34.333 -31.5 -48s-29.167 -24.334 -46.5 -32.001s-35.666 -11.5 -54.999 -11.5s-37.666 3.83301 -54.999 11.5s-32.666 18.334 -45.999 32.001s-23.833 29.667 -31.5 48s-11.5 37.5 -11.5 57.5s3.83301 39.167 11.5 57.5
s18.167 34.333 31.5 48s28.666 24.334 45.999 32.001s35.666 11.5 54.999 11.5z" />
    <glyph glyph-name="one" unicode="1" horiz-adv-x="404" 
d="M354 0l0.00195312 29c-22 0 -39 1.5 -51 4.5s-21.333 8.5 -28 16.5s-11.167 19.5 -13.5 34.5s-3.5 35.5 -3.5 61.5v142c0 26 1.16699 46.5 3.5 61.5s6.83301 26.333 13.5 34s16 13 28 16s29 4.5 51 4.5v29h-304v-29c22 0 39.167 -1.5 51.5 -4.5
s21.666 -8.33301 27.999 -16s10.666 -19 12.999 -34s3.5 -35.5 3.5 -61.5v-142c0 -26 -1.16699 -46.5 -3.5 -61.5s-6.83301 -26.5 -13.5 -34.5s-16 -13.5 -28 -16.5s-29 -4.5 -51 -4.5v-29h304z" />
    <glyph glyph-name="two" unicode="2" horiz-adv-x="553" 
d="M348 163c34 21.333 61.667 43.8301 83 67.4971s32 52.167 32 85.5c0 38 -19.5 69.833 -58.5 95.5s-91.167 38.5 -156.5 38.5c-55.333 0 -100 -13.167 -134 -39.5s-51 -56.833 -51 -91.5c0 -37.333 20 -68 60 -92l47 31c-12 22.667 -18 43.667 -18 63
c0 24 8.16699 43 24.5 57s36.833 21 61.5 21c29.333 0 52 -9 68 -27s24 -41 24 -69c0 -25.333 -5.5 -47.666 -16.5 -66.999s-28.167 -38.666 -51.5 -57.999l-188 -154v-24h231c26 0 46.5 -1.16699 61.5 -3.5s26.5 -6.16602 34.5 -11.499s13.5 -13 16.5 -23
s4.5 -23.667 4.5 -41h21l25 171h-237z" />
    <glyph glyph-name="three" unicode="3" horiz-adv-x="525" 
d="M258 115c24 -14 41.332 -31.999 51.999 -53.999s16 -49 16 -81c0 -35.333 -7.33301 -64.333 -22 -87s-35.667 -34 -63 -34c-24.667 0 -44 5.33301 -58 16s-28 26 -42 46c-8.66699 12.667 -16 22 -22 28s-13.333 9 -22 9c-1.33301 0 -2.33301 -0.333008 -3 -1h-4
c-17.333 -3.33301 -26 -13.333 -26 -30c0 -10.667 4.16699 -22.667 12.5 -36s20.5 -26 36.5 -38s35.667 -21.667 59 -29s49 -11 77 -11c28.667 0 56 3.83301 82 11.5s49 18.667 69 33s35.667 31.833 47 52.5s17 44 17 70c0 38.667 -16.333 73.5 -49 104.5
s-73.667 49.833 -123 56.5l49 28c28 16.667 52.667 37.334 74 62.001s32 53 32 85c0 41.333 -19.833 74 -59.5 98s-89.167 36 -148.5 36c-54 0 -97.167 -12.667 -129.5 -38s-48.5 -55 -48.5 -89c0 -18 5.16699 -35.333 15.5 -52s25.833 -31.334 46.5 -44.001l47 31
c-12 20.667 -18 41 -18 61c0 23.333 8 42.5 24 57.5s35 22.5 57 22.5c25.333 0 45.333 -9 60 -27s22 -42.333 22 -73c0 -16 -4.5 -34.5 -13.5 -55.5s-21.833 -39.833 -38.5 -56.5l-55 -58l-1 -1c-8.66699 -8.66699 -15.167 -15.834 -19.5 -21.501s-6.5 -11.167 -6.5 -16.5
c0 -6 2.66699 -11 8 -15c4.66699 -4 9.33398 -6 14.001 -6c5.33301 0 10.5 2 15.5 6s11.167 10.333 18.5 19c8.66699 10 15.667 17 21 21z" />
    <glyph glyph-name="four" unicode="4" horiz-adv-x="565" 
d="M358 492h-26l-296 -423v-27h210v-66c0 -26 -1.16699 -46.5 -3.5 -61.5s-6.83301 -26.5 -13.5 -34.5s-16 -13.5 -28 -16.5s-29 -4.5 -51 -4.5v-29h304v29c-22 0 -39 1.5 -51 4.5s-21.333 8.5 -28 16.5s-11.167 19.5 -13.5 34.5s-3.5 35.5 -3.5 61.5v66h145l8 141h-29
l-5 -20c-8 -29.333 -18.667 -49.333 -32 -60s-41.333 -16 -84 -16h-3v405zM246 87h-143l143 203v-203z" />
    <glyph glyph-name="five" unicode="5" horiz-adv-x="501" 
d="M133 186l15.002 135.002h254l24 188h-23c-7.33301 -30 -17.666 -50.167 -30.999 -60.5s-41.333 -15.5 -84 -15.5h-178l-31 -343h45c12 36 25.167 60 39.5 72s33.166 18 56.499 18c26.667 0 48.834 -14.667 66.501 -44s26.5 -67.333 26.5 -114
c0 -47.333 -8.83301 -86.333 -26.5 -117s-39.834 -46 -66.501 -46c-26 0 -44.667 5.16699 -56 15.5s-21.333 25.166 -30 44.499c-5.33301 12.667 -10.833 22.167 -16.5 28.5s-13.834 9.5 -24.501 9.5c-18.667 0 -28 -9.66699 -28 -29c0 -10.667 3.83301 -22.667 11.5 -36
s18.667 -26 33 -38s31.666 -21.833 51.999 -29.5s42.5 -11.5 66.5 -11.5c30 0 58 5.33301 84 16s48.333 25.667 67 45s33.167 41.666 43.5 66.999s15.5 52.333 15.5 81s-5 55.667 -15 81s-24 47.5 -42 66.5s-39.5 33.833 -64.5 44.5s-51.5 16 -79.5 16
c-20 0 -40.167 -4.33301 -60.5 -13s-34.833 -19 -43.5 -31z" />
    <glyph glyph-name="six" unicode="6" horiz-adv-x="533" 
d="M179 278c7.33301 10.667 18.998 18.6689 34.998 24.002s33 8 51 8c27.333 0 48.5 -11.333 63.5 -34s22.5 -57.334 22.5 -104.001c0 -43.333 -6 -77.5 -18 -102.5s-32 -37.5 -60 -37.5c-11.333 0 -22.166 3.16699 -32.499 9.5s-20.166 18.333 -29.499 36
s-17 43.167 -23 76.5s-9 74.666 -9 123.999zM178.998 332.002c1.33301 33.333 4.16699 64.5 8.5 93.5s11.166 55 20.499 78s21.833 41.333 37.5 55s34.5 20.5 56.5 20.5c20 0 36.333 -4 49 -12s25.334 -19.333 38.001 -34c7.33301 -8.66699 13.166 -14.834 17.499 -18.501
s9.16602 -5.5 14.499 -5.5c4 0 8.66699 1.66699 14 5c8.66699 6 13 13.667 13 23c0 8.66699 -3.66699 17.834 -11 27.501s-18 18.834 -32 27.501s-29.833 15.5 -47.5 20.5s-36.5 7.5 -56.5 7.5c-36.667 0 -70 -10 -100 -30s-55.167 -47.167 -75.5 -81.5
s-35.833 -72.5 -46.5 -114.5s-16 -84.667 -16 -128c0 -54.667 7 -100.834 21 -138.501s31.833 -67 53.5 -88s44.334 -35.667 68.001 -44s46.167 -12.5 67.5 -12.5c27.333 0 53.333 4.83301 78 14.5s46.167 23.167 64.5 40.5s32.833 37.5 43.5 60.5s16 47.167 16 72.5
s-5.5 49.333 -16.5 72s-26.5 42.667 -46.5 60s-42.667 30.833 -68 40.5s-51.666 14.5 -78.999 14.5c-16 0 -31.5 -2 -46.5 -6s-28.167 -10.667 -39.5 -20z" />
    <glyph glyph-name="seven" unicode="7" horiz-adv-x="479" 
d="M435 442l-194.998 -0.000976562c-26.667 0 -47.334 1 -62.001 3s-26 5.83301 -34 11.5s-13.5 13.334 -16.5 23.001s-4.5 23.5 -4.5 41.5h-20l-42 -288h21l5 20c7.33301 30 17.666 50.167 30.999 60.5s41.666 15.5 84.999 15.5h150l-219 -439c-6 -12 -9 -23.333 -9 -34
c0 -12.667 3.83301 -23.167 11.5 -31.5s16.834 -12.5 27.501 -12.5c20.667 0 36.667 13.333 48 40l223 562v28z" />
    <glyph glyph-name="eight" unicode="8" horiz-adv-x="545" 
d="M292 383c-27.333 22 -48.332 42.833 -62.999 62.5s-22 39.834 -22 60.501c0 16.667 6.16699 31.5 18.5 44.5s28.166 19.5 47.499 19.5c20 0 37.333 -6.66699 52 -20s22 -31.333 22 -54c0 -21.333 -5 -41.333 -15 -60s-23.333 -36.334 -40 -53.001zM245.001 288
c40 -31.333 70.501 -59 91.501 -83s31.5 -49.333 31.5 -76c0 -27.333 -8.66699 -50.666 -26 -69.999s-40.333 -29 -69 -29c-32.667 0 -58.334 11.667 -77.001 35s-28 50.333 -28 81s6.83301 57.167 20.5 79.5s32.5 43.166 56.5 62.499zM336.002 349
c35.333 22 62.1699 43.1699 80.5029 63.5029s27.5 45.833 27.5 76.5c0 16.667 -4.66699 32.667 -14 48s-22.333 29.166 -39 41.499s-35.667 21.833 -57 28.5s-43.333 10 -66 10s-44.5 -3.5 -65.5 -10.5s-39.833 -17.167 -56.5 -30.5s-29.667 -28.833 -39 -46.5
s-14 -36.5 -14 -56.5c0 -26 9.5 -50.833 28.5 -74.5s46.167 -49.834 81.5 -78.501l-12 -7c-22 -12.667 -39.667 -23.5 -53 -32.5s-25.833 -19.5 -37.5 -31.5s-20.834 -25.833 -27.501 -41.5s-10 -33.5 -10 -53.5c0 -23.333 5.66699 -45.5 17 -66.5s26.833 -39.333 46.5 -55
s42.167 -27.834 67.5 -36.501s51.666 -13 78.999 -13s53.666 4.33301 78.999 13s47.833 21 67.5 37s35.167 34.833 46.5 56.5s17 44.5 17 68.5c0 34.667 -12.5 66 -37.5 94s-61.5 60.333 -109.5 97z" />
    <glyph glyph-name="nine" unicode="9" horiz-adv-x="533" 
d="M471 168c0 54.667 -7.00195 100.67 -21.002 138.003s-31.833 66.5 -53.5 87.5s-44.334 35.667 -68.001 44s-46.5 12.5 -68.5 12.5c-27.333 0 -53.333 -4.83301 -78 -14.5s-46.167 -23.167 -64.5 -40.5s-32.833 -37.333 -43.5 -60s-16 -46.667 -16 -72
s5.66699 -49.5 17 -72.5s26.833 -43.167 46.5 -60.5s42.167 -30.833 67.5 -40.5s51.666 -14.5 78.999 -14.5c16 0 31.5 2.16699 46.5 6.5s28.167 11.166 39.5 20.499c-1.33301 -33.333 -4.16602 -64.5 -8.49902 -93.5s-11.166 -55.167 -20.499 -78.5
s-21.666 -41.833 -36.999 -55.5s-34 -20.5 -56 -20.5c-20 0 -36.167 4 -48.5 12s-24.833 19.333 -37.5 34c-7.33301 8.66699 -13.333 14.834 -18 18.501s-9.66699 5.5 -15 5.5c-4.66699 0 -9.66699 -1.66699 -15 -5c-8.66699 -5.33301 -13 -12.666 -13 -21.999
c0 -8.66699 3.66699 -17.834 11 -27.501s18 -18.834 32 -27.501s30 -15.667 48 -21s37 -8 57 -8c37.333 0 70.833 10 100.5 30s54.834 47.167 75.501 81.5s36.167 72.666 46.5 114.999s15.5 85.166 15.5 128.499zM353.998 156.003
c-6.66699 -10.667 -18.167 -18.834 -34.5 -24.501s-33.5 -8.5 -51.5 -8.5c-26.667 0 -47.5 11.5 -62.5 34.5s-22.5 57.833 -22.5 104.5c0 43.333 6 77.5 18 102.5s31.667 37.5 59 37.5c11.333 0 22.166 -3.16699 32.499 -9.5s20.333 -18.333 30 -36
s17.334 -43.167 23.001 -76.5s8.5 -74.666 8.5 -123.999z" />
    <glyph glyph-name="colon" unicode=":" horiz-adv-x="313" 
d="M227 49c0 16 -5.66699 29.667 -17 41s-25 17 -41 17c-15.333 0 -28.5 -5.66699 -39.5 -17s-16.5 -25 -16.5 -41c0 -15.333 5.5 -28.666 16.5 -39.999s24.167 -17 39.5 -17c16 0 29.667 5.66699 41 17s17 24.666 17 39.999zM227 238c0 16 -5.66699 29.667 -17 41
s-25 17 -41 17c-15.333 0 -28.5 -5.66699 -39.5 -17s-16.5 -25 -16.5 -41c0 -15.333 5.5 -28.666 16.5 -39.999s24.167 -17 39.5 -17c16 0 29.667 5.66699 41 17s17 24.666 17 39.999z" />
    <glyph glyph-name="semicolon" unicode=";" horiz-adv-x="313" 
d="M133 -128c32 20.667 56.832 46 74.499 76s26.5 59 26.5 87c0 22 -6.66699 39.333 -20 52s-28.666 19 -45.999 19c-14.667 0 -27.5 -5.83301 -38.5 -17.5s-16.5 -25.167 -16.5 -40.5s5.5 -28.833 16.5 -40.5s23.833 -17.5 38.5 -17.5h5c-4.66699 -30.667 -24 -64 -58 -100
zM226.999 238c0 16 -5.66699 29.667 -17 41s-25 17 -41 17c-15.333 0 -28.5 -5.66699 -39.5 -17s-16.5 -25 -16.5 -41c0 -15.333 5.5 -28.666 16.5 -39.999s24.167 -17 39.5 -17c16 0 29.667 5.66699 41 17s17 24.666 17 39.999z" />
    <glyph glyph-name="less" unicode="&#x3c;" horiz-adv-x="500" 
d="M428 73l-175 195l175 195l-15 22l-338 -217l338 -218z" />
    <glyph glyph-name="equal" unicode="=" horiz-adv-x="458" 
d="M375 250v78h-292v-78h292zM375 108v78h-292v-78h292z" />
    <glyph glyph-name="greater" unicode="&#x3e;" horiz-adv-x="500" 
d="M425 268l-337 217l-16 -22l175 -195l-175 -195l16 -23z" />
    <glyph glyph-name="question" unicode="?" horiz-adv-x="513" 
d="M392 468c0 -36.667 -18.167 -65.6641 -54.5 -86.9971s-82.833 -32 -139.5 -32v-174h45v54c66 8 119.833 30 161.5 66s62.5 84 62.5 144c0 20 -5 40.667 -15 62s-24.667 40.666 -44 57.999s-43 31.333 -71 42s-59.333 16 -94 16c-18 0 -36.5 -2.5 -55.5 -7.5
s-36.667 -12.5 -53 -22.5s-29.5 -22.333 -39.5 -37s-15 -31 -15 -49c0 -29.333 9 -51 27 -65s37.667 -21 59 -21c14 0 28.167 4.5 42.5 13.5s21.5 21.833 21.5 38.5c0 11.333 -4.33301 21.166 -13 29.499s-19 12.5 -31 12.5c-11.333 0 -19.833 2.16699 -25.5 6.5
s-8.5 9.83301 -8.5 16.5c0 9.33301 8.33301 19.166 25 29.499s38.667 15.5 66 15.5c43.333 0 79 -11 107 -33s42 -47.333 42 -76zM278 49.0029c0 16 -5.5 29.667 -16.5 41s-24.5 17 -40.5 17s-29.333 -5.66699 -40 -17s-16 -25 -16 -41
c0 -15.333 5.33301 -28.666 16 -39.999s24 -17 40 -17s29.5 5.66699 40.5 17s16.5 24.666 16.5 39.999z" />
    <glyph glyph-name="at" unicode="@" horiz-adv-x="708" 
d="M674 360c0 39.333 -7.00098 75.4971 -21.001 108.497s-33.833 61.333 -59.5 85s-55.667 41.834 -90 54.501s-71.5 19 -111.5 19c-47.333 0 -92.666 -9.16699 -135.999 -27.5s-81.333 -43.666 -114 -75.999s-58.167 -70 -76.5 -113s-27.5 -88.167 -27.5 -135.5
c0 -42.667 8.33301 -82.834 25 -120.501s39.834 -70.5 69.501 -98.5s64.334 -49.667 104.001 -65s81.834 -23 126.501 -23c37.333 0 76.833 7.5 118.5 22.5s81.167 36.5 118.5 64.5l-19 28c-36.667 -22.667 -71.167 -39.667 -103.5 -51s-67.833 -17 -106.5 -17
c-35.333 0 -68 6.33301 -98 19s-56 30.834 -78 54.501s-38.833 51.667 -50.5 84s-17.5 67.5 -17.5 105.5c0 37.333 7 73.333 21 108s33.833 65.834 59.5 93.501s55.5 49.334 89.5 65.001s70.333 23.5 109 23.5c28 0 55.167 -4.66699 81.5 -14s49.666 -23.166 69.999 -41.499
s36.333 -40.5 48 -66.5s17.5 -55.333 17.5 -88c0 -30 -3.83301 -57.333 -11.5 -82s-17.667 -45.834 -30 -63.501s-25.5 -31 -39.5 -40s-27 -13.5 -39 -13.5c-14 0 -21 8 -21 24c0 5.33301 0.666992 12 2 20l48 267h-67c-10.667 6 -20.834 10.167 -30.501 12.5
s-21.167 3.5 -34.5 3.5c-21.333 0 -42.333 -4.83301 -63 -14.5s-39.834 -23.167 -57.501 -40.5s-32.667 -37.5 -45 -60.5s-20.833 -47.167 -25.5 -72.5c-2.66699 -16 -4 -32 -4 -48c0 -42.667 10.333 -77.334 31 -104.001s49.334 -40 86.001 -40
c13.333 0 28.666 4 45.999 12s32.333 18.333 45 31c6.66699 -11.333 16 -20.833 28 -28.5s25.667 -11.5 41 -11.5c21.333 0 43.333 6.5 66 19.5s43.5 31.167 62.5 54.5s34.333 50.333 46 81s17.5 62.667 17.5 96zM443.999 424.997l-31.998 -187.001
c-4.66699 -22 -14.167 -40.833 -28.5 -56.5s-29.5 -23.5 -45.5 -23.5c-16.667 0 -28.834 7.16699 -36.501 21.5s-11.5 33.833 -11.5 58.5c0 16.667 1.66699 35.334 5 56.001c7.33301 40 20.166 74.667 38.499 104s39.833 44 64.5 44c18 0 33.333 -5.66699 46 -17z" />
    <glyph glyph-name="A" unicode="A" 
d="M170 200l197.998 0.000976562l42 -95c7.33301 -16 11 -29 11 -39c0 -12.667 -6.66699 -22 -20 -28s-35.333 -9 -66 -9v-29h328v29c-37.333 0 -63.166 5.83301 -77.499 17.5s-29.166 35.167 -44.499 70.5l-218 500h-21l-217 -500c-15.333 -35.333 -31 -58.833 -47 -70.5
s-41.333 -17.5 -76 -17.5v-29h242v29c-30 0 -51.667 3 -65 9s-20 16 -20 30c0 9.33301 3.33301 21.666 10 36.999zM348.998 245.001h-159l79 183z" />
    <glyph glyph-name="B" unicode="B" horiz-adv-x="657" 
d="M347 45l7 0.000976562c-22 0 -39 1.5 -51 4.5s-21.333 8.16699 -28 15.5s-11.167 18.166 -13.5 32.499s-3.5 33.833 -3.5 58.5v139h89c41.333 0 72.833 -11.833 94.5 -35.5s32.5 -53.5 32.5 -89.5c0 -36.667 -10.833 -66.667 -32.5 -90s-53.167 -35 -94.5 -35z
M258 555.001l56 0.000976562c36 0 63.333 -10.333 82 -31s28 -46.334 28 -77.001c0 -31.333 -9.33301 -57 -28 -77s-46 -30 -82 -30h-56v215zM484 326.002c23.333 13.333 41.5 30.834 54.5 52.501s19.5 45.5 19.5 71.5c0 42.667 -16.5 78.334 -49.5 107.001
s-76.5 43 -130.5 43h-340v-29c22 0 39 -1.5 51 -4.5s21.167 -8.5 27.5 -16.5s10.666 -19.333 12.999 -34s3.5 -35.334 3.5 -62.001v-308c0 -26.667 -1.16699 -47.334 -3.5 -62.001s-6.66602 -26 -12.999 -34s-15.5 -13.5 -27.5 -16.5s-29 -4.5 -51 -4.5v-29h368
c60.667 0 109.5 16 146.5 48s55.5 72 55.5 120c0 36.667 -11 69.167 -33 97.5s-52.333 48.5 -91 60.5z" />
    <glyph glyph-name="C" unicode="C" horiz-adv-x="692" 
d="M618 11l-0.000976562 220.002h-29c-13.333 -63.333 -38.666 -112.5 -75.999 -147.5s-81 -52.5 -131 -52.5c-32.667 0 -60.5 7.83301 -83.5 23.5s-41.167 36.5 -54.5 62.5s-23 54.667 -29 86s-9 63.666 -9 96.999c0 34 3 66.667 9 98s15.667 59.833 29 85.5
s31.5 46.334 54.5 62.001s50.833 23.5 83.5 23.5c50.667 0 94.5 -17.333 131.5 -52s62.167 -84 75.5 -148h29v220h-28c-3.33301 -14 -7 -25.833 -11 -35.5s-9 -16.834 -15 -21.501c-26 27.333 -54.833 48.333 -86.5 63s-64.834 22 -99.501 22
c-41.333 0 -80.666 -8.16699 -117.999 -24.5s-70.166 -39.166 -98.499 -68.499s-50.5 -63.333 -66.5 -102s-24 -79.334 -24 -122.001s8 -83.334 24 -122.001s38.167 -72.667 66.5 -102s61.166 -52.166 98.499 -68.499s76.666 -24.5 117.999 -24.5
c34.667 0 67.834 7.33301 99.501 22s60.5 35.667 86.5 63c6 -4 11 -10.833 15 -20.5s7.66699 -21.834 11 -36.501h28z" />
    <glyph glyph-name="D" unicode="D" horiz-adv-x="713" 
d="M38 0l330 0.00585938c56.667 0 106 7.66699 148 23s76.667 36.666 104 63.999s47.666 59.166 60.999 95.499s20 75.5 20 117.5s-6.66699 81.167 -20 117.5s-33.666 68.166 -60.999 95.499s-62 48.666 -104 63.999s-91.333 23 -148 23h-330v-29c22 0 39 -1.5 51 -4.5
s21.167 -8.5 27.5 -16.5s10.666 -19.333 12.999 -34s3.5 -35.334 3.5 -62.001v-308c0 -26.667 -1.16699 -47.334 -3.5 -62.001s-6.66602 -26 -12.999 -34s-15.5 -13.5 -27.5 -16.5s-29 -4.5 -51 -4.5v-29zM258 555.006l106 -0.000976562c38.667 0 70.834 -7.5 96.501 -22.5
s45.667 -35 60 -60s24.333 -52.167 30 -81.5s8.5 -59.666 8.5 -90.999s-2.83301 -61.666 -8.5 -90.999s-15.667 -56.5 -30 -81.5s-34.333 -45 -60 -60s-57.834 -22.5 -96.501 -22.5h-10c-22 0 -39 1.5 -51 4.5s-21.333 8.33301 -28 16s-11.167 18.667 -13.5 33
s-3.5 34.166 -3.5 59.499v397z" />
    <glyph glyph-name="E" unicode="E" horiz-adv-x="641" 
d="M38 0h547.999l8 141h-29l-5 -20c-7.33301 -29.333 -17.833 -49.333 -31.5 -60s-41.834 -16 -84.501 -16h-90c-22 0 -39 1.5 -51 4.5s-21.333 8.5 -28 16.5s-11.167 19.5 -13.5 34.5s-3.5 35.5 -3.5 61.5v133h55c26.667 0 47.334 -1.16699 62.001 -3.5
s25.834 -6.66602 33.501 -12.999s13 -15.666 16 -27.999s4.5 -29.5 4.5 -51.5h29v237h-29c0 -22 -1.5 -39 -4.5 -51s-8.33301 -21.333 -16 -28s-19 -11.167 -34 -13.5s-35.5 -3.5 -61.5 -3.5h-55v215h153c42.667 0 70.667 -5.16699 84 -15.5s24 -30.5 32 -60.5l5 -20h29
l-8 141h-515v-29c22 0 39 -1.5 51 -4.5s21.167 -8.5 27.5 -16.5s10.666 -19.333 12.999 -34s3.5 -35.334 3.5 -62.001v-308c0 -26.667 -1.16699 -47.334 -3.5 -62.001s-6.66602 -26 -12.999 -34s-15.5 -13.5 -27.5 -16.5s-29 -4.5 -51 -4.5v-29z" />
    <glyph glyph-name="F" unicode="F" horiz-adv-x="594" 
d="M258 555h169.999c42.667 0 70.667 -5.33301 84 -16s23.666 -30.667 30.999 -60l5 -20h30l-9 141h-531v-29c22 0 39 -1.5 51 -4.5s21.167 -8.5 27.5 -16.5s10.666 -19.333 12.999 -34s3.5 -35.334 3.5 -62.001v-308c0 -26.667 -1.16699 -47.334 -3.5 -62.001
s-6.66602 -26 -12.999 -34s-15.5 -13.5 -27.5 -16.5s-29 -4.5 -51 -4.5v-29h316v29c-22 0 -39 1.5 -51 4.5s-21.333 8.5 -28 16.5s-11.167 19.5 -13.5 34.5s-3.5 35.5 -3.5 61.5v149h55c26.667 0 47.334 -1.16699 62.001 -3.5s25.834 -6.66602 33.501 -12.999
s13 -15.666 16 -27.999s4.5 -29.5 4.5 -51.5h29v237h-29c0 -22 -1.5 -39 -4.5 -51s-8.33301 -21.333 -16 -28s-19 -11.167 -34 -13.5s-35.5 -3.5 -61.5 -3.5h-55v215z" />
    <glyph glyph-name="G" unicode="G" horiz-adv-x="725" 
d="M532 155c0 -42.667 -14.1641 -74.001 -42.4971 -94.001s-64.166 -30 -107.499 -30c-32.667 0 -60.5 7.83301 -83.5 23.5s-41.167 36.5 -54.5 62.5s-23 54.667 -29 86s-9 63.666 -9 96.999c0 34 3 66.667 9 98s15.667 59.833 29 85.5s31.5 46.334 54.5 62.001
s50.833 23.5 83.5 23.5c50.667 0 94.5 -17.333 131.5 -52s62.167 -84 75.5 -148h29v220h-28c-3.33301 -14 -7 -25.833 -11 -35.5s-9 -16.834 -15 -21.501c-26 27.333 -54.833 48.333 -86.5 63s-64.834 22 -99.501 22c-41.333 0 -80.666 -8.16699 -117.999 -24.5
s-70.166 -39.166 -98.499 -68.499s-50.5 -63.333 -66.5 -102s-24 -79.334 -24 -122.001s8 -83.334 24 -122.001s38.167 -72.667 66.5 -102s61.166 -52.166 98.499 -68.499s76.666 -24.5 117.999 -24.5c21.333 0 40.666 2 57.999 6s37.666 10 60.999 18
c26.667 9.33301 50 16.333 70 21s43.667 7 71 7v68c0 26.667 1.16699 47.334 3.5 62.001s6.66602 25.834 12.999 33.501s15.5 13 27.5 16s29 4.5 51 4.5v29h-295v-29c34 0 58.167 -5.16699 72.5 -15.5s21.5 -26.5 21.5 -48.5z" />
    <glyph glyph-name="H" unicode="H" horiz-adv-x="823" 
d="M258 296l307 0.00390625v-150c0 -26.667 -1.16699 -47.334 -3.5 -62.001s-6.66602 -26 -12.999 -34s-15.5 -13.5 -27.5 -16.5s-29.333 -4.5 -52 -4.5v-29h317v29c-22 0 -39 1.5 -51 4.5s-21.333 8.5 -28 16.5s-11.167 19.5 -13.5 34.5s-3.5 35.5 -3.5 61.5v308
c0 26 1.16699 46.5 3.5 61.5s6.83301 26.5 13.5 34.5s16 13.5 28 16.5s29 4.5 51 4.5v29h-317v-29c22.667 0 40 -1.5 52 -4.5s21.167 -8.5 27.5 -16.5s10.666 -19.333 12.999 -34s3.5 -35.334 3.5 -62.001v-113h-307v113c0 26 1.16699 46.5 3.5 61.5s6.83301 26.5 13.5 34.5
s16 13.5 28 16.5s29 4.5 51 4.5v29h-316v-29c22 0 39 -1.5 51 -4.5s21.167 -8.5 27.5 -16.5s10.666 -19.333 12.999 -34s3.5 -35.334 3.5 -62.001v-308c0 -26.667 -1.16699 -47.334 -3.5 -62.001s-6.66602 -26 -12.999 -34s-15.5 -13.5 -27.5 -16.5s-29 -4.5 -51 -4.5v-29
h316v29c-22 0 -39 1.5 -51 4.5s-21.333 8.5 -28 16.5s-11.167 19.5 -13.5 34.5s-3.5 35.5 -3.5 61.5v150z" />
    <glyph glyph-name="I" unicode="I" horiz-adv-x="392" 
d="M354 0v29.002c-22 0 -39 1.5 -51 4.5s-21.333 8.5 -28 16.5s-11.167 19.5 -13.5 34.5s-3.5 35.5 -3.5 61.5v308c0 26 1.16699 46.5 3.5 61.5s6.83301 26.5 13.5 34.5s16 13.5 28 16.5s29 4.5 51 4.5v29h-316v-29c22 0 39 -1.5 51 -4.5s21.167 -8.5 27.5 -16.5
s10.666 -19.333 12.999 -34s3.5 -35.334 3.5 -62.001v-308c0 -26.667 -1.16699 -47.334 -3.5 -62.001s-6.66602 -26 -12.999 -34s-15.5 -13.5 -27.5 -16.5s-29 -4.5 -51 -4.5v-29h316z" />
    <glyph glyph-name="J" unicode="J" horiz-adv-x="383" 
d="M51 -178c-25.333 0 -44.499 8.00195 -57.499 24.002s-19.5 34 -19.5 54c0 12 -3.83301 22 -11.5 30s-17.5 12 -29.5 12s-21.833 -4 -29.5 -12s-11.5 -18 -11.5 -30c0 -36 16 -65.5 48 -88.5s70 -34.5 114 -34.5c60 0 109 18.667 147 56s57 91.666 57 162.999v458
c0 26 1.16699 46.5 3.5 61.5s6.83301 26.5 13.5 34.5s16 13.5 28 16.5s29 4.5 51 4.5v29h-316v-29c22 0 39 -1.5 51 -4.5s21.167 -8.5 27.5 -16.5s10.666 -19.333 12.999 -34s3.5 -35.334 3.5 -62.001v-507c0 -42.667 -7 -74.167 -21 -94.5s-34.333 -30.5 -61 -30.5z" />
    <glyph glyph-name="K" unicode="K" horiz-adv-x="788" 
d="M387 375l141.999 114.003c1.33301 1.33301 3.33301 2.66602 6 3.99902c36.667 30 66.167 50.5 88.5 61.5s52.166 16.5 89.499 16.5v29h-241v-29c14.667 0 25.334 -1.83301 32.001 -5.5s10 -8.5 10 -14.5c0 -8.66699 -4.83301 -18.834 -14.5 -30.501
s-20.167 -22.167 -31.5 -31.5l-210 -169v134c0 26 1.16699 46.5 3.5 61.5s6.83301 26.5 13.5 34.5s16 13.5 28 16.5s29 4.5 51 4.5v29h-316v-29c22 0 39 -1.5 51 -4.5s21.167 -8.5 27.5 -16.5s10.666 -19.333 12.999 -34s3.5 -35.334 3.5 -62.001v-308
c0 -26.667 -1.16699 -47.334 -3.5 -62.001s-6.66602 -26 -12.999 -34s-15.5 -13.5 -27.5 -16.5s-29 -4.5 -51 -4.5v-29h316v29c-22 0 -39 1.5 -51 4.5s-21.333 8.5 -28 16.5s-11.167 19.5 -13.5 34.5s-3.5 35.5 -3.5 61.5v121l43 35l197 -214
c12.667 -13.333 19 -24.666 19 -33.999c0 -16.667 -18.667 -25 -56 -25v-29h332v29c-15.333 0 -36.666 5.83301 -63.999 17.5s-49 25.5 -65 41.5z" />
    <glyph glyph-name="L" unicode="L" horiz-adv-x="633" 
d="M133 454l0.000976562 -307.998c0 -26.667 -1.16699 -47.334 -3.5 -62.001s-6.66602 -26 -12.999 -34s-15.5 -13.5 -27.5 -16.5s-29 -4.5 -51 -4.5v-29h573l8 141h-29l-5 -20c-7.33301 -29.333 -17.833 -49.333 -31.5 -60s-41.834 -16 -84.501 -16h-115
c-22 0 -39 1.5 -51 4.5s-21.333 8.5 -28 16.5s-11.167 19.5 -13.5 34.5s-3.5 35.5 -3.5 61.5v292c0 26 1.16699 46.5 3.5 61.5s6.83301 26.5 13.5 34.5s16 13.5 28 16.5s29 4.5 51 4.5v29h-316v-29c22 0 39 -1.5 51 -4.5s21.167 -8.5 27.5 -16.5s10.666 -19.333 12.999 -34
s3.5 -35.334 3.5 -62.001z" />
    <glyph glyph-name="M" unicode="M" horiz-adv-x="850" 
d="M178 434l201 -451h22l196 452v-289c0 -26 -1.16699 -46.5 -3.5 -61.5s-6.83301 -26.5 -13.5 -34.5s-16 -13.5 -28 -16.5s-29 -4.5 -51 -4.5v-29h312v29c-22 0 -39.167 1.5 -51.5 4.5s-21.666 8.5 -27.999 16.5s-10.666 19.333 -12.999 34s-3.5 35.334 -3.5 62.001v308
c0 26.667 1.16699 47.334 3.5 62.001s6.66602 26 12.999 34s15.666 13.5 27.999 16.5s29.5 4.5 51.5 4.5v29h-195l-187 -433l-193 433h-200v-29c22 0 39 -1.5 51 -4.5s21.167 -8.5 27.5 -16.5s10.666 -19.333 12.999 -34s3.5 -35.334 3.5 -62.001v-308
c0 -26.667 -1.16699 -47.334 -3.5 -62.001s-6.66602 -26 -12.999 -34s-15.5 -13.5 -27.5 -16.5s-29 -4.5 -51 -4.5v-29h236v29c-22 0 -39 1.5 -51 4.5s-21.333 8.5 -28 16.5s-11.167 19.5 -13.5 34.5s-3.5 35.5 -3.5 61.5v288z" />
    <glyph glyph-name="N" unicode="N" horiz-adv-x="749" 
d="M572 202l-333.998 398.001h-200v-29c22 0 39 -1.5 51 -4.5s21.167 -8.5 27.5 -16.5s10.666 -19.333 12.999 -34s3.5 -35.334 3.5 -62.001v-308c0 -26.667 -1.16699 -47.334 -3.5 -62.001s-6.66602 -26 -12.999 -34s-15.5 -13.5 -27.5 -16.5s-29 -4.5 -51 -4.5v-29h236v29
c-22 0 -39 1.5 -51 4.5s-21.333 8.5 -28 16.5s-11.167 19.5 -13.5 34.5s-3.5 35.5 -3.5 61.5v331l414 -494h25v471c0 26.667 1.16699 47.334 3.5 62.001s6.66602 26 12.999 34s15.666 13.5 27.999 16.5s29.5 4.5 51.5 4.5v29h-237v-29c22 0 39 -1.5 51 -4.5
s21.333 -8.5 28 -16.5s11.167 -19.5 13.5 -34.5s3.5 -35.5 3.5 -61.5v-252z" />
    <glyph glyph-name="O" unicode="O" horiz-adv-x="808" 
d="M738 300c0 42.667 -8.66699 83.334 -26 122.001s-41.333 72.667 -72 102s-66.334 52.166 -107.001 68.499s-83.667 24.5 -129 24.5c-44.667 0 -87.334 -8.16699 -128.001 -24.5s-76.334 -39.166 -107.001 -68.499s-54.667 -63.333 -72 -102s-26 -79.334 -26 -122.001
s8.66699 -83.334 26 -122.001s41.333 -72.667 72 -102s66.334 -52.166 107.001 -68.499s83.334 -24.5 128.001 -24.5c45.333 0 88.333 8.16699 129 24.5s76.334 39.166 107.001 68.499s54.667 63.333 72 102s26 79.334 26 122.001zM603 300
c0 -31.333 -3.83398 -62.833 -11.501 -94.5s-19.667 -60.667 -36 -87s-37.166 -47.5 -62.499 -63.5s-55 -24 -89 -24s-63.667 8 -89 24s-46.166 37.167 -62.499 63.5s-28.333 55.333 -36 87s-11.5 63.167 -11.5 94.5s3.83301 62.833 11.5 94.5s19.667 60.667 36 87
s37.166 47.5 62.499 63.5s55 24 89 24s63.833 -8 89.5 -24s46.5 -37.167 62.5 -63.5s27.833 -55.333 35.5 -87s11.5 -63.167 11.5 -94.5z" />
    <glyph glyph-name="P" unicode="P" horiz-adv-x="598" 
d="M373 600l-335 0.00195312v-29c22 0 39 -1.5 51 -4.5s21.167 -8.5 27.5 -16.5s10.666 -19.333 12.999 -34s3.5 -35.334 3.5 -62.001v-308c0 -26.667 -1.16699 -47.334 -3.5 -62.001s-6.66602 -26 -12.999 -34s-15.5 -13.5 -27.5 -16.5s-29 -4.5 -51 -4.5v-29h316v29
c-22 0 -39 1.5 -51 4.5s-21.333 8.5 -28 16.5s-11.167 19.5 -13.5 34.5s-3.5 35.5 -3.5 61.5v117h115c60.667 0 109.5 16 146.5 48s55.5 72 55.5 120s-18.5 88.167 -55.5 120.5s-85.833 48.5 -146.5 48.5zM313 308.002h-55v247h55c41.333 0 73 -11.667 95 -35s33 -53 33 -89
s-11 -65.5 -33 -88.5s-53.667 -34.5 -95 -34.5z" />
    <glyph glyph-name="Q" unicode="Q" horiz-adv-x="808" 
d="M350 -13c-21.333 -6.66699 -41.667 -14.9971 -61 -24.9971s-36 -20.667 -50 -32s-25 -22.5 -33 -33.5s-12 -20.167 -12 -27.5c0 -21.333 11.333 -32 34 -32c6 0.666992 10.833 2.83398 14.5 6.50098s7.83398 8.83398 12.501 15.501c10 14 21.333 25 34 33
s32.334 12 59.001 12c18.667 0 36.5 -5.83301 53.5 -17.5s38.833 -29.834 65.5 -54.501c36.667 -34.667 70 -61.167 100 -79.5s65.667 -27.5 107 -27.5c32 0 60 6 84 18s43.833 27.5 59.5 46.5s28.334 38.5 38.001 58.5s18.5 41.667 26.5 65l-24 10
c-17.333 -28 -39.333 -49.167 -66 -63.5s-59.667 -21.5 -99 -21.5c-20.667 0 -40.834 3.5 -60.501 10.5s-44.5 18.167 -74.5 33.5c-35.333 17.333 -66.333 30.666 -93 39.999s-56.334 14 -89.001 14c-24 0 -48.667 -3 -74 -9c17.333 14.667 39.333 27.5 66 38.5
s50 17.5 70 19.5c40.667 4.66699 79.334 15.667 116.001 33s68.834 40.166 96.501 68.499s49.167 60.666 64.5 96.999s23 75.166 23 116.499c0 42.667 -8.66699 83.334 -26 122.001s-41.333 72.667 -72 102s-66.334 52.166 -107.001 68.499s-83.667 24.5 -129 24.5
c-44.667 0 -87.334 -8.16699 -128.001 -24.5s-76.334 -39.166 -107.001 -68.499s-54.667 -63.333 -72 -102s-26 -79.334 -26 -122.001c0 -38 6.83301 -74.333 20.5 -109s33 -66.167 58 -94.5s54.667 -52 89 -71s71.5 -31.833 111.5 -38.5zM403.999 569.003
c34 0 63.832 -8 89.499 -24s46.5 -37.167 62.5 -63.5s27.833 -55.333 35.5 -87s11.5 -63.167 11.5 -94.5s-3.83301 -62.833 -11.5 -94.5s-19.667 -60.667 -36 -87s-37.166 -47.5 -62.499 -63.5s-55 -24 -89 -24s-63.667 8 -89 24s-46.166 37.167 -62.499 63.5
s-28.333 55.333 -36 87s-11.5 63.167 -11.5 94.5s3.83301 62.833 11.5 94.5s19.667 60.667 36 87s37.166 47.5 62.499 63.5s55 24 89 24z" />
    <glyph glyph-name="R" unicode="R" horiz-adv-x="678" 
d="M398 263c54 4.66699 97.001 22.834 129.001 54.501s48 69.5 48 113.5c0 48 -18.5 88.167 -55.5 120.5s-85.833 48.5 -146.5 48.5h-335v-29c22 0 39 -1.5 51 -4.5s21.167 -8.5 27.5 -16.5s10.666 -19.333 12.999 -34s3.5 -35.334 3.5 -62.001v-308
c0 -26.667 -1.16699 -47.334 -3.5 -62.001s-6.66602 -26 -12.999 -34s-15.5 -13.5 -27.5 -16.5s-29 -4.5 -51 -4.5v-29h316v29c-22 0 -39 1.5 -51 4.5s-21.333 8.5 -28 16.5s-11.167 19.5 -13.5 34.5s-3.5 35.5 -3.5 61.5v117h29l178 -263h217v29
c-16 2 -30.5 5.33301 -43.5 10s-26.333 11.5 -40 20.5s-28.834 21.333 -45.501 37s-36 35.834 -58 60.501zM313.001 308h-55v247h55c41.333 0 73 -11.667 95 -35s33 -53 33 -89s-11 -65.5 -33 -88.5s-53.667 -34.5 -95 -34.5z" />
    <glyph glyph-name="S" unicode="S" horiz-adv-x="498" 
d="M107 30c7.33301 -1.33301 19.333 -6.33301 36 -15c20.667 -9.33301 40.167 -17 58.5 -23s38.833 -9 61.5 -9c25.333 0 50 4.33301 74 13s45.5 21.167 64.5 37.5s33.833 35.666 44.5 57.999s16 46.833 16 73.5c0 37.333 -12 71.166 -36 101.499s-55 55.5 -93 75.5l-96 49
c-25.333 12.667 -45 28.834 -59 48.501s-21 37.5 -21 53.5c0 24 8 43.333 24 58s35 22 57 22c25.333 0 46.833 -4.83301 64.5 -14.5s32 -22.667 43 -39s19.333 -34.5 25 -54.5s9.5 -41 11.5 -63h29v220h-28c-4 -18 -13.667 -33.333 -29 -46
c-18 13.333 -36.167 23.5 -54.5 30.5s-40.833 10.5 -67.5 10.5c-24 0 -46.5 -3.83301 -67.5 -11.5s-39.5 -18.5 -55.5 -32.5s-28.5 -30.167 -37.5 -48.5s-13.5 -37.5 -13.5 -57.5c0 -46.667 11 -84 33 -112s56 -53.667 102 -77l96 -50c23.333 -12 41.5 -27.167 54.5 -45.5
s19.5 -36.833 19.5 -55.5c0 -32 -9.16699 -56.5 -27.5 -73.5s-42.5 -25.5 -72.5 -25.5c-42.667 0 -81.667 16.167 -117 48.5s-58 74.5 -68 126.5h-29v-220h29c4 18.667 13.667 34.334 29 47.001z" />
    <glyph glyph-name="T" unicode="T" horiz-adv-x="642" 
d="M625 600l-608.001 0.000976562l-9 -141h30l5 20c7.33301 29.333 17.666 49.333 30.999 60s41.333 16 84 16h100v-409c0 -26.667 -1.16699 -47.334 -3.5 -62.001s-6.66602 -26 -12.999 -34s-15.5 -13.5 -27.5 -16.5s-29 -4.5 -51 -4.5v-29h316v29c-22 0 -39 1.5 -51 4.5
s-21.333 8.5 -28 16.5s-11.167 19.5 -13.5 34.5s-3.5 35.5 -3.5 61.5v409h100c42.667 0 70.834 -5.33301 84.501 -16s24.167 -30.667 31.5 -60l5 -20h29z" />
    <glyph glyph-name="U" unicode="U" horiz-adv-x="733" 
d="M554 454l0.00585938 -219.999c0 -62.667 -13.333 -109.834 -40 -141.501s-62.334 -47.5 -107.001 -47.5c-45.333 0 -82.5 16 -111.5 48s-43.5 79 -43.5 141v220c0 26.667 1.16699 47.334 3.5 62.001s6.66602 26 12.999 34s15.666 13.5 27.999 16.5s29.5 4.5 51.5 4.5v29
h-317v-29c22 0 39 -1.5 51 -4.5s21.333 -8.5 28 -16.5s11.167 -19.5 13.5 -34.5s3.5 -35.5 3.5 -61.5v-231c0 -76 22.667 -135 68 -177s102.666 -63 171.999 -63s126.833 21.167 172.5 63.5s68.5 101.166 68.5 176.499v231c0 26.667 1.16699 47.334 3.5 62.001
s6.66602 26 12.999 34s15.5 13.5 27.5 16.5s29 4.5 51 4.5v29h-245v-29c22.667 0 40 -1.5 52 -4.5s21.167 -8.5 27.5 -16.5s10.666 -19.333 12.999 -34s3.5 -35.334 3.5 -62.001z" />
    <glyph glyph-name="V" unicode="V" 
d="M663 571v28.999h-242v-29c30 0 51.667 -3 65 -9s20 -16 20 -30c0 -9.33301 -3.33301 -21.666 -10 -36.999l-141 -325l-140 325c-7.33301 16 -11 29 -11 39c0 12.667 6.66699 22 20 28s35.333 9 66 9v29h-328v-29c38 0 64 -5.83301 78 -17.5s28.667 -35.167 44 -70.5
l218 -500h21l217 500c15.333 35.333 31 58.833 47 70.5s41.333 17.5 76 17.5z" />
    <glyph glyph-name="W" unicode="W" horiz-adv-x="762" 
d="M812 571v28.998h-234v-29c27.333 0 47 -3.33301 59 -10s18 -17.334 18 -32.001c0 -9.33301 -2.33301 -20.666 -7 -33.999l-91 -282l-126 387h-23l-122 -386l-91 281c-4.66699 15.333 -7 27.666 -7 36.999c0 14 6.33301 24 19 30s34.667 9 66 9v29h-316v-29
c21.333 0 38.5 -1.33301 51.5 -4s23.5 -7.33398 31.5 -14.001s14.667 -15.167 20 -25.5s11 -25.166 17 -44.499l161 -500h22l123 387l126 -387h22l162 500c6 18.667 11.5 33.334 16.5 44.001s11.5 19.334 19.5 26.001s18.667 11.334 32 14.001s30.333 4 51 4z" />
    <glyph glyph-name="X" unicode="X" horiz-adv-x="614" 
d="M359 348l110.999 134.998c27.333 34 50 57.167 68 69.5s43.333 18.5 76 18.5v29h-246v-29c50.667 0 76 -10.333 76 -31c0 -12 -7.33301 -27 -22 -45l-88 -107l-67 107c-11.333 18.667 -17 33.334 -17 44.001c0 21.333 23.667 32 71 32v29h-334v-29c32 0 58 -6.5 78 -19.5
s40.667 -35.833 62 -68.5l124 -199l-136 -167c-24.667 -30.667 -47.5 -53 -68.5 -67s-46.167 -21 -75.5 -21v-29h246v29c-50.667 0 -76 10.667 -76 32c0 11.333 7.33301 26 22 44l114 139l87 -139c12 -19.333 18 -34.666 18 -45.999c0 -20 -24 -30 -72 -30v-29h335v29
c-33.333 0 -59.666 6.33301 -78.999 19s-40 35.667 -62 69z" />
    <glyph glyph-name="Y" unicode="Y" horiz-adv-x="633" 
d="M665 571l-0.00292969 28.999h-242v-29c49.333 0 74 -10 74 -30c0 -11.333 -6.66699 -26.666 -20 -45.999l-112 -169l-112 169c-12 17.333 -18 31.666 -18 42.999c0 22 23.667 33 71 33v29h-339v-29c35.333 0 62.666 -5.66699 81.999 -17
c10 -6.66699 19.833 -15.5 29.5 -26.5s20.834 -25.833 33.501 -44.5l145 -219v-118c0 -26 -1.16699 -46.5 -3.5 -61.5s-6.83301 -26.5 -13.5 -34.5s-16 -13.5 -28 -16.5s-29 -4.5 -51 -4.5v-29h312v29c-22 0 -39 1.5 -51 4.5s-21.167 8.5 -27.5 16.5
s-10.666 19.333 -12.999 34s-3.5 35.334 -3.5 62.001v121l143 216c12.667 19.333 22.834 34 30.501 44s16.5 18.333 26.5 25s21.833 11.5 35.5 14.5s30.834 4.5 51.501 4.5z" />
    <glyph glyph-name="Z" unicode="Z" horiz-adv-x="592" 
d="M353 563l-310.001 -538.999v-24h476l9 133h-21l-5 -20c-8 -29.333 -18.667 -49.333 -32 -60s-41.333 -16 -84 -16h-193l313 541v22h-443l-9 -132h21l5 20c7.33301 29.333 17.833 49.166 31.5 59.499s41.834 15.5 84.501 15.5h157z" />
    <glyph glyph-name="bracketleft" unicode="[" horiz-adv-x="375" 
d="M336 -88v40h-104v686h104v40h-219v-766h219z" />
    <glyph glyph-name="backslash" unicode="\" horiz-adv-x="348" 
d="M383 7l-370 613l-47 -26l369 -612z" />
    <glyph glyph-name="bracketright" unicode="]" horiz-adv-x="375" 
d="M258 -88v766h-219v-40h104v-686h-104v-40h219z" />
    <glyph glyph-name="asciicircum" unicode="^" horiz-adv-x="485" 
d="M460 296l-217 321l-218 -321l23 -16l195 158l194 -158z" />
    <glyph glyph-name="underscore" unicode="_" horiz-adv-x="358" 
d="M359 -44v44h-360v-44h360z" />
    <glyph glyph-name="grave" unicode="`" horiz-adv-x="404" 
d="M270 490l-122 112.999c-11.333 10.667 -21 18.334 -29 23.001s-17.333 7 -28 7c-11.333 0 -20.333 -3.83301 -27 -11.5s-10 -16.167 -10 -25.5c0 -8.66699 3 -16.167 9 -22.5s13 -11.833 21 -16.5l179 -76z" />
    <glyph glyph-name="a" unicode="a" horiz-adv-x="449" 
d="M431 26l-13.9961 27c-0.666992 -0.666992 -1.33398 -1 -2.00098 -1c-11.333 -7.33301 -20.333 -11 -27 -11c-14.667 0 -22 12.667 -22 38v135c0 47.333 -12.5 81.833 -37.5 103.5s-65.167 32.5 -120.5 32.5c-38.667 0 -72.5 -7.33301 -101.5 -22s-43.5 -34 -43.5 -58
c0 -13.333 3.66699 -23.833 11 -31.5s16.666 -11.5 27.999 -11.5s20.833 4 28.5 12s11.5 18.333 11.5 31c0 12 5.66699 21.5 17 28.5s23.666 10.5 36.999 10.5c22 0 38.333 -7 49 -21s16 -38.667 16 -74v-1c-71.333 -10.667 -126.166 -27 -164.499 -49s-57.5 -53 -57.5 -93
c0 -25.333 9.66699 -45.666 29 -60.999s41.666 -23 66.999 -23c21.333 0 40.166 4.16699 56.499 12.5s39.5 24.166 69.5 47.499c7.33301 -38.667 33 -58 77 -58c12 0 27 3.5 45 10.5s34 15.833 48 26.5zM261.004 88c-16 -14 -31.668 -25 -47.001 -33s-27.333 -12 -36 -12
c-11.333 0 -20.833 3.16699 -28.5 9.5s-11.5 16.5 -11.5 30.5c0 23.333 9.83301 41.333 29.5 54s50.834 24.667 93.501 36v-85z" />
    <glyph glyph-name="b" unicode="b" horiz-adv-x="510" 
d="M338 167c0 -40 -6.33301 -72.833 -19 -98.5s-31.334 -38.5 -56.001 -38.5c-18 0 -33.667 8.5 -47 25.5s-20 37.833 -20 62.5v97c0 25.333 6.66699 46.333 20 63s29 25 47 25c24.667 0 43.334 -12.667 56.001 -38s19 -58 19 -98zM83 -8l30 0.000976562l52 56
c12.667 -20 28.667 -35.833 48 -47.5s41 -17.5 65 -17.5c55.333 0 99.5 17.667 132.5 53s49.5 79 49.5 131s-16.5 95.5 -49.5 130.5s-77.167 52.5 -132.5 52.5c-30.667 0 -58 -9.66699 -82 -29v296l-192 -25v-29c18 0 32 -1.5 42 -4.5s17.667 -8.5 23 -16.5
s9 -19.333 11 -34s3 -35.334 3 -62.001v-454z" />
    <glyph glyph-name="c" unicode="c" horiz-adv-x="413" 
d="M243 310c10 0 18.499 -3.33301 25.499 -10s10.5 -17.667 10.5 -33c0 -10.667 3.83301 -20 11.5 -28s16.834 -12 27.501 -12c15.333 0 26.666 4.5 33.999 13.5s11 18.5 11 28.5c0 20.667 -11.5 39.334 -34.5 56.001s-54.167 25 -93.5 25
c-24.667 0 -48.167 -4.5 -70.5 -13.5s-42.166 -22 -59.499 -39s-30.833 -37.333 -40.5 -61s-14.5 -49.834 -14.5 -78.501c0 -24.667 4.83301 -47.667 14.5 -69s23.167 -40 40.5 -56s37.833 -28.333 61.5 -37s49.167 -13 76.5 -13c58 0 108 22 150 66l-18 29
c-35.333 -30.667 -69 -46 -101 -46s-56.833 11 -74.5 33s-26.5 53 -26.5 93c0 49.333 5.33301 87 16 113s28.667 39 54 39z" />
    <glyph glyph-name="d" unicode="d" horiz-adv-x="518" 
d="M314 321c-24 19.333 -51.333 28.999 -82 28.999c-55.333 0 -99.5 -17.5 -132.5 -52.5s-49.5 -78.5 -49.5 -130.5s16.667 -95.667 50 -131s77.333 -53 132 -53c34.667 0 64.667 12 90 36l1 -4c3.33301 -18 6 -28.667 8 -32l175 25v30c-18 0 -32 1.5 -42 4.5
s-17.667 8.33301 -23 16s-9 18.834 -11 33.501s-3 35.334 -3 62.001v463l-192 -25v-29c18 0 32 -1.5 42 -4.5s17.667 -8.5 23 -16.5s9 -19.333 11 -34s3 -35.334 3 -62.001v-125zM314 117.999c0 -24.667 -6.66797 -45.5 -20.001 -62.5s-28.666 -25.5 -45.999 -25.5
c-24.667 0 -43.334 12.833 -56.001 38.5s-19 58.5 -19 98.5s6.33301 72.667 19 98s31.334 38 56.001 38c18 0 33.5 -8.33301 46.5 -25s19.5 -37.667 19.5 -63v-97z" />
    <glyph glyph-name="e" unicode="e" horiz-adv-x="433" 
d="M177 229c11.333 48.667 35 73 71 73c41.333 0 62 -24.333 62 -73h-133zM170 185l218 -0.00390625c2.66699 10 4 20 4 30c0 34.667 -13.667 65.834 -41 93.501s-63.333 41.5 -108 41.5c-26 0 -50.667 -4.5 -74 -13.5s-44 -21.833 -62 -38.5s-32 -36.167 -42 -58.5
s-15 -46.5 -15 -72.5c0 -25.333 4.83301 -49.166 14.5 -71.499s23.5 -42 41.5 -59s39.5 -30.167 64.5 -39.5s52.167 -14 81.5 -14c27.333 0 55 6.33301 83 19s51 28.334 69 47.001l-17 29c-15.333 -13.333 -33.333 -23.666 -54 -30.999s-42.334 -11 -65.001 -11
c-27.333 0 -50.666 11.333 -69.999 34s-29 55 -29 97l1 9v9z" />
    <glyph glyph-name="f" unicode="f" horiz-adv-x="337" 
d="M405 529c0 21.333 -11.666 41.333 -34.999 60s-53.666 28 -90.999 28c-58.667 0 -101.5 -16.667 -128.5 -50s-40.5 -84.333 -40.5 -153v-81h-82v-44h82v-143c0 -26.667 -1 -47.334 -3 -62.001s-5.66699 -26 -11 -34s-13 -13.5 -23 -16.5s-24 -4.5 -42 -4.5v-29h271v29
c-18 0 -31.833 1.5 -41.5 4.5s-17.334 8.5 -23.001 16.5s-9.5 19.333 -11.5 34s-3 35.334 -3 62.001v143h100v44h-100v124c0 44 3.83301 74.833 11.5 92.5s21.834 26.5 42.501 26.5c12 0 20.667 -3.5 26 -10.5s10.666 -17.5 15.999 -31.5
c6 -15.333 12.167 -26.833 18.5 -34.5s16.166 -11.5 29.499 -11.5c12 0 21.333 4 28 12s10 17.667 10 29z" />
    <glyph glyph-name="g" unicode="g" horiz-adv-x="410" 
d="M250 214c0 -28 -4.66699 -50.833 -14 -68.5s-23.333 -26.5 -42 -26.5c-18 0 -31.833 8.83301 -41.5 26.5s-14.5 40.5 -14.5 68.5s4.83301 50.833 14.5 68.5s23.5 26.5 41.5 26.5c18.667 0 32.667 -8.66699 42 -26s14 -40.333 14 -69zM113 45
c0 11.333 6.49512 19.0039 19.4951 23.0039s33.5 7 61.5 9c4.66699 0.666992 8.33398 1 11.001 1c40.667 3.33301 73.834 18.166 99.501 44.499s38.5 56.833 38.5 91.5c0 15.333 -1.66699 28.5 -5 39.5s-9.66602 22.167 -18.999 33.5c10.667 10.667 21 16 31 16
c7.33301 0 12.5 -1.83301 15.5 -5.5s5.5 -9.5 7.5 -17.5c2.66699 -8.66699 5.83398 -15.5 9.50098 -20.5s9.83398 -8.5 18.501 -10.5c1.33301 0 3 -0.333008 5 -1h4c10.667 0 19.167 4 25.5 12s9.5 17.667 9.5 29c0 16 -6.16699 30.167 -18.5 42.5s-30.5 18.5 -54.5 18.5
c-11.333 0 -24.5 -3.66699 -39.5 -11s-26.5 -16.333 -34.5 -27c-29.333 25.333 -64 38 -104 38c-20 0 -39 -3.5 -57 -10.5s-34 -16.833 -48 -29.5s-24.833 -27.334 -32.5 -44.001s-11.5 -34 -11.5 -52c0 -25.333 7 -48.333 21 -69s32 -36 54 -46c-26 -8 -47 -20 -63 -36
s-24 -33 -24 -51c0 -58 41.667 -91.333 125 -100c59.333 -6.66699 99 -15.167 119 -25.5s30 -24.5 30 -42.5c0 -20.667 -11 -37.167 -33 -49.5s-50.667 -18.5 -86 -18.5c-28.667 0 -55.667 5.83301 -81 17.5s-38 28.167 -38 49.5c0 18 10.667 38.333 32 61l-19 11
c-44 -22 -66 -49.333 -66 -82c0 -27.333 16.5 -50.833 49.5 -70.5s77.167 -29.5 132.5 -29.5c54 0 99.333 13 136 39s55 60.667 55 104c0 15.333 -3 30.5 -9 45.5s-15.833 29.167 -29.5 42.5s-31.5 24.666 -53.5 33.999s-48 15.666 -78 18.999l-21 2
c-33.333 3.33301 -55.833 6.5 -67.5 9.5s-17.5 8.5 -17.5 16.5z" />
    <glyph glyph-name="h" unicode="h" horiz-adv-x="550" 
d="M92 446v-300c0 -26 -1.16699 -46.5 -3.5 -61.5s-6.16602 -26.5 -11.499 -34.5s-13 -13.5 -23 -16.5s-23.667 -4.5 -41 -4.5v-29h270v29c-17.333 0 -31 1.5 -41 4.5s-17.667 8.5 -23 16.5s-9.16602 19.5 -11.499 34.5s-3.5 35.5 -3.5 61.5v49
c0 31.333 9.16699 55.666 27.5 72.999s38.833 26 61.5 26c23.333 0 39.333 -8.83301 48 -26.5s13 -44.167 13 -79.5v-42c0 -46.667 -3 -77.834 -9 -93.501s-16 -23.5 -30 -23.5v-29h231v29c-18 0 -31.833 1.5 -41.5 4.5s-17.334 8.5 -23.001 16.5s-9.5 19.333 -11.5 34
s-3 35.334 -3 62.001v55c0 43.333 -13 79 -39 107s-61 42 -105 42c-26 0 -48.667 -4.66699 -68 -14s-36.333 -22.666 -51 -39.999v321l-191 -25v-29c17.333 0 31 -1.5 41 -4.5s17.667 -8.5 23 -16.5s9.16602 -19.5 11.499 -34.5s3.5 -35.5 3.5 -61.5z" />
    <glyph glyph-name="i" unicode="i" horiz-adv-x="331" 
d="M310 0l0.000976562 29.001c-18 0 -31.833 1.5 -41.5 4.5s-17.334 8.5 -23.001 16.5s-9.5 19.333 -11.5 34s-3 35.334 -3 62.001v204l-192 -25v-29c18 0 32 -1.5 42 -4.5s17.667 -8.5 23 -16.5s9 -19.333 11 -34s3 -35.334 3 -62.001v-33c0 -26.667 -1 -47.334 -3 -62.001
s-5.66699 -26 -11 -34s-13 -13.5 -23 -16.5s-24 -4.5 -42 -4.5v-29h271zM238.001 518.001c0 17.333 -6.33301 32.333 -19 45s-27.667 19 -45 19s-32 -6.33301 -44 -19s-18 -27.667 -18 -45s6 -32.5 18 -45.5s26.667 -19.5 44 -19.5s32.333 6.5 45 19.5s19 28.167 19 45.5z
" />
    <glyph glyph-name="j" unicode="j" horiz-adv-x="285" 
d="M206 -78l-0.00292969 428.003l-192 -25v-29c18 0 32 -1.5 42 -4.5s17.667 -8.5 23 -16.5s9 -19.333 11 -34s3 -35.334 3 -62.001v-249c0 -58.667 -5.66699 -99.334 -17 -122.001s-27.666 -34 -48.999 -34c-17.333 0 -29.5 4 -36.5 12s-13.5 20 -19.5 36
c-4.66699 13.333 -9.66699 23.333 -15 30s-13.666 10 -24.999 10c-22.667 0 -34 -11.667 -34 -35c0.666992 -21.333 14.334 -42.333 41.001 -63s61.667 -31 105 -31c54.667 0 95.5 15.167 122.5 45.5s40.5 78.166 40.5 143.499zM212.997 518.003
c0 17.333 -6.33301 32.333 -19 45s-27.667 19 -45 19s-32 -6.33301 -44 -19s-18 -27.667 -18 -45s6 -32.5 18 -45.5s26.667 -19.5 44 -19.5s32.333 6.5 45 19.5s19 28.167 19 45.5z" />
    <glyph glyph-name="k" unicode="k" horiz-adv-x="465" 
d="M204 198v419l-191 -25v-29c17.333 0 31 -1.5 41 -4.5s17.667 -8.5 23 -16.5s9.16602 -19.5 11.499 -34.5s3.5 -35.5 3.5 -61.5v-300c0 -26 -1.16699 -46.5 -3.5 -61.5s-6.16602 -26.5 -11.499 -34.5s-13 -13.5 -23 -16.5s-23.667 -4.5 -41 -4.5v-29h254v29
c-25.333 0 -42.166 7.33301 -50.499 22s-12.5 43.667 -12.5 87v21l134 -159h141v29c-13.333 0 -26 2.83301 -38 8.5s-24.667 16.167 -38 31.5l-117 141l76 58c17.333 14 33.166 23.5 47.499 28.5s30.5 7.5 48.5 7.5v29h-209v-29c32.667 0 49 -8.33301 49 -25
c0 -8.66699 -6 -17.667 -18 -27z" />
    <glyph glyph-name="l" unicode="l" horiz-adv-x="331" 
d="M310 0l0.000976562 29.001c-18 0 -31.833 1.5 -41.5 4.5s-17.334 8.5 -23.001 16.5s-9.5 19.333 -11.5 34s-3 35.334 -3 62.001v471l-192 -25v-29c18 0 32 -1.5 42 -4.5s17.667 -8.5 23 -16.5s9 -19.333 11 -34s3 -35.334 3 -62.001v-300
c0 -26.667 -1 -47.334 -3 -62.001s-5.66699 -26 -11 -34s-13 -13.5 -23 -16.5s-24 -4.5 -42 -4.5v-29h271z" />
    <glyph glyph-name="m" unicode="m" horiz-adv-x="836" 
d="M492 195c0 30.667 9.66895 54.835 29.002 72.502s40.333 26.5 63 26.5c21.333 0 36 -8.83301 44 -26.5s12 -44.167 12 -79.5v-42c0 -46.667 -3 -77.834 -9 -93.501s-16 -23.5 -30 -23.5v-29h231v29c-18 0 -31.833 1.5 -41.5 4.5s-17.334 8.5 -23.001 16.5
s-9.5 19.333 -11.5 34s-3 35.334 -3 62.001v55c0 44 -12.167 79.833 -36.5 107.5s-58.5 41.5 -102.5 41.5c-56 0 -102 -24.667 -138 -74c-10.667 23.333 -26.5 41.5 -47.5 54.5s-46.167 19.5 -75.5 19.5c-26 0 -49.833 -5.16699 -71.5 -15.5s-39.5 -24.166 -53.5 -41.499
c-0.666992 10 -2.5 20.667 -5.5 32s-5.83301 19.666 -8.5 24.999l-175 -25v-29c18 0 32 -1.5 42 -4.5s17.667 -8.5 23 -16.5s9 -19.333 11 -34s3 -35.334 3 -62.001v-33c0 -26.667 -1 -47.334 -3 -62.001s-5.66699 -26 -11 -34s-13 -13.5 -23 -16.5s-24 -4.5 -42 -4.5v-29
h259v29c-27.333 0 -45.333 7.16699 -54 21.5s-13 46.166 -13 95.499v49c0 30.667 9.66699 54.834 29 72.501s40.333 26.5 63 26.5c21.333 0 36 -8.83301 44 -26.5s12 -44.167 12 -79.5v-42c0 -46.667 -3 -77.834 -9 -93.501s-16 -23.5 -30 -23.5v-29h231v29
c-18 0 -31.833 1.5 -41.5 4.5s-17.334 8.5 -23.001 16.5s-9.5 19.333 -11.5 34s-3 35.334 -3 62.001v49z" />
    <glyph glyph-name="n" unicode="n" horiz-adv-x="592" 
d="M228 293c-0.666992 10 -2.5 20.668 -5.5 32.001s-5.83301 19.666 -8.5 24.999l-175 -25v-29c18 0 32 -1.5 42 -4.5s17.667 -8.5 23 -16.5s9 -19.333 11 -34s3 -35.334 3 -62.001v-33c0 -26.667 -1 -47.334 -3 -62.001s-5.66699 -26 -11 -34s-13 -13.5 -23 -16.5
s-24 -4.5 -42 -4.5v-29h271v29c-18 0 -31.833 1.5 -41.5 4.5s-17.334 8.5 -23.001 16.5s-9.5 19.333 -11.5 34s-3 35.334 -3 62.001v49c0 30.667 9.66699 54.834 29 72.501s40.333 26.5 63 26.5c26.667 0 45.5 -9 56.5 -27s16.5 -44.333 16.5 -79v-42
c0 -46.667 -3 -77.834 -9 -93.501s-16 -23.5 -30 -23.5v-29h231v29c-18 0 -32 1.5 -42 4.5s-17.667 8.5 -23 16.5s-9.16602 19.5 -11.499 34.5s-3.5 35.5 -3.5 61.5v55c0 42.667 -14.667 78.167 -44 106.5s-66.333 42.5 -111 42.5c-26 0 -49.833 -5.16699 -71.5 -15.5
s-39.5 -24.166 -53.5 -41.499z" />
    <glyph glyph-name="o" unicode="o" horiz-adv-x="503" 
d="M453 167c0 24.667 -5.16602 48.167 -15.499 70.5s-24.833 42 -43.5 59s-40.167 30.167 -64.5 39.5s-50.166 14 -77.499 14s-53.333 -4.66699 -78 -14s-46.167 -22.5 -64.5 -39.5s-32.833 -36.667 -43.5 -59s-16 -45.833 -16 -70.5s5.16699 -48.167 15.5 -70.5
s25 -42.166 44 -59.499s40.667 -30.666 65 -39.999s50.166 -14 77.499 -14s53.166 4.66699 77.499 14s45.833 22.666 64.5 39.999s33.167 37.166 43.5 59.499s15.5 45.833 15.5 70.5zM331.001 167c0 -40 -6.66699 -72.833 -20 -98.5s-33 -38.5 -59 -38.5
s-45.667 12.833 -59 38.5s-20 58.5 -20 98.5s6.66699 72.667 20 98s33 38 59 38s45.667 -12.667 59 -38s20 -58 20 -98z" />
    <glyph glyph-name="p" unicode="p" horiz-adv-x="510" 
d="M338 167c0 -40 -6.33301 -72.833 -19 -98.5s-31.334 -38.5 -56.001 -38.5c-18 0 -33.667 8.5 -47 25.5s-20 37.833 -20 62.5v97c0 25.333 6.66699 46.333 20 63s29 25 47 25c24.667 0 43.334 -12.667 56.001 -38s19 -58 19 -98zM196 -104l0.00195312 117.001
c23.333 -20 50.666 -30 81.999 -30c55.333 0 99.5 17.667 132.5 53s49.5 79 49.5 131s-16.5 95.5 -49.5 130.5s-77.167 52.5 -132.5 52.5c-34.667 0 -64.667 -12 -90 -36l-1 4c-3.33301 18 -6 28.667 -8 32l-175 -25v-29c18 0 32 -1.5 42 -4.5s17.667 -8.5 23 -16.5
s9 -19.333 11 -34s3 -35.334 3 -62.001v-283c0 -26.667 -1 -47.334 -3 -62.001s-5.66699 -26 -11 -34s-13 -13.5 -23 -16.5s-24 -4.5 -42 -4.5v-29h271v29c-18 0 -31.833 1.5 -41.5 4.5s-17.334 8.5 -23.001 16.5s-9.5 19.333 -11.5 34s-3 35.334 -3 62.001z" />
    <glyph glyph-name="q" unicode="q" horiz-adv-x="510" 
d="M314 118c0 -24.667 -6.66797 -45.5 -20.001 -62.5s-28.666 -25.5 -45.999 -25.5c-24.667 0 -43.334 12.833 -56.001 38.5s-19 58.5 -19 98.5s6.33301 72.667 19 98s31.334 38 56.001 38c18 0 33.5 -8.33301 46.5 -25s19.5 -37.667 19.5 -63v-97zM426.999 -104
l0.00195312 446h-29l-53 -56c-12.667 19.333 -28.5 34.833 -47.5 46.5s-40.833 17.5 -65.5 17.5c-55.333 0 -99.5 -17.5 -132.5 -52.5s-49.5 -78.5 -49.5 -130.5s16.667 -95.667 50 -131s77.333 -53 132 -53c31.333 0 58.666 10 81.999 30v-117
c0 -26.667 -1 -47.334 -3 -62.001s-5.66699 -26 -11 -34s-13 -13.5 -23 -16.5s-24 -4.5 -42 -4.5v-29h271v29c-18 0 -31.833 1.5 -41.5 4.5s-17.334 8.5 -23.001 16.5s-9.5 19.333 -11.5 34s-3 35.334 -3 62.001z" />
    <glyph glyph-name="r" unicode="r" horiz-adv-x="432" 
d="M426 268c0 22 -7.16504 41.167 -21.498 57.5s-36.833 24.5 -67.5 24.5c-20 0 -40 -7 -60 -21s-35.333 -31 -46 -51c-1.33301 10.667 -3.83301 24.167 -7.5 40.5s-6.83398 26.833 -9.50098 31.5l-175 -25v-29c18 0 32 -1.5 42 -4.5s17.667 -8.5 23 -16.5s9 -19.333 11 -34
s3 -35.334 3 -62.001v-33c0 -26.667 -1 -47.334 -3 -62.001s-5.66699 -26 -11 -34s-13 -13.5 -23 -16.5s-24 -4.5 -42 -4.5v-29h271v29c-18 0 -31.833 1.5 -41.5 4.5s-17.334 8.5 -23.001 16.5s-9.5 19.333 -11.5 34s-3 35.334 -3 62.001v21
c0 37.333 6.16699 64.5 18.5 81.5s26.833 25.5 43.5 25.5c12.667 0 21.667 -2.83301 27 -8.5s10 -14.167 14 -25.5c4.66699 -10.667 9.5 -18.667 14.5 -24s13.167 -8 24.5 -8c16.667 0 29.667 6.33301 39 19s14 26.334 14 41.001z" />
    <glyph glyph-name="s" unicode="s" horiz-adv-x="350" 
d="M330 96c0 20 -6.66992 39.1719 -20.0029 57.5049s-32.333 33.166 -57 44.499l-49 23c-27.333 12 -45.666 21.5 -54.999 28.5s-14 15.833 -14 26.5c0 10 4.66699 18.167 14 24.5s21 9.5 35 9.5c22 0 42.833 -7.66699 62.5 -23s29.5 -33 29.5 -53h29v116h-29
c0 -12 -3.66699 -18 -11 -18c-4 0 -11.667 1.66699 -23 5c-27.333 8.66699 -52 13 -74 13c-13.333 0 -26.833 -1.83301 -40.5 -5.5s-26.5 -9.33398 -38.5 -17.001s-21.5 -18 -28.5 -31s-10.5 -28.5 -10.5 -46.5c0 -19.333 6.33301 -38.333 19 -57s31.334 -33.667 56.001 -45
l56 -25c22.667 -10.667 39 -20.334 49 -29.001s15 -18.667 15 -30s-4.66699 -20.666 -14 -27.999s-22 -11 -38 -11s-31.333 3.16699 -46 9.5s-27.667 14.666 -39 24.999s-20.333 21.666 -27 33.999s-10 24.166 -10 35.499h-29v-146h29c0 21.333 4.33301 32 13 32
c4.66699 0 13.667 -3.33301 27 -10c14.667 -6.66699 28.334 -12 41.001 -16s26.667 -6 42 -6c36.667 0 68.5 9.5 95.5 28.5s40.5 47.167 40.5 84.5z" />
    <glyph glyph-name="t" unicode="t" horiz-adv-x="303" 
d="M77 289l-0.00195312 -182.998c0 -38.667 10.333 -68.834 31 -90.501s49 -32.5 85 -32.5c17.333 0 38 5.83301 62 17.5s44.333 25.167 61 40.5l-14 28c-27.333 -19.333 -50 -29 -68 -29c-30 0 -45 24.333 -45 73v176h87v44h-87v126h-34
c-3.33301 -31.333 -18.166 -60.333 -44.499 -87s-55.166 -43.334 -86.499 -50.001v-33h53z" />
    <glyph glyph-name="u" unicode="u" horiz-adv-x="557" 
d="M553 8v30.0059c-18 0 -32 1.5 -42 4.5s-17.667 8.33301 -23 16s-9.16602 19 -11.499 34s-3.5 35.5 -3.5 61.5v179h-191v-29c17.333 0 31 -1.5 41 -4.5s17.833 -8.33301 23.5 -16s9.5 -19 11.5 -34s3 -35.5 3 -61.5v-50c0 -30.667 -9.83301 -54.834 -29.5 -72.501
s-40.834 -26.5 -63.501 -26.5c-26 0 -44.5 9.16699 -55.5 27.5s-16.5 44.833 -16.5 79.5v187h-192v-29c18 0 32 -1.5 42 -4.5s17.667 -8.33301 23 -16s9 -18.834 11 -33.501s3 -35.334 3 -62.001v-55c0 -42.667 14.667 -78.334 44 -107.001s66.333 -43 111 -43
c26.667 0 50.667 5.33301 72 16s39 24.667 53 42c1.33301 -10.667 3.5 -21.834 6.5 -33.501s5.83301 -19.834 8.5 -24.501z" />
    <glyph glyph-name="v" unicode="v" horiz-adv-x="368" 
d="M213 125l-60.001 129.001c-5.33301 11.333 -8 20.666 -8 27.999c0 14.667 13.667 22 41 22v29h-219v-29c16 0 28.833 -3.66699 38.5 -11s18.834 -20.333 27.501 -39l135 -272h28l126 272c8 18 17.333 30.833 28 38.5s25 11.5 43 11.5v29h-149v-29c24.667 0 37 -7 37 -21
c0 -7.33301 -2.66699 -17 -8 -29z" />
    <glyph glyph-name="w" unicode="w" horiz-adv-x="505" 
d="M245 175l81.001 -193h20l105 272c8 19.333 17.167 32.5 27.5 39.5s24.833 10.5 43.5 10.5v29h-149v-29c24.667 0 37 -7 37 -21c0 -6.66699 -2.33301 -16.334 -7 -29.001l-39 -99l-73 178h-33l-69 -178l-41 99c-4.66699 12.667 -7 22.334 -7 29.001c0 14 13.667 21 41 21
v29h-211v-29c17.333 0 30.666 -3.5 39.999 -10.5s18.333 -20.167 27 -39.5l113 -272h20z" />
    <glyph glyph-name="x" unicode="x" horiz-adv-x="407" 
d="M178 118l29.999 -38.999c10.667 -13.333 16 -24 16 -32c0 -12 -13.667 -18 -41 -18v-29h247v29c-21.333 0 -38.666 3.33301 -51.999 10s-28 20 -44 40l-86 113l59 62c17.333 18.667 33.833 31.667 49.5 39s31.167 11 46.5 11v29h-163v-29c22.667 0 34 -5 34 -15
c0 -8.66699 -7 -20.334 -21 -35.001l-30 -31l-24 31c-11.333 14.667 -17 26 -17 34c0 10.667 12.667 16 38 16v29h-235v-29c17.333 0 32.5 -3.5 45.5 -10.5s27.167 -20.167 42.5 -39.5l80 -105l-66 -70c-18 -19.333 -33.833 -32.5 -47.5 -39.5s-27.167 -10.5 -40.5 -10.5
v-29h159v29c-25.333 0 -38 5.33301 -38 16c0 8 7 19.333 21 34z" />
    <glyph glyph-name="y" unicode="y" horiz-adv-x="358" 
d="M112 -233l200.999 486.998c7.33301 18 16.666 30.833 27.999 38.5s25.666 11.5 42.999 11.5v29h-148v-29c24 0 36 -7.33301 36 -22c0 -6.66699 -2.33301 -16 -7 -28l-54 -130l-58 130c-6 12.667 -9 22.334 -9 29.001c0 14 14 21 42 21v29h-219v-29
c30 0 52 -16.667 66 -50l120 -268l-43 -106c-7.33301 -18 -15.166 -32.333 -23.499 -43s-18.166 -21 -29.499 -31c-8 -7.33301 -13.833 -13.666 -17.5 -18.999s-5.5 -12 -5.5 -20c0 -13.333 4.33301 -22.833 13 -28.5s17.667 -8.5 27 -8.5c7.33301 0 14.333 3.5 21 10.5
s12.334 15.833 17.001 26.5z" />
    <glyph glyph-name="z" unicode="z" horiz-adv-x="333" 
d="M305 333h-277l-7 -119h21l5 20c6 22.667 15.833 38.167 29.5 46.5s42.167 12.5 85.5 12.5h6l-150 -276v-17h290l8 119h-21l-5 -20c-6 -22.667 -15.833 -38.167 -29.5 -46.5s-42.167 -12.5 -85.5 -12.5h-19l149 277v16z" />
    <glyph glyph-name="braceleft" unicode="{" horiz-adv-x="375" 
d="M42 304l0.000976562 -16.0068l3 -1c17.333 -6 31 -11.667 41 -17s19 -13.666 27 -24.999s14.167 -27.5 18.5 -48.5s6.5 -48.5 6.5 -82.5c0 -29.333 4.16699 -54.833 12.5 -76.5s19.5 -40.167 33.5 -55.5s29 -28.166 45 -38.499s36.667 -22.5 62 -36.5
c16 -8.66699 26.667 -14.667 32 -18l23 29c-20 14 -35.5 26.5 -46.5 37.5s-19.5 23 -25.5 36s-10.167 28.833 -12.5 47.5s-3.5 43 -3.5 73c0 34.667 -3.33301 63.334 -10 86.001s-15.667 40.334 -27 53.001s-24 22 -38 28s-32 11.667 -54 17
c21.333 5.33301 39.166 11 53.499 17s27.166 15.333 38.499 28s20.333 30.334 27 53.001s10 51.334 10 86.001c0 30 1.16699 54.333 3.5 73s6.33301 34.5 12 47.5s14.167 25 25.5 36s27 23.167 47 36.5l-23 30c-6.66699 -4 -17 -9.66699 -31 -17
c-26 -14 -47 -26.333 -63 -37s-31 -23.5 -45 -38.5s-25.167 -33.5 -33.5 -55.5s-12.5 -47.667 -12.5 -77c0 -34 -2.16699 -61.5 -6.5 -82.5s-10.333 -37.167 -18 -48.5s-16.667 -19.666 -27 -24.999s-24.166 -11 -41.499 -17z" />
    <glyph glyph-name="bar" unicode="|" horiz-adv-x="270" 
d="M115 708v-708h44v708h-44z" />
    <glyph glyph-name="braceright" unicode="}" horiz-adv-x="375" 
d="M333 288l-0.000976562 16.0049l-2 1c-18 6 -32 11.667 -42 17s-18.833 13.666 -26.5 24.999s-13.667 27.5 -18 48.5s-6.5 48.5 -6.5 82.5c0 29.333 -4.16699 54.833 -12.5 76.5s-19.5 40.167 -33.5 55.5s-29.167 28.333 -45.5 39s-37.166 23 -62.499 37
c-13.333 6.66699 -24 12.334 -32 17.001l-23 -30c20 -13.333 35.667 -25.5 47 -36.5s20 -23 26 -36s10 -28.833 12 -47.5s3 -43 3 -73c0 -34.667 3.33301 -63.334 10 -86.001s15.667 -40.334 27 -53.001s24.166 -22 38.499 -28s32.166 -11.667 53.499 -17
c-21.333 -5.33301 -39.166 -11 -53.499 -17s-27.166 -15.333 -38.499 -28s-20.333 -30.334 -27 -53.001s-10 -51.334 -10 -86.001c0 -30 -1.16699 -54.333 -3.5 -73s-6.33301 -34.5 -12 -47.5s-14.167 -25 -25.5 -36s-27 -23.5 -47 -37.5l23 -29
c5.33301 3.33301 16 9.33301 32 18c26 14 47 26.167 63 36.5s31 23.166 45 38.499s25.167 33.833 33.5 55.5s12.5 47.167 12.5 76.5c0 34 2.16699 61.667 6.5 83s10.333 37.5 18 48.5s16.5 19.167 26.5 24.5s24 11 42 17z" />
    <glyph glyph-name="asciitilde" unicode="~" horiz-adv-x="506" 
d="M358 283c-13.333 0 -27.3311 2.99902 -41.998 8.99902s-33.667 15 -57 27c-24 13.333 -44.5 23.333 -61.5 30s-33.5 10 -49.5 10c-14.667 0 -28.667 -4.83301 -42 -14.5s-25.333 -23.167 -36 -40.5s-18.834 -37.166 -24.501 -59.499s-8.5 -45.5 -8.5 -69.5h35
c5.33301 20 14.666 35.5 27.999 46.5s28 16.5 44 16.5c10.667 0 23 -3 37 -9s33 -15 57 -27c26.667 -14 48.334 -24.5 65.001 -31.5s32 -10.5 46 -10.5c36 0 64.833 17.667 86.5 53s32.5 80.333 32.5 135h-35c-6 -24.667 -14.833 -41.667 -26.5 -51s-27.834 -14 -48.501 -14
z" />
    <glyph glyph-name="nbspace" unicode="&#xa0;" horiz-adv-x="233" 
 />
    <glyph glyph-name="exclamdown" unicode="&#xa1;" horiz-adv-x="329" 
d="M243 -109c0 17.333 -1.5 32.3301 -4.5 44.9971s-7.83301 28 -14.5 46c-11.333 32.667 -20.666 66.834 -27.999 102.501s-12 86.834 -14 153.501h-34c-2 -66.667 -6.5 -117.667 -13.5 -153s-15.833 -69.666 -26.5 -102.999c-6.66699 -19.333 -11.334 -35 -14.001 -47
s-4 -26.667 -4 -44c0 -20.667 7.33301 -38.667 22 -54s32.334 -23 53.001 -23c21.333 0 39.666 7.66699 54.999 23s23 33.333 23 54zM223 381.997c0 15.333 -5.66699 28.667 -17 40s-25 17 -41 17s-29.333 -5.5 -40 -16.5s-16 -24.5 -16 -40.5s5.33301 -29.667 16 -41
s24 -17 40 -17s29.667 5.66699 41 17s17 25 17 41z" />
    <glyph glyph-name="cent" unicode="&#xa2;" horiz-adv-x="463" 
d="M281 448l0.000976562 169.002h-46v-168c-22.667 -2 -44.834 -7.83301 -66.501 -17.5s-40.667 -22.834 -57 -39.501s-29.333 -36.5 -39 -59.5s-14.5 -47.833 -14.5 -74.5c0 -46 17 -85 51 -117s76 -50.667 126 -56v-168h46v167c26 2.66699 51 9.66699 75 21
s44.667 26 62 44l-18 29c-35.333 -30.667 -69 -46 -101 -46c-8 0 -14 0.333008 -18 1v275c6.66699 -2.66699 12.167 -7.33398 16.5 -14.001s6.5 -15.667 6.5 -27c0 -10.667 3.83301 -20 11.5 -28s16.834 -12 27.501 -12c15.333 0 26.666 4.5 33.999 13.5s11 18.5 11 28.5
c0 17.333 -9.83301 33.833 -29.5 49.5s-45.5 25.5 -77.5 29.5zM235.001 401.002l0.00195312 -251.001c-16.667 10.667 -29.834 25.334 -39.501 44.001s-14.5 40 -14.5 64c0 35.333 4.66699 65.5 14 90.5s22.666 42.5 39.999 52.5z" />
    <glyph glyph-name="sterling" unicode="&#xa3;" horiz-adv-x="513" 
d="M357 45h-54.999c-18 0 -31.833 1.5 -41.5 4.5s-17.334 8.5 -23.001 16.5s-9.5 19.333 -11.5 34s-3 35.334 -3 62.001v127h100v44h-100v124c0 44 3.83301 74.833 11.5 92.5s21.834 26.5 42.501 26.5c12 0 20.667 -3.5 26 -10.5s10.666 -17.5 15.999 -31.5
c6 -15.333 12.167 -26.833 18.5 -34.5s16.166 -11.5 29.499 -11.5c12 0 21.333 4 28 12s10 17.667 10 29c0 21.333 -11.667 41.333 -35 60s-53.666 28 -90.999 28c-58.667 0 -101.5 -16.667 -128.5 -50s-40.5 -84.333 -40.5 -153v-81h-82v-44h82v-143
c0 -26.667 -1 -47.334 -3 -62.001s-5.66699 -26 -11 -34s-13 -13.5 -23 -16.5s-24 -4.5 -42 -4.5v-29h467l9 141h-29l-5 -20c-8 -29.333 -18.667 -49.333 -32 -60s-41.333 -16 -84 -16z" />
    <glyph glyph-name="currency" unicode="&#xa4;" horiz-adv-x="500" 
d="M111 348c-20 -29.333 -30 -61.333 -30 -96c0 -36.667 10 -68.667 30 -96l-55 -55l41 -42l55 56c27.333 -20 59.333 -30 96 -30c36 0 67.667 10 95 30l55 -56l42 41l-55 56c20 30 30 62 30 96c0 32.667 -10 64.667 -30 96l55 55l-42 41l-55 -55c-27.333 20 -59 30 -95 30
c-36.667 0 -69 -10.333 -97 -31l-54 55l-41 -41zM248 345c25.333 0 47.166 -9.16699 65.499 -27.5s27.5 -40.166 27.5 -65.499s-9.16699 -47.166 -27.5 -65.499s-40.166 -27.5 -65.499 -27.5s-47.166 9.16699 -65.499 27.5s-27.5 40.166 -27.5 65.499
s9.16699 47.166 27.5 65.499s40.166 27.5 65.499 27.5z" />
    <glyph glyph-name="yen" unicode="&#xa5;" horiz-adv-x="633" 
d="M378 230h122v57h-109l130 196c12.667 19.333 22.834 34 30.501 44s16.5 18.333 26.5 25s21.833 11.5 35.5 14.5s30.834 4.5 51.501 4.5v29h-242v-29c49.333 0 74 -10 74 -30c0 -11.333 -6.66699 -26.666 -20 -45.999l-112 -169l-112 169
c-12 17.333 -18 31.666 -18 42.999c0 22 23.667 33 71 33v29h-339v-29c35.333 0 62.666 -5.66699 81.999 -17c10 -6.66699 19.833 -15.5 29.5 -26.5s20.834 -25.833 33.501 -44.5l130 -196h-119v-57h134v-42h-134v-56h134c-0.666992 -23.333 -2.33398 -41.5 -5.00098 -54.5
s-7.33398 -23 -14.001 -30s-16 -11.833 -28 -14.5s-28.333 -4 -49 -4v-29h312v29c-20.667 0 -37 1.33301 -49 4s-21.333 7.5 -28 14.5s-11.167 17 -13.5 30s-3.83301 31.167 -4.5 54.5h122v56h-122v42z" />
    <glyph glyph-name="brokenbar" unicode="&#xa6;" horiz-adv-x="211" 
d="M128 708h-45v-300h45v300zM128 300h-45v-300h45v300z" />
    <glyph glyph-name="section" unicode="&#xa7;" horiz-adv-x="398" 
d="M145 398c-20.667 -9.33301 -38.335 -24.3301 -53.002 -44.9971s-22 -44 -22 -70c0 -19.333 6.33301 -39.166 19 -59.499s31.334 -37.166 56.001 -50.499l56 -30c22.667 -12 39 -23.667 49 -35s15 -23 15 -35c0 -12.667 -4.83301 -23.834 -14.5 -33.501
s-22.167 -14.5 -37.5 -14.5c-16 0 -31.333 3.16699 -46 9.5s-27.667 14.666 -39 24.999s-20.333 21.666 -27 33.999s-10 24.166 -10 35.499h-29v-146h29c0 21.333 4.33301 32 13 32c4.66699 0 13.667 -3.33301 27 -10c14.667 -6.66699 28.334 -12 41.001 -16
s26.667 -6 42 -6c36 0 67.667 10.833 95 32.5s41 51.167 41 88.5c0 39.333 -23.667 74.666 -71 105.999c21.333 12 38.5 28.667 51.5 50s19.5 44.333 19.5 69c0 19.333 -6.66699 38.666 -20 57.999s-32.333 37 -57 53l-49 27c-24.667 13.333 -42.334 25.166 -53.001 35.499
s-16 20.833 -16 31.5s4.83301 20.5 14.5 29.5s21.167 13.5 34.5 13.5c22 0 42.833 -7.66699 62.5 -23s29.5 -33 29.5 -53h29v116h-29c0 -12 -3.66699 -18 -11 -18c-4 0 -11.667 1.66699 -23 5c-27.333 8.66699 -52 13 -74 13c-29.333 0 -56.333 -9.5 -81 -28.5
s-37 -45.833 -37 -80.5c0 -19.333 6.33301 -39.166 19 -59.499s31.334 -37.166 56.001 -50.499zM232.999 237.003l-9.00098 4.99902c-23.333 12.667 -40.666 25.5 -51.999 38.5s-17 25.5 -17 37.5c0 14.667 4.33301 26.5 13 35.5s19.667 13.833 33 14.5
c22.667 -12 39 -24.667 49 -38s15 -27 15 -41c0 -27.333 -10.667 -44.666 -32 -51.999z" />
    <glyph glyph-name="dieresis" unicode="&#xa8;" horiz-adv-x="370" 
d="M71 685c-14 0 -26 -4.83301 -36 -14.5s-15 -21.834 -15 -36.501c0 -14 5 -26 15 -36s22 -15 36 -15s26 5 36 15s15 22 15 36c0 14.667 -5 26.834 -15 36.501s-22 14.5 -36 14.5zM270 685c-14 0 -26 -4.83301 -36 -14.5s-15 -21.834 -15 -36.501c0 -14 5 -26 15 -36
s22 -15 36 -15s26 5 36 15s15 22 15 36c0 14.667 -5 26.834 -15 36.501s-22 14.5 -36 14.5z" />
    <glyph glyph-name="copyright" unicode="&#xa9;" horiz-adv-x="683" 
d="M342 617c-43.333 0 -84.166 -8.16992 -122.499 -24.5029s-72.166 -39.166 -101.499 -68.499s-52.166 -63.166 -68.499 -101.499s-24.5 -79.166 -24.5 -122.499s8.16699 -84.166 24.5 -122.499s39.166 -72.166 68.499 -101.499s63.166 -52.166 101.499 -68.499
s79.166 -24.5 122.499 -24.5s84.166 8.16699 122.499 24.5s72 39.166 101 68.499s51.667 63.166 68 101.499s24.5 79.166 24.5 122.499s-8.16699 84.333 -24.5 123s-39 72.5 -68 101.5s-62.667 51.667 -101 68s-79.166 24.5 -122.499 24.5zM342 570.997
c37.333 0 72.5 -7 105.5 -21s61.833 -33.333 86.5 -58s44 -53.5 58 -86.5s21 -68.167 21 -105.5c0 -36.667 -7 -71.5 -21 -104.5s-33.333 -62 -58 -87s-53.5 -44.5 -86.5 -58.5s-68.167 -21 -105.5 -21c-36.667 0 -71.5 7 -104.5 21s-62 33.5 -87 58.5s-44.5 54 -58.5 87
s-21 67.833 -21 104.5c0 37.333 7 72.5 21 105.5s33.5 61.833 58.5 86.5s54 44 87 58s67.833 21 104.5 21zM497 123.997v142.001h-24c-15.333 -78 -50.333 -117 -105 -117c-32.667 0 -57.5 13.833 -74.5 41.5s-25.5 64.167 -25.5 109.5c0 44 8.5 80.167 25.5 108.5
s41.833 42.5 74.5 42.5c54.667 0 89.667 -38.667 105 -116h24v141h-23c-0.666992 -6.66699 -2.5 -14.167 -5.5 -22.5s-5.83301 -14.166 -8.5 -17.499c-12.667 15.333 -30 28 -52 38s-43 15 -63 15c-24.667 0 -48 -4.83301 -70 -14.5s-41.5 -23.334 -58.5 -41.001
s-30.167 -38 -39.5 -61s-14 -47.167 -14 -72.5s4.66699 -49.5 14 -72.5s22.5 -43.333 39.5 -61s36.5 -31.334 58.5 -41.001s45.333 -14.5 70 -14.5c20 0 41 5.16699 63 15.5s39.333 22.833 52 37.5c2.66699 -3.33301 5.5 -9 8.5 -17s4.83301 -15.667 5.5 -23h23z" />
    <glyph glyph-name="ordfeminine" unicode="&#xaa;" horiz-adv-x="449" 
d="M422 309l-14 26.001c-9.33301 -8 -18.666 -12 -27.999 -12c-14 0 -21 12 -21 36v129c0 45.333 -11.667 78.166 -35 98.499s-61.333 30.5 -114 30.5c-36.667 0 -68.834 -7 -96.501 -21s-41.5 -32.333 -41.5 -55c0 -12 3.5 -21.833 10.5 -29.5s15.5 -11.5 25.5 -11.5
c11.333 0 20.666 3.83301 27.999 11.5s11 17.5 11 29.5c0 11.333 5.5 20.333 16.5 27s22.5 10 34.5 10c21.333 0 37 -6.66699 47 -20s15 -36.666 15 -69.999v-1c-68 -10.667 -120.167 -26.334 -156.5 -47.001s-54.5 -50 -54.5 -88c0 -24 9 -43.167 27 -57.5
s39.333 -21.5 64 -21.5c20 0 37.833 3.83301 53.5 11.5s37.834 22.167 66.501 43.5c6.66699 -36 31 -54 73 -54c11.333 0 25.5 3.16699 42.5 9.5s32.5 14.833 46.5 25.5zM260 368.001c-14.667 -13.333 -29.3311 -23.667 -43.998 -31s-26.334 -11 -35.001 -11
c-10.667 0 -19.667 3 -27 9s-11 15.333 -11 28c0 22 9.16699 39 27.5 51s48.166 23.667 89.499 35v-81z" />
    <glyph glyph-name="guillemotleft" unicode="&#xab;" horiz-adv-x="667" 
d="M428 73l-175 195l175 195l-15 22l-338 -217l338 -218zM598 118l-135 150l135 150l-14 24l-274 -174l274 -175z" />
    <glyph glyph-name="logicalnot" unicode="&#xac;" horiz-adv-x="570" 
d="M459 295h-376v-77h299v-103h77v180z" />
    <glyph glyph-name="minus" unicode="&#xad;" horiz-adv-x="458" 
d="M375 183v77h-292v-77h292z" />
    <glyph glyph-name="minus" unicode="&#x2212;" horiz-adv-x="458" 
d="M375 183v77h-292v-77h292z" />
    <glyph glyph-name="registered" unicode="&#xae;" horiz-adv-x="683" 
d="M658 300c0 43.333 -8.16699 84.3301 -24.5 122.997s-39 72.5 -68 101.5s-62.667 51.667 -101 68s-79.166 24.5 -122.499 24.5s-84.166 -8.16699 -122.499 -24.5s-72.166 -39.166 -101.499 -68.499s-52.166 -63.166 -68.499 -101.499s-24.5 -79.166 -24.5 -122.499
s8.16699 -84.166 24.5 -122.499s39.166 -72.166 68.499 -101.499s63.166 -52.166 101.499 -68.499s79.166 -24.5 122.499 -24.5s84.166 8.16699 122.499 24.5s72 39.166 101 68.499s51.667 63.166 68 101.499s24.5 79.166 24.5 122.499zM408 372.997
c0 -18.667 -5.33301 -33.832 -16 -45.499s-23.667 -17.5 -39 -17.5h-26v126h26c15.333 0 28.333 -5.83301 39 -17.5s16 -26.834 16 -45.501zM547 122.999c-25.333 -29.333 -55.833 -52.3301 -91.5 -68.9971s-73.5 -25 -113.5 -25c-36.667 0 -71.5 7 -104.5 21
s-62 33.5 -87 58.5s-44.5 54 -58.5 87s-21 67.833 -21 104.5c0 37.333 7 72.5 21 105.5s33.5 61.833 58.5 86.5s54 44 87 58s67.833 21 104.5 21c37.333 0 72.5 -7 105.5 -21s61.833 -33.333 86.5 -58s44 -53.5 58 -86.5s21 -68.167 21 -105.5c0 -52 -14.333 -101 -43 -147
c-25.333 11.333 -55.666 34.666 -90.999 69.999l-56 55c23.333 7.33301 42.333 19.166 57 35.499s22 36.166 22 59.499c0 29.333 -11.333 53.333 -34 72s-52.334 28 -89.001 28h-204v-24c26.667 0 44 -5.66699 52 -17s12 -37 12 -77v-114c0 -40 -4 -65.667 -12 -77
s-25.333 -17 -52 -17v-24h216v24c-26.667 0 -44 5.66699 -52 17s-12 37 -12 77v32h16l106 -150h98z" />
    <glyph glyph-name="macron" unicode="&#xaf;" horiz-adv-x="258" 
d="M203 621v23h-181v-23h181z" />
    <glyph glyph-name="degree" unicode="&#xb0;" horiz-adv-x="400" 
d="M199 601c-20 0 -39.166 -3.83301 -57.499 -11.5s-34.333 -18.5 -48 -32.5s-24.5 -30.167 -32.5 -48.5s-12 -37.5 -12 -57.5c0 -20.667 3.83301 -40 11.5 -58s18.5 -34 32.5 -48s30.167 -24.833 48.5 -32.5s37.5 -11.5 57.5 -11.5c20.667 0 40 3.83301 58 11.5
s34 18.5 48 32.5s24.833 30.167 32.5 48.5s11.5 37.5 11.5 57.5s-3.83301 39.167 -11.5 57.5s-18.334 34.5 -32.001 48.5s-29.667 24.833 -48 32.5s-37.833 11.5 -58.5 11.5zM200.001 530c21.333 0 39.833 -7.83301 55.5 -23.5s23.5 -34.167 23.5 -55.5
s-7.83301 -39.833 -23.5 -55.5s-34.167 -23.5 -55.5 -23.5s-39.833 7.83301 -55.5 23.5s-23.5 34.167 -23.5 55.5s7.83301 39.833 23.5 55.5s34.167 23.5 55.5 23.5z" />
    <glyph glyph-name="plusminus" unicode="&#xb1;" horiz-adv-x="458" 
d="M190 78h-140v-78h358v78h-140v130h140v77h-140v140h-78v-140h-140v-77h140v-130z" />
    <glyph glyph-name="twosuperior" unicode="&#xb2;" horiz-adv-x="336" 
d="M300 352l-159.002 0.00195312l89 62c18.667 13.333 33.334 28.5 44.001 45.5s16 36.5 16 58.5c0 29.333 -13.333 53.166 -40 71.499s-58 27.5 -94 27.5c-35.333 0 -64.166 -9.83301 -86.499 -29.5s-33.5 -42.167 -33.5 -67.5c0 -28.667 13.333 -52.334 40 -71.001l27 25
c-9.33301 16 -14 30.667 -14 44c0 16 5.5 28.833 16.5 38.5s24.167 14.5 39.5 14.5c42 0 63 -20.667 63 -62c0 -13.333 -2.66699 -25.833 -8 -37.5s-14.333 -23.5 -27 -35.5l-132 -127v-22h250z" />
    <glyph glyph-name="threesuperior" unicode="&#xb3;" horiz-adv-x="336" 
d="M306 378c0 22.667 -10.001 45.3291 -30.001 67.9961s-42.667 37.334 -68 44.001l90 87v23h-232l-18 -137h22l5 18c3.33301 14 10.333 23.667 21 29s24.667 8 42 8h56l-77 -79c-5.33301 -6 -8 -12 -8 -18c0 -12 5.66699 -18 17 -18c9.33301 0 17.333 5.66699 24 17
c5.33301 8.66699 10.666 16.334 15.999 23.001c16.667 -4 30.334 -11.667 41.001 -23s16 -25.333 16 -42c0 -20.667 -5 -38 -15 -52s-25.333 -21 -46 -21c-18 0 -31.5 3 -40.5 9s-17.167 14.333 -24.5 25c-4 6.66699 -7.66699 11.334 -11 14.001s-7.66602 4 -12.999 4
c-16 0 -24 -6 -24 -18c0 -15.333 10.833 -30.666 32.5 -45.999s48.5 -23 80.5 -23c44 0 79 10.5 105 31.5s39 46.5 39 76.5z" />
    <glyph glyph-name="acute" unicode="&#xb4;" horiz-adv-x="227" 
d="M196 668c0 8.66699 -3.33203 17.001 -9.99902 25.001s-15.667 12 -27 12c-10 0 -19 -2.33301 -27 -7s-18 -12.334 -30 -23.001l-121 -113l6 -9l179 75c7.33301 4 14.166 9.5 20.499 16.5s9.5 14.833 9.5 23.5z" />
    <glyph glyph-name="mu" unicode="&#xb5;" horiz-adv-x="557" 
d="M83 188l0.000976562 -211.995c0 -26.667 -1 -47.334 -3 -62.001s-5.66699 -26 -11 -34s-13 -13.5 -23 -16.5s-24 -4.5 -42 -4.5v-29h271v29c-18 0 -31.833 1.5 -41.5 4.5s-17.334 8.5 -23.001 16.5s-9.5 19.333 -11.5 34s-3 35.334 -3 62.001v12
c14.667 -3.33301 28.667 -5 42 -5c26.667 0 50.667 5.33301 72 16s39 24.667 53 42c1.33301 -10.667 3.5 -21.834 6.5 -33.501s5.83301 -19.834 8.5 -24.501l175 25v30c-18 0 -32 1.5 -42 4.5s-17.667 8.33301 -23 16s-9.16602 19 -11.499 34s-3.5 35.5 -3.5 61.5v179h-191
v-29c17.333 0 31 -1.5 41 -4.5s17.833 -8.33301 23.5 -16s9.5 -19 11.5 -34s3 -35.5 3 -61.5v-50c0 -30.667 -9.83301 -54.834 -29.5 -72.501s-40.834 -26.5 -63.501 -26.5c-26 0 -44.5 9.16699 -55.5 27.5s-16.5 44.833 -16.5 79.5v187h-192v-29c18 0 32 -1.5 42 -4.5
s17.667 -8.33301 23 -16s9 -18.834 11 -33.501s3 -35.334 3 -62.001z" />
    <glyph glyph-name="paragraph" unicode="&#xb6;" horiz-adv-x="563" 
d="M504 600l-283.998 0.00195312c-22.667 0 -44.334 -4.5 -65.001 -13.5s-38.834 -21.333 -54.501 -37s-28 -33.834 -37 -54.501s-13.5 -42.334 -13.5 -65.001c0 -43.333 14.667 -81 44 -113s65.333 -50.333 108 -55v-286c0 -26 -1.16699 -46.5 -3.5 -61.5
s-6.83301 -26.5 -13.5 -34.5s-16 -13.5 -28 -16.5s-29 -4.5 -51 -4.5v-29h157v718h84v-718h157v29c-22 0 -39 1.5 -51 4.5s-21.333 8.5 -28 16.5s-11.167 19.5 -13.5 34.5s-3.5 35.5 -3.5 61.5v478c0 26 1.16699 46.5 3.5 61.5s6.83301 26.5 13.5 34.5s16 13.5 28 16.5
s29 4.5 51 4.5v29z" />
    <glyph glyph-name="periodcentered" unicode="&#xb7;" horiz-adv-x="283" 
d="M205 233c0 17.333 -6.33301 32.5 -19 45.5s-27.667 19.5 -45 19.5s-32.166 -6.5 -44.499 -19.5s-18.5 -28.167 -18.5 -45.5s6.16699 -32.333 18.5 -45s27.166 -19 44.499 -19s32.333 6.33301 45 19s19 27.667 19 45z" />
    <glyph glyph-name="periodcentered" unicode="&#x2219;" horiz-adv-x="283" 
d="M205 233c0 17.333 -6.33301 32.5 -19 45.5s-27.667 19.5 -45 19.5s-32.166 -6.5 -44.499 -19.5s-18.5 -28.167 -18.5 -45.5s6.16699 -32.333 18.5 -45s27.166 -19 44.499 -19s32.333 6.33301 45 19s19 27.667 19 45z" />
    <glyph glyph-name="cedilla" unicode="&#xb8;" horiz-adv-x="218" 
d="M227 -136c0 32 -11.334 56.665 -34.001 73.998s-47.667 26.666 -75 27.999l97 99h-58l-141 -140v-18c16.667 5.33301 33.334 8 50.001 8c23.333 0 42.833 -4.66699 58.5 -14s23.5 -21.666 23.5 -36.999c0 -14.667 -4 -27.667 -12 -39s-17.833 -20.666 -29.5 -27.999
s-23.167 -13.166 -34.5 -17.499s-23 -8.5 -35 -12.5v-36c14.667 2 32.167 5.83301 52.5 11.5s41 13.5 62 23.5s38.833 23.333 53.5 40s22 36 22 58z" />
    <glyph glyph-name="onesuperior" unicode="&#xb9;" horiz-adv-x="336" 
d="M272 291l0.000976562 27.001c-22.667 0 -37.5 5 -44.5 15s-10.5 31.667 -10.5 65v218l-163 -23v-27c26.667 0 44.5 -4.83301 53.5 -14.5s13.5 -29.834 13.5 -60.501v-93c0 -33.333 -3.33301 -55 -10 -65s-21.334 -15 -44.001 -15v-27h205z" />
    <glyph glyph-name="ordmasculine" unicode="&#xba;" horiz-adv-x="503" 
d="M443 443c0 23.333 -5 45.5 -15 66.5s-23.833 39.667 -41.5 56s-38 29 -61 38s-47.5 13.5 -73.5 13.5s-50.5 -4.5 -73.5 -13.5s-43.5 -21.667 -61.5 -38s-32 -35 -42 -56s-15 -43.167 -15 -66.5s5 -45.666 15 -66.999s23.833 -40.166 41.5 -56.499s38.334 -29 62.001 -38
s48.167 -13.5 73.5 -13.5c26 0 50.667 4.5 74 13.5s43.666 21.667 60.999 38s31 35.166 41 56.499s15 43.666 15 66.999zM327 443c0 -38 -6.5 -69.167 -19.5 -93.5s-31.5 -36.5 -55.5 -36.5c-24.667 0 -43.334 12.167 -56.001 36.5s-19 55.5 -19 93.5
c0 37.333 6.33301 68.333 19 93s31.334 37 56.001 37c24 0 42.5 -12.333 55.5 -37s19.5 -55.667 19.5 -93z" />
    <glyph glyph-name="guillemotright" unicode="&#xbb;" horiz-adv-x="667" 
d="M592 268l-338 217l-16 -22l175 -195l-175 -195l16 -23zM357 268l-274 174l-15 -24l135 -150l-135 -150l15 -25z" />
    <glyph glyph-name="onequarter" unicode="&#xbc;" horiz-adv-x="755" 
d="M715 203h-28.999l-4 -17c-5.33301 -20 -11.833 -33.5 -19.5 -40.5s-18.834 -10.833 -33.501 -11.5v205h-35l-195 -221v-25h138c0 -26 -3.66699 -43 -11 -51s-23 -12 -47 -12v-30h207v30c-24 0 -39.5 4 -46.5 12s-10.5 25 -10.5 51h80zM537.001 134h-76l76 86v-86z
M573.001 598l-40 22l-369 -617l39 -21zM272.001 291l0.000976562 27.001c-22.667 0 -37.5 5 -44.5 15s-10.5 31.667 -10.5 65v218l-163 -23v-27c26.667 0 44.5 -4.83301 53.5 -14.5s13.5 -29.834 13.5 -60.501v-93c0 -33.333 -3.33301 -55 -10 -65s-21.334 -15 -44.001 -15
v-27h205z" />
    <glyph glyph-name="onehalf" unicode="&#xbd;" horiz-adv-x="755" 
d="M573 598l-40 22l-369 -617l39 -21zM272 291l0.000976562 27.001c-22.667 0 -37.5 5 -44.5 15s-10.5 31.667 -10.5 65v218l-163 -23v-27c26.667 0 44.5 -4.83301 53.5 -14.5s13.5 -29.834 13.5 -60.501v-93c0 -33.333 -3.33301 -55 -10 -65s-21.334 -15 -44.001 -15v-27
h205zM708.001 65.001h-159.001l89 63c18.667 12.667 33.334 27.5 44.001 44.5s16 36.5 16 58.5c0 30 -13.167 54 -39.5 72s-57.833 27 -94.5 27c-36 0 -65 -9.66699 -87 -29s-33 -42 -33 -68c0 -28 13.333 -51.333 40 -70l27 25c-8.66699 16 -13 30.667 -13 44
c0 16 5.33301 28.667 16 38s23.667 14 39 14c42.667 0 64 -20.333 64 -61c0 -14 -2.66699 -26.833 -8 -38.5s-14.333 -23.5 -27 -35.5l-133 -126v-23h250z" />
    <glyph glyph-name="threequarters" unicode="&#xbe;" horiz-adv-x="755" 
d="M306 378c0 22.667 -10.001 45.3291 -30.001 67.9961s-42.667 37.334 -68 44.001l90 87v23h-232l-18 -137h22l5 18c3.33301 14 10.333 23.667 21 29s24.667 8 42 8h56l-77 -79c-5.33301 -6 -8 -12 -8 -18c0 -12 5.66699 -18 17 -18c9.33301 0 17.333 5.66699 24 17
c5.33301 8.66699 10.666 16.334 15.999 23.001c16.667 -4 30.334 -11.667 41.001 -23s16 -25.333 16 -42c0 -20.667 -5 -38 -15 -52s-25.333 -21 -46 -21c-18 0 -31.5 3 -40.5 9s-17.167 14.333 -24.5 25c-4 6.66699 -7.66699 11.334 -11 14.001s-7.66602 4 -12.999 4
c-16 0 -24 -6 -24 -18c0 -15.333 10.833 -30.666 32.5 -45.999s48.5 -23 80.5 -23c44 0 79 10.5 105 31.5s39 46.5 39 76.5zM714.999 202.995h-28.999l-4 -17c-5.33301 -20 -11.833 -33.5 -19.5 -40.5s-18.834 -10.833 -33.501 -11.5v205h-35l-195 -221v-25h138
c0 -26 -3.66699 -43 -11 -51s-23 -12 -47 -12v-30h207v30c-24 0 -39.5 4 -46.5 12s-10.5 25 -10.5 51h80zM537 133.995h-76l76 86v-86zM585 597.995l-39 22l-369 -617l39 -21z" />
    <glyph glyph-name="questiondown" unicode="&#xbf;" horiz-adv-x="513" 
d="M463 -71c0 29.333 -9 50.998 -27 64.998s-37.667 21 -59 21c-14 0 -28.167 -4.5 -42.5 -13.5s-21.5 -21.833 -21.5 -38.5c0 -11.333 4.33301 -21.166 13 -29.499s19 -12.5 31 -12.5c11.333 0 19.833 -2.16699 25.5 -6.5s8.5 -9.83301 8.5 -16.5
c0 -10 -8.33301 -20 -25 -30s-39 -15 -67 -15c-42.667 0 -78 11 -106 33s-42 47.333 -42 76c0 36.667 18 65.667 54 87s82.333 32 139 32v174h-44v-54c-66 -8 -119.833 -30 -161.5 -66s-62.5 -84 -62.5 -144c0 -20 5 -40.667 15 -62s24.667 -40.666 44 -57.999
s43 -31.333 71 -42s59.333 -16 94 -16c18 0 36.5 2.5 55.5 7.5s36.667 12.5 53 22.5s29.5 22.333 39.5 37s15 31 15 49zM379 381.998c0 15.333 -5.66699 28.667 -17 40s-24.666 17 -39.999 17c-16 0 -29.333 -5.5 -40 -16.5s-16 -24.5 -16 -40.5s5.33301 -29.667 16 -41
s24 -17 40 -17c15.333 0 28.666 5.66699 39.999 17s17 25 17 41z" />
    <glyph glyph-name="Agrave" unicode="&#xc0;" 
d="M388 682l-122 112.999c-11.333 10.667 -21 18.334 -29 23.001s-17.333 7 -28 7c-11.333 0 -20.333 -3.83301 -27 -11.5s-10 -16.167 -10 -25.5c0 -8.66699 3 -16.167 9 -22.5s13 -11.833 21 -16.5l179 -76zM170 199.999l197.998 0.000976562l42 -95
c7.33301 -16 11 -29 11 -39c0 -12.667 -6.66699 -22 -20 -28s-35.333 -9 -66 -9v-29h328v29c-37.333 0 -63.166 5.83301 -77.499 17.5s-29.166 35.167 -44.499 70.5l-218 500h-21l-217 -500c-15.333 -35.333 -31 -58.833 -47 -70.5s-41.333 -17.5 -76 -17.5v-29h242v29
c-30 0 -51.667 3 -65 9s-20 16 -20 30c0 9.33301 3.33301 21.666 10 36.999zM348.998 245h-159l79 183z" />
    <glyph glyph-name="Aacute" unicode="&#xc1;" 
d="M480 788c0 8.66699 -3.33203 17.001 -9.99902 25.001s-15.667 12 -27 12c-10 0 -19 -2.33301 -27 -7s-18 -12.334 -30 -23.001l-121 -113l6 -9l179 75c7.33301 4 14.166 9.5 20.499 16.5s9.5 14.833 9.5 23.5zM170.001 200.001l197.998 0.000976562l42 -95
c7.33301 -16 11 -29 11 -39c0 -12.667 -6.66699 -22 -20 -28s-35.333 -9 -66 -9v-29h328v29c-37.333 0 -63.166 5.83301 -77.499 17.5s-29.166 35.167 -44.499 70.5l-218 500h-21l-217 -500c-15.333 -35.333 -31 -58.833 -47 -70.5s-41.333 -17.5 -76 -17.5v-29h242v29
c-30 0 -51.667 3 -65 9s-20 16 -20 30c0 9.33301 3.33301 21.666 10 36.999zM348.999 245.002h-159l79 183z" />
    <glyph glyph-name="Acircumflex" unicode="&#xc2;" 
d="M464 689l-143 155l-143 -155l15 -14l128 83l128 -83zM170 200l197.998 0.000976562l42 -95c7.33301 -16 11 -29 11 -39c0 -12.667 -6.66699 -22 -20 -28s-35.333 -9 -66 -9v-29h328v29c-37.333 0 -63.166 5.83301 -77.499 17.5s-29.166 35.167 -44.499 70.5l-218 500h-21
l-217 -500c-15.333 -35.333 -31 -58.833 -47 -70.5s-41.333 -17.5 -76 -17.5v-29h242v29c-30 0 -51.667 3 -65 9s-20 16 -20 30c0 9.33301 3.33301 21.666 10 36.999zM348.998 245.001h-159l79 183z" />
    <glyph glyph-name="Atilde" unicode="&#xc3;" 
d="M387 731c-9.33301 0 -19.501 2.66699 -30.501 8s-25.167 13.333 -42.5 24c-17.333 11.333 -32 19.833 -44 25.5s-23.333 8.5 -34 8.5c-22 0 -40.5 -11 -55.5 -33s-22.5 -50 -22.5 -84h19c4 15.333 10.833 28.333 20.5 39s19.834 16 30.501 16
c7.33301 0 16.333 -2.66699 27 -8s24 -13 40 -23c18.667 -11.333 34.167 -20 46.5 -26s23.5 -9 33.5 -9c25.333 0 45.5 10.667 60.5 32s22.5 50.333 22.5 87h-20c-8.66699 -38 -25.667 -57 -51 -57zM169.999 200l197.998 0.000976562l42 -95c7.33301 -16 11 -29 11 -39
c0 -12.667 -6.66699 -22 -20 -28s-35.333 -9 -66 -9v-29h328v29c-37.333 0 -63.166 5.83301 -77.499 17.5s-29.166 35.167 -44.499 70.5l-218 500h-21l-217 -500c-15.333 -35.333 -31 -58.833 -47 -70.5s-41.333 -17.5 -76 -17.5v-29h242v29c-30 0 -51.667 3 -65 9
s-20 16 -20 30c0 9.33301 3.33301 21.666 10 36.999zM348.997 245.001h-159l79 183z" />
    <glyph glyph-name="Adieresis" unicode="&#xc4;" 
d="M214 776c-14 0 -26 -4.83301 -36 -14.5s-15 -21.834 -15 -36.501c0 -14 5 -26 15 -36s22 -15 36 -15s26 5 36 15s15 22 15 36c0 14.667 -5 26.834 -15 36.501s-22 14.5 -36 14.5zM413 776c-14 0 -26 -4.83301 -36 -14.5s-15 -21.834 -15 -36.501c0 -14 5 -26 15 -36
s22 -15 36 -15s26 5 36 15s15 22 15 36c0 14.667 -5 26.834 -15 36.501s-22 14.5 -36 14.5zM170 200l197.998 0.000976562l42 -95c7.33301 -16 11 -29 11 -39c0 -12.667 -6.66699 -22 -20 -28s-35.333 -9 -66 -9v-29h328v29c-37.333 0 -63.166 5.83301 -77.499 17.5
s-29.166 35.167 -44.499 70.5l-218 500h-21l-217 -500c-15.333 -35.333 -31 -58.833 -47 -70.5s-41.333 -17.5 -76 -17.5v-29h242v29c-30 0 -51.667 3 -65 9s-20 16 -20 30c0 9.33301 3.33301 21.666 10 36.999zM348.998 245.001h-159l79 183z" />
    <glyph glyph-name="Aring" unicode="&#xc5;" 
d="M315 874c-27.333 0 -50.833 -9.83301 -70.5 -29.5s-29.5 -43.167 -29.5 -70.5s9.83301 -50.666 29.5 -69.999s43.167 -29 70.5 -29s50.666 9.66699 69.999 29s29 42.666 29 69.999s-9.66699 50.833 -29 70.5s-42.666 29.5 -69.999 29.5zM315 820
c12.667 0 23.334 -4.5 32.001 -13.5s13 -19.833 13 -32.5s-4.33301 -23.334 -13 -32.001s-19.334 -13 -32.001 -13s-23.5 4.33301 -32.5 13s-13.5 19.334 -13.5 32.001s4.5 23.5 13.5 32.5s19.833 13.5 32.5 13.5zM170 200l197.998 0.000976562l42 -95
c7.33301 -16 11 -29 11 -39c0 -12.667 -6.66699 -22 -20 -28s-35.333 -9 -66 -9v-29h328v29c-37.333 0 -63.166 5.83301 -77.499 17.5s-29.166 35.167 -44.499 70.5l-218 500h-21l-217 -500c-15.333 -35.333 -31 -58.833 -47 -70.5s-41.333 -17.5 -76 -17.5v-29h242v29
c-30 0 -51.667 3 -65 9s-20 16 -20 30c0 9.33301 3.33301 21.666 10 36.999zM348.998 245.001h-159l79 183z" />
    <glyph glyph-name="AE" unicode="&#xc6;" horiz-adv-x="818" 
d="M358 547v-261h-135zM728 600l-391.997 -0.000976562l-254 -492c-16.667 -32.667 -34 -54 -52 -64s-46 -15 -84 -15v-29h242v29c-26.667 0 -45.834 2.16699 -57.501 6.5s-17.5 11.833 -17.5 22.5c0 9.33301 4.33301 22.333 13 39l74 144h158v-95
c0 -26.667 -1.16699 -47.334 -3.5 -62.001s-6.66602 -26 -12.999 -34s-15.5 -13.5 -27.5 -16.5s-29 -4.5 -51 -4.5v-29h498l8 141h-29l-5 -20c-7.33301 -29.333 -17.833 -49.333 -31.5 -60s-41.834 -16 -84.501 -16h-40c-22 0 -39 1.5 -51 4.5s-21.333 8.5 -28 16.5
s-11.167 19.5 -13.5 34.5s-3.5 35.5 -3.5 61.5v79h5c26 0 46.5 -1.16699 61.5 -3.5s26.333 -6.83301 34 -13.5s13 -16 16 -28s4.5 -29 4.5 -51h29v237h-29c0 -22 -1.5 -39.167 -4.5 -51.5s-8.33301 -21.666 -16 -27.999s-18.834 -10.666 -33.501 -12.999
s-35.334 -3.5 -62.001 -3.5h-5v269h103c42.667 0 70.667 -5.16699 84 -15.5s24 -30.5 32 -60.5l5 -20h29z" />
    <glyph glyph-name="Ccedilla" unicode="&#xc7;" horiz-adv-x="692" 
d="M324 -12l-95.001 -94.9971v-18c17.333 5.33301 34.666 8 51.999 8c22.667 0 41.667 -4.66699 57 -14s23 -21.666 23 -36.999c0 -14.667 -3.83301 -27.5 -11.5 -38.5s-17.5 -20.333 -29.5 -28s-23.833 -13.834 -35.5 -18.501s-23.167 -8.66699 -34.5 -12v-36
c14.667 2 32.167 5.83301 52.5 11.5s41 13.5 62 23.5s38.833 23.333 53.5 40s22 36 22 58c0 32 -11.333 56.667 -34 74s-47.667 26.666 -75 27.999l48 49c34 0.666992 66.833 8.33398 98.5 23.001s60.5 35.334 86.5 62.001c6 -4 11 -10.833 15 -20.5
s7.66699 -21.834 11 -36.501h28v220h-29c-13.333 -63.333 -38.666 -112.5 -75.999 -147.5s-81 -52.5 -131 -52.5c-32.667 0 -60.5 7.83301 -83.5 23.5s-41.167 36.5 -54.5 62.5s-23 54.667 -29 86s-9 63.666 -9 96.999c0 34 3 66.667 9 98s15.667 59.833 29 85.5
s31.5 46.334 54.5 62.001s50.833 23.5 83.5 23.5c50.667 0 94.5 -17.333 131.5 -52s62.167 -84 75.5 -148h29v220h-28c-3.33301 -14 -7 -25.833 -11 -35.5s-9 -16.834 -15 -21.501c-26 27.333 -54.833 48.333 -86.5 63s-64.834 22 -99.501 22
c-41.333 0 -80.666 -8.16699 -117.999 -24.5s-70.166 -39.166 -98.499 -68.499s-50.5 -63.333 -66.5 -102s-24 -79.334 -24 -122.001c0 -38.667 6.33301 -75.5 19 -110.5s30.5 -66.333 53.5 -94s50 -50.834 81 -69.501s64.167 -31.334 99.5 -38.001z" />
    <glyph glyph-name="Egrave" unicode="&#xc8;" horiz-adv-x="641" 
d="M406 682l-122 112.999c-11.333 10.667 -21 18.334 -29 23.001s-17.333 7 -28 7c-11.333 0 -20.333 -3.83301 -27 -11.5s-10 -16.167 -10 -25.5c0 -8.66699 3 -16.167 9 -22.5s13 -11.833 21 -16.5l179 -76zM38 -0.000976562h547.999l8 141h-29l-5 -20
c-7.33301 -29.333 -17.833 -49.333 -31.5 -60s-41.834 -16 -84.501 -16h-90c-22 0 -39 1.5 -51 4.5s-21.333 8.5 -28 16.5s-11.167 19.5 -13.5 34.5s-3.5 35.5 -3.5 61.5v133h55c26.667 0 47.334 -1.16699 62.001 -3.5s25.834 -6.66602 33.501 -12.999
s13 -15.666 16 -27.999s4.5 -29.5 4.5 -51.5h29v237h-29c0 -22 -1.5 -39 -4.5 -51s-8.33301 -21.333 -16 -28s-19 -11.167 -34 -13.5s-35.5 -3.5 -61.5 -3.5h-55v215h153c42.667 0 70.667 -5.16699 84 -15.5s24 -30.5 32 -60.5l5 -20h29l-8 141h-515v-29
c22 0 39 -1.5 51 -4.5s21.167 -8.5 27.5 -16.5s10.666 -19.333 12.999 -34s3.5 -35.334 3.5 -62.001v-308c0 -26.667 -1.16699 -47.334 -3.5 -62.001s-6.66602 -26 -12.999 -34s-15.5 -13.5 -27.5 -16.5s-29 -4.5 -51 -4.5v-29z" />
    <glyph glyph-name="Eacute" unicode="&#xc9;" horiz-adv-x="641" 
d="M477 789c0 8.66699 -3.33203 17.001 -9.99902 25.001s-15.667 12 -27 12c-10 0 -19 -2.33301 -27 -7s-18 -12.334 -30 -23.001l-121 -113l6 -9l179 75c7.33301 4 14.166 9.5 20.499 16.5s9.5 14.833 9.5 23.5zM38.001 0.000976562h547.999l8 141h-29l-5 -20
c-7.33301 -29.333 -17.833 -49.333 -31.5 -60s-41.834 -16 -84.501 -16h-90c-22 0 -39 1.5 -51 4.5s-21.333 8.5 -28 16.5s-11.167 19.5 -13.5 34.5s-3.5 35.5 -3.5 61.5v133h55c26.667 0 47.334 -1.16699 62.001 -3.5s25.834 -6.66602 33.501 -12.999
s13 -15.666 16 -27.999s4.5 -29.5 4.5 -51.5h29v237h-29c0 -22 -1.5 -39 -4.5 -51s-8.33301 -21.333 -16 -28s-19 -11.167 -34 -13.5s-35.5 -3.5 -61.5 -3.5h-55v215h153c42.667 0 70.667 -5.16699 84 -15.5s24 -30.5 32 -60.5l5 -20h29l-8 141h-515v-29
c22 0 39 -1.5 51 -4.5s21.167 -8.5 27.5 -16.5s10.666 -19.333 12.999 -34s3.5 -35.334 3.5 -62.001v-308c0 -26.667 -1.16699 -47.334 -3.5 -62.001s-6.66602 -26 -12.999 -34s-15.5 -13.5 -27.5 -16.5s-29 -4.5 -51 -4.5v-29z" />
    <glyph glyph-name="Ecircumflex" unicode="&#xca;" horiz-adv-x="641" 
d="M471 689l-143 155l-143 -155l15 -14l128 83l128 -83zM38 0h547.999l8 141h-29l-5 -20c-7.33301 -29.333 -17.833 -49.333 -31.5 -60s-41.834 -16 -84.501 -16h-90c-22 0 -39 1.5 -51 4.5s-21.333 8.5 -28 16.5s-11.167 19.5 -13.5 34.5s-3.5 35.5 -3.5 61.5v133h55
c26.667 0 47.334 -1.16699 62.001 -3.5s25.834 -6.66602 33.501 -12.999s13 -15.666 16 -27.999s4.5 -29.5 4.5 -51.5h29v237h-29c0 -22 -1.5 -39 -4.5 -51s-8.33301 -21.333 -16 -28s-19 -11.167 -34 -13.5s-35.5 -3.5 -61.5 -3.5h-55v215h153
c42.667 0 70.667 -5.16699 84 -15.5s24 -30.5 32 -60.5l5 -20h29l-8 141h-515v-29c22 0 39 -1.5 51 -4.5s21.167 -8.5 27.5 -16.5s10.666 -19.333 12.999 -34s3.5 -35.334 3.5 -62.001v-308c0 -26.667 -1.16699 -47.334 -3.5 -62.001s-6.66602 -26 -12.999 -34
s-15.5 -13.5 -27.5 -16.5s-29 -4.5 -51 -4.5v-29z" />
    <glyph glyph-name="Edieresis" unicode="&#xcb;" horiz-adv-x="641" 
d="M222 776c-14 0 -26 -4.83301 -36 -14.5s-15 -21.834 -15 -36.501c0 -14 5 -26 15 -36s22 -15 36 -15s26 5 36 15s15 22 15 36c0 14.667 -5 26.834 -15 36.501s-22 14.5 -36 14.5zM421 776c-14 0 -26 -4.83301 -36 -14.5s-15 -21.834 -15 -36.501c0 -14 5 -26 15 -36
s22 -15 36 -15s26 5 36 15s15 22 15 36c0 14.667 -5 26.834 -15 36.501s-22 14.5 -36 14.5zM38 0h547.999l8 141h-29l-5 -20c-7.33301 -29.333 -17.833 -49.333 -31.5 -60s-41.834 -16 -84.501 -16h-90c-22 0 -39 1.5 -51 4.5s-21.333 8.5 -28 16.5s-11.167 19.5 -13.5 34.5
s-3.5 35.5 -3.5 61.5v133h55c26.667 0 47.334 -1.16699 62.001 -3.5s25.834 -6.66602 33.501 -12.999s13 -15.666 16 -27.999s4.5 -29.5 4.5 -51.5h29v237h-29c0 -22 -1.5 -39 -4.5 -51s-8.33301 -21.333 -16 -28s-19 -11.167 -34 -13.5s-35.5 -3.5 -61.5 -3.5h-55v215h153
c42.667 0 70.667 -5.16699 84 -15.5s24 -30.5 32 -60.5l5 -20h29l-8 141h-515v-29c22 0 39 -1.5 51 -4.5s21.167 -8.5 27.5 -16.5s10.666 -19.333 12.999 -34s3.5 -35.334 3.5 -62.001v-308c0 -26.667 -1.16699 -47.334 -3.5 -62.001s-6.66602 -26 -12.999 -34
s-15.5 -13.5 -27.5 -16.5s-29 -4.5 -51 -4.5v-29z" />
    <glyph glyph-name="Igrave" unicode="&#xcc;" horiz-adv-x="392" 
d="M264 682l-122 112.999c-11.333 10.667 -21 18.334 -29 23.001s-17.333 7 -28 7c-11.333 0 -20.333 -3.83301 -27 -11.5s-10 -16.167 -10 -25.5c0 -8.66699 3 -16.167 9 -22.5s13 -11.833 21 -16.5l179 -76zM354 -0.000976562v29.002c-22 0 -39 1.5 -51 4.5
s-21.333 8.5 -28 16.5s-11.167 19.5 -13.5 34.5s-3.5 35.5 -3.5 61.5v308c0 26 1.16699 46.5 3.5 61.5s6.83301 26.5 13.5 34.5s16 13.5 28 16.5s29 4.5 51 4.5v29h-316v-29c22 0 39 -1.5 51 -4.5s21.167 -8.5 27.5 -16.5s10.666 -19.333 12.999 -34
s3.5 -35.334 3.5 -62.001v-308c0 -26.667 -1.16699 -47.334 -3.5 -62.001s-6.66602 -26 -12.999 -34s-15.5 -13.5 -27.5 -16.5s-29 -4.5 -51 -4.5v-29h316z" />
    <glyph glyph-name="Iacute" unicode="&#xcd;" horiz-adv-x="392" 
d="M343 788c0 8.66699 -3.33203 17.001 -9.99902 25.001s-15.667 12 -27 12c-10 0 -19 -2.33301 -27 -7s-18 -12.334 -30 -23.001l-121 -113l6 -9l179 75c7.33301 4 14.166 9.5 20.499 16.5s9.5 14.833 9.5 23.5zM354.001 0.000976562v29.002c-22 0 -39 1.5 -51 4.5
s-21.333 8.5 -28 16.5s-11.167 19.5 -13.5 34.5s-3.5 35.5 -3.5 61.5v308c0 26 1.16699 46.5 3.5 61.5s6.83301 26.5 13.5 34.5s16 13.5 28 16.5s29 4.5 51 4.5v29h-316v-29c22 0 39 -1.5 51 -4.5s21.167 -8.5 27.5 -16.5s10.666 -19.333 12.999 -34
s3.5 -35.334 3.5 -62.001v-308c0 -26.667 -1.16699 -47.334 -3.5 -62.001s-6.66602 -26 -12.999 -34s-15.5 -13.5 -27.5 -16.5s-29 -4.5 -51 -4.5v-29h316z" />
    <glyph glyph-name="Icircumflex" unicode="&#xce;" horiz-adv-x="392" 
d="M333 689l-143 155l-143 -155l15 -14l128 83l128 -83zM354 0v29.002c-22 0 -39 1.5 -51 4.5s-21.333 8.5 -28 16.5s-11.167 19.5 -13.5 34.5s-3.5 35.5 -3.5 61.5v308c0 26 1.16699 46.5 3.5 61.5s6.83301 26.5 13.5 34.5s16 13.5 28 16.5s29 4.5 51 4.5v29h-316v-29
c22 0 39 -1.5 51 -4.5s21.167 -8.5 27.5 -16.5s10.666 -19.333 12.999 -34s3.5 -35.334 3.5 -62.001v-308c0 -26.667 -1.16699 -47.334 -3.5 -62.001s-6.66602 -26 -12.999 -34s-15.5 -13.5 -27.5 -16.5s-29 -4.5 -51 -4.5v-29h316z" />
    <glyph glyph-name="Idieresis" unicode="&#xcf;" horiz-adv-x="392" 
d="M90 776c-14 0 -26 -4.83301 -36 -14.5s-15 -21.834 -15 -36.501c0 -14 5 -26 15 -36s22 -15 36 -15s26 5 36 15s15 22 15 36c0 14.667 -5 26.834 -15 36.501s-22 14.5 -36 14.5zM289 776c-14 0 -26 -4.83301 -36 -14.5s-15 -21.834 -15 -36.501c0 -14 5 -26 15 -36
s22 -15 36 -15s26 5 36 15s15 22 15 36c0 14.667 -5 26.834 -15 36.501s-22 14.5 -36 14.5zM354 0v29.002c-22 0 -39 1.5 -51 4.5s-21.333 8.5 -28 16.5s-11.167 19.5 -13.5 34.5s-3.5 35.5 -3.5 61.5v308c0 26 1.16699 46.5 3.5 61.5s6.83301 26.5 13.5 34.5
s16 13.5 28 16.5s29 4.5 51 4.5v29h-316v-29c22 0 39 -1.5 51 -4.5s21.167 -8.5 27.5 -16.5s10.666 -19.333 12.999 -34s3.5 -35.334 3.5 -62.001v-308c0 -26.667 -1.16699 -47.334 -3.5 -62.001s-6.66602 -26 -12.999 -34s-15.5 -13.5 -27.5 -16.5s-29 -4.5 -51 -4.5v-29
h316z" />
    <glyph glyph-name="Eth" unicode="&#xd0;" horiz-adv-x="713" 
d="M258 330v224.999h106c38.667 0 70.834 -7.5 96.501 -22.5s45.667 -35 60 -60s24.333 -52.167 30 -81.5s8.5 -59.666 8.5 -90.999s-2.83301 -61.666 -8.5 -90.999s-15.667 -56.5 -30 -81.5s-34.333 -45 -60 -60s-57.834 -22.5 -96.501 -22.5h-10c-22 0 -39 1.5 -51 4.5
s-21.333 8.33301 -28 16s-11.167 18.667 -13.5 33s-3.5 34.166 -3.5 59.499v111h92v61h-92zM133 268.999v-122.994c0 -26.667 -1.16699 -47.334 -3.5 -62.001s-6.66602 -26 -12.999 -34s-15.5 -13.5 -27.5 -16.5s-29 -4.5 -51 -4.5v-29h330c56.667 0 106 7.66699 148 23
s76.667 36.666 104 63.999s47.666 59.166 60.999 95.499s20 75.5 20 117.5s-6.66699 81.167 -20 117.5s-33.666 68.166 -60.999 95.499s-62 48.666 -104 63.999s-91.333 23 -148 23h-330v-29c22 0 39 -1.5 51 -4.5s21.167 -8.5 27.5 -16.5s10.666 -19.333 12.999 -34
s3.5 -35.334 3.5 -62.001v-124h-91v-61h91z" />
    <glyph glyph-name="Ntilde" unicode="&#xd1;" horiz-adv-x="749" 
d="M441 726c-9.33301 0 -19.501 2.66699 -30.501 8s-25.167 13.333 -42.5 24c-17.333 11.333 -32 19.833 -44 25.5s-23.333 8.5 -34 8.5c-22 0 -40.5 -11 -55.5 -33s-22.5 -50 -22.5 -84h19c4 15.333 10.833 28.333 20.5 39s19.834 16 30.501 16
c7.33301 0 16.333 -2.66699 27 -8s24 -13 40 -23c18.667 -11.333 34.167 -20 46.5 -26s23.5 -9 33.5 -9c25.333 0 45.5 10.667 60.5 32s22.5 50.333 22.5 87h-20c-8.66699 -38 -25.667 -57 -51 -57zM571.999 202l-333.998 398.001h-200v-29c22 0 39 -1.5 51 -4.5
s21.167 -8.5 27.5 -16.5s10.666 -19.333 12.999 -34s3.5 -35.334 3.5 -62.001v-308c0 -26.667 -1.16699 -47.334 -3.5 -62.001s-6.66602 -26 -12.999 -34s-15.5 -13.5 -27.5 -16.5s-29 -4.5 -51 -4.5v-29h236v29c-22 0 -39 1.5 -51 4.5s-21.333 8.5 -28 16.5
s-11.167 19.5 -13.5 34.5s-3.5 35.5 -3.5 61.5v331l414 -494h25v471c0 26.667 1.16699 47.334 3.5 62.001s6.66602 26 12.999 34s15.666 13.5 27.999 16.5s29.5 4.5 51.5 4.5v29h-237v-29c22 0 39 -1.5 51 -4.5s21.333 -8.5 28 -16.5s11.167 -19.5 13.5 -34.5
s3.5 -35.5 3.5 -61.5v-252z" />
    <glyph glyph-name="Ograve" unicode="&#xd2;" horiz-adv-x="808" 
d="M458 682l-122 112.999c-11.333 10.667 -21 18.334 -29 23.001s-17.333 7 -28 7c-11.333 0 -20.333 -3.83301 -27 -11.5s-10 -16.167 -10 -25.5c0 -8.66699 3 -16.167 9 -22.5s13 -11.833 21 -16.5l179 -76zM738 299.999c0 42.667 -8.66699 83.334 -26 122.001
s-41.333 72.667 -72 102s-66.334 52.166 -107.001 68.499s-83.667 24.5 -129 24.5c-44.667 0 -87.334 -8.16699 -128.001 -24.5s-76.334 -39.166 -107.001 -68.499s-54.667 -63.333 -72 -102s-26 -79.334 -26 -122.001s8.66699 -83.334 26 -122.001s41.333 -72.667 72 -102
s66.334 -52.166 107.001 -68.499s83.334 -24.5 128.001 -24.5c45.333 0 88.333 8.16699 129 24.5s76.334 39.166 107.001 68.499s54.667 63.333 72 102s26 79.334 26 122.001zM603 299.999c0 -31.333 -3.83398 -62.833 -11.501 -94.5s-19.667 -60.667 -36 -87
s-37.166 -47.5 -62.499 -63.5s-55 -24 -89 -24s-63.667 8 -89 24s-46.166 37.167 -62.499 63.5s-28.333 55.333 -36 87s-11.5 63.167 -11.5 94.5s3.83301 62.833 11.5 94.5s19.667 60.667 36 87s37.166 47.5 62.499 63.5s55 24 89 24s63.833 -8 89.5 -24
s46.5 -37.167 62.5 -63.5s27.833 -55.333 35.5 -87s11.5 -63.167 11.5 -94.5z" />
    <glyph glyph-name="Oacute" unicode="&#xd3;" horiz-adv-x="808" 
d="M572 788c0 8.66699 -3.33203 17.001 -9.99902 25.001s-15.667 12 -27 12c-10 0 -19 -2.33301 -27 -7s-18 -12.334 -30 -23.001l-121 -113l6 -9l179 75c7.33301 4 14.166 9.5 20.499 16.5s9.5 14.833 9.5 23.5zM738.001 300.001c0 42.667 -8.66699 83.334 -26 122.001
s-41.333 72.667 -72 102s-66.334 52.166 -107.001 68.499s-83.667 24.5 -129 24.5c-44.667 0 -87.334 -8.16699 -128.001 -24.5s-76.334 -39.166 -107.001 -68.499s-54.667 -63.333 -72 -102s-26 -79.334 -26 -122.001s8.66699 -83.334 26 -122.001s41.333 -72.667 72 -102
s66.334 -52.166 107.001 -68.499s83.334 -24.5 128.001 -24.5c45.333 0 88.333 8.16699 129 24.5s76.334 39.166 107.001 68.499s54.667 63.333 72 102s26 79.334 26 122.001zM603.001 300.001c0 -31.333 -3.83398 -62.833 -11.501 -94.5s-19.667 -60.667 -36 -87
s-37.166 -47.5 -62.499 -63.5s-55 -24 -89 -24s-63.667 8 -89 24s-46.166 37.167 -62.499 63.5s-28.333 55.333 -36 87s-11.5 63.167 -11.5 94.5s3.83301 62.833 11.5 94.5s19.667 60.667 36 87s37.166 47.5 62.499 63.5s55 24 89 24s63.833 -8 89.5 -24
s46.5 -37.167 62.5 -63.5s27.833 -55.333 35.5 -87s11.5 -63.167 11.5 -94.5z" />
    <glyph glyph-name="Ocircumflex" unicode="&#xd4;" horiz-adv-x="808" 
d="M558 687l-143 155l-143 -155l15 -14l128 83l128 -83zM738 300c0 42.667 -8.66699 83.334 -26 122.001s-41.333 72.667 -72 102s-66.334 52.166 -107.001 68.499s-83.667 24.5 -129 24.5c-44.667 0 -87.334 -8.16699 -128.001 -24.5s-76.334 -39.166 -107.001 -68.499
s-54.667 -63.333 -72 -102s-26 -79.334 -26 -122.001s8.66699 -83.334 26 -122.001s41.333 -72.667 72 -102s66.334 -52.166 107.001 -68.499s83.334 -24.5 128.001 -24.5c45.333 0 88.333 8.16699 129 24.5s76.334 39.166 107.001 68.499s54.667 63.333 72 102
s26 79.334 26 122.001zM603 300c0 -31.333 -3.83398 -62.833 -11.501 -94.5s-19.667 -60.667 -36 -87s-37.166 -47.5 -62.499 -63.5s-55 -24 -89 -24s-63.667 8 -89 24s-46.166 37.167 -62.499 63.5s-28.333 55.333 -36 87s-11.5 63.167 -11.5 94.5
s3.83301 62.833 11.5 94.5s19.667 60.667 36 87s37.166 47.5 62.499 63.5s55 24 89 24s63.833 -8 89.5 -24s46.5 -37.167 62.5 -63.5s27.833 -55.333 35.5 -87s11.5 -63.167 11.5 -94.5z" />
    <glyph glyph-name="Otilde" unicode="&#xd5;" horiz-adv-x="808" 
d="M473 731c-9.33301 0 -19.501 2.66699 -30.501 8s-25.167 13.333 -42.5 24c-17.333 11.333 -32 19.833 -44 25.5s-23.333 8.5 -34 8.5c-22 0 -40.5 -11 -55.5 -33s-22.5 -50 -22.5 -84h19c4 15.333 10.833 28.333 20.5 39s19.834 16 30.501 16
c7.33301 0 16.333 -2.66699 27 -8s24 -13 40 -23c18.667 -11.333 34.167 -20 46.5 -26s23.5 -9 33.5 -9c25.333 0 45.5 10.667 60.5 32s22.5 50.333 22.5 87h-20c-8.66699 -38 -25.667 -57 -51 -57zM737.999 300c0 42.667 -8.66699 83.334 -26 122.001
s-41.333 72.667 -72 102s-66.334 52.166 -107.001 68.499s-83.667 24.5 -129 24.5c-44.667 0 -87.334 -8.16699 -128.001 -24.5s-76.334 -39.166 -107.001 -68.499s-54.667 -63.333 -72 -102s-26 -79.334 -26 -122.001s8.66699 -83.334 26 -122.001s41.333 -72.667 72 -102
s66.334 -52.166 107.001 -68.499s83.334 -24.5 128.001 -24.5c45.333 0 88.333 8.16699 129 24.5s76.334 39.166 107.001 68.499s54.667 63.333 72 102s26 79.334 26 122.001zM602.999 300c0 -31.333 -3.83398 -62.833 -11.501 -94.5s-19.667 -60.667 -36 -87
s-37.166 -47.5 -62.499 -63.5s-55 -24 -89 -24s-63.667 8 -89 24s-46.166 37.167 -62.499 63.5s-28.333 55.333 -36 87s-11.5 63.167 -11.5 94.5s3.83301 62.833 11.5 94.5s19.667 60.667 36 87s37.166 47.5 62.499 63.5s55 24 89 24s63.833 -8 89.5 -24
s46.5 -37.167 62.5 -63.5s27.833 -55.333 35.5 -87s11.5 -63.167 11.5 -94.5z" />
    <glyph glyph-name="Odieresis" unicode="&#xd6;" horiz-adv-x="808" 
d="M313 776c-14 0 -26 -4.83301 -36 -14.5s-15 -21.834 -15 -36.501c0 -14 5 -26 15 -36s22 -15 36 -15s26 5 36 15s15 22 15 36c0 14.667 -5 26.834 -15 36.501s-22 14.5 -36 14.5zM512 776c-14 0 -26 -4.83301 -36 -14.5s-15 -21.834 -15 -36.501c0 -14 5 -26 15 -36
s22 -15 36 -15s26 5 36 15s15 22 15 36c0 14.667 -5 26.834 -15 36.501s-22 14.5 -36 14.5zM738 300c0 42.667 -8.66699 83.334 -26 122.001s-41.333 72.667 -72 102s-66.334 52.166 -107.001 68.499s-83.667 24.5 -129 24.5c-44.667 0 -87.334 -8.16699 -128.001 -24.5
s-76.334 -39.166 -107.001 -68.499s-54.667 -63.333 -72 -102s-26 -79.334 -26 -122.001s8.66699 -83.334 26 -122.001s41.333 -72.667 72 -102s66.334 -52.166 107.001 -68.499s83.334 -24.5 128.001 -24.5c45.333 0 88.333 8.16699 129 24.5s76.334 39.166 107.001 68.499
s54.667 63.333 72 102s26 79.334 26 122.001zM603 300c0 -31.333 -3.83398 -62.833 -11.501 -94.5s-19.667 -60.667 -36 -87s-37.166 -47.5 -62.499 -63.5s-55 -24 -89 -24s-63.667 8 -89 24s-46.166 37.167 -62.499 63.5s-28.333 55.333 -36 87s-11.5 63.167 -11.5 94.5
s3.83301 62.833 11.5 94.5s19.667 60.667 36 87s37.166 47.5 62.499 63.5s55 24 89 24s63.833 -8 89.5 -24s46.5 -37.167 62.5 -63.5s27.833 -55.333 35.5 -87s11.5 -63.167 11.5 -94.5z" />
    <glyph glyph-name="multiply" unicode="&#xd7;" horiz-adv-x="0" 
 />
    <glyph glyph-name="Oslash" unicode="&#xd8;" horiz-adv-x="808" 
d="M551 488c17.333 -24.667 30.332 -53.5 38.999 -86.5s13 -66.833 13 -101.5c0 -31.333 -3.83301 -62.833 -11.5 -94.5s-19.667 -60.667 -36 -87s-37.166 -47.5 -62.499 -63.5s-55 -24 -89 -24c-39.333 0 -74 11.333 -104 34zM257.999 109
c-17.333 26 -30.499 55.833 -39.499 89.5s-13.5 67.5 -13.5 101.5c0 31.333 3.83301 62.833 11.5 94.5s19.667 60.667 36 87s37.166 47.5 62.499 63.5s55 24 89 24c42 0 77 -12 105 -36zM217 38l-37.999 -63.0029l53 -26l36 62c43.333 -18.667 88.666 -28 135.999 -28
c45.333 0 88.333 8.16699 129 24.5s76.334 39.166 107.001 68.499s54.667 63.333 72 102s26 79.334 26 122.001c0 52.667 -13 101.834 -39 147.501s-61.333 83.167 -106 112.5l25 41.5l14 23.5l-53 27c-3.33301 -5.33301 -15.666 -26.666 -36.999 -63.999
c-42.667 19.333 -88.667 29 -138 29c-44.667 0 -87.334 -8.16699 -128.001 -24.5s-76.334 -39.166 -107.001 -68.499s-54.667 -63.333 -72 -102s-26 -79.334 -26 -122.001c0 -52.667 13.167 -102.167 39.5 -148.5s61.833 -84.166 106.5 -113.499z" />
    <glyph glyph-name="Ugrave" unicode="&#xd9;" horiz-adv-x="733" 
d="M436 682l-122 112.999c-11.333 10.667 -21 18.334 -29 23.001s-17.333 7 -28 7c-11.333 0 -20.333 -3.83301 -27 -11.5s-10 -16.167 -10 -25.5c0 -8.66699 3 -16.167 9 -22.5s13 -11.833 21 -16.5l179 -76zM554 453.999l0.00585938 -219.999
c0 -62.667 -13.333 -109.834 -40 -141.501s-62.334 -47.5 -107.001 -47.5c-45.333 0 -82.5 16 -111.5 48s-43.5 79 -43.5 141v220c0 26.667 1.16699 47.334 3.5 62.001s6.66602 26 12.999 34s15.666 13.5 27.999 16.5s29.5 4.5 51.5 4.5v29h-317v-29c22 0 39 -1.5 51 -4.5
s21.333 -8.5 28 -16.5s11.167 -19.5 13.5 -34.5s3.5 -35.5 3.5 -61.5v-231c0 -76 22.667 -135 68 -177s102.666 -63 171.999 -63s126.833 21.167 172.5 63.5s68.5 101.166 68.5 176.499v231c0 26.667 1.16699 47.334 3.5 62.001s6.66602 26 12.999 34s15.5 13.5 27.5 16.5
s29 4.5 51 4.5v29h-245v-29c22.667 0 40 -1.5 52 -4.5s21.167 -8.5 27.5 -16.5s10.666 -19.333 12.999 -34s3.5 -35.334 3.5 -62.001z" />
    <glyph glyph-name="Uacute" unicode="&#xda;" horiz-adv-x="733" 
d="M560 788c0 8.66699 -3.33203 17.001 -9.99902 25.001s-15.667 12 -27 12c-10 0 -19 -2.33301 -27 -7s-18 -12.334 -30 -23.001l-121 -113l6 -9l179 75c7.33301 4 14.166 9.5 20.499 16.5s9.5 14.833 9.5 23.5zM554.001 454.001l0.00585938 -219.999
c0 -62.667 -13.333 -109.834 -40 -141.501s-62.334 -47.5 -107.001 -47.5c-45.333 0 -82.5 16 -111.5 48s-43.5 79 -43.5 141v220c0 26.667 1.16699 47.334 3.5 62.001s6.66602 26 12.999 34s15.666 13.5 27.999 16.5s29.5 4.5 51.5 4.5v29h-317v-29c22 0 39 -1.5 51 -4.5
s21.333 -8.5 28 -16.5s11.167 -19.5 13.5 -34.5s3.5 -35.5 3.5 -61.5v-231c0 -76 22.667 -135 68 -177s102.666 -63 171.999 -63s126.833 21.167 172.5 63.5s68.5 101.166 68.5 176.499v231c0 26.667 1.16699 47.334 3.5 62.001s6.66602 26 12.999 34s15.5 13.5 27.5 16.5
s29 4.5 51 4.5v29h-245v-29c22.667 0 40 -1.5 52 -4.5s21.167 -8.5 27.5 -16.5s10.666 -19.333 12.999 -34s3.5 -35.334 3.5 -62.001z" />
    <glyph glyph-name="Ucircumflex" unicode="&#xdb;" horiz-adv-x="733" 
d="M555 689l-143 155l-143 -155l15 -14l128 83l128 -83zM554 454l0.00585938 -219.999c0 -62.667 -13.333 -109.834 -40 -141.501s-62.334 -47.5 -107.001 -47.5c-45.333 0 -82.5 16 -111.5 48s-43.5 79 -43.5 141v220c0 26.667 1.16699 47.334 3.5 62.001
s6.66602 26 12.999 34s15.666 13.5 27.999 16.5s29.5 4.5 51.5 4.5v29h-317v-29c22 0 39 -1.5 51 -4.5s21.333 -8.5 28 -16.5s11.167 -19.5 13.5 -34.5s3.5 -35.5 3.5 -61.5v-231c0 -76 22.667 -135 68 -177s102.666 -63 171.999 -63s126.833 21.167 172.5 63.5
s68.5 101.166 68.5 176.499v231c0 26.667 1.16699 47.334 3.5 62.001s6.66602 26 12.999 34s15.5 13.5 27.5 16.5s29 4.5 51 4.5v29h-245v-29c22.667 0 40 -1.5 52 -4.5s21.167 -8.5 27.5 -16.5s10.666 -19.333 12.999 -34s3.5 -35.334 3.5 -62.001z" />
    <glyph glyph-name="Udieresis" unicode="&#xdc;" horiz-adv-x="733" 
d="M299 777c-14 0 -26 -4.83301 -36 -14.5s-15 -21.834 -15 -36.501c0 -14 5 -26 15 -36s22 -15 36 -15s26 5 36 15s15 22 15 36c0 14.667 -5 26.834 -15 36.501s-22 14.5 -36 14.5zM498 777c-14 0 -26 -4.83301 -36 -14.5s-15 -21.834 -15 -36.501c0 -14 5 -26 15 -36
s22 -15 36 -15s26 5 36 15s15 22 15 36c0 14.667 -5 26.834 -15 36.501s-22 14.5 -36 14.5zM554 454l0.00585938 -219.999c0 -62.667 -13.333 -109.834 -40 -141.501s-62.334 -47.5 -107.001 -47.5c-45.333 0 -82.5 16 -111.5 48s-43.5 79 -43.5 141v220
c0 26.667 1.16699 47.334 3.5 62.001s6.66602 26 12.999 34s15.666 13.5 27.999 16.5s29.5 4.5 51.5 4.5v29h-317v-29c22 0 39 -1.5 51 -4.5s21.333 -8.5 28 -16.5s11.167 -19.5 13.5 -34.5s3.5 -35.5 3.5 -61.5v-231c0 -76 22.667 -135 68 -177s102.666 -63 171.999 -63
s126.833 21.167 172.5 63.5s68.5 101.166 68.5 176.499v231c0 26.667 1.16699 47.334 3.5 62.001s6.66602 26 12.999 34s15.5 13.5 27.5 16.5s29 4.5 51 4.5v29h-245v-29c22.667 0 40 -1.5 52 -4.5s21.167 -8.5 27.5 -16.5s10.666 -19.333 12.999 -34
s3.5 -35.334 3.5 -62.001z" />
    <glyph glyph-name="Yacute" unicode="&#xdd;" horiz-adv-x="633" 
d="M555 789c0 8.66699 -3.33203 17.001 -9.99902 25.001s-15.667 12 -27 12c-10 0 -19 -2.33301 -27 -7s-18 -12.334 -30 -23.001l-121 -113l6 -9l179 75c7.33301 4 14.166 9.5 20.499 16.5s9.5 14.833 9.5 23.5zM665.001 571.001l-0.00292969 28.999h-242v-29
c49.333 0 74 -10 74 -30c0 -11.333 -6.66699 -26.666 -20 -45.999l-112 -169l-112 169c-12 17.333 -18 31.666 -18 42.999c0 22 23.667 33 71 33v29h-339v-29c35.333 0 62.666 -5.66699 81.999 -17c10 -6.66699 19.833 -15.5 29.5 -26.5s20.834 -25.833 33.501 -44.5
l145 -219v-118c0 -26 -1.16699 -46.5 -3.5 -61.5s-6.83301 -26.5 -13.5 -34.5s-16 -13.5 -28 -16.5s-29 -4.5 -51 -4.5v-29h312v29c-22 0 -39 1.5 -51 4.5s-21.167 8.5 -27.5 16.5s-10.666 19.333 -12.999 34s-3.5 35.334 -3.5 62.001v121l143 216
c12.667 19.333 22.834 34 30.501 44s16.5 18.333 26.5 25s21.833 11.5 35.5 14.5s30.834 4.5 51.501 4.5z" />
    <glyph glyph-name="Thorn" unicode="&#xde;" horiz-adv-x="510" 
d="M338 167c0 -40 -6.33301 -72.833 -19 -98.5s-31.334 -38.5 -56.001 -38.5c-18 0 -33.667 8.5 -47 25.5s-20 37.833 -20 62.5v97c0 25.333 6.66699 46.333 20 63s29 25 47 25c24.667 0 43.334 -12.667 56.001 -38s19 -58 19 -98zM83 446l0.000976562 -549.999
c0 -26.667 -1 -47.334 -3 -62.001s-5.66699 -26 -11 -34s-13 -13.5 -23 -16.5s-24 -4.5 -42 -4.5v-29h271v29c-18 0 -31.833 1.5 -41.5 4.5s-17.334 8.5 -23.001 16.5s-9.5 19.333 -11.5 34s-3 35.334 -3 62.001v117c23.333 -20 50.666 -30 81.999 -30
c55.333 0 99.5 17.667 132.5 53s49.5 79 49.5 131s-16.5 95.5 -49.5 130.5s-77.167 52.5 -132.5 52.5c-29.333 0 -56.666 -9.66699 -81.999 -29v296l-192 -25v-29c18 0 32 -1.5 42 -4.5s17.667 -8.5 23 -16.5s9 -19.333 11 -34s3 -35.334 3 -62.001z" />
    <glyph glyph-name="germandbls" unicode="&#xdf;" horiz-adv-x="593" 
d="M110 414c0 -29.333 -5.16797 -50.1602 -15.501 -62.4932s-31.5 -18.5 -63.5 -18.5v-29h79v-158c0 -26.667 -1 -47.334 -3 -62.001s-5.66699 -26 -11 -34s-13 -13.5 -23 -16.5s-24 -4.5 -42 -4.5v-29h192v457c0 39.333 6.16699 69 18.5 89s29.833 30 52.5 30
c45.333 0 68 -24.333 68 -73c0 -14.667 -2.83301 -29.5 -8.5 -44.5s-14.167 -33.833 -25.5 -56.5c-12.667 -25.333 -22.167 -46.166 -28.5 -62.499s-9.5 -33.5 -9.5 -51.5c0 -30 6.83301 -54.5 20.5 -73.5s31.834 -34.5 54.501 -46.5l56 -30c18.667 -10 34 -21.167 46 -33.5
s18 -24.5 18 -36.5s-4.83301 -22.167 -14.5 -30.5s-22.167 -12.5 -37.5 -12.5c-16 0 -31.333 3.16699 -46 9.5s-27.667 14.666 -39 24.999s-20.333 21.666 -27 33.999s-10 24.166 -10 35.499h-29v-146h29c0 21.333 4.33301 32 13 32c4.66699 0 13.667 -3.33301 27 -10
c14.667 -6.66699 28.334 -12 41.001 -16s26.667 -6 42 -6c36 0 67.667 10.167 95 30.5s41 49.166 41 86.499c0 21.333 -6 41.666 -18 60.999s-31.667 36.666 -59 51.999l-49 26c-22 12 -39 25.167 -51 39.5s-18 31.5 -18 51.5c0 17.333 1.83301 32.166 5.5 44.499
s9.5 27.166 17.5 44.499c7.33301 16.667 12.833 30.834 16.5 42.501s5.5 25.5 5.5 41.5c0 32 -11.333 59 -34 81s-55.334 33 -98.001 33c-118.667 0 -178 -67.667 -178 -203z" />
    <glyph glyph-name="agrave" unicode="&#xe0;" horiz-adv-x="449" 
d="M294 416l-122 112.999c-11.333 10.667 -21 18.334 -29 23.001s-17.333 7 -28 7c-11.333 0 -20.333 -3.83301 -27 -11.5s-10 -16.167 -10 -25.5c0 -8.66699 3 -16.167 9 -22.5s13 -11.833 21 -16.5l179 -76zM431 25.999l-13.9961 27
c-0.666992 -0.666992 -1.33398 -1 -2.00098 -1c-11.333 -7.33301 -20.333 -11 -27 -11c-14.667 0 -22 12.667 -22 38v135c0 47.333 -12.5 81.833 -37.5 103.5s-65.167 32.5 -120.5 32.5c-38.667 0 -72.5 -7.33301 -101.5 -22s-43.5 -34 -43.5 -58
c0 -13.333 3.66699 -23.833 11 -31.5s16.666 -11.5 27.999 -11.5s20.833 4 28.5 12s11.5 18.333 11.5 31c0 12 5.66699 21.5 17 28.5s23.666 10.5 36.999 10.5c22 0 38.333 -7 49 -21s16 -38.667 16 -74v-1c-71.333 -10.667 -126.166 -27 -164.499 -49s-57.5 -53 -57.5 -93
c0 -25.333 9.66699 -45.666 29 -60.999s41.666 -23 66.999 -23c21.333 0 40.166 4.16699 56.499 12.5s39.5 24.166 69.5 47.499c7.33301 -38.667 33 -58 77 -58c12 0 27 3.5 45 10.5s34 15.833 48 26.5zM261.004 87.999c-16 -14 -31.668 -25 -47.001 -33
s-27.333 -12 -36 -12c-11.333 0 -20.833 3.16699 -28.5 9.5s-11.5 16.5 -11.5 30.5c0 23.333 9.83301 41.333 29.5 54s50.834 24.667 93.501 36v-85z" />
    <glyph glyph-name="aacute" unicode="&#xe1;" horiz-adv-x="449" 
d="M340 522c0 8.66699 -3.33203 17.001 -9.99902 25.001s-15.667 12 -27 12c-10 0 -19 -2.33301 -27 -7s-18 -12.334 -30 -23.001l-121 -113l6 -9l179 75c7.33301 4 14.166 9.5 20.499 16.5s9.5 14.833 9.5 23.5zM431.001 26.001l-13.9961 27
c-0.666992 -0.666992 -1.33398 -1 -2.00098 -1c-11.333 -7.33301 -20.333 -11 -27 -11c-14.667 0 -22 12.667 -22 38v135c0 47.333 -12.5 81.833 -37.5 103.5s-65.167 32.5 -120.5 32.5c-38.667 0 -72.5 -7.33301 -101.5 -22s-43.5 -34 -43.5 -58
c0 -13.333 3.66699 -23.833 11 -31.5s16.666 -11.5 27.999 -11.5s20.833 4 28.5 12s11.5 18.333 11.5 31c0 12 5.66699 21.5 17 28.5s23.666 10.5 36.999 10.5c22 0 38.333 -7 49 -21s16 -38.667 16 -74v-1c-71.333 -10.667 -126.166 -27 -164.499 -49s-57.5 -53 -57.5 -93
c0 -25.333 9.66699 -45.666 29 -60.999s41.666 -23 66.999 -23c21.333 0 40.166 4.16699 56.499 12.5s39.5 24.166 69.5 47.499c7.33301 -38.667 33 -58 77 -58c12 0 27 3.5 45 10.5s34 15.833 48 26.5zM261.005 88.001c-16 -14 -31.668 -25 -47.001 -33
s-27.333 -12 -36 -12c-11.333 0 -20.833 3.16699 -28.5 9.5s-11.5 16.5 -11.5 30.5c0 23.333 9.83301 41.333 29.5 54s50.834 24.667 93.501 36v-85z" />
    <glyph glyph-name="acircumflex" unicode="&#xe2;" horiz-adv-x="449" 
d="M363 423l-143 155l-143 -155l15 -14l128 83l128 -83zM431 26l-13.9961 27c-0.666992 -0.666992 -1.33398 -1 -2.00098 -1c-11.333 -7.33301 -20.333 -11 -27 -11c-14.667 0 -22 12.667 -22 38v135c0 47.333 -12.5 81.833 -37.5 103.5s-65.167 32.5 -120.5 32.5
c-38.667 0 -72.5 -7.33301 -101.5 -22s-43.5 -34 -43.5 -58c0 -13.333 3.66699 -23.833 11 -31.5s16.666 -11.5 27.999 -11.5s20.833 4 28.5 12s11.5 18.333 11.5 31c0 12 5.66699 21.5 17 28.5s23.666 10.5 36.999 10.5c22 0 38.333 -7 49 -21s16 -38.667 16 -74v-1
c-71.333 -10.667 -126.166 -27 -164.499 -49s-57.5 -53 -57.5 -93c0 -25.333 9.66699 -45.666 29 -60.999s41.666 -23 66.999 -23c21.333 0 40.166 4.16699 56.499 12.5s39.5 24.166 69.5 47.499c7.33301 -38.667 33 -58 77 -58c12 0 27 3.5 45 10.5s34 15.833 48 26.5z
M261.004 88c-16 -14 -31.668 -25 -47.001 -33s-27.333 -12 -36 -12c-11.333 0 -20.833 3.16699 -28.5 9.5s-11.5 16.5 -11.5 30.5c0 23.333 9.83301 41.333 29.5 54s50.834 24.667 93.501 36v-85z" />
    <glyph glyph-name="atilde" unicode="&#xe3;" horiz-adv-x="449" 
d="M291 460c-9.33301 0 -19.501 2.66699 -30.501 8s-25.167 13.333 -42.5 24c-17.333 11.333 -32 19.833 -44 25.5s-23.333 8.5 -34 8.5c-22 0 -40.5 -11 -55.5 -33s-22.5 -50 -22.5 -84h19c4 15.333 10.833 28.333 20.5 39s19.834 16 30.501 16
c7.33301 0 16.333 -2.66699 27 -8s24 -13 40 -23c18.667 -11.333 34.167 -20 46.5 -26s23.5 -9 33.5 -9c25.333 0 45.5 10.667 60.5 32s22.5 50.333 22.5 87h-20c-8.66699 -38 -25.667 -57 -51 -57zM430.999 26l-13.9961 27c-0.666992 -0.666992 -1.33398 -1 -2.00098 -1
c-11.333 -7.33301 -20.333 -11 -27 -11c-14.667 0 -22 12.667 -22 38v135c0 47.333 -12.5 81.833 -37.5 103.5s-65.167 32.5 -120.5 32.5c-38.667 0 -72.5 -7.33301 -101.5 -22s-43.5 -34 -43.5 -58c0 -13.333 3.66699 -23.833 11 -31.5s16.666 -11.5 27.999 -11.5
s20.833 4 28.5 12s11.5 18.333 11.5 31c0 12 5.66699 21.5 17 28.5s23.666 10.5 36.999 10.5c22 0 38.333 -7 49 -21s16 -38.667 16 -74v-1c-71.333 -10.667 -126.166 -27 -164.499 -49s-57.5 -53 -57.5 -93c0 -25.333 9.66699 -45.666 29 -60.999s41.666 -23 66.999 -23
c21.333 0 40.166 4.16699 56.499 12.5s39.5 24.166 69.5 47.499c7.33301 -38.667 33 -58 77 -58c12 0 27 3.5 45 10.5s34 15.833 48 26.5zM261.003 88c-16 -14 -31.668 -25 -47.001 -33s-27.333 -12 -36 -12c-11.333 0 -20.833 3.16699 -28.5 9.5s-11.5 16.5 -11.5 30.5
c0 23.333 9.83301 41.333 29.5 54s50.834 24.667 93.501 36v-85z" />
    <glyph glyph-name="adieresis" unicode="&#xe4;" horiz-adv-x="449" 
d="M122 510c-14 0 -26 -4.83301 -36 -14.5s-15 -21.834 -15 -36.501c0 -14 5 -26 15 -36s22 -15 36 -15s26 5 36 15s15 22 15 36c0 14.667 -5 26.834 -15 36.501s-22 14.5 -36 14.5zM321 510c-14 0 -26 -4.83301 -36 -14.5s-15 -21.834 -15 -36.501c0 -14 5 -26 15 -36
s22 -15 36 -15s26 5 36 15s15 22 15 36c0 14.667 -5 26.834 -15 36.501s-22 14.5 -36 14.5zM431 26l-13.9961 27c-0.666992 -0.666992 -1.33398 -1 -2.00098 -1c-11.333 -7.33301 -20.333 -11 -27 -11c-14.667 0 -22 12.667 -22 38v135c0 47.333 -12.5 81.833 -37.5 103.5
s-65.167 32.5 -120.5 32.5c-38.667 0 -72.5 -7.33301 -101.5 -22s-43.5 -34 -43.5 -58c0 -13.333 3.66699 -23.833 11 -31.5s16.666 -11.5 27.999 -11.5s20.833 4 28.5 12s11.5 18.333 11.5 31c0 12 5.66699 21.5 17 28.5s23.666 10.5 36.999 10.5c22 0 38.333 -7 49 -21
s16 -38.667 16 -74v-1c-71.333 -10.667 -126.166 -27 -164.499 -49s-57.5 -53 -57.5 -93c0 -25.333 9.66699 -45.666 29 -60.999s41.666 -23 66.999 -23c21.333 0 40.166 4.16699 56.499 12.5s39.5 24.166 69.5 47.499c7.33301 -38.667 33 -58 77 -58c12 0 27 3.5 45 10.5
s34 15.833 48 26.5zM261.004 88c-16 -14 -31.668 -25 -47.001 -33s-27.333 -12 -36 -12c-11.333 0 -20.833 3.16699 -28.5 9.5s-11.5 16.5 -11.5 30.5c0 23.333 9.83301 41.333 29.5 54s50.834 24.667 93.501 36v-85z" />
    <glyph glyph-name="aring" unicode="&#xe5;" horiz-adv-x="449" 
d="M230 606c-27.333 0 -50.833 -9.83301 -70.5 -29.5s-29.5 -43.167 -29.5 -70.5s9.83301 -50.666 29.5 -69.999s43.167 -29 70.5 -29s50.666 9.66699 69.999 29s29 42.666 29 69.999s-9.66699 50.833 -29 70.5s-42.666 29.5 -69.999 29.5zM230 552
c12.667 0 23.334 -4.5 32.001 -13.5s13 -19.833 13 -32.5s-4.33301 -23.334 -13 -32.001s-19.334 -13 -32.001 -13s-23.5 4.33301 -32.5 13s-13.5 19.334 -13.5 32.001s4.5 23.5 13.5 32.5s19.833 13.5 32.5 13.5zM431 26l-13.9961 27
c-0.666992 -0.666992 -1.33398 -1 -2.00098 -1c-11.333 -7.33301 -20.333 -11 -27 -11c-14.667 0 -22 12.667 -22 38v135c0 47.333 -12.5 81.833 -37.5 103.5s-65.167 32.5 -120.5 32.5c-38.667 0 -72.5 -7.33301 -101.5 -22s-43.5 -34 -43.5 -58
c0 -13.333 3.66699 -23.833 11 -31.5s16.666 -11.5 27.999 -11.5s20.833 4 28.5 12s11.5 18.333 11.5 31c0 12 5.66699 21.5 17 28.5s23.666 10.5 36.999 10.5c22 0 38.333 -7 49 -21s16 -38.667 16 -74v-1c-71.333 -10.667 -126.166 -27 -164.499 -49s-57.5 -53 -57.5 -93
c0 -25.333 9.66699 -45.666 29 -60.999s41.666 -23 66.999 -23c21.333 0 40.166 4.16699 56.499 12.5s39.5 24.166 69.5 47.499c7.33301 -38.667 33 -58 77 -58c12 0 27 3.5 45 10.5s34 15.833 48 26.5zM261.004 88c-16 -14 -31.668 -25 -47.001 -33s-27.333 -12 -36 -12
c-11.333 0 -20.833 3.16699 -28.5 9.5s-11.5 16.5 -11.5 30.5c0 23.333 9.83301 41.333 29.5 54s50.834 24.667 93.501 36v-85z" />
    <glyph glyph-name="ae" unicode="&#xe6;" horiz-adv-x="630" 
d="M373 229c11.333 48.667 35.333 73 72 73c20 0 35.333 -6.5 46 -19.5s16 -30.833 16 -53.5h-134zM261 88c-16 -14 -31.668 -25 -47.001 -33s-27.333 -12 -36 -12c-11.333 0 -20.833 3.16699 -28.5 9.5s-11.5 16.5 -11.5 30.5c0 23.333 9.83301 41.333 29.5 54
s50.834 24.667 93.501 36v-85zM278.999 63c17.333 -24.667 40.6729 -44.167 70.0059 -58.5s62.333 -21.5 99 -21.5c28 0 56 6.16699 84 18.5s51 28.166 69 47.499l-18 29c-14.667 -13.333 -32.334 -23.666 -53.001 -30.999s-42.334 -11 -65.001 -11
c-26.667 0 -49.834 11.167 -69.501 33.5s-29.5 54.166 -29.5 95.499c0 2 0.333008 5.33301 1 10v10h217c3.33301 10 5 20.333 5 31c0 34 -13.833 64.833 -41.5 92.5s-63.5 41.5 -107.5 41.5c-40.667 0 -78 -10.667 -112 -32c-24 21.333 -64 32 -120 32
c-38.667 0 -72.5 -7.33301 -101.5 -22s-43.5 -34 -43.5 -58c0 -13.333 3.66699 -23.833 11 -31.5s16.666 -11.5 27.999 -11.5s20.833 4 28.5 12s11.5 18.333 11.5 31c0 12 5.66699 21.5 17 28.5s23.666 10.5 36.999 10.5c22 0 38.333 -7 49 -21s16 -38.667 16 -74v-1
c-71.333 -10.667 -126.166 -27 -164.499 -49s-57.5 -53 -57.5 -93c0 -25.333 9.66699 -45.666 29 -60.999s41.666 -23 66.999 -23c22 0 44.167 5.83301 66.5 17.5s48.166 31.167 77.499 58.5z" />
    <glyph glyph-name="ccedilla" unicode="&#xe7;" horiz-adv-x="413" 
d="M183 -9l-98 -98.002v-18c17.333 5.33301 34.666 8 51.999 8c22.667 0 41.667 -4.66699 57 -14s23 -21.666 23 -36.999c0 -14.667 -4 -27.667 -12 -39s-17.833 -20.666 -29.5 -27.999s-23.167 -13.166 -34.5 -17.499s-23 -8.5 -35 -12.5v-36
c14.667 2 32.167 5.83301 52.5 11.5s41 13.5 62 23.5s38.833 23.333 53.5 40s22 36 22 58c0 32 -11.333 56.667 -34 74s-47.667 26.666 -75 27.999l48 49h8c58 0 108 22 150 66l-18 29c-35.333 -30.667 -69 -46 -101 -46s-56.833 11 -74.5 33s-26.5 53 -26.5 93
c0 49.333 5.33301 87 16 113s28.667 39 54 39c10 0 18.5 -3.33301 25.5 -10s10.5 -17.667 10.5 -33c0 -10.667 3.83301 -20 11.5 -28s16.834 -12 27.501 -12c15.333 0 26.666 4.5 33.999 13.5s11 18.5 11 28.5c0 20.667 -11.5 39.334 -34.5 56.001s-54.167 25 -93.5 25
c-24.667 0 -48.167 -4.5 -70.5 -13.5s-42.166 -22 -59.499 -39s-30.833 -37.333 -40.5 -61s-14.5 -49.834 -14.5 -78.501c0 -40 12.167 -75 36.5 -105s56.5 -50.667 96.5 -62z" />
    <glyph glyph-name="egrave" unicode="&#xe8;" horiz-adv-x="433" 
d="M319 416l-122 112.999c-11.333 10.667 -21 18.334 -29 23.001s-17.333 7 -28 7c-11.333 0 -20.333 -3.83301 -27 -11.5s-10 -16.167 -10 -25.5c0 -8.66699 3 -16.167 9 -22.5s13 -11.833 21 -16.5l179 -76zM177 228.999c11.333 48.667 35 73 71 73
c41.333 0 62 -24.333 62 -73h-133zM170 184.999l218 -0.00390625c2.66699 10 4 20 4 30c0 34.667 -13.667 65.834 -41 93.501s-63.333 41.5 -108 41.5c-26 0 -50.667 -4.5 -74 -13.5s-44 -21.833 -62 -38.5s-32 -36.167 -42 -58.5s-15 -46.5 -15 -72.5
c0 -25.333 4.83301 -49.166 14.5 -71.499s23.5 -42 41.5 -59s39.5 -30.167 64.5 -39.5s52.167 -14 81.5 -14c27.333 0 55 6.33301 83 19s51 28.334 69 47.001l-17 29c-15.333 -13.333 -33.333 -23.666 -54 -30.999s-42.334 -11 -65.001 -11
c-27.333 0 -50.666 11.333 -69.999 34s-29 55 -29 97l1 9v9z" />
    <glyph glyph-name="eacute" unicode="&#xe9;" horiz-adv-x="433" 
d="M368 522c0 8.66699 -3.33203 17.001 -9.99902 25.001s-15.667 12 -27 12c-10 0 -19 -2.33301 -27 -7s-18 -12.334 -30 -23.001l-121 -113l6 -9l179 75c7.33301 4 14.166 9.5 20.499 16.5s9.5 14.833 9.5 23.5zM177.001 229.001c11.333 48.667 35 73 71 73
c41.333 0 62 -24.333 62 -73h-133zM170.001 185.001l218 -0.00390625c2.66699 10 4 20 4 30c0 34.667 -13.667 65.834 -41 93.501s-63.333 41.5 -108 41.5c-26 0 -50.667 -4.5 -74 -13.5s-44 -21.833 -62 -38.5s-32 -36.167 -42 -58.5s-15 -46.5 -15 -72.5
c0 -25.333 4.83301 -49.166 14.5 -71.499s23.5 -42 41.5 -59s39.5 -30.167 64.5 -39.5s52.167 -14 81.5 -14c27.333 0 55 6.33301 83 19s51 28.334 69 47.001l-17 29c-15.333 -13.333 -33.333 -23.666 -54 -30.999s-42.334 -11 -65.001 -11
c-27.333 0 -50.666 11.333 -69.999 34s-29 55 -29 97l1 9v9z" />
    <glyph glyph-name="ecircumflex" unicode="&#xea;" horiz-adv-x="433" 
d="M380 423l-143 155l-143 -155l15 -14l128 83l128 -83zM177 229c11.333 48.667 35 73 71 73c41.333 0 62 -24.333 62 -73h-133zM170 185l218 -0.00390625c2.66699 10 4 20 4 30c0 34.667 -13.667 65.834 -41 93.501s-63.333 41.5 -108 41.5c-26 0 -50.667 -4.5 -74 -13.5
s-44 -21.833 -62 -38.5s-32 -36.167 -42 -58.5s-15 -46.5 -15 -72.5c0 -25.333 4.83301 -49.166 14.5 -71.499s23.5 -42 41.5 -59s39.5 -30.167 64.5 -39.5s52.167 -14 81.5 -14c27.333 0 55 6.33301 83 19s51 28.334 69 47.001l-17 29
c-15.333 -13.333 -33.333 -23.666 -54 -30.999s-42.334 -11 -65.001 -11c-27.333 0 -50.666 11.333 -69.999 34s-29 55 -29 97l1 9v9z" />
    <glyph glyph-name="edieresis" unicode="&#xeb;" horiz-adv-x="433" 
d="M135 510c-14 0 -26 -4.83301 -36 -14.5s-15 -21.834 -15 -36.501c0 -14 5 -26 15 -36s22 -15 36 -15s26 5 36 15s15 22 15 36c0 14.667 -5 26.834 -15 36.501s-22 14.5 -36 14.5zM334 510c-14 0 -26 -4.83301 -36 -14.5s-15 -21.834 -15 -36.501c0 -14 5 -26 15 -36
s22 -15 36 -15s26 5 36 15s15 22 15 36c0 14.667 -5 26.834 -15 36.501s-22 14.5 -36 14.5zM177 229c11.333 48.667 35 73 71 73c41.333 0 62 -24.333 62 -73h-133zM170 185l218 -0.00390625c2.66699 10 4 20 4 30c0 34.667 -13.667 65.834 -41 93.501
s-63.333 41.5 -108 41.5c-26 0 -50.667 -4.5 -74 -13.5s-44 -21.833 -62 -38.5s-32 -36.167 -42 -58.5s-15 -46.5 -15 -72.5c0 -25.333 4.83301 -49.166 14.5 -71.499s23.5 -42 41.5 -59s39.5 -30.167 64.5 -39.5s52.167 -14 81.5 -14c27.333 0 55 6.33301 83 19
s51 28.334 69 47.001l-17 29c-15.333 -13.333 -33.333 -23.666 -54 -30.999s-42.334 -11 -65.001 -11c-27.333 0 -50.666 11.333 -69.999 34s-29 55 -29 97l1 9v9z" />
    <glyph glyph-name="igrave" unicode="&#xec;" horiz-adv-x="331" 
d="M243 416l-122 112.999c-11.333 10.667 -21 18.334 -29 23.001s-17.333 7 -28 7c-11.333 0 -20.333 -3.83301 -27 -11.5s-10 -16.167 -10 -25.5c0 -8.66699 3 -16.167 9 -22.5s13 -11.833 21 -16.5l179 -76zM310 -0.000976562l0.000976562 29.001
c-18 0 -31.833 1.5 -41.5 4.5s-17.334 8.5 -23.001 16.5s-9.5 19.333 -11.5 34s-3 35.334 -3 62.001v204l-192 -25v-29c18 0 32 -1.5 42 -4.5s17.667 -8.5 23 -16.5s9 -19.333 11 -34s3 -35.334 3 -62.001v-33c0 -26.667 -1 -47.334 -3 -62.001s-5.66699 -26 -11 -34
s-13 -13.5 -23 -16.5s-24 -4.5 -42 -4.5v-29h271z" />
    <glyph glyph-name="iacute" unicode="&#xed;" horiz-adv-x="331" 
d="M295 522c0 8.66699 -3.33203 17.001 -9.99902 25.001s-15.667 12 -27 12c-10 0 -19 -2.33301 -27 -7s-18 -12.334 -30 -23.001l-121 -113l6 -9l179 75c7.33301 4 14.166 9.5 20.499 16.5s9.5 14.833 9.5 23.5zM310.001 0.000976562l0.000976562 29.001
c-18 0 -31.833 1.5 -41.5 4.5s-17.334 8.5 -23.001 16.5s-9.5 19.333 -11.5 34s-3 35.334 -3 62.001v204l-192 -25v-29c18 0 32 -1.5 42 -4.5s17.667 -8.5 23 -16.5s9 -19.333 11 -34s3 -35.334 3 -62.001v-33c0 -26.667 -1 -47.334 -3 -62.001s-5.66699 -26 -11 -34
s-13 -13.5 -23 -16.5s-24 -4.5 -42 -4.5v-29h271z" />
    <glyph glyph-name="icircumflex" unicode="&#xee;" horiz-adv-x="331" 
d="M307 422l-143 155l-143 -155l15 -14l128 83l128 -83zM310 0l0.000976562 29.001c-18 0 -31.833 1.5 -41.5 4.5s-17.334 8.5 -23.001 16.5s-9.5 19.333 -11.5 34s-3 35.334 -3 62.001v204l-192 -25v-29c18 0 32 -1.5 42 -4.5s17.667 -8.5 23 -16.5s9 -19.333 11 -34
s3 -35.334 3 -62.001v-33c0 -26.667 -1 -47.334 -3 -62.001s-5.66699 -26 -11 -34s-13 -13.5 -23 -16.5s-24 -4.5 -42 -4.5v-29h271z" />
    <glyph glyph-name="idieresis" unicode="&#xef;" horiz-adv-x="331" 
d="M66 510c-14 0 -26 -4.83301 -36 -14.5s-15 -21.834 -15 -36.501c0 -14 5 -26 15 -36s22 -15 36 -15s26 5 36 15s15 22 15 36c0 14.667 -5 26.834 -15 36.501s-22 14.5 -36 14.5zM265 510c-14 0 -26 -4.83301 -36 -14.5s-15 -21.834 -15 -36.501c0 -14 5 -26 15 -36
s22 -15 36 -15s26 5 36 15s15 22 15 36c0 14.667 -5 26.834 -15 36.501s-22 14.5 -36 14.5zM310 0l0.000976562 29.001c-18 0 -31.833 1.5 -41.5 4.5s-17.334 8.5 -23.001 16.5s-9.5 19.333 -11.5 34s-3 35.334 -3 62.001v204l-192 -25v-29c18 0 32 -1.5 42 -4.5
s17.667 -8.5 23 -16.5s9 -19.333 11 -34s3 -35.334 3 -62.001v-33c0 -26.667 -1 -47.334 -3 -62.001s-5.66699 -26 -11 -34s-13 -13.5 -23 -16.5s-24 -4.5 -42 -4.5v-29h271z" />
    <glyph glyph-name="eth" unicode="&#xf0;" horiz-adv-x="533" 
d="M351 278c0 -49.333 -2.83301 -90.668 -8.5 -124.001s-13.334 -58.833 -23.001 -76.5s-19.667 -29.667 -30 -36s-21.166 -9.5 -32.499 -9.5c-28 0 -48 12.667 -60 38s-18 59.333 -18 102c0 46.667 7.66699 81.334 23 104.001s36.333 34 63 34
c18 0 35.167 -2.66699 51.5 -8s27.833 -13.333 34.5 -24zM348 576.998c-36 28.667 -75.667 43.0039 -119 43.0039c-19.333 0 -38 -2.66699 -56 -8s-33.833 -12.166 -47.5 -20.499s-24.334 -17.333 -32.001 -27s-11.5 -18.834 -11.5 -27.501c0 -9.33301 4.33301 -17 13 -23
c5.33301 -3.33301 10.333 -5 15 -5c5.33301 0 10.333 2 15 6s10.667 10 18 18c12 14.667 24.167 26 36.5 34s28.5 12 48.5 12c30 0 54 -12.333 72 -37l-122 -92l27 -37l118 88c8.66699 -22.667 15.167 -48.334 19.5 -77.001s7.16602 -59.334 8.49902 -92.001
c-11.333 9.33301 -24.5 16 -39.5 20s-30.5 6 -46.5 6c-27.333 0 -53.666 -4.83301 -78.999 -14.5s-47.833 -23.167 -67.5 -40.5s-35.167 -37.333 -46.5 -60s-17 -46.667 -17 -72s5.33301 -49.333 16 -72s25.334 -42.834 44.001 -60.501s40.167 -31.334 64.5 -41.001
s50.166 -14.5 77.499 -14.5c22 0 44.833 4.16699 68.5 12.5s46.334 23 68.001 44s39.5 50.333 53.5 88s21 83.834 21 138.501c0 52.667 -7.66699 103.667 -23 153s-37 90.666 -65 123.999l75 56l-28 37z" />
    <glyph glyph-name="ntilde" unicode="&#xf1;" horiz-adv-x="592" 
d="M376 470c-9.33301 0 -19.501 2.66699 -30.501 8s-25.167 13.333 -42.5 24c-17.333 11.333 -32 19.833 -44 25.5s-23.333 8.5 -34 8.5c-22 0 -40.5 -11 -55.5 -33s-22.5 -50 -22.5 -84h19c4 15.333 10.833 28.333 20.5 39s19.834 16 30.501 16
c7.33301 0 16.333 -2.66699 27 -8s24 -13 40 -23c18.667 -11.333 34.167 -20 46.5 -26s23.5 -9 33.5 -9c25.333 0 45.5 10.667 60.5 32s22.5 50.333 22.5 87h-20c-8.66699 -38 -25.667 -57 -51 -57zM227.999 293c-0.666992 10 -2.5 20.668 -5.5 32.001
s-5.83301 19.666 -8.5 24.999l-175 -25v-29c18 0 32 -1.5 42 -4.5s17.667 -8.5 23 -16.5s9 -19.333 11 -34s3 -35.334 3 -62.001v-33c0 -26.667 -1 -47.334 -3 -62.001s-5.66699 -26 -11 -34s-13 -13.5 -23 -16.5s-24 -4.5 -42 -4.5v-29h271v29c-18 0 -31.833 1.5 -41.5 4.5
s-17.334 8.5 -23.001 16.5s-9.5 19.333 -11.5 34s-3 35.334 -3 62.001v49c0 30.667 9.66699 54.834 29 72.501s40.333 26.5 63 26.5c26.667 0 45.5 -9 56.5 -27s16.5 -44.333 16.5 -79v-42c0 -46.667 -3 -77.834 -9 -93.501s-16 -23.5 -30 -23.5v-29h231v29
c-18 0 -32 1.5 -42 4.5s-17.667 8.5 -23 16.5s-9.16602 19.5 -11.499 34.5s-3.5 35.5 -3.5 61.5v55c0 42.667 -14.667 78.167 -44 106.5s-66.333 42.5 -111 42.5c-26 0 -49.833 -5.16699 -71.5 -15.5s-39.5 -24.166 -53.5 -41.499z" />
    <glyph glyph-name="ograve" unicode="&#xf2;" horiz-adv-x="503" 
d="M315 416l-122 112.999c-11.333 10.667 -21 18.334 -29 23.001s-17.333 7 -28 7c-11.333 0 -20.333 -3.83301 -27 -11.5s-10 -16.167 -10 -25.5c0 -8.66699 3 -16.167 9 -22.5s13 -11.833 21 -16.5l179 -76zM453 166.999c0 24.667 -5.16602 48.167 -15.499 70.5
s-24.833 42 -43.5 59s-40.167 30.167 -64.5 39.5s-50.166 14 -77.499 14s-53.333 -4.66699 -78 -14s-46.167 -22.5 -64.5 -39.5s-32.833 -36.667 -43.5 -59s-16 -45.833 -16 -70.5s5.16699 -48.167 15.5 -70.5s25 -42.166 44 -59.499s40.667 -30.666 65 -39.999
s50.166 -14 77.499 -14s53.166 4.66699 77.499 14s45.833 22.666 64.5 39.999s33.167 37.166 43.5 59.499s15.5 45.833 15.5 70.5zM331.001 166.999c0 -40 -6.66699 -72.833 -20 -98.5s-33 -38.5 -59 -38.5s-45.667 12.833 -59 38.5s-20 58.5 -20 98.5s6.66699 72.667 20 98
s33 38 59 38s45.667 -12.667 59 -38s20 -58 20 -98z" />
    <glyph glyph-name="oacute" unicode="&#xf3;" horiz-adv-x="503" 
d="M383 522c0 8.66699 -3.33203 17.001 -9.99902 25.001s-15.667 12 -27 12c-10 0 -19 -2.33301 -27 -7s-18 -12.334 -30 -23.001l-121 -113l6 -9l179 75c7.33301 4 14.166 9.5 20.499 16.5s9.5 14.833 9.5 23.5zM453.001 167.001c0 24.667 -5.16602 48.167 -15.499 70.5
s-24.833 42 -43.5 59s-40.167 30.167 -64.5 39.5s-50.166 14 -77.499 14s-53.333 -4.66699 -78 -14s-46.167 -22.5 -64.5 -39.5s-32.833 -36.667 -43.5 -59s-16 -45.833 -16 -70.5s5.16699 -48.167 15.5 -70.5s25 -42.166 44 -59.499s40.667 -30.666 65 -39.999
s50.166 -14 77.499 -14s53.166 4.66699 77.499 14s45.833 22.666 64.5 39.999s33.167 37.166 43.5 59.499s15.5 45.833 15.5 70.5zM331.002 167.001c0 -40 -6.66699 -72.833 -20 -98.5s-33 -38.5 -59 -38.5s-45.667 12.833 -59 38.5s-20 58.5 -20 98.5s6.66699 72.667 20 98
s33 38 59 38s45.667 -12.667 59 -38s20 -58 20 -98z" />
    <glyph glyph-name="ocircumflex" unicode="&#xf4;" horiz-adv-x="503" 
d="M386 423l-143 155l-143 -155l15 -14l128 83l128 -83zM453 167c0 24.667 -5.16602 48.167 -15.499 70.5s-24.833 42 -43.5 59s-40.167 30.167 -64.5 39.5s-50.166 14 -77.499 14s-53.333 -4.66699 -78 -14s-46.167 -22.5 -64.5 -39.5s-32.833 -36.667 -43.5 -59
s-16 -45.833 -16 -70.5s5.16699 -48.167 15.5 -70.5s25 -42.166 44 -59.499s40.667 -30.666 65 -39.999s50.166 -14 77.499 -14s53.166 4.66699 77.499 14s45.833 22.666 64.5 39.999s33.167 37.166 43.5 59.499s15.5 45.833 15.5 70.5zM331.001 167
c0 -40 -6.66699 -72.833 -20 -98.5s-33 -38.5 -59 -38.5s-45.667 12.833 -59 38.5s-20 58.5 -20 98.5s6.66699 72.667 20 98s33 38 59 38s45.667 -12.667 59 -38s20 -58 20 -98z" />
    <glyph glyph-name="otilde" unicode="&#xf5;" horiz-adv-x="503" 
d="M329 460c-9.33301 0 -19.501 2.66699 -30.501 8s-25.167 13.333 -42.5 24c-17.333 11.333 -32 19.833 -44 25.5s-23.333 8.5 -34 8.5c-22 0 -40.5 -11 -55.5 -33s-22.5 -50 -22.5 -84h19c4 15.333 10.833 28.333 20.5 39s19.834 16 30.501 16
c7.33301 0 16.333 -2.66699 27 -8s24 -13 40 -23c18.667 -11.333 34.167 -20 46.5 -26s23.5 -9 33.5 -9c25.333 0 45.5 10.667 60.5 32s22.5 50.333 22.5 87h-20c-8.66699 -38 -25.667 -57 -51 -57zM452.999 167c0 24.667 -5.16602 48.167 -15.499 70.5s-24.833 42 -43.5 59
s-40.167 30.167 -64.5 39.5s-50.166 14 -77.499 14s-53.333 -4.66699 -78 -14s-46.167 -22.5 -64.5 -39.5s-32.833 -36.667 -43.5 -59s-16 -45.833 -16 -70.5s5.16699 -48.167 15.5 -70.5s25 -42.166 44 -59.499s40.667 -30.666 65 -39.999s50.166 -14 77.499 -14
s53.166 4.66699 77.499 14s45.833 22.666 64.5 39.999s33.167 37.166 43.5 59.499s15.5 45.833 15.5 70.5zM331 167c0 -40 -6.66699 -72.833 -20 -98.5s-33 -38.5 -59 -38.5s-45.667 12.833 -59 38.5s-20 58.5 -20 98.5s6.66699 72.667 20 98s33 38 59 38
s45.667 -12.667 59 -38s20 -58 20 -98z" />
    <glyph glyph-name="odieresis" unicode="&#xf6;" horiz-adv-x="503" 
d="M156 510c-14 0 -26 -4.83301 -36 -14.5s-15 -21.834 -15 -36.501c0 -14 5 -26 15 -36s22 -15 36 -15s26 5 36 15s15 22 15 36c0 14.667 -5 26.834 -15 36.501s-22 14.5 -36 14.5zM355 510c-14 0 -26 -4.83301 -36 -14.5s-15 -21.834 -15 -36.501c0 -14 5 -26 15 -36
s22 -15 36 -15s26 5 36 15s15 22 15 36c0 14.667 -5 26.834 -15 36.501s-22 14.5 -36 14.5zM453 167c0 24.667 -5.16602 48.167 -15.499 70.5s-24.833 42 -43.5 59s-40.167 30.167 -64.5 39.5s-50.166 14 -77.499 14s-53.333 -4.66699 -78 -14s-46.167 -22.5 -64.5 -39.5
s-32.833 -36.667 -43.5 -59s-16 -45.833 -16 -70.5s5.16699 -48.167 15.5 -70.5s25 -42.166 44 -59.499s40.667 -30.666 65 -39.999s50.166 -14 77.499 -14s53.166 4.66699 77.499 14s45.833 22.666 64.5 39.999s33.167 37.166 43.5 59.499s15.5 45.833 15.5 70.5z
M331.001 167c0 -40 -6.66699 -72.833 -20 -98.5s-33 -38.5 -59 -38.5s-45.667 12.833 -59 38.5s-20 58.5 -20 98.5s6.66699 72.667 20 98s33 38 59 38s45.667 -12.667 59 -38s20 -58 20 -98z" />
    <glyph glyph-name="divide" unicode="&#xf7;" horiz-adv-x="458" 
d="M392 183v77h-325v-77h325zM287 83c0 15.333 -6 28.833 -18 40.5s-25.667 17.5 -41 17.5c-14.667 0 -27.5 -5.83301 -38.5 -17.5s-16.5 -25.167 -16.5 -40.5s5.5 -29 16.5 -41s23.833 -18 38.5 -18c15.333 0 29 6 41 18s18 25.667 18 41zM287 360
c0 15.333 -6 28.833 -18 40.5s-25.667 17.5 -41 17.5c-14.667 0 -27.5 -5.83301 -38.5 -17.5s-16.5 -25.167 -16.5 -40.5s5.5 -28.833 16.5 -40.5s23.833 -17.5 38.5 -17.5c15.333 0 29 5.83301 41 17.5s18 25.167 18 40.5z" />
    <glyph glyph-name="oslash" unicode="&#xf8;" horiz-adv-x="503" 
d="M322 238c6 -20 9 -43.667 9 -71c0 -40 -6.66699 -72.833 -20 -98.5s-33 -38.5 -59 -38.5c-18.667 0 -33.667 6.33301 -45 19zM182 96c-6 21.333 -9 45 -9 71c0 40 6.66699 72.667 20 98s33 38 59 38c18 0 32.667 -6.33301 44 -19zM134 18l-25.999 -42.998l40 -22l27 44
c24 -9.33301 49.667 -14 77 -14s53.166 4.66699 77.499 14s45.833 22.666 64.5 39.999s33.167 37.166 43.5 59.499s15.5 45.833 15.5 70.5c0 30 -7.66699 58.167 -23 84.5s-36 47.833 -62 64.5l26 42l-40 22l-26 -43c-26 8.66699 -51.333 13 -76 13
c-27.333 0 -53.333 -4.66699 -78 -14s-46.167 -22.5 -64.5 -39.5s-32.833 -36.667 -43.5 -59s-16 -45.833 -16 -70.5c0 -30 7.5 -58 22.5 -84s35.5 -47.667 61.5 -65z" />
    <glyph glyph-name="ugrave" unicode="&#xf9;" horiz-adv-x="557" 
d="M329 415l-122 112.999c-11.333 10.667 -21 18.334 -29 23.001s-17.333 7 -28 7c-11.333 0 -20.333 -3.83301 -27 -11.5s-10 -16.167 -10 -25.5c0 -8.66699 3 -16.167 9 -22.5s13 -11.833 21 -16.5l179 -76zM553 7.99902v30.0059c-18 0 -32 1.5 -42 4.5
s-17.667 8.33301 -23 16s-9.16602 19 -11.499 34s-3.5 35.5 -3.5 61.5v179h-191v-29c17.333 0 31 -1.5 41 -4.5s17.833 -8.33301 23.5 -16s9.5 -19 11.5 -34s3 -35.5 3 -61.5v-50c0 -30.667 -9.83301 -54.834 -29.5 -72.501s-40.834 -26.5 -63.501 -26.5
c-26 0 -44.5 9.16699 -55.5 27.5s-16.5 44.833 -16.5 79.5v187h-192v-29c18 0 32 -1.5 42 -4.5s17.667 -8.33301 23 -16s9 -18.834 11 -33.501s3 -35.334 3 -62.001v-55c0 -42.667 14.667 -78.334 44 -107.001s66.333 -43 111 -43c26.667 0 50.667 5.33301 72 16
s39 24.667 53 42c1.33301 -10.667 3.5 -21.834 6.5 -33.501s5.83301 -19.834 8.5 -24.501z" />
    <glyph glyph-name="uacute" unicode="&#xfa;" horiz-adv-x="557" 
d="M398 521c0 8.66699 -3.33203 17.001 -9.99902 25.001s-15.667 12 -27 12c-10 0 -19 -2.33301 -27 -7s-18 -12.334 -30 -23.001l-121 -113l6 -9l179 75c7.33301 4 14.166 9.5 20.499 16.5s9.5 14.833 9.5 23.5zM553.001 8.00098v30.0059c-18 0 -32 1.5 -42 4.5
s-17.667 8.33301 -23 16s-9.16602 19 -11.499 34s-3.5 35.5 -3.5 61.5v179h-191v-29c17.333 0 31 -1.5 41 -4.5s17.833 -8.33301 23.5 -16s9.5 -19 11.5 -34s3 -35.5 3 -61.5v-50c0 -30.667 -9.83301 -54.834 -29.5 -72.501s-40.834 -26.5 -63.501 -26.5
c-26 0 -44.5 9.16699 -55.5 27.5s-16.5 44.833 -16.5 79.5v187h-192v-29c18 0 32 -1.5 42 -4.5s17.667 -8.33301 23 -16s9 -18.834 11 -33.501s3 -35.334 3 -62.001v-55c0 -42.667 14.667 -78.334 44 -107.001s66.333 -43 111 -43c26.667 0 50.667 5.33301 72 16
s39 24.667 53 42c1.33301 -10.667 3.5 -21.834 6.5 -33.501s5.83301 -19.834 8.5 -24.501z" />
    <glyph glyph-name="ucircumflex" unicode="&#xfb;" horiz-adv-x="557" 
d="M403 423l-143 155l-143 -155l15 -14l128 83l128 -83zM553 8v30.0059c-18 0 -32 1.5 -42 4.5s-17.667 8.33301 -23 16s-9.16602 19 -11.499 34s-3.5 35.5 -3.5 61.5v179h-191v-29c17.333 0 31 -1.5 41 -4.5s17.833 -8.33301 23.5 -16s9.5 -19 11.5 -34s3 -35.5 3 -61.5
v-50c0 -30.667 -9.83301 -54.834 -29.5 -72.501s-40.834 -26.5 -63.501 -26.5c-26 0 -44.5 9.16699 -55.5 27.5s-16.5 44.833 -16.5 79.5v187h-192v-29c18 0 32 -1.5 42 -4.5s17.667 -8.33301 23 -16s9 -18.834 11 -33.501s3 -35.334 3 -62.001v-55
c0 -42.667 14.667 -78.334 44 -107.001s66.333 -43 111 -43c26.667 0 50.667 5.33301 72 16s39 24.667 53 42c1.33301 -10.667 3.5 -21.834 6.5 -33.501s5.83301 -19.834 8.5 -24.501z" />
    <glyph glyph-name="udieresis" unicode="&#xfc;" horiz-adv-x="557" 
d="M158 510c-14 0 -26 -4.83301 -36 -14.5s-15 -21.834 -15 -36.501c0 -14 5 -26 15 -36s22 -15 36 -15s26 5 36 15s15 22 15 36c0 14.667 -5 26.834 -15 36.501s-22 14.5 -36 14.5zM357 510c-14 0 -26 -4.83301 -36 -14.5s-15 -21.834 -15 -36.501c0 -14 5 -26 15 -36
s22 -15 36 -15s26 5 36 15s15 22 15 36c0 14.667 -5 26.834 -15 36.501s-22 14.5 -36 14.5zM553 8v30.0059c-18 0 -32 1.5 -42 4.5s-17.667 8.33301 -23 16s-9.16602 19 -11.499 34s-3.5 35.5 -3.5 61.5v179h-191v-29c17.333 0 31 -1.5 41 -4.5s17.833 -8.33301 23.5 -16
s9.5 -19 11.5 -34s3 -35.5 3 -61.5v-50c0 -30.667 -9.83301 -54.834 -29.5 -72.501s-40.834 -26.5 -63.501 -26.5c-26 0 -44.5 9.16699 -55.5 27.5s-16.5 44.833 -16.5 79.5v187h-192v-29c18 0 32 -1.5 42 -4.5s17.667 -8.33301 23 -16s9 -18.834 11 -33.501
s3 -35.334 3 -62.001v-55c0 -42.667 14.667 -78.334 44 -107.001s66.333 -43 111 -43c26.667 0 50.667 5.33301 72 16s39 24.667 53 42c1.33301 -10.667 3.5 -21.834 6.5 -33.501s5.83301 -19.834 8.5 -24.501z" />
    <glyph glyph-name="yacute" unicode="&#xfd;" horiz-adv-x="358" 
d="M373 522c0 8.66699 -3.33203 17.001 -9.99902 25.001s-15.667 12 -27 12c-10 0 -19 -2.33301 -27 -7s-18 -12.334 -30 -23.001l-121 -113l6 -9l179 75c7.33301 4 14.166 9.5 20.499 16.5s9.5 14.833 9.5 23.5zM112.001 -232.999l200.999 486.998
c7.33301 18 16.666 30.833 27.999 38.5s25.666 11.5 42.999 11.5v29h-148v-29c24 0 36 -7.33301 36 -22c0 -6.66699 -2.33301 -16 -7 -28l-54 -130l-58 130c-6 12.667 -9 22.334 -9 29.001c0 14 14 21 42 21v29h-219v-29c30 0 52 -16.667 66 -50l120 -268l-43 -106
c-7.33301 -18 -15.166 -32.333 -23.499 -43s-18.166 -21 -29.499 -31c-8 -7.33301 -13.833 -13.666 -17.5 -18.999s-5.5 -12 -5.5 -20c0 -13.333 4.33301 -22.833 13 -28.5s17.667 -8.5 27 -8.5c7.33301 0 14.333 3.5 21 10.5s12.334 15.833 17.001 26.5z" />
    <glyph glyph-name="thorn" unicode="&#xfe;" horiz-adv-x="598" 
d="M258 477c1.33301 39.333 8 64.835 20 76.502s37.333 17.5 76 17.5v29h-316v-29c22 0 39 -1.5 51 -4.5s21.167 -8.5 27.5 -16.5s10.666 -19.333 12.999 -34s3.5 -35.334 3.5 -62.001v-308c0 -26.667 -1.16699 -47.334 -3.5 -62.001s-6.66602 -26 -12.999 -34
s-15.5 -13.5 -27.5 -16.5s-29 -4.5 -51 -4.5v-29h316v29c-21.333 0 -38 1.5 -50 4.5s-21.333 8.16699 -28 15.5s-11.167 17.833 -13.5 31.5s-3.83301 33.167 -4.5 58.5h115c60.667 0 109.5 16.167 146.5 48.5s55.5 72.5 55.5 120.5s-18.5 88.167 -55.5 120.5
s-85.833 48.5 -146.5 48.5h-115zM313 184.002h-55v248h55c41.333 0 73 -11.667 95 -35s33 -53 33 -89c0 -36.667 -10.833 -66.5 -32.5 -89.5s-53.5 -34.5 -95.5 -34.5z" />
    <glyph glyph-name="ydieresis" unicode="&#xff;" horiz-adv-x="358" 
d="M91 510c-14 0 -26 -4.83301 -36 -14.5s-15 -21.834 -15 -36.501c0 -14 5 -26 15 -36s22 -15 36 -15s26 5 36 15s15 22 15 36c0 14.667 -5 26.834 -15 36.501s-22 14.5 -36 14.5zM290 510c-14 0 -26 -4.83301 -36 -14.5s-15 -21.834 -15 -36.501c0 -14 5 -26 15 -36
s22 -15 36 -15s26 5 36 15s15 22 15 36c0 14.667 -5 26.834 -15 36.501s-22 14.5 -36 14.5zM112 -233l200.999 486.998c7.33301 18 16.666 30.833 27.999 38.5s25.666 11.5 42.999 11.5v29h-148v-29c24 0 36 -7.33301 36 -22c0 -6.66699 -2.33301 -16 -7 -28l-54 -130
l-58 130c-6 12.667 -9 22.334 -9 29.001c0 14 14 21 42 21v29h-219v-29c30 0 52 -16.667 66 -50l120 -268l-43 -106c-7.33301 -18 -15.166 -32.333 -23.499 -43s-18.166 -21 -29.499 -31c-8 -7.33301 -13.833 -13.666 -17.5 -18.999s-5.5 -12 -5.5 -20
c0 -13.333 4.33301 -22.833 13 -28.5s17.667 -8.5 27 -8.5c7.33301 0 14.333 3.5 21 10.5s12.334 15.833 17.001 26.5z" />
    <glyph glyph-name="OE" unicode="&#x152;" horiz-adv-x="1010" 
d="M503 62c-28 -20.667 -61 -31 -99 -31c-34 0 -63.667 8 -89 24s-46.166 37.167 -62.499 63.5s-28.333 55.333 -36 87s-11.5 63.167 -11.5 94.5s3.83301 62.833 11.5 94.5s19.667 60.667 36 87s37.166 47.5 62.499 63.5s55 24 89 24c39.333 0 72.333 -10.333 99 -31v-476z
M511 600c-34 11.333 -69.6699 16.9971 -107.003 16.9971c-44.667 0 -87.334 -8.16699 -128.001 -24.5s-76.334 -39.166 -107.001 -68.499s-54.667 -63.333 -72 -102s-26 -79.334 -26 -122.001s8.66699 -83.334 26 -122.001s41.333 -72.667 72 -102
s66.334 -52.166 107.001 -68.499s83.334 -24.5 128.001 -24.5c37.333 0 73 5.66699 107 17h444l8 141h-29l-5 -20c-7.33301 -29.333 -17.833 -49.333 -31.5 -60s-41.834 -16 -84.501 -16h-90c-22 0 -39 1.5 -51 4.5s-21.167 8.5 -27.5 16.5s-10.666 19.333 -12.999 34
s-3.5 35.334 -3.5 62.001v133h54c26.667 0 47.334 -1.16699 62.001 -3.5s25.834 -6.66602 33.501 -12.999s13 -15.666 16 -27.999s4.5 -29.5 4.5 -51.5h30v237h-30c0 -22 -1.5 -39 -4.5 -51s-8.33301 -21.333 -16 -28s-19 -11.167 -34 -13.5s-35.5 -3.5 -61.5 -3.5h-54v215
h152c42.667 0 70.834 -5.33301 84.501 -16s24.167 -30.667 31.5 -60l5 -20h29l-8 141h-411z" />
    <glyph glyph-name="oe" unicode="&#x153;" horiz-adv-x="716" 
d="M459 229c11.333 48.667 35.333 73 72 73c20 0 35.333 -6.5 46 -19.5s16 -30.833 16 -53.5h-134zM331 167c0 -40 -6.66699 -72.833 -20 -98.5s-33 -38.5 -59 -38.5s-45.667 12.833 -59 38.5s-20 58.5 -20 98.5s6.66699 72.667 20 98s33 38 59 38s45.667 -12.667 59 -38
s20 -58 20 -98zM391 35c39.333 -34.667 86.998 -52 142.998 -52c28 0 56 6.16699 84 18.5s51 28.166 69 47.499l-18 29c-32 -28 -71.333 -42 -118 -42c-26.667 0 -49.834 11.167 -69.501 33.5s-29.5 54.166 -29.5 95.499c0 2 0.333008 5.33301 1 10v10h217
c3.33301 10 5 20.333 5 31c0 34 -13.833 64.833 -41.5 92.5s-63.5 41.5 -107.5 41.5c-25.333 0 -49.666 -4.5 -72.999 -13.5s-44 -21.5 -62 -37.5c-39.333 34 -85.666 51 -138.999 51c-27.333 0 -53.333 -4.66699 -78 -14s-46.167 -22.5 -64.5 -39.5
s-32.833 -36.667 -43.5 -59s-16 -45.833 -16 -70.5s5.16699 -48.167 15.5 -70.5s25 -42.166 44 -59.499s40.667 -30.666 65 -39.999s50.166 -14 77.499 -14c26.667 0 51.834 4.66699 75.501 14s44.834 22 63.501 38z" />
    <glyph glyph-name="Scaron" unicode="&#x160;" horiz-adv-x="498" 
d="M394 829l-15 14l-128 -83l-128 83l-16 -14l144 -155zM107 30c7.33301 -1.33301 19.333 -6.33301 36 -15c20.667 -9.33301 40.167 -17 58.5 -23s38.833 -9 61.5 -9c25.333 0 50 4.33301 74 13s45.5 21.167 64.5 37.5s33.833 35.666 44.5 57.999s16 46.833 16 73.5
c0 37.333 -12 71.166 -36 101.499s-55 55.5 -93 75.5l-96 49c-25.333 12.667 -45 28.834 -59 48.501s-21 37.5 -21 53.5c0 24 8 43.333 24 58s35 22 57 22c25.333 0 46.833 -4.83301 64.5 -14.5s32 -22.667 43 -39s19.333 -34.5 25 -54.5s9.5 -41 11.5 -63h29v220h-28
c-4 -18 -13.667 -33.333 -29 -46c-18 13.333 -36.167 23.5 -54.5 30.5s-40.833 10.5 -67.5 10.5c-24 0 -46.5 -3.83301 -67.5 -11.5s-39.5 -18.5 -55.5 -32.5s-28.5 -30.167 -37.5 -48.5s-13.5 -37.5 -13.5 -57.5c0 -46.667 11 -84 33 -112s56 -53.667 102 -77l96 -50
c23.333 -12 41.5 -27.167 54.5 -45.5s19.5 -36.833 19.5 -55.5c0 -32 -9.16699 -56.5 -27.5 -73.5s-42.5 -25.5 -72.5 -25.5c-42.667 0 -81.667 16.167 -117 48.5s-58 74.5 -68 126.5h-29v-220h29c4 18.667 13.667 34.334 29 47.001z" />
    <glyph glyph-name="scaron" unicode="&#x161;" horiz-adv-x="350" 
d="M317 563l-15 14l-128 -83l-128 83l-16 -14l144 -155zM330 96c0 20 -6.66992 39.1719 -20.0029 57.5049s-32.333 33.166 -57 44.499l-49 23c-27.333 12 -45.666 21.5 -54.999 28.5s-14 15.833 -14 26.5c0 10 4.66699 18.167 14 24.5s21 9.5 35 9.5
c22 0 42.833 -7.66699 62.5 -23s29.5 -33 29.5 -53h29v116h-29c0 -12 -3.66699 -18 -11 -18c-4 0 -11.667 1.66699 -23 5c-27.333 8.66699 -52 13 -74 13c-13.333 0 -26.833 -1.83301 -40.5 -5.5s-26.5 -9.33398 -38.5 -17.001s-21.5 -18 -28.5 -31s-10.5 -28.5 -10.5 -46.5
c0 -19.333 6.33301 -38.333 19 -57s31.334 -33.667 56.001 -45l56 -25c22.667 -10.667 39 -20.334 49 -29.001s15 -18.667 15 -30s-4.66699 -20.666 -14 -27.999s-22 -11 -38 -11s-31.333 3.16699 -46 9.5s-27.667 14.666 -39 24.999s-20.333 21.666 -27 33.999
s-10 24.166 -10 35.499h-29v-146h29c0 21.333 4.33301 32 13 32c4.66699 0 13.667 -3.33301 27 -10c14.667 -6.66699 28.334 -12 41.001 -16s26.667 -6 42 -6c36.667 0 68.5 9.5 95.5 28.5s40.5 47.167 40.5 84.5z" />
    <glyph glyph-name="Ydieresis" unicode="&#x178;" horiz-adv-x="633" 
d="M243 776c-14 0 -26 -4.83301 -36 -14.5s-15 -21.834 -15 -36.501c0 -14 5 -26 15 -36s22 -15 36 -15s26 5 36 15s15 22 15 36c0 14.667 -5 26.834 -15 36.501s-22 14.5 -36 14.5zM442 776c-14 0 -26 -4.83301 -36 -14.5s-15 -21.834 -15 -36.501c0 -14 5 -26 15 -36
s22 -15 36 -15s26 5 36 15s15 22 15 36c0 14.667 -5 26.834 -15 36.501s-22 14.5 -36 14.5zM665 571l-0.00292969 28.999h-242v-29c49.333 0 74 -10 74 -30c0 -11.333 -6.66699 -26.666 -20 -45.999l-112 -169l-112 169c-12 17.333 -18 31.666 -18 42.999
c0 22 23.667 33 71 33v29h-339v-29c35.333 0 62.666 -5.66699 81.999 -17c10 -6.66699 19.833 -15.5 29.5 -26.5s20.834 -25.833 33.501 -44.5l145 -219v-118c0 -26 -1.16699 -46.5 -3.5 -61.5s-6.83301 -26.5 -13.5 -34.5s-16 -13.5 -28 -16.5s-29 -4.5 -51 -4.5v-29h312
v29c-22 0 -39 1.5 -51 4.5s-21.167 8.5 -27.5 16.5s-10.666 19.333 -12.999 34s-3.5 35.334 -3.5 62.001v121l143 216c12.667 19.333 22.834 34 30.501 44s16.5 18.333 26.5 25s21.833 11.5 35.5 14.5s30.834 4.5 51.501 4.5z" />
    <glyph glyph-name="florin" unicode="&#x192;" horiz-adv-x="337" 
d="M223 -78l0.000976562 367h100v44h-100v124c0 44 3.83301 74.833 11.5 92.5s21.834 26.5 42.501 26.5c12 0 20.667 -3.5 26 -10.5s10.666 -17.5 15.999 -31.5c6 -15.333 12.167 -26.833 18.5 -34.5s16.166 -11.5 29.499 -11.5c12 0 21.333 4 28 12s10 17.667 10 29
c0 21.333 -11.667 41.333 -35 60s-53.666 28 -90.999 28c-58.667 0 -101.5 -16.667 -128.5 -50s-40.5 -84.333 -40.5 -153v-81h-82v-44h82v-359c0 -59.333 -5.66699 -100.166 -17 -122.499s-28 -33.5 -50 -33.5c-16.667 0 -28.5 4 -35.5 12s-13.5 20 -19.5 36
c-4.66699 13.333 -9.66699 23.333 -15 30s-14 10 -26 10c-22 0 -33 -11.667 -33 -35c0.666992 -22 14.167 -43.167 40.5 -63.5s61.166 -30.5 104.499 -30.5c54.667 0 95.667 15.167 123 45.5s41 78.166 41 143.499z" />
    <glyph glyph-name="circumflex" unicode="&#x2c6;" horiz-adv-x="342" 
d="M323 536l-143 155l-143 -155l15 -14l128 83l128 -83z" />
    <glyph glyph-name="tilde" unicode="&#x2dc;" horiz-adv-x="300" 
d="M232 603c-9.33301 0 -19.501 2.66699 -30.501 8s-25.167 13.333 -42.5 24c-17.333 11.333 -32 19.833 -44 25.5s-23.333 8.5 -34 8.5c-22 0 -40.5 -11 -55.5 -33s-22.5 -50 -22.5 -84h19c4 15.333 10.833 28.333 20.5 39s19.834 16 30.501 16
c7.33301 0 16.333 -2.66699 27 -8s24 -13 40 -23c18.667 -11.333 34.167 -20 46.5 -26s23.5 -9 33.5 -9c25.333 0 45.5 10.667 60.5 32s22.5 50.333 22.5 87h-20c-8.66699 -38 -25.667 -57 -51 -57z" />
    <glyph glyph-name="endash" unicode="&#x2013;" horiz-adv-x="525" 
d="M525 166v77h-526v-77h526z" />
    <glyph glyph-name="emdash" unicode="&#x2014;" horiz-adv-x="667" 
d="M667 166v77h-668v-77h668z" />
    <glyph glyph-name="quoteleft" unicode="&#x2018;" horiz-adv-x="251" 
d="M192 553c0 17.333 -6.16602 32.332 -18.499 44.999s-27.166 19 -44.499 19c-18.667 0 -35.334 -7 -50.001 -21s-22 -33.333 -22 -58c0 -30.667 9.66699 -62.667 29 -96s47 -61.333 83 -84l20 20c-37.333 38.667 -59 75.334 -65 110.001h5
c17.333 0 32.166 6.5 44.499 19.5s18.5 28.167 18.5 45.5z" />
    <glyph glyph-name="quoteright" unicode="&#x2019;" horiz-adv-x="251" 
d="M82 358c36 22.667 63.666 50.668 82.999 84.001s29 65.333 29 96c0 24.667 -7.16699 44 -21.5 58s-31.166 21 -50.499 21c-17.333 0 -32.166 -6.33301 -44.499 -19s-18.5 -27.667 -18.5 -45s6.16699 -32.5 18.5 -45.5s27.166 -19.5 44.499 -19.5h5
c-6 -34.667 -27.667 -71.334 -65 -110.001z" />
    <glyph glyph-name="quotesinglbase" unicode="&#x201a;" horiz-adv-x="292" 
d="M88 -139c36 22.667 63.668 50.668 83.001 84.001s29 65.666 29 96.999c0 24 -7.33301 43 -22 57s-31.334 21 -50.001 21c-17.333 0 -32.166 -6.33301 -44.499 -19s-18.5 -27.667 -18.5 -45s6.16699 -32.333 18.5 -45s27.166 -19 44.499 -19h5
c-5.33301 -34 -27 -71 -65 -111z" />
    <glyph glyph-name="quotedblleft" unicode="&#x201c;" horiz-adv-x="434" 
d="M375 553c0 17.333 -5.99902 32.333 -17.999 45s-26.667 19 -44 19c-18.667 0 -35.5 -7 -50.5 -21s-22.5 -33.333 -22.5 -58c0 -30.667 9.83301 -62.667 29.5 -96s47.5 -61.333 83.5 -84l20 20c-38.667 40 -60.334 76.667 -65.001 110h5c17.333 0 32 6.5 44 19.5
s18 28.167 18 45.5zM192.001 553c0 17.333 -6.16602 32.332 -18.499 44.999s-27.166 19 -44.499 19c-18.667 0 -35.334 -7 -50.001 -21s-22 -33.333 -22 -58c0 -30.667 9.66699 -62.667 29 -96s47 -61.333 83 -84l20 20c-37.333 38.667 -59 75.334 -65 110.001h5
c17.333 0 32.166 6.5 44.499 19.5s18.5 28.167 18.5 45.5z" />
    <glyph glyph-name="quotedblright" unicode="&#x201d;" horiz-adv-x="434" 
d="M82 358c36 22.667 63.666 50.668 82.999 84.001s29 65.333 29 96c0 24.667 -7.16699 44 -21.5 58s-31.166 21 -50.499 21c-17.333 0 -32.166 -6.33301 -44.499 -19s-18.5 -27.667 -18.5 -45s6.16699 -32.5 18.5 -45.5s27.166 -19.5 44.499 -19.5h5
c-6 -34.667 -27.667 -71.334 -65 -110.001zM264.999 358.001c36 22.667 63.833 50.668 83.5 84.001s29.5 65.333 29.5 96c0 24.667 -7.33301 44 -22 58s-31.667 21 -51 21c-17.333 0 -32 -6.33301 -44 -19s-18 -27.667 -18 -45s6 -32.5 18 -45.5s26.667 -19.5 44 -19.5h5
c-6 -34.667 -27.667 -71.334 -65 -110.001z" />
    <glyph glyph-name="quotedblbase" unicode="&#x201e;" horiz-adv-x="434" 
d="M82 -139c36 22.667 63.668 50.668 83.001 84.001s29 65.666 29 96.999c0 24 -7.33301 43 -22 57s-31.334 21 -50.001 21c-17.333 0 -32.166 -6.33301 -44.499 -19s-18.5 -27.667 -18.5 -45s6.16699 -32.333 18.5 -45s27.166 -19 44.499 -19h5
c-6 -35.333 -27.667 -72.333 -65 -111zM265.001 -138.999c36 22.667 63.833 50.668 83.5 84.001s29.5 65.666 29.5 96.999c0 24 -7.33301 43 -22 57s-31.667 21 -51 21c-17.333 0 -32 -6.33301 -44 -19s-18 -27.667 -18 -45s6 -32.333 18 -45s26.667 -19 44 -19h5
c-6 -35.333 -27.667 -72.333 -65 -111z" />
    <glyph glyph-name="dagger" unicode="&#x2020;" horiz-adv-x="448" 
d="M240 388l108.998 -35c4.66699 -1.33301 9.33398 -2 14.001 -2c14 0 26.667 5.66699 38 17s17 24.666 17 39.999s-5.66699 28.666 -17 39.999s-24 17 -38 17c-4.66699 0 -9.33398 -0.666992 -14.001 -2l-111 -37l41 122c1.33301 4.66699 2 9.33398 2 14.001
c0 14 -5.66699 26.667 -17 38s-24.666 17 -39.999 17s-28.666 -5.66699 -39.999 -17s-17 -24 -17 -38c0 -4.66699 0.666992 -9.33398 2 -14.001l41 -122l-112 37c-4 1.33301 -8.33301 2 -13 2c-14.667 0 -27.667 -5.66699 -39 -17s-17 -24.666 -17 -39.999
s5.66699 -28.666 17 -39.999s24.333 -17 39 -17c4.66699 0 9 0.666992 13 2l110 36l-54 -182l62 -394h16l62 394z" />
    <glyph glyph-name="daggerdbl" unicode="&#x2021;" horiz-adv-x="448" 
d="M418 14c0 15.333 -5.66602 28.666 -16.999 39.999s-24 17 -38 17c-4.66699 0 -9.33398 -0.666992 -14.001 -2l-109 -35l56 178l-56 176l109 -36c4 -1.33301 8 -2 12 -2c15.333 0 28.666 5.83301 39.999 17.5s17 25.167 17 40.5c0 14.667 -5.66699 27.834 -17 39.501
s-24.333 17.5 -39 17.5c-4.66699 0 -9 -0.666992 -13 -2l-111 -38l41 123c1.33301 4 2 8.33301 2 13c0 14.667 -5.66699 27.667 -17 39s-24.666 17 -39.999 17s-28.666 -5.66699 -39.999 -17s-17 -24.333 -17 -39c0 -4.66699 0.666992 -9 2 -13l41 -123l-112 38
c-4 1.33301 -8.33301 2 -13 2c-14.667 0 -27.667 -5.83301 -39 -17.5s-17 -24.834 -17 -39.501c0 -15.333 5.83301 -28.833 17.5 -40.5s24.834 -17.5 39.501 -17.5c4 0 8 0.666992 12 2l110 37l-56 -178l56 -178l-110 36c-4 1.33301 -8.33301 2 -13 2
c-14.667 0 -27.667 -5.66699 -39 -17s-17 -24.666 -17 -39.999c0 -14.667 5.83301 -27.834 17.5 -39.501s24.5 -17.5 38.5 -17.5c4.66699 0 9 0.666992 13 2l112 38l-41 -123c-1.33301 -4 -2 -8.33301 -2 -13c0 -14 5.66699 -26.667 17 -38s24.666 -17 39.999 -17
s28.666 5.66699 39.999 17s17 24 17 38c0 4.66699 -0.666992 9 -2 13l-41 123l111 -38c4 -1.33301 8.33301 -2 13 -2c14.667 0 27.667 5.83301 39 17.5s17 24.834 17 39.501z" />
    <glyph glyph-name="bullet" unicode="&#x2022;" horiz-adv-x="303" 
d="M152 330c-27.333 0 -50.833 -9.83301 -70.5 -29.5s-29.5 -43.167 -29.5 -70.5s9.83301 -50.833 29.5 -70.5s43.167 -29.5 70.5 -29.5s50.833 9.83301 70.5 29.5s29.5 43.167 29.5 70.5s-9.83301 50.833 -29.5 70.5s-43.167 29.5 -70.5 29.5z" />
    <glyph glyph-name="ellipsis" unicode="&#x2026;" horiz-adv-x="896" 
d="M213 56c0 17.333 -6.5 32.333 -19.5 45s-28.167 19 -45.5 19s-32 -6.33301 -44 -19s-18 -27.667 -18 -45s6 -32.333 18 -45s26.667 -19 44 -19s32.5 6.33301 45.5 19s19.5 27.667 19.5 45zM504 56c0 17.333 -6.33301 32.333 -19 45s-27.667 19 -45 19
s-32 -6.33301 -44 -19s-18 -27.667 -18 -45s6 -32.333 18 -45s26.667 -19 44 -19s32.333 6.33301 45 19s19 27.667 19 45zM796 56c0 17.333 -6.33301 32.333 -19 45s-27.667 19 -45 19s-32.166 -6.33301 -44.499 -19s-18.5 -27.667 -18.5 -45s6.16699 -32.333 18.5 -45
s27.166 -19 44.499 -19s32.333 6.33301 45 19s19 27.667 19 45z" />
    <glyph glyph-name="perthousand" unicode="&#x2030;" horiz-adv-x="1133" 
d="M372 473c0 19.333 -4.16699 37.6689 -12.5 55.002s-20.166 32.833 -35.499 46.5s-33 24.167 -53 31.5s-41 11 -63 11s-43 -3.66699 -63 -11s-37.667 -17.666 -53 -30.999s-27.333 -28.833 -36 -46.5s-13 -36.167 -13 -55.5c0 -18.667 4.33301 -36.834 13 -54.501
s20.667 -33.167 36 -46.5s33 -23.666 53 -30.999s41 -11 63 -11s43 3.66699 63 11s37.667 17.666 53 30.999s27.166 28.666 35.499 45.999s12.5 35.666 12.5 54.999zM273 473.003c0 -27.333 -5.66699 -51.668 -17 -73.001s-27.333 -32 -48 -32s-36.834 10.833 -48.501 32.5
s-17.5 45.834 -17.5 72.501c0 27.333 5.83301 51.666 17.5 72.999s27.834 32 48.501 32s36.667 -10.667 48 -32s17 -45.666 17 -72.999zM587 598.001l-39 22l-370 -617l40 -21zM719 128.001c0 19.333 -4.16699 37.666 -12.5 54.999s-20.166 32.666 -35.499 45.999
s-33 23.666 -53 30.999s-41 11 -63 11s-43 -3.66699 -63 -11s-37.667 -17.666 -53 -30.999s-27.166 -28.666 -35.499 -45.999s-12.5 -35.666 -12.5 -54.999s4.16699 -37.666 12.5 -54.999s20.166 -32.833 35.499 -46.5s33 -24.167 53 -31.5s41 -11 63 -11s43 3.66699 63 11
s37.667 17.666 53 30.999s27.166 28.833 35.499 46.5s12.5 36.167 12.5 55.5zM621 128.001c0 -27.333 -5.83301 -51.666 -17.5 -72.999s-27.834 -32 -48.501 -32s-36.834 10.667 -48.501 32s-17.5 45.666 -17.5 72.999s5.83301 51.666 17.5 72.999s27.834 32 48.501 32
s36.834 -10.667 48.501 -32s17.5 -45.666 17.5 -72.999zM1090 128.001c0 19.333 -4.16699 37.666 -12.5 54.999s-20.166 32.666 -35.499 45.999s-33 23.666 -53 30.999s-41 11 -63 11s-43 -3.66699 -63 -11s-37.667 -17.666 -53 -30.999s-27.166 -28.666 -35.499 -45.999
s-12.5 -35.666 -12.5 -54.999s4.16699 -37.666 12.5 -54.999s20.166 -32.833 35.499 -46.5s33 -24.167 53 -31.5s41 -11 63 -11s43 3.66699 63 11s37.667 17.666 53 30.999s27.166 28.833 35.499 46.5s12.5 36.167 12.5 55.5zM992 128.001
c0 -27.333 -5.83301 -51.666 -17.5 -72.999s-27.834 -32 -48.501 -32s-36.834 10.667 -48.501 32s-17.5 45.666 -17.5 72.999s5.83301 51.666 17.5 72.999s27.834 32 48.501 32s36.834 -10.667 48.501 -32s17.5 -45.666 17.5 -72.999z" />
    <glyph glyph-name="guilsinglleft" unicode="&#x2039;" horiz-adv-x="500" 
d="M428 73l-175 195l175 195l-15 22l-338 -217l338 -218z" />
    <glyph glyph-name="guilsinglright" unicode="&#x203a;" horiz-adv-x="500" 
d="M425 268l-337 217l-16 -22l175 -195l-175 -195l16 -23z" />
    <glyph glyph-name="trademark" unicode="&#x2122;" horiz-adv-x="1013" 
d="M174 558l0.00195312 -216c0 -44.667 -4.33301 -73.334 -13 -86.001s-28 -19 -58 -19v-27h252v27c-30 0 -49.5 6.33301 -58.5 19s-13.5 41.334 -13.5 86.001v216h16c39.333 0 65.166 -4 77.499 -12s21.166 -23.333 26.499 -46l5 -18h27l-7 118h-400l-6 -118h26l5 18
c5.33301 22.667 14.333 38 27 46s38.667 12 78 12h16zM591.002 494l129 -299.002h12l123 286v-139c0 -44.667 -4.33301 -73.334 -13 -86.001s-28 -19 -58 -19v-27h227v27c-30 0 -49.333 6.33301 -58 19s-13 41.334 -13 86.001v126c0 44.667 4.33301 73.334 13 86.001
s28 19 58 19v27h-147l-109 -253l-108 253h-169v-27c30 0 49.333 -6.33301 58 -19c4.66699 -6.66699 7.83398 -16.667 9.50098 -30s2.5 -32 2.5 -56v-126c0 -24 -0.833008 -42.5 -2.5 -55.5s-4.83398 -23.167 -9.50098 -30.5c-8.66699 -12.667 -28 -19 -58 -19v-27h184v27
c-30 0 -49.333 6.33301 -58 19s-13 41.334 -13 86.001v152z" />
    </font>
</defs>
</svg>
