<?xml version="1.0" standalone="no"?>
<!DOCTYPE svg PUBLIC "-//W3C//DTD SVG 1.1//EN" "http://www.w3.org/Graphics/SVG/1.1/DTD/svg11.dtd" >
<svg>
<metadata>
Created by FontForge 20090914 at Mon Oct 12 10:23:09 2015
 By www-data
Copyright (C) 1996 Emigre Graphics, Designed by Zuzana Licko
</metadata>
<defs>
<font id="MrsEavesRoman" horiz-adv-x="617" >
  <font-face 
    font-family="MrsEavesRoman"
    font-weight="400"
    font-stretch="normal"
    units-per-em="1000"
    panose-1="2 11 5 0 0 0 0 0 0 0"
    ascent="800"
    descent="-200"
    x-height="333"
    cap-height="600.003"
    bbox="-108.996 -270.001 1075 840"
    underline-thickness="25"
    underline-position="-62"
    unicode-range="U+0020-U+2122"
  />
<missing-glyph horiz-adv-x="502" 
d="M-1 0h500v500h-500v-500zM9 10v480h480v-480h-480z" />
    <glyph glyph-name=".notdef" horiz-adv-x="502" 
d="M-1 0h500v500h-500v-500zM9 10v480h480v-480h-480z" />
    <glyph glyph-name="space" unicode=" " horiz-adv-x="233" 
 />
    <glyph glyph-name="exclam" unicode="!" horiz-adv-x="313" 
d="M194 40c0 13.333 -4.66699 24.668 -14 34.001s-20.666 14 -33.999 14c-12.667 0 -23.667 -4.66699 -33 -14s-14 -20.666 -14 -33.999c0 -12.667 4.66699 -23.834 14 -33.501s20.333 -14.5 33 -14.5c13.333 0 24.666 4.66699 33.999 14s14 20.666 14 33.999zM99 568.002
c0 -14 2.00195 -38.332 6.00195 -72.999c6 -46 11 -93 15 -141s7 -112.667 9 -194h34c2 80 5.16699 144.667 9.5 194s9.16602 96.666 14.499 141.999c4.66699 34 7 58 7 72c0 13.333 -4.83301 24.833 -14.5 34.5s-20.834 14.5 -33.501 14.5s-23.667 -4.83301 -33 -14.5
s-14 -21.167 -14 -34.5z" />
    <glyph glyph-name="quotedbl" unicode="&#x22;" horiz-adv-x="412" 
d="M75 568c0 -6 3.00195 -18.001 9.00195 -36.001c7.33301 -21.333 13.5 -42.166 18.5 -62.499s8.5 -45.833 10.5 -76.5h17c2 30 5.66699 55.5 11 76.5s11.666 41.833 18.999 62.5c6.66699 18 10 30 10 36c0 13.333 -4.83301 24.833 -14.5 34.5s-20.834 14.5 -33.501 14.5
s-23.667 -4.83301 -33 -14.5s-14 -21.167 -14 -34.5zM242.002 567.999c0 -6 3.00098 -18.001 9.00098 -36.001c7.33301 -21.333 13.5 -42.166 18.5 -62.499s8.5 -45.833 10.5 -76.5h17c2 30 5.66699 55.5 11 76.5s11.666 41.833 18.999 62.5c6.66699 18 10 30 10 36
c0 12.667 -5 24 -15 34s-21.333 15 -34 15s-23.5 -4.83301 -32.5 -14.5s-13.5 -21.167 -13.5 -34.5z" />
    <glyph glyph-name="numbersign" unicode="#" horiz-adv-x="435" 
d="M301 314l19 111h78l10 53h-79l21 122h-40l-21 -122h-106l21 122h-40l-21 -122h-77l-9 -53h77l-19 -111h-77l-10 -52h79l-21 -123h40l20 123h107l-21 -123h40l20 123h78l9 52h-78zM155 314l19 111h106l-19 -111h-106z" />
    <glyph glyph-name="dollar" unicode="$" horiz-adv-x="498" 
d="M252 582l-0.000976562 101.005h-36v-100c-42 -0.666992 -77.167 -14.167 -105.5 -40.5s-42.5 -57.833 -42.5 -94.5c0 -30.667 9.5 -58 28.5 -82s42.833 -43.333 71.5 -58l48 -25v-227c-24.667 3.33301 -44.5 10.333 -59.5 21s-29.833 24 -44.5 40
c-14 16 -24.333 24 -31 24c-4.66699 0 -9.33398 -1.66699 -14.001 -5c-7.33301 -4.66699 -11 -11.334 -11 -20.001c0 -20 15.167 -40.333 45.5 -61s68.5 -33 114.5 -37v-101h36v99c46 1.33301 84.833 17.166 116.5 47.499s47.5 68.833 47.5 115.5
c0 24.667 -8.16699 48.667 -24.5 72s-39.166 42.666 -68.499 57.999l-71 36v197c17.333 -2.66699 31.333 -7.83398 42 -15.501s21.667 -17.834 33 -30.501c12.667 -13.333 22.334 -20 29.001 -20h4c2 0.666992 3.33301 1 4 1c12 4 18 12 18 24c0 16 -11.833 32.5 -35.5 49.5
s-55.167 27.5 -94.5 31.5zM251.999 54.0049v210c32 -15.333 57 -32 75 -50s27 -37 27 -57c0 -30 -9.5 -54.333 -28.5 -73s-43.5 -28.667 -73.5 -30zM215.999 543.005v-178.999c-31.333 17.333 -53.5 33.666 -66.5 48.999s-19.5 33.333 -19.5 54c0 20 8.5 37.167 25.5 51.5
s37.167 22.5 60.5 24.5z" />
    <glyph glyph-name="percent" unicode="%" horiz-adv-x="763" 
d="M704 128c0 19.333 -3.83203 37.666 -11.499 54.999s-18.334 32.666 -32.001 45.999s-29.667 23.666 -48 30.999s-37.5 11 -57.5 11s-39.167 -3.66699 -57.5 -11s-34.333 -17.666 -48 -30.999s-24.334 -28.666 -32.001 -45.999s-11.5 -35.666 -11.5 -54.999
s3.83301 -37.833 11.5 -55.5s18.5 -33.167 32.5 -46.5s30 -23.666 48 -30.999s37 -11 57 -11s39.167 3.66699 57.5 11s34.333 17.666 48 30.999s24.334 28.833 32.001 46.5s11.5 36.167 11.5 55.5zM591.001 600l-36 18l-383 -618l36 -18zM357.001 473
c0 19.333 -3.83301 37.8301 -11.5 55.4971s-18.5 33.167 -32.5 46.5s-30 23.666 -48 30.999s-37 11 -57 11s-39.167 -3.66699 -57.5 -11s-34.333 -17.666 -48 -30.999s-24.5 -28.833 -32.5 -46.5s-12 -36.167 -12 -55.5s4 -37.666 12 -54.999s18.833 -32.666 32.5 -45.999
s29.667 -23.666 48 -30.999s37.5 -11 57.5 -11s39 3.66699 57 11s34 17.666 48 30.999s24.833 28.833 32.5 46.5s11.5 35.834 11.5 54.501zM638.001 127.997c0 -32 -7 -58.333 -21 -79s-34.667 -31 -62 -31s-47.833 10.167 -61.5 30.5s-20.5 46.833 -20.5 79.5
c0 32 6.83301 58.333 20.5 79s34.167 31 61.5 31s48 -10.333 62 -31s21 -47 21 -79zM290.001 472.997c0 -32 -7 -58.333 -21 -79s-34.333 -31 -61 -31c-27.333 0 -48 10.333 -62 31s-21 47 -21 79c0 32.667 7 59.167 21 79.5s34.667 30.5 62 30.5
c26.667 0 47 -10.333 61 -31s21 -47 21 -79z" />
    <glyph glyph-name="ampersand" unicode="&#x26;" horiz-adv-x="657" 
d="M233 357c-26 46.667 -39 90.667 -39 132c0 22 8.5 42.333 25.5 61s40.167 28 69.5 28c22.667 0 41.5 -7.16699 56.5 -21.5s22.5 -32.5 22.5 -54.5c0 -30 -11 -55 -33 -75s-56 -43.333 -102 -70v0zM385 75c-14 -16.667 -30.6689 -29.667 -50.002 -39
s-41.666 -14 -66.999 -14c-38 0 -69.667 12.833 -95 38.5s-38 55.5 -38 89.5c0 30.667 5.83301 56.5 17.5 77.5s28.167 40.833 49.5 59.5c20.667 -29.333 45.834 -60.833 75.501 -94.5zM408.998 50c22 -21.333 43.501 -37.834 64.501 -49.501s43.833 -17.5 68.5 -17.5
c17.333 0 35.166 5.16699 53.499 15.5s34.166 24.5 47.499 42.5l-17 17c-23.333 -23.333 -45 -35 -65 -35c-17.333 0 -36.5 7.33301 -57.5 22s-42.167 34 -63.5 58c10.667 22.667 18.334 51.667 23.001 87c2.66699 19.333 5.66699 34.333 9 45s8.5 19.334 15.5 26.001
s16.667 11.5 29 14.5s29.166 4.5 50.499 4.5v21h-226v-21c34.667 0 58.334 -4 71.001 -12s19 -23.333 19 -46c0 -8 -0.666992 -18.667 -2 -32c-2 -20 -6.66699 -40 -14 -60c-79.333 87.333 -133.666 152.666 -162.999 195.999c12.667 8.66699 32 20.667 58 36
c41.333 24 72 45.667 92 65s30 44.333 30 75c0 33.333 -14 60.833 -42 82.5s-61.667 32.5 -101 32.5c-22.667 0 -44 -3.5 -64 -10.5s-38 -17.167 -54 -30.5c-32.667 -27.333 -49 -61.666 -49 -102.999c0 -42.667 18.333 -92.667 55 -150c-36 -22.667 -64 -46.667 -84 -72
s-30 -56.333 -30 -93c0 -28.667 5.5 -54.167 16.5 -76.5s26.167 -40.833 45.5 -55.5s40.666 -25.5 63.999 -32.5s47 -10.5 71 -10.5c63.333 0 113 22.333 149 67z" />
    <glyph glyph-name="quotesingle" unicode="'" horiz-adv-x="245" 
d="M75 568c0 -6 3.00195 -18.001 9.00195 -36.001c7.33301 -21.333 13.5 -42.166 18.5 -62.499s8.5 -45.833 10.5 -76.5h17c2 30 5.66699 55.5 11 76.5s11.666 41.833 18.999 62.5c6.66699 18 10 30 10 36c0 13.333 -4.83301 24.833 -14.5 34.5s-20.834 14.5 -33.501 14.5
s-23.667 -4.83301 -33 -14.5s-14 -21.167 -14 -34.5z" />
    <glyph glyph-name="parenleft" unicode="(" horiz-adv-x="358" 
d="M330 -90l-0.999023 1c-22 24 -41.667 47.167 -59 69.5s-35.166 49.333 -53.499 81s-33.5 67.5 -45.5 107.5s-18 82 -18 126s6 86 18 126s27.167 75.833 45.5 107.5s36.166 58.667 53.499 81s37 45.5 59 69.5l1 1l-23 21c-69.333 -57.333 -124 -119.333 -164 -186
s-60 -140 -60 -220s20.167 -153.5 60.5 -220.5s95.166 -128.833 164.499 -185.5z" />
    <glyph glyph-name="parenright" unicode=")" horiz-adv-x="358" 
d="M275 295c0 80 -19.833 153.333 -59.5 220s-94.167 128.667 -163.5 186l-24 -21l2 -2c21.333 -24 40.833 -47 58.5 -69s35.667 -49 54 -81s33.5 -67.833 45.5 -107.5s18 -81.5 18 -125.5s-6 -85.833 -18 -125.5s-27.167 -75.5 -45.5 -107.5s-36.333 -59 -54 -81
s-37.167 -45 -58.5 -69l-2 -2l23 -21c69.333 56.667 124 118.5 164 185.5s60 140.5 60 220.5z" />
    <glyph glyph-name="asterisk" unicode="*" horiz-adv-x="407" 
d="M194 414c-1.33301 -20.667 -4.16699 -37.8291 -8.5 -51.4961s-10.166 -27.5 -17.499 -41.5c-7.33301 -12.667 -11 -22.334 -11 -29.001c0 -13.333 4.5 -24.833 13.5 -34.5s19.833 -14.5 32.5 -14.5s24 5 34 15s15 21.333 15 34c0 6 -3.66699 16 -11 30
c-8 14 -14.333 27.667 -19 41s-8 30.666 -10 51.999c18 -11.333 31.833 -22.5 41.5 -33.5s18.5 -23.167 26.5 -36.5c8 -12.667 14.667 -20.667 20 -24c8 -4.66699 16.333 -7 25 -7c17.333 0 30.666 7.66699 39.999 23c4 7.33301 6 15 6 23c0 18.667 -7.66699 33 -23 43
c-5.33301 2.66699 -15.666 4.33398 -30.999 5.00098c-15.333 0 -30.166 1.33301 -44.499 4s-31.166 8.66699 -50.499 18c18.667 9.33301 35.167 15.333 49.5 18s29.166 4 44.499 4c16 0.666992 26.667 2.66699 32 6c15.333 9.33301 23 23.333 23 42
c0 8.66699 -2 16.334 -6 23.001c-9.33301 15.333 -22.666 23 -39.999 23c-8.66699 0 -17 -2.33301 -25 -7c-5.33301 -3.33301 -12 -11.333 -20 -24c-8 -13.333 -16.667 -25.333 -26 -36s-23 -22 -41 -34c1.33301 21.333 4.5 38.833 9.5 52.5s11.167 27.5 18.5 41.5
c7.33301 13.333 11 23 11 29c0 12.667 -5 24 -15 34s-21.333 15 -34 15s-23.5 -4.83301 -32.5 -14.5s-13.5 -21.167 -13.5 -34.5c0 -6 3.66699 -15.667 11 -29c7.33301 -14 13.166 -27.667 17.499 -41s7.16602 -30.666 8.49902 -51.999c-18 11.333 -31.667 22.5 -41 33.5
s-18 23.5 -26 37.5c-7.33301 12.667 -13.666 20.667 -18.999 24c-7.33301 4.66699 -15.333 7 -24 7c-18.667 0 -32.667 -8.33301 -42 -25c-4.66699 -6.66699 -7 -14 -7 -22c0 -17.333 8.33301 -31.333 25 -42c5.33301 -2.66699 15.333 -4.33398 30 -5.00098
c15.333 -0.666992 30.166 -2.33398 44.499 -5.00098s31.166 -9 50.499 -19c-19.333 -9.33301 -35.833 -15.333 -49.5 -18s-28.5 -4.33398 -44.5 -5.00098c-15.333 -1.33301 -25.666 -3.33301 -30.999 -6c-16.667 -9.33301 -25 -23.333 -25 -42c0 -8 2.33301 -15.333 7 -22
c9.33301 -16.667 23.333 -25 42 -25c8.66699 0 16.667 2.33301 24 7c5.33301 3.33301 11.666 11.333 18.999 24c8 13.333 16.667 25.666 26 36.999s23 22.666 41 33.999z" />
    <glyph glyph-name="plus" unicode="+" horiz-adv-x="458" 
d="M251 243v157h-44v-157h-157v-44h157v-157h44v157h157v44h-157z" />
    <glyph glyph-name="comma" unicode="," horiz-adv-x="313" 
d="M154 -2c-3.33301 -20 -9.16602 -37.835 -17.499 -53.502s-21.5 -33.167 -39.5 -52.5l11 -12c29.333 18 52 41.667 68 71s24 56 24 80c0 20.667 -5.33301 36.334 -16 47.001s-23.334 16 -38.001 16c-12.667 0 -23.667 -4.66699 -33 -14s-14 -20.666 -14 -33.999
s4.66699 -24.833 14 -34.5s20.333 -14.5 33 -14.5c4 0 6.66699 0.333008 8 1z" />
    <glyph glyph-name="hyphen" unicode="-" horiz-adv-x="458" 
d="M375 183v44h-292v-44h292z" />
    <glyph glyph-name="period" unicode="." horiz-adv-x="313" 
d="M211 44c0 14.667 -5.66699 27.167 -17 37.5s-24.666 15.5 -39.999 15.5s-28.333 -5.16699 -39 -15.5s-16 -22.833 -16 -37.5c0 -14 5.33301 -26.167 16 -36.5s23.667 -15.5 39 -15.5s28.666 5.16699 39.999 15.5s17 22.5 17 36.5z" />
    <glyph glyph-name="slash" unicode="/" horiz-adv-x="348" 
d="M338 604l-40 14l-288 -622l40 -14z" />
    <glyph glyph-name="zero" unicode="0" horiz-adv-x="592" 
d="M296 450c-31.333 0 -61.166 -6 -89.499 -18s-53.333 -28.833 -75 -50.5s-38.5 -46.667 -50.5 -75s-18 -58.166 -18 -89.499s6 -61.333 18 -90s28.833 -53.834 50.5 -75.501s46.667 -38.5 75 -50.5s58.166 -18 89.499 -18s61.166 6 89.499 18s53.333 28.833 75 50.5
s38.5 46.834 50.5 75.501s18 58.667 18 90s-6 61.166 -18 89.499s-28.833 53.333 -50.5 75s-46.667 38.5 -75 50.5s-58.166 18 -89.499 18zM296 393c22.667 0 44.167 -4.5 64.5 -13.5s38.5 -21.833 54.5 -38.5s28.333 -35.667 37 -57s13 -43.666 13 -66.999
c0 -24 -4.33301 -46.667 -13 -68s-21 -40.166 -37 -56.499s-34.167 -29 -54.5 -38s-41.833 -13.5 -64.5 -13.5s-44.334 4.5 -65.001 13.5s-38.834 21.667 -54.501 38s-27.834 35.166 -36.501 56.499s-13 44 -13 68s4.33301 46.667 13 68s20.834 40.166 36.501 56.499
s33.834 29 54.501 38s42.334 13.5 65.001 13.5z" />
    <glyph glyph-name="one" unicode="1" horiz-adv-x="363" 
d="M313 0v20.998c-22 0 -39.167 1.5 -51.5 4.5s-21.666 8.5 -27.999 16.5s-10.666 19.333 -12.999 34s-3.5 35.334 -3.5 62.001v158c0 26.667 1.16699 47.334 3.5 62.001s6.66602 26 12.999 34s15.666 13.5 27.999 16.5s29.5 4.5 51.5 4.5v20h-263v-20c22 0 39 -1.5 51 -4.5
s21.333 -8.5 28 -16.5s11.167 -19.5 13.5 -34.5s3.5 -35.5 3.5 -61.5v-158c0 -26 -1.16699 -46.5 -3.5 -61.5s-6.83301 -26.5 -13.5 -34.5s-16 -13.5 -28 -16.5s-29 -4.5 -51 -4.5v-21h263z" />
    <glyph glyph-name="two" unicode="2" horiz-adv-x="520" 
d="M338 176c4 2.66699 10.3311 7.5 18.998 14.5s18.667 16.667 30 29s21.333 27 30 44s13 34.5 13 52.5c0 20 -5.16699 38.333 -15.5 55s-24.5 30.834 -42.5 42.501s-38.5 20.667 -61.5 27s-46.833 9.5 -71.5 9.5c-54 0 -97.167 -12.667 -129.5 -38s-48.5 -55 -48.5 -89
c0 -18 5.16699 -35.333 15.5 -52s25.833 -31.334 46.5 -44.001l30 31c-11.333 19.333 -17 38 -17 56c0 26.667 10.333 49 31 67s44.667 27 72 27c32.667 0 58.834 -8.33301 78.501 -25s29.5 -39.334 29.5 -68.001c0 -22 -7.16699 -45.833 -21.5 -71.5
s-39.166 -52.5 -74.499 -80.5l-177 -139v-24h206c26 0 46.5 -1.16699 61.5 -3.5s26.5 -6.16602 34.5 -11.499s13.5 -13 16.5 -23s4.5 -23.667 4.5 -41h21l25 137h-259z" />
    <glyph glyph-name="three" unicode="3" horiz-adv-x="508" 
d="M258 115c34.667 -7.33301 60.168 -23.667 76.501 -49s24.5 -54 24.5 -86c0 -38.667 -9.83301 -69.834 -29.5 -93.501s-49.167 -35.5 -88.5 -35.5c-24 0 -43.667 3.66699 -59 11s-28.333 16.666 -39 27.999c-6 6 -13.333 16.333 -22 31
c-6 9.33301 -11.167 16.333 -15.5 21s-9.5 7 -15.5 7c-17.333 0 -26 -7.66699 -26 -23c0 -10 4.16699 -21.5 12.5 -34.5s20.5 -25.5 36.5 -37.5s35.667 -21.833 59 -29.5s49 -11.5 77 -11.5c27.333 0 53.166 4.33301 77.499 13s45.666 20.834 63.999 36.501
s32.5 33.5 42.5 53.5s15 41.333 15 64c0 38.667 -14 72.667 -42 102s-66 49 -114 59l46 35c4 2.66699 10.333 7.5 19 14.5s18.667 16.667 30 29s21.333 27 30 44s13 34.5 13 52.5c0 20 -5.16699 38.333 -15.5 55s-24.5 30.834 -42.5 42.501s-38.5 20.667 -61.5 27
s-46.833 9.5 -71.5 9.5c-54 0 -97.167 -12.667 -129.5 -38s-48.5 -55 -48.5 -89c0 -18 5.16699 -35.333 15.5 -52s25.833 -31.334 46.5 -44.001l30 31c-11.333 19.333 -17 38.333 -17 57c0 26.667 11 48.834 33 66.501s45.333 26.5 70 26.5c32.667 0 59 -8.33301 79 -25
s30 -39 30 -67c0 -24.667 -6.16699 -48.5 -18.5 -71.5s-28.166 -41.833 -47.499 -56.5l-74 -59c-17.333 -12.667 -26 -25 -26 -37c0 -6.66699 2.16699 -12.167 6.5 -16.5s9.16602 -6.5 14.499 -6.5c6 0 11.5 2.16699 16.5 6.5s11.167 10.833 18.5 19.5
c8.66699 9.33301 15.334 16 20.001 20z" />
    <glyph glyph-name="four" unicode="4" horiz-adv-x="540" 
d="M333 492h-17.999l-279 -431v-19h227v-75c0 -26 -1.16699 -46.5 -3.5 -61.5s-6.83301 -26.333 -13.5 -34s-16 -13 -28 -16s-29 -4.5 -51 -4.5v-21h262v21c-22 0 -39 1.5 -51 4.5s-21.333 8.33301 -28 16s-11.167 19 -13.5 34s-3.5 35.5 -3.5 61.5v75h145l8 132h-21l-5 -20
c-7.33301 -29.333 -17.833 -49.333 -31.5 -60s-41.834 -16 -84.501 -16h-11v414zM263.001 78h-173l173 267v-267z" />
    <glyph glyph-name="five" unicode="5" horiz-adv-x="493" 
d="M125 186l14.9961 177h253l25 146h-23c-7.33301 -30 -17.833 -50.167 -31.5 -60.5s-41.834 -15.5 -84.501 -15.5h-169l-31 -343h37c5.33301 35.333 18 60.5 38 75.5s44.667 22.5 74 22.5c40 0 69.833 -15.167 89.5 -45.5s29.5 -70.5 29.5 -120.5
c0 -50.667 -10 -91.834 -30 -123.501s-49.667 -47.5 -89 -47.5c-30 0 -52 6 -66 18s-26.667 28.333 -38 49c-5.33301 10.667 -10.166 18.5 -14.499 23.5s-9.83301 7.5 -16.5 7.5c-18.667 0 -28 -9 -28 -27c0 -10 3.66699 -21.333 11 -34s18 -24.667 32 -36
s31.333 -20.666 52 -27.999s43.334 -11 68.001 -11c27.333 0 53.333 5.33301 78 16s46.334 25.667 65.001 45s33.167 41.833 43.5 67.5s15.5 52.5 15.5 80.5c0 28.667 -4.66699 55.667 -14 81s-22.666 47.5 -39.999 66.5s-37.833 33.833 -61.5 44.5s-49.5 16 -77.5 16
c-21.333 0 -42.666 -4 -63.999 -12s-37.333 -18.667 -48 -32z" />
    <glyph glyph-name="six" unicode="6" horiz-adv-x="525" 
d="M145 244c6 21.333 20.168 38.999 42.501 52.999s48.166 21 77.499 21c21.333 0 39.666 -4 54.999 -12s27.666 -19 36.999 -33s16.166 -29.5 20.499 -46.5s6.5 -35.167 6.5 -54.5s-2.16699 -37.833 -6.5 -55.5s-11.166 -33.5 -20.499 -47.5s-21.666 -25.167 -36.999 -33.5
s-33.666 -12.5 -54.999 -12.5c-11.333 0 -23.333 2.66699 -36 8s-25.167 15.833 -37.5 31.5s-22.833 38.334 -31.5 68.001s-13.667 67.5 -15 113.5zM146.001 298.999c2 38.667 5.66504 74.835 10.998 108.502s13.5 64 24.5 91s25.667 48.667 44 65s40.833 24.5 67.5 24.5
c20 0 36.333 -4.16699 49 -12.5s25.334 -19.5 38.001 -33.5c7.33301 -8.66699 13.333 -14.834 18 -18.501s9.66699 -5.5 15 -5.5c6.66699 0 12.834 2.33301 18.501 7s8.5 11 8.5 19c0 17.333 -14.667 34.333 -44 51s-63.666 25 -102.999 25c-37.333 0 -70.5 -10 -99.5 -30
s-53.167 -47 -72.5 -81s-33.833 -72 -43.5 -114s-14.5 -85 -14.5 -129c0 -54.667 6.5 -100.834 19.5 -138.501s29.833 -67 50.5 -88s42.334 -35.667 65.001 -44s45 -12.5 67 -12.5c27.333 0 53.333 4.83301 78 14.5s46.167 23.167 64.5 40.5s32.833 37.5 43.5 60.5
s16 47.167 16 72.5s-5.16699 49.333 -15.5 72s-24.833 42.667 -43.5 60s-40.334 30.833 -65.001 40.5s-50.667 14.5 -78 14.5c-26.667 0 -49.834 -5.33301 -69.501 -16s-36.167 -25 -49.5 -43z" />
    <glyph glyph-name="seven" unicode="7" horiz-adv-x="471" 
d="M418 442l-178 -0.000976562c-26.667 0 -47.334 1 -62.001 3s-26 5.83301 -34 11.5s-13.5 13.334 -16.5 23.001s-4.5 23.5 -4.5 41.5h-20l-42 -246h21l5 20c7.33301 30 17.833 50.167 31.5 60.5s41.834 15.5 84.501 15.5h163l-238 -496c-4.66699 -10 -7 -19 -7 -27
c0 -8.66699 2.33301 -16 7 -22s10 -9.66699 16 -11c4 -1.33301 7.66699 -2 11 -2c10 0 18 4 24 12s12.333 20.333 19 37l220 552v28z" />
    <glyph glyph-name="eight" unicode="8" horiz-adv-x="528" 
d="M273 358c-31.333 17.333 -54.998 35.998 -70.998 55.998s-24 45 -24 75c0 23.333 7 44 21 62s35.667 27 65 27s51.166 -9.16699 65.499 -27.5s21.5 -38.833 21.5 -61.5c0 -27.333 -6.83301 -52.666 -20.5 -75.999s-32.834 -41.666 -57.501 -54.999zM241.002 309.998
c47.333 -26.667 83.167 -52.167 107.5 -76.5s36.5 -54.833 36.5 -91.5c0 -30 -10.5 -57.5 -31.5 -82.5s-50.833 -37.5 -89.5 -37.5s-68.5 12.833 -89.5 38.5s-31.5 55.5 -31.5 89.5c0 35.333 8.66699 66.5 26 93.5s41.333 49.167 72 66.5zM304.003 341.998
c40 18.667 71.335 38.4971 94.002 59.4971s34 47.5 34 79.5c0 18 -4.33301 35.333 -13 52s-20.834 31.334 -36.501 44.001s-33.667 22.5 -54 29.5s-41.833 10.5 -64.5 10.5s-44 -3.5 -64 -10.5s-38 -17.167 -54 -30.5c-32.667 -27.333 -49 -61.666 -49 -102.999
c0 -30.667 9.66699 -57 29 -79s47 -44 83 -66c-20.667 -8.66699 -39.5 -18 -56.5 -28s-32.167 -21.833 -45.5 -35.5s-24 -30 -32 -49s-12 -40.833 -12 -65.5c0 -22.667 5.16699 -44.167 15.5 -64.5s24.833 -38.166 43.5 -53.499s40.167 -27.333 64.5 -36
s50.166 -13 77.499 -13s53.333 4.33301 78 13s46.334 21 65.001 37s33.167 34.667 43.5 56s15.5 44.333 15.5 69c0 24 -4.5 45.5 -13.5 64.5s-20.667 35.167 -35 48.5s-29.833 25 -46.5 35s-38.334 21.667 -65.001 35z" />
    <glyph glyph-name="nine" unicode="9" horiz-adv-x="525" 
d="M463 168c0 54.667 -6.50195 100.671 -19.502 138.004s-30 66.5 -51 87.5s-42.833 35.667 -65.5 44s-45 12.5 -67 12.5c-27.333 0 -53.333 -4.83301 -78 -14.5s-46.167 -23.167 -64.5 -40.5s-32.833 -37.333 -43.5 -60s-16 -46.667 -16 -72s5.33301 -49.5 16 -72.5
s25.167 -43.167 43.5 -60.5s39.833 -30.833 64.5 -40.5s50.667 -14.5 78 -14.5c26.667 0 49.834 5.33301 69.501 16s36.167 25 49.5 43c-1.33301 -38.667 -4.83301 -74.834 -10.5 -108.501s-14 -64 -25 -91s-25.667 -48.5 -44 -64.5s-40.833 -24 -67.5 -24
c-20 0 -36.167 4 -48.5 12s-25.166 19.667 -38.499 35s-24 23 -32 23c-6.66699 0 -13 -2.5 -19 -7.5s-9 -11.5 -9 -19.5s3.83301 -16.5 11.5 -25.5s18.334 -17.333 32.001 -25s29.667 -13.834 48 -18.501s37.166 -7 56.499 -7c37.333 0 70.5 10 99.5 30
s53.167 47.167 72.5 81.5s33.833 72.666 43.5 114.999s14.5 85.166 14.5 128.499zM379.998 189.004c-6 -20.667 -20.165 -38.1631 -42.498 -52.4961s-48.166 -21.5 -77.499 -21.5c-40.667 0 -71.334 15.333 -92.001 46c-9.33301 13.333 -16.166 28.666 -20.499 45.999
s-6.5 35.666 -6.5 54.999s2.16699 37.666 6.5 54.999s11.166 33 20.499 47s21.666 25.167 36.999 33.5s33.666 12.5 54.999 12.5c11.333 0 23.333 -2.66699 36 -8s25.167 -15.833 37.5 -31.5s22.833 -38.334 31.5 -68.001s13.667 -67.5 15 -113.5z" />
    <glyph glyph-name="colon" unicode=":" horiz-adv-x="335" 
d="M215 40c0 13.333 -4.66699 24.668 -14 34.001s-20.666 14 -33.999 14c-12.667 0 -23.667 -4.66699 -33 -14s-14 -20.666 -14 -33.999c0 -12.667 4.66699 -23.834 14 -33.501s20.333 -14.5 33 -14.5c13.333 0 24.666 4.66699 33.999 14s14 20.666 14 33.999zM215 230.002
c0 13.333 -4.66699 24.668 -14 34.001s-20.666 14 -33.999 14c-12.667 0 -23.667 -4.66699 -33 -14s-14 -20.666 -14 -33.999c0 -12.667 4.66699 -23.834 14 -33.501s20.333 -14.5 33 -14.5c13.333 0 24.666 4.66699 33.999 14s14 20.666 14 33.999z" />
    <glyph glyph-name="semicolon" unicode=";" horiz-adv-x="335" 
d="M215 230c0 13.333 -4.66699 24.668 -14 34.001s-20.666 14 -33.999 14c-12.667 0 -23.667 -4.66699 -33 -14s-14 -20.666 -14 -33.999c0 -12.667 4.66699 -23.834 14 -33.501s20.333 -14.5 33 -14.5c13.333 0 24.666 4.66699 33.999 14s14 20.666 14 33.999z
M175 -7.99805c-3.33301 -20 -9.16602 -37.834 -17.499 -53.501s-21.5 -33.167 -39.5 -52.5l11 -12c29.333 18 52 41.667 68 71s24 56 24 80c0 20.667 -5.33301 36.334 -16 47.001s-23.334 16 -38.001 16c-12.667 0 -23.667 -4.66699 -33 -14s-14 -20.666 -14 -33.999
c0 -12.667 4.66699 -23.834 14 -33.501s20.333 -14.5 33 -14.5h8z" />
    <glyph glyph-name="less" unicode="&#x3c;" horiz-adv-x="500" 
d="M428 68l-233 200l233 200l-15 17l-330 -217l330 -218z" />
    <glyph glyph-name="equal" unicode="=" horiz-adv-x="458" 
d="M375 258v45h-292v-45h292zM375 133v45h-292v-45h292z" />
    <glyph glyph-name="greater" unicode="&#x3e;" horiz-adv-x="500" 
d="M417 268l-329 217l-15 -17l232 -200l-232 -200l15 -18z" />
    <glyph glyph-name="question" unicode="?" horiz-adv-x="504" 
d="M273 40c0 13.333 -4.66699 24.668 -14 34.001s-20.666 14 -33.999 14c-12.667 0 -23.667 -4.66699 -33 -14s-14 -20.666 -14 -33.999c0 -12.667 4.66699 -23.834 14 -33.501s20.333 -14.5 33 -14.5c13.333 0 24.666 4.66699 33.999 14s14 20.666 14 33.999zM388 459.002
c0 -24 -5.33398 -44.668 -16.001 -62.001s-25 -31.333 -43 -42s-37.833 -18.5 -59.5 -23.5s-43.834 -7.5 -66.501 -7.5v-164h44v94c8.66699 0.666992 22.667 3.16699 42 7.5s42 13.166 68 26.499s48.667 33.333 68 60s29 60 29 100c0 25.333 -5.83301 48.666 -17.5 69.999
s-27.5 39.333 -47.5 54s-42.833 25.834 -68.5 33.501s-52.167 11.5 -79.5 11.5c-47.333 0 -87.166 -11.333 -119.499 -34s-48.5 -50 -48.5 -82c0 -27.333 7.83301 -49.666 23.5 -66.999s32.834 -26 51.501 -26c12.667 0 24.334 3.83301 35.001 11.5s16 18.834 16 33.501
c0 10.667 -4 19.834 -12 27.501s-17.333 11.5 -28 11.5c-15.333 0 -26.333 2.33301 -33 7s-10 11 -10 19c0 16.667 10.667 32 32 46s49.666 21 84.999 21c42.667 0 79.167 -11.333 109.5 -34s45.5 -53.334 45.5 -92.001z" />
    <glyph glyph-name="at" unicode="@" horiz-adv-x="708" 
d="M426 246c-4.66699 -26.667 -15.833 -48.834 -33.5 -66.501s-36.167 -26.5 -55.5 -26.5c-21.333 0 -37 8.33301 -47 25s-15 39.334 -15 68.001c0 15.333 1.33301 32.333 4 51c7.33301 42 21.5 77.667 42.5 107s45.5 44 73.5 44c14.667 0 27.167 -2.5 37.5 -7.5
s18.5 -10.833 24.5 -17.5zM508.001 153c-22.667 0 -34.0039 11.9971 -34.0039 35.9971c0 7.33301 0.666992 15.333 2 24l44 250h-56c-10.667 6 -20.667 10.333 -30 13s-20.666 4 -33.999 4c-20.667 0 -41.167 -4.66699 -61.5 -14s-39 -22.5 -56 -39.5
s-31.333 -36.667 -43 -59s-19.834 -45.833 -24.501 -70.5c-2.66699 -16 -4 -31.667 -4 -47c0 -40.667 9.5 -73.667 28.5 -99s45.5 -38 79.5 -38c16 0 33.833 5.5 53.5 16.5s34.834 23.833 45.501 38.5c2.66699 -14 9.83398 -26 21.501 -36s26.5 -15 44.5 -15
c20.667 0 42 6.66699 64 20s42.333 31.5 61 54.5s33.5 49.333 44.5 79s16.5 60.5 16.5 92.5c0 38.667 -7 74.334 -21 107.001s-33.667 60.667 -59 84s-55 41.166 -89 53.499s-70.667 18.5 -110 18.5c-47.333 0 -92.333 -9 -135 -27s-80.334 -43.333 -113.001 -76
s-58.167 -70.334 -76.5 -113.001s-27.5 -87.667 -27.5 -135c0 -42.667 8.33301 -82.667 25 -120s39.834 -70 69.501 -98s64.167 -49.667 103.5 -65s81 -23 125 -23c38 0 76.333 6.5 115 19.5s77.334 33.167 116.001 60.5l-11 19c-34 -21.333 -68.333 -37.5 -103 -48.5
s-71 -16.5 -109 -16.5c-38.667 0 -74.167 6.5 -106.5 19.5s-60.333 31.5 -84 55.5s-42 53 -55 87s-19.5 71.667 -19.5 113c0 40 7.66699 78.667 23 116s36.833 70.5 64.5 99.5s59.834 51.833 96.501 68.5s75.667 25 117 25c30.667 0 60 -5 88 -15s52.833 -24.667 74.5 -44
s38.667 -43.166 51 -71.499s18.5 -60.166 18.5 -95.499c0 -26.667 -4.33301 -52.667 -13 -78s-19.667 -47.666 -33 -66.999s-27.5 -34.666 -42.5 -45.999s-28.833 -17 -41.5 -17z" />
    <glyph glyph-name="A" unicode="A" 
d="M166 208h241.999l48 -111c6.66699 -14.667 10 -26.667 10 -36c0 -14 -7 -24.167 -21 -30.5s-36.333 -9.5 -67 -9.5v-21h277v21c-20.667 0 -36.834 1.16699 -48.501 3.5s-21.167 6.33301 -28.5 12s-13.666 13.334 -18.999 23.001s-12 23.834 -20 42.501l-3 6l-221 509h-13
l-220 -509l-3 -6c-8 -18.667 -14.667 -32.834 -20 -42.501s-11.666 -17.334 -18.999 -23.001s-17 -9.66699 -29 -12s-28.333 -3.5 -49 -3.5v-21h234v21c-30.667 0 -53 3.16699 -67 9.5s-21 16.5 -21 30.5c0 9.33301 3.33301 21.333 10 36zM390.999 245h-209l104 241z" />
    <glyph glyph-name="B" unicode="B" horiz-adv-x="598" 
d="M334 37h-26.001c-22 0 -39 1.5 -51 4.5s-21.167 8.33301 -27.5 16s-10.666 19 -12.999 34s-3.5 35.5 -3.5 61.5v148h121c41.333 0 73 -12.5 95 -37.5s33 -56.833 33 -95.5c0 -38 -11 -69.333 -33 -94s-53.667 -37 -95 -37zM212.999 563h89c36 0 63.333 -10.667 82 -32
s28 -48.333 28 -81s-9.33301 -59.5 -28 -80.5s-46 -31.5 -82 -31.5h-89v225zM421.999 326c23.333 14 42.167 31.8359 56.5 53.5029s21.5 45.167 21.5 70.5c0 43.333 -16.833 79.166 -50.5 107.499s-81.167 42.5 -142.5 42.5h-269v-21c22 0 39 -1.5 51 -4.5
s21.167 -8.33301 27.5 -16s10.666 -18.834 12.999 -33.501s3.5 -35.334 3.5 -62.001v-325c0 -26.667 -1.16699 -47.334 -3.5 -62.001s-6.66602 -26 -12.999 -34s-15.5 -13.5 -27.5 -16.5s-29 -4.5 -51 -4.5v-21h297c67.333 0 120 15.833 158 47.5s57 71.834 57 120.501
c0 36 -11.667 68.333 -35 97s-54.333 49 -93 61z" />
    <glyph glyph-name="C" unicode="C" horiz-adv-x="692" 
d="M618 11l-0.000976562 220.002h-20c-14 -64.667 -39.833 -115.5 -77.5 -152.5s-83.834 -55.5 -138.501 -55.5c-38 0 -71 8.16699 -99 24.5s-50.833 38.166 -68.5 65.499s-30.5 57.166 -38.5 89.499s-12 64.833 -12 97.5s4 65.334 12 98.001s20.667 62.667 38 90
s40.166 49.166 68.499 65.499s61.5 24.5 99.5 24.5c54.667 0 100.834 -18.5 138.501 -55.5s63.5 -88.167 77.5 -153.5h20v220h-20c-2 -11.333 -6.33301 -22.333 -13 -33s-13.667 -18.667 -21 -24c-26 27.333 -54.833 48.333 -86.5 63s-64.834 22 -99.501 22
c-41.333 0 -80.666 -8.16699 -117.999 -24.5s-70.166 -39.166 -98.499 -68.499s-50.5 -63.333 -66.5 -102s-24 -79.334 -24 -122.001s8 -83.334 24 -122.001s38.167 -72.667 66.5 -102s61.166 -52.166 98.499 -68.499s76.666 -24.5 117.999 -24.5
c34.667 0 67.834 7.33301 99.501 22s60.5 35.667 86.5 63c6.66699 -4.66699 13.334 -12.5 20.001 -23.5s11.334 -22.167 14.001 -33.5h20z" />
    <glyph glyph-name="D" unicode="D" horiz-adv-x="713" 
d="M38 0l271 0.00683594c56.667 0 106.167 7.66699 148.5 23s77.166 36.666 104.499 63.999s47.666 59.166 60.999 95.499s20 75.5 20 117.5s-6.66699 81.167 -20 117.5s-33.666 68.166 -60.999 95.499s-62.166 48.666 -104.499 63.999s-91.833 23 -148.5 23h-271v-21
c22 0 39 -1.5 51 -4.5s21.167 -8.33301 27.5 -16s10.666 -18.834 12.999 -33.501s3.5 -35.334 3.5 -62.001v-325c0 -26.667 -1.16699 -47.334 -3.5 -62.001s-6.66602 -26 -12.999 -34s-15.5 -13.5 -27.5 -16.5s-29 -4.5 -51 -4.5v-21zM213 563.007l97 -0.00292969
c46.667 0 85.667 -7.66699 117 -23s55.666 -35.833 72.999 -61.5s29.5 -53.667 36.5 -84s10.5 -61.833 10.5 -94.5s-3.5 -64.167 -10.5 -94.5s-19.167 -58.166 -36.5 -83.499s-41.666 -45.833 -72.999 -61.5s-70.333 -23.5 -117 -23.5h-4c-22 0 -38.833 1.5 -50.5 4.5
s-20.5 8.33301 -26.5 16s-10.167 18.834 -12.5 33.501s-3.5 35.334 -3.5 62.001v410z" />
    <glyph glyph-name="E" unicode="E" horiz-adv-x="583" 
d="M38 0l490 -0.00195312l8 133h-21l-5 -20c-7.33301 -29.333 -17.833 -49.333 -31.5 -60s-41.834 -16 -84.501 -16h-86c-22 0 -39 1.5 -51 4.5s-21.167 8.33301 -27.5 16s-10.666 19 -12.999 34s-3.5 35.5 -3.5 61.5v146h50c26.667 0 47.334 -1.16699 62.001 -3.5
s25.834 -6.66602 33.501 -12.999s13 -15.666 16 -27.999s4.5 -29.5 4.5 -51.5h21v229h-21c0 -22 -1.5 -39.167 -4.5 -51.5s-8.33301 -21.666 -16 -27.999s-18.834 -10.666 -33.501 -12.999s-35.334 -3.5 -62.001 -3.5h-50v227h148c42.667 0 70.667 -5.16699 84 -15.5
s24 -30.166 32 -59.499l5 -20h21l-9 132h-456v-21c22 0 39 -1.5 51 -4.5s21.167 -8.33301 27.5 -16s10.666 -18.834 12.999 -33.501s3.5 -35.334 3.5 -62.001v-325c0 -26.667 -1.16699 -47.334 -3.5 -62.001s-6.66602 -26 -12.999 -34s-15.5 -13.5 -27.5 -16.5
s-29 -4.5 -51 -4.5v-21z" />
    <glyph glyph-name="F" unicode="F" horiz-adv-x="536" 
d="M213 563l165 -0.00292969c42.667 0 70.667 -5.16699 84 -15.5s23.666 -30.166 30.999 -59.499l5 -20h21l-8 132h-473v-21c22 0 39 -1.5 51 -4.5s21.167 -8.33301 27.5 -16s10.666 -18.834 12.999 -33.501s3.5 -35.334 3.5 -62.001v-325
c0 -26.667 -1.16699 -47.334 -3.5 -62.001s-6.66602 -26 -12.999 -34s-15.5 -13.5 -27.5 -16.5s-29 -4.5 -51 -4.5v-21h270v21c-22 0 -39 1.5 -51 4.5s-21.167 8.5 -27.5 16.5s-10.666 19.333 -12.999 34s-3.5 35.334 -3.5 62.001v161h50
c26.667 0 47.334 -1.16699 62.001 -3.5s25.834 -6.66602 33.501 -12.999s13 -15.666 16 -27.999s4.5 -29.5 4.5 -51.5h21v229h-21c0 -22 -1.5 -39.167 -4.5 -51.5s-8.33301 -21.666 -16 -27.999s-18.834 -10.666 -33.501 -12.999s-35.334 -3.5 -62.001 -3.5h-50v227z" />
    <glyph glyph-name="G" unicode="G" horiz-adv-x="725" 
d="M565 163c0 -42.667 -15.999 -76.1699 -47.999 -100.503s-71 -36.5 -117 -36.5c-44 0 -81.5 8 -112.5 24s-55.5 37.333 -73.5 64s-31 55.834 -39 87.501s-12 64.5 -12 98.5c0 32.667 4 65.334 12 98.001s20.667 62.667 38 90s40.166 49.166 68.499 65.499
s61.5 24.5 99.5 24.5c55.333 0 102 -18.5 140 -55.5s63.667 -88.167 77 -153.5h20v220h-20c-2 -11.333 -6.33301 -22.333 -13 -33s-13.667 -18.667 -21 -24c-26 27.333 -54.833 48.333 -86.5 63s-64.834 22 -99.501 22c-41.333 0 -80.666 -8.16699 -117.999 -24.5
s-70.166 -39.166 -98.499 -68.499s-50.5 -63.333 -66.5 -102s-24 -79.334 -24 -122.001s8 -83.334 24 -122.001s38.167 -72.667 66.5 -102s61.166 -52.166 98.499 -68.499s76.666 -24.5 117.999 -24.5c22.667 0 42.834 2 60.501 6s39.5 10.333 65.5 19
c25.333 8.66699 47.833 15.334 67.5 20.001s41.834 7 66.501 7v76c0 26.667 1.16699 47.334 3.5 62.001s6.66602 26 12.999 34s15.5 13.5 27.5 16.5s29 4.5 51 4.5v20h-262v-20c34 0 58.167 -5.33301 72.5 -16s21.5 -27 21.5 -49z" />
    <glyph glyph-name="H" unicode="H" horiz-adv-x="765" 
d="M213 300l340.002 -0.00292969v-162c0 -26 -1.16699 -46.5 -3.5 -61.5s-6.83301 -26.5 -13.5 -34.5s-16 -13.5 -28 -16.5s-29 -4.5 -51 -4.5v-21h271v21c-22 0 -39.167 1.5 -51.5 4.5s-21.666 8.5 -27.999 16.5s-10.666 19.333 -12.999 34s-3.5 35.334 -3.5 62.001v325
c0 26.667 1.16699 47.334 3.5 62.001s6.66602 25.834 12.999 33.501s15.666 13 27.999 16s29.5 4.5 51.5 4.5v21h-271v-21c22 0 39.167 -1.5 51.5 -4.5s21.666 -8.33301 27.999 -16s10.666 -19 12.999 -34s3.5 -35.5 3.5 -61.5v-126h-340v126
c0 26.667 1.16699 47.334 3.5 62.001s6.66602 25.834 12.999 33.501s15.5 13 27.5 16s29 4.5 51 4.5v21h-270v-21c22 0 39 -1.5 51 -4.5s21.167 -8.33301 27.5 -16s10.666 -18.834 12.999 -33.501s3.5 -35.334 3.5 -62.001v-325c0 -26.667 -1.16699 -47.334 -3.5 -62.001
s-6.66602 -26 -12.999 -34s-15.5 -13.5 -27.5 -16.5s-29 -4.5 -51 -4.5v-21h270v21c-22 0 -39 1.5 -51 4.5s-21.167 8.5 -27.5 16.5s-10.666 19.333 -12.999 34s-3.5 35.334 -3.5 62.001v162z" />
    <glyph glyph-name="I" unicode="I" horiz-adv-x="346" 
d="M308 0v21c-22 0 -39 1.5 -51 4.5s-21.167 8.5 -27.5 16.5s-10.666 19.333 -12.999 34s-3.5 35.334 -3.5 62.001v325c0 26.667 1.16699 47.334 3.5 62.001s6.66602 25.834 12.999 33.501s15.5 13 27.5 16s29 4.5 51 4.5v21h-270v-21c22 0 39 -1.5 51 -4.5
s21.167 -8.33301 27.5 -16s10.666 -18.834 12.999 -33.501s3.5 -35.334 3.5 -62.001v-325c0 -26.667 -1.16699 -47.334 -3.5 -62.001s-6.66602 -26 -12.999 -34s-15.5 -13.5 -27.5 -16.5s-29 -4.5 -51 -4.5v-21h270z" />
    <glyph glyph-name="J" unicode="J" horiz-adv-x="346" 
d="M38 -193c-24 0 -42.9961 6.66797 -56.9961 20.001s-21 28.333 -21 45c0 9.33301 -3.33301 17.333 -10 24s-14.667 10 -24 10c-10 0 -18.333 -3.33301 -25 -10s-10 -14.667 -10 -24c0 -14.667 4.66699 -28 14 -40s21.333 -22 36 -30s30.667 -14.167 48 -18.5
s33.666 -6.5 48.999 -6.5c21.333 0 42.166 2.83301 62.499 8.5s39 15.167 56 28.5s30.667 31.833 41 55.5s15.5 52.5 15.5 86.5v507c0 26.667 1.16699 47.334 3.5 62.001s6.66602 25.834 12.999 33.501s15.5 13 27.5 16s29 4.5 51 4.5v21h-270v-21c22 0 39 -1.5 51 -4.5
s21.167 -8.33301 27.5 -16s10.666 -18.834 12.999 -33.501s3.5 -35.334 3.5 -62.001v-518c0 -46.667 -8.16699 -81.334 -24.5 -104.001s-39.833 -34 -70.5 -34z" />
    <glyph glyph-name="K" unicode="K" horiz-adv-x="730" 
d="M296 348l175.001 150.001c36.667 31.333 67 52.666 91 63.999s54.667 17 92 17v21h-232v-21c30 0 45 -6.33301 45 -19c0 -13.333 -16.333 -34 -49 -62l-205 -175v140c0 26.667 1.16699 47.334 3.5 62.001s6.66602 25.834 12.999 33.501s15.5 13 27.5 16s29 4.5 51 4.5v21
h-270v-21c22 0 39 -1.5 51 -4.5s21.167 -8.33301 27.5 -16s10.666 -18.834 12.999 -33.501s3.5 -35.334 3.5 -62.001v-325c0 -26.667 -1.16699 -47.334 -3.5 -62.001s-6.66602 -26 -12.999 -34s-15.5 -13.5 -27.5 -16.5s-29 -4.5 -51 -4.5v-21h270v21c-22 0 -39 1.5 -51 4.5
s-21.167 8.5 -27.5 16.5s-10.666 19.333 -12.999 34s-3.5 35.334 -3.5 62.001v139l26 21l253 -219c15.333 -12.667 23 -24 23 -34c0 -16 -20.333 -24 -61 -24v-21h281v21c-14.667 0 -35.334 5.83301 -62.001 17.5s-49 25.167 -67 40.5z" />
    <glyph glyph-name="L" unicode="L" horiz-adv-x="575" 
d="M38 0l522.999 0.000976562l8 133h-21l-5 -20c-7.33301 -29.333 -17.666 -49.333 -30.999 -60s-41.333 -16 -84 -16h-120c-22 0 -39 1.5 -51 4.5s-21.167 8.33301 -27.5 16s-10.666 19 -12.999 34s-3.5 35.5 -3.5 61.5v310c0 26.667 1.16699 47.334 3.5 62.001
s6.66602 25.834 12.999 33.501s15.5 13 27.5 16s29 4.5 51 4.5v21h-270v-21c22 0 39 -1.5 51 -4.5s21.167 -8.33301 27.5 -16s10.666 -18.834 12.999 -33.501s3.5 -35.334 3.5 -62.001v-325c0 -26.667 -1.16699 -47.334 -3.5 -62.001s-6.66602 -26 -12.999 -34
s-15.5 -13.5 -27.5 -16.5s-29 -4.5 -51 -4.5v-21z" />
    <glyph glyph-name="M" unicode="M" horiz-adv-x="825" 
d="M170 494l221.999 -510.999h13l208 481v-326c0 -26.667 -1.16699 -47.334 -3.5 -62.001s-6.66602 -26 -12.999 -34s-15.5 -13.5 -27.5 -16.5s-29 -4.5 -51 -4.5v-21h270v21c-22 0 -39.167 1.5 -51.5 4.5s-21.666 8.5 -27.999 16.5s-10.666 19.333 -12.999 34
s-3.5 35.334 -3.5 62.001v325c0 26.667 1.16699 47.334 3.5 62.001s6.66602 25.834 12.999 33.501s15.666 13 27.999 16s29.5 4.5 51.5 4.5v21h-157l-211 -487l-212 487h-170v-21c22 0 39 -1.5 51 -4.5s21.167 -8.33301 27.5 -16s10.666 -18.834 12.999 -33.501
s3.5 -35.334 3.5 -62.001v-325c0 -26.667 -1.16699 -47.334 -3.5 -62.001s-6.66602 -26 -12.999 -34s-15.5 -13.5 -27.5 -16.5s-29 -4.5 -51 -4.5v-21h228v21c-22 0 -39 1.5 -51 4.5s-21.333 8.5 -28 16.5s-11.167 19.5 -13.5 34.5s-3.5 35.5 -3.5 61.5v356z" />
    <glyph glyph-name="N" unicode="N" horiz-adv-x="725" 
d="M563 124l-383.999 476.005h-141v-21c22 0 39 -1.5 51 -4.5s21.167 -8.33301 27.5 -16s10.666 -18.834 12.999 -33.501s3.5 -35.334 3.5 -62.001v-325c0 -26.667 -1.16699 -47.334 -3.5 -62.001s-6.66602 -26 -12.999 -34s-15.5 -13.5 -27.5 -16.5s-29 -4.5 -51 -4.5v-21
h228v21c-22 0 -39 1.5 -51 4.5s-21.333 8.5 -28 16.5s-11.167 19.5 -13.5 34.5s-3.5 35.5 -3.5 61.5v348l407 -503h23v480c0 26 1.16699 46.5 3.5 61.5s6.83301 26.333 13.5 34s16 13 28 16s29 4.5 51 4.5v21h-228v-21c22 0 39 -1.5 51 -4.5s21.167 -8.33301 27.5 -16
s10.666 -18.834 12.999 -33.501s3.5 -35.334 3.5 -62.001v-339z" />
    <glyph glyph-name="O" unicode="O" horiz-adv-x="808" 
d="M738 300c0 42.667 -8.66699 83.334 -26 122.001s-41.333 72.667 -72 102s-66.334 52.166 -107.001 68.499s-83.667 24.5 -129 24.5c-44.667 0 -87.334 -8.16699 -128.001 -24.5s-76.334 -39.166 -107.001 -68.499s-54.667 -63.333 -72 -102s-26 -79.334 -26 -122.001
s8.66699 -83.334 26 -122.001s41.333 -72.667 72 -102s66.334 -52.166 107.001 -68.499s83.334 -24.5 128.001 -24.5c45.333 0 88.333 8.16699 129 24.5s76.334 39.166 107.001 68.499s54.667 63.333 72 102s26 79.334 26 122.001zM404 578
c41.333 0 77.333 -8.16699 108 -24.5s55.667 -38.166 75 -65.499s33.5 -57.333 42.5 -90s13.5 -65.334 13.5 -98.001s-4.5 -65.167 -13.5 -97.5s-23.167 -62.166 -42.5 -89.499s-44.333 -49.166 -75 -65.499s-66.667 -24.5 -108 -24.5s-77.166 8.16699 -107.499 24.5
s-55.166 38.166 -74.499 65.499s-33.5 57.166 -42.5 89.499s-13.5 64.833 -13.5 97.5s4.5 65.334 13.5 98.001s23.167 62.667 42.5 90s44.166 49.166 74.499 65.499s66.166 24.5 107.499 24.5z" />
    <glyph glyph-name="P" unicode="P" horiz-adv-x="540" 
d="M302 600l-264.001 0.000976562v-21c22 0 39 -1.5 51 -4.5s21.167 -8.33301 27.5 -16s10.666 -18.834 12.999 -33.501s3.5 -35.334 3.5 -62.001v-325c0 -26.667 -1.16699 -47.334 -3.5 -62.001s-6.66602 -26 -12.999 -34s-15.5 -13.5 -27.5 -16.5s-29 -4.5 -51 -4.5v-21
h270v21c-22 0 -39 1.5 -51 4.5s-21.167 8.5 -27.5 16.5s-10.666 19.333 -12.999 34s-3.5 35.334 -3.5 62.001v125h89c67.333 0 120 15.833 158 47.5s57 71.834 57 120.501s-19 89 -57 121s-90.667 48 -158 48zM300.999 299.001l-88 0.00195312v264h88
c41.333 0 72.833 -12.333 94.5 -37s32.5 -56.334 32.5 -95.001s-10.833 -70.334 -32.5 -95.001s-53.167 -37 -94.5 -37z" />
    <glyph glyph-name="Q" unicode="Q" horiz-adv-x="808" 
d="M350 -13c-21.333 -6.66699 -41.667 -14.998 -61 -24.998s-36 -20.667 -50 -32s-25 -22.5 -33 -33.5s-12 -20.167 -12 -27.5c0 -21.333 11.333 -32 34 -32c6 0.666992 10.833 2.83398 14.5 6.50098s7.83398 8.83398 12.501 15.501c10 14 21.333 25 34 33
s32.334 12 59.001 12c20 0 40.5 -5.83301 61.5 -17.5s47.833 -29.5 80.5 -53.5c38.667 -28 71.667 -49.333 99 -64s55.666 -22 84.999 -22c28 0 53.667 5 77 15s43.5 23.333 60.5 40s31.333 34.667 43 54s20.834 38.333 27.501 57l-16 8
c-16.667 -33.333 -38.5 -57.833 -65.5 -73.5s-62.833 -23.5 -107.5 -23.5c-24.667 0 -47.334 4.16699 -68.001 12.5s-46 21.166 -76 38.499c-34 20 -63.833 35 -89.5 45s-55.5 15 -89.5 15c-21.333 0 -43 -2.33301 -65 -7c17.333 16 38.333 29 63 39s48 16 70 18
c40.667 4.66699 79.334 15.667 116.001 33s68.834 40.166 96.501 68.499s49.167 60.666 64.5 96.999s23 75.166 23 116.499c0 42.667 -8.66699 83.334 -26 122.001s-41.333 72.667 -72 102s-66.334 52.166 -107.001 68.499s-83.667 24.5 -129 24.5
c-44.667 0 -87.334 -8.16699 -128.001 -24.5s-76.334 -39.166 -107.001 -68.499s-54.667 -63.333 -72 -102s-26 -79.334 -26 -122.001c0 -38 6.83301 -74.333 20.5 -109s33 -66.167 58 -94.5s54.667 -52 89 -71s71.5 -31.833 111.5 -38.5zM403.999 578.002
c41.333 0 77.5 -8.16406 108.5 -24.4971s56.333 -38.166 76 -65.499s34.167 -57.333 43.5 -90s14 -65.334 14 -98.001s-4.66699 -65.334 -14 -98.001s-23.833 -62.5 -43.5 -89.5s-45 -48.667 -76 -65s-67.167 -24.5 -108.5 -24.5s-77.333 8.16699 -108 24.5
s-55.834 38.166 -75.501 65.499s-34.167 57.166 -43.5 89.499s-14 64.833 -14 97.5s4.66699 65.334 14 98.001s23.833 62.667 43.5 90s44.834 49.166 75.501 65.499s66.667 24.5 108 24.5z" />
    <glyph glyph-name="R" unicode="R" horiz-adv-x="620" 
d="M301 299l-88 0.00195312v264h88c41.333 0 72.833 -12.333 94.5 -37s32.5 -56.334 32.5 -95.001s-10.833 -70.334 -32.5 -95.001s-53.167 -37 -94.5 -37zM339 263.002c55.333 6 98.832 24.334 130.499 55.001s47.5 68.334 47.5 113.001c0 48.667 -19 89 -57 121
s-90.667 48 -158 48h-264v-21c22 0 39 -1.5 51 -4.5s21.167 -8.33301 27.5 -16s10.666 -18.834 12.999 -33.501s3.5 -35.334 3.5 -62.001v-325c0 -26.667 -1.16699 -47.334 -3.5 -62.001s-6.66602 -26 -12.999 -34s-15.5 -13.5 -27.5 -16.5s-29 -4.5 -51 -4.5v-21h270v21
c-22 0 -39 1.5 -51 4.5s-21.167 8.5 -27.5 16.5s-10.666 19.333 -12.999 34s-3.5 35.334 -3.5 62.001v125h47l198 -263h165v21c-29.333 3.33301 -60 16.333 -92 39s-63.333 52 -94 88z" />
    <glyph glyph-name="S" unicode="S" horiz-adv-x="498" 
d="M107 30c7.33301 -1.33301 19.334 -6.33398 36.001 -15.001c20.667 -9.33301 40.167 -17 58.5 -23s38.833 -9 61.5 -9c26 0 50.5 4.33301 73.5 13s43.167 20.834 60.5 36.501s31 34.667 41 57s15 46.833 15 73.5c0 30 -8.33301 58.333 -25 85s-43 49 -79 67l-96 49
c-45.333 24 -76.833 44.5 -94.5 61.5s-26.5 37.833 -26.5 62.5c0 25.333 9.16699 46.5 27.5 63.5s41.5 25.5 69.5 25.5s51.5 -5 70.5 -15s34.167 -23.5 45.5 -40.5s19.833 -35.5 25.5 -55.5s9.5 -41.333 11.5 -64h21v220h-20c-4 -18 -13.667 -33.333 -29 -46
c-18 13.333 -36.167 23.5 -54.5 30.5s-40.833 10.5 -67.5 10.5c-48 0 -87.667 -14.333 -119 -43s-47 -64 -47 -106c0 -36 10.667 -68.333 32 -97s47.666 -51.334 78.999 -68.001l96 -49c36.667 -19.333 65 -38.833 85 -58.5s30 -40.5 30 -62.5
c0 -32 -11.833 -58.333 -35.5 -79s-53.5 -31 -89.5 -31c-42 0 -76 8.5 -102 25.5s-44.833 36.667 -56.5 59s-19 42 -22 59s-4.5 29.167 -4.5 36.5h-20v-220h20c4 18.667 13.667 34.334 29 47.001z" />
    <glyph glyph-name="T" unicode="T" horiz-adv-x="641" 
d="M624 600h-607l-9 -135h21l5 20c8 30 18.667 50.167 32 60.5s41.333 15.5 84 15.5h131v-423c0 -26 -1.16699 -46.5 -3.5 -61.5s-6.83301 -26.5 -13.5 -34.5s-16 -13.5 -28 -16.5s-29 -4.5 -51 -4.5v-21h271v21c-22 0 -39 1.5 -51 4.5s-21.333 8.5 -28 16.5
s-11.167 19.5 -13.5 34.5s-3.5 35.5 -3.5 61.5v423h131c42.667 0 70.667 -5.16699 84 -15.5s24 -30.5 32 -60.5l5 -20h21z" />
    <glyph glyph-name="U" unicode="U" horiz-adv-x="716" 
d="M557 463l0.00488281 -245c0 -62.667 -16.833 -110 -50.5 -142s-78.167 -48 -133.5 -48c-52.667 0 -95 16 -127 48s-48 79.333 -48 142v245c0 26.667 1.16699 47.334 3.5 62.001s6.66602 25.834 12.999 33.501s15.5 13 27.5 16s29 4.5 51 4.5v21h-270v-21
c22 0 39 -1.5 51 -4.5s21.167 -8.33301 27.5 -16s10.666 -18.834 12.999 -33.501s3.5 -35.334 3.5 -62.001v-240c0 -75.333 22.667 -134.166 68 -176.499s102.666 -63.5 171.999 -63.5c70 0 127.667 21.167 173 63.5s68 101.166 68 176.499v240c0 26 1.16699 46.5 3.5 61.5
s6.83301 26.333 13.5 34s16 13 28 16s29 4.5 51 4.5v21h-234v-21c22 0 39.167 -1.5 51.5 -4.5s21.666 -8.33301 27.999 -16s10.666 -19 12.999 -34s3.5 -35.5 3.5 -61.5z" />
    <glyph glyph-name="V" unicode="V" 
d="M654 579l-0.00195312 21.001h-233v-21c30.667 0 53 -3.16699 67 -9.5s21 -16.5 21 -30.5c0 -9.33301 -3.33301 -21.333 -10 -36l-168 -389l-170 389c-6.66699 14.667 -10 27 -10 37c0 13.333 7 23.166 21 29.499s36.333 9.5 67 9.5v21h-277v-21
c20.667 0 37 -1.16699 49 -3.5s21.5 -6.33301 28.5 -12s13.167 -13.167 18.5 -22.5s12.333 -24 21 -44c0.666992 -2 1.33398 -3.66699 2.00098 -5l221 -509h13l220 509c0.666992 1.33301 1.33398 3 2.00098 5c8.66699 20 15.667 34.667 21 44s11.5 16.833 18.5 22.5
s16.5 9.66699 28.5 12s28.333 3.5 49 3.5z" />
    <glyph glyph-name="W" unicode="W" horiz-adv-x="793" 
d="M393 426l139.999 -443.003h13l162 509c6 18 11.5 32.333 16.5 43s11.5 19.334 19.5 26.001s18.667 11.334 32 14.001s30.333 4 51 4v21h-225v-21c27.333 0 46.833 -3.33301 58.5 -10s17.5 -17.667 17.5 -33c0 -8.66699 -2 -19.667 -6 -33l-109 -344l-140 441h-15
l-140 -442l-109 345c-4.66699 14.667 -7 26.334 -7 35.001c0 15.333 6.5 26 19.5 32s35.167 9 66.5 9v21h-281v-21c22 0 39.333 -1.16699 52 -3.5s22.834 -6.5 30.501 -12.5s14.167 -14.333 19.5 -25s11.333 -26 18 -46l161 -509h14z" />
    <glyph glyph-name="X" unicode="X" horiz-adv-x="614" 
d="M293 263l111.997 -165.999c13.333 -18.667 20 -33.334 20 -44.001s-5.83301 -18.667 -17.5 -24s-30.167 -8 -55.5 -8v-21h285v21c-32.667 0 -59.5 7 -80.5 21s-42.167 36 -63.5 66l-150 220l127 164c1.33301 2 4.33301 6 9 12c21.333 27.333 40.5 46.666 57.5 57.999
s42.833 17 77.5 17v21h-237v-21c49.333 0 74 -10.667 74 -32c0 -11.333 -7 -26 -21 -44l-109 -140l-95 140c-12.667 18 -19 32.333 -19 43s5.83301 18.834 17.5 24.501s29.834 8.5 54.501 8.5v21h-284v-21c32.667 0 59.834 -7.33301 81.501 -22s42.5 -36.334 62.5 -65.001
l131 -194l-147 -190c-22 -27.333 -43.5 -48.666 -64.5 -63.999s-47.5 -23 -79.5 -23v-21h238v21c-25.333 0 -43.666 3.16699 -54.999 9.5s-17 14.833 -17 25.5c0 11.333 6 25 18 41z" />
    <glyph glyph-name="Y" unicode="Y" horiz-adv-x="625" 
d="M353 242l164.997 249.999c22.667 34 42.834 57 60.501 69s45.834 18 84.501 18v21h-234v-21c49.333 0 74 -9.66699 74 -29c0 -10.667 -6.66699 -26.334 -20 -47.001l-146 -220l-144 220c-12 18.667 -18 33.334 -18 44.001s5.66699 18.667 17 24s29.666 8 54.999 8v21
h-285v-21c34.667 0 62 -6.16699 82 -18.5s41 -35.166 63 -68.499l166 -257v-97c0 -26.667 -1.16699 -47.334 -3.5 -62.001s-6.66602 -26 -12.999 -34s-15.5 -13.5 -27.5 -16.5s-29 -4.5 -51 -4.5v-21h270v21c-22 0 -39 1.5 -51 4.5s-21.167 8.5 -27.5 16.5
s-10.666 19.333 -12.999 34s-3.5 35.334 -3.5 62.001v104z" />
    <glyph glyph-name="Z" unicode="Z" horiz-adv-x="575" 
d="M380 563l-337 -539.999v-23h460l8 133h-21l-5 -20c-7.33301 -29.333 -17.833 -49.333 -31.5 -60s-41.834 -16 -84.501 -16h-225l345 551v12h-426l-9 -132h21l5 20c7.33301 29.333 17.833 49.166 31.5 59.499s41.834 15.5 84.501 15.5h184z" />
    <glyph glyph-name="bracketleft" unicode="[" horiz-adv-x="358" 
d="M319 -88v32h-137v702h137v32h-202v-766h202z" />
    <glyph glyph-name="backslash" unicode="\" horiz-adv-x="348" 
d="M383 0l-384 618l-36 -18l384 -618z" />
    <glyph glyph-name="bracketright" unicode="]" horiz-adv-x="358" 
d="M242 -88v766h-203v-32h138v-702h-138v-32h203z" />
    <glyph glyph-name="asciicircum" unicode="^" horiz-adv-x="485" 
d="M243 617l-201 -279l17 -15l184 182l182 -182l18 15z" />
    <glyph glyph-name="underscore" unicode="_" horiz-adv-x="358" 
d="M359 -44v44h-360v-44h360z" />
    <glyph glyph-name="grave" unicode="`" horiz-adv-x="404" 
d="M186 489l-93.001 88c-9.33301 8 -17.166 13.833 -23.499 17.5s-13.5 5.5 -21.5 5.5c-8.66699 0 -15.5 -3.16699 -20.5 -9.5s-7.5 -12.833 -7.5 -19.5s2.5 -12.667 7.5 -18s10.167 -9.33301 15.5 -12l138 -58z" />
    <glyph glyph-name="a" unicode="a" horiz-adv-x="403" 
d="M387 20l-13.9971 18.999c-4 -4 -8.5 -7.5 -13.5 -10.5s-9.83301 -4.5 -14.5 -4.5c-15.333 0 -23 13 -23 39v151c0 48 -10.667 82.667 -32 104s-56.333 32 -105 32c-33.333 0 -62.833 -7.5 -88.5 -22.5s-38.5 -34.167 -38.5 -57.5c0 -10 3.33301 -18.333 10 -25
s15 -10 25 -10c9.33301 0 17.333 3.33301 24 10s10 15 10 25c0 14.667 6.16699 26.334 18.5 35.001s25.166 13 38.499 13c27.333 0 45.333 -7.66699 54 -23s13 -42.666 13 -81.999c-31.333 -5.33301 -59.333 -11.833 -84 -19.5s-46.834 -17 -66.501 -28s-35 -24.333 -46 -40
s-16.5 -33.834 -16.5 -54.501c0 -25.333 8.66699 -45.666 26 -60.999s38.666 -23 63.999 -23c20.667 0 40.667 4.66699 60 14s41 24.666 65 45.999c5.33301 -38.667 28 -58 68 -58c24.667 0 46.667 10.333 66 31zM251.003 79.999
c-21.333 -18.667 -38.833 -31.332 -52.5 -37.999s-26.5 -10 -38.5 -10c-13.333 0 -24.5 4.66699 -33.5 14s-13.5 21.666 -13.5 36.999c0 44.667 46 77.667 138 99v-102z" />
    <glyph glyph-name="b" unicode="b" horiz-adv-x="497" 
d="M153 231c9.33301 24 22.833 43.168 40.5 57.501s37.834 21.5 60.501 21.5c37.333 0 65.666 -13.167 84.999 -39.5s29 -60.833 29 -103.5s-9.66699 -77.334 -29 -104.001s-47.666 -40 -84.999 -40c-22.667 0 -42.834 7.16699 -60.501 21.5s-31.167 33.833 -40.5 58.5v128z
M147 50.001c14.667 -20.667 33.168 -36.998 55.501 -48.998s46.5 -18 72.5 -18c23.333 0 45.5 4.66699 66.5 14s39.5 22.666 55.5 39.999s28.5 37.166 37.5 59.499s13.5 45.833 13.5 70.5s-4.5 48.167 -13.5 70.5s-21.5 42 -37.5 59s-34.5 30.167 -55.5 39.5
s-43.167 14 -66.5 14c-49.333 0 -90 -19.667 -122 -59v326l-150 -25v-21c17.333 0 31 -1.5 41 -4.5s17.667 -8.5 23 -16.5s9.16602 -19.5 11.499 -34.5s3.5 -35.5 3.5 -61.5v-471h21z" />
    <glyph glyph-name="c" unicode="c" horiz-adv-x="393" 
d="M225 318c10 0 18.498 -3.33398 25.498 -10.001s10.5 -17.667 10.5 -33c0 -11.333 3.83301 -20.833 11.5 -28.5s16.834 -11.5 27.501 -11.5c15.333 0 26.5 4.5 33.5 13.5s10.5 18.833 10.5 29.5c0 20 -10 37 -30 51s-49.667 21 -89 21c-20 0 -40.5 -4.5 -61.5 -13.5
s-40.333 -22 -58 -39s-31.667 -37.5 -42 -61.5s-15.5 -50 -15.5 -78c0 -51.333 16 -93.333 48 -126s75 -49 129 -49c28 0 55 5.83301 81 17.5s48.667 27.834 68 48.501l-17 22c-16 -14.667 -33.5 -26 -52.5 -34s-37.167 -12 -54.5 -12c-40 0 -70.167 11.833 -90.5 35.5
s-30.5 56.167 -30.5 97.5c0 46 9.33301 84.167 28 114.5s41.334 45.5 68.001 45.5z" />
    <glyph glyph-name="d" unicode="d" horiz-adv-x="513" 
d="M344 102c-9.33301 -24 -23 -43.168 -41 -57.501s-38 -21.5 -60 -21.5c-37.333 0 -65.666 13.333 -84.999 40s-29 61.334 -29 104.001s9.66699 77.167 29 103.5s47.666 39.5 84.999 39.5c22 0 42 -7.16699 60 -21.5s31.667 -33.5 41 -57.5v-129zM344 290.999
c-32 39.333 -72.6699 59.001 -122.003 59.001c-23.333 0 -45.666 -4.66699 -66.999 -14s-40 -22.5 -56 -39.5s-28.5 -36.667 -37.5 -59s-13.5 -45.833 -13.5 -70.5s4.5 -48.167 13.5 -70.5s21.667 -42.166 38 -59.499s35 -30.666 56 -39.999s43.167 -14 66.5 -14
c26 0 49.333 5.5 70 16.5s38.334 25.833 53.001 44.5c2 -10.667 4.66699 -22.334 8 -35.001s6 -21.334 8 -26.001l133 25v21c-17.333 0 -31 1.5 -41 4.5s-17.667 8.5 -23 16.5s-9.16602 19.5 -11.499 34.5s-3.5 35.5 -3.5 61.5v471l-150 -25v-21c18 0 32 -1.5 42 -4.5
s17.667 -8.5 23 -16.5s9 -19.333 11 -34s3 -35.334 3 -62.001v-163z" />
    <glyph glyph-name="e" unicode="e" horiz-adv-x="422" 
d="M134 229c7.33301 24.667 19.501 44.333 36.501 59s36.167 22 57.5 22c25.333 0 44.166 -6.16699 56.499 -18.5s18.5 -26.833 18.5 -43.5c0 -6.66699 -1 -13 -3 -19h-166zM128.001 191.999l241.001 0.000976562c3.33301 11.333 5 22.666 5 33.999
c0 34.667 -13.833 64 -41.5 88s-60.834 36 -99.501 36c-23.333 0 -46 -4.5 -68 -13.5s-41.833 -21.833 -59.5 -38.5s-31.667 -36.167 -42 -58.5s-15.5 -46.5 -15.5 -72.5c0 -24.667 4.5 -48.334 13.5 -71.001s21.667 -42.5 38 -59.5s36 -30.167 59 -39.5
s47.833 -14 74.5 -14c28 0 56 6.16699 84 18.5s51 28.166 69 47.499l-18 22c-14 -13.333 -31.667 -24.333 -53 -33s-40.333 -13 -57 -13c-44 0 -77 12.333 -99 37s-33 57.334 -33 98.001c0 10.667 0.666992 21.334 2 32.001z" />
    <glyph glyph-name="f" unicode="f" horiz-adv-x="313" 
d="M188 298l99.999 -0.000976562v35h-100v96c0 56 6 95.833 18 119.5s31 35.5 57 35.5c14.667 0 25.167 -3.5 31.5 -10.5s12.166 -17.5 17.499 -31.5c4.66699 -12 9.33398 -20.833 14.001 -26.5s12 -8.5 22 -8.5c22 0 33 12 33 36c0 18 -9 34.833 -27 50.5
s-42.333 23.5 -73 23.5c-21.333 0 -41.666 -3.5 -60.999 -10.5s-36.833 -18.167 -52.5 -33.5s-28 -34.833 -37 -58.5s-13.5 -52.167 -13.5 -85.5v-96h-82v-35h82v-160c0 -26 -1.16699 -46.5 -3.5 -61.5s-6.16602 -26.5 -11.499 -34.5s-13 -13.5 -23 -16.5
s-23.667 -4.5 -41 -4.5v-21h229v21c-18 0 -31.833 1.5 -41.5 4.5s-17.334 8.5 -23.001 16.5s-9.5 19.333 -11.5 34s-3 35.334 -3 62.001v160z" />
    <glyph glyph-name="g" unicode="g" horiz-adv-x="423" 
d="M263 214c0 -30.667 -6.16699 -55.5 -18.5 -74.5s-30.166 -28.5 -53.499 -28.5s-41.333 9.66699 -54 29s-19 44 -19 74c0 30.667 6.33301 55.667 19 75s30.667 29 54 29s41.166 -9.5 53.499 -28.5s18.5 -44.167 18.5 -75.5zM98 36c0 6.66699 3.50195 12.334 10.502 17.001
s16.167 8.66699 27.5 12s22.666 5.83301 33.999 7.5s24.666 3.5 39.999 5.5c34.667 4.66699 65 19.667 91 45s39 55.666 39 90.999c0 30.667 -9.66699 57.667 -29 81c10.667 10.667 21 16 31 16c8.66699 0 14.834 -1.83301 18.501 -5.5s7.16699 -9.16699 10.5 -16.5
s7 -13 11 -17s10.667 -6 20 -6c8 0.666992 14.333 4 19 10s7 13.333 7 22c0 13.333 -5.16699 25.333 -15.5 36s-24.833 16 -43.5 16c-10.667 0 -23.667 -3.66699 -39 -11s-27.333 -16.333 -36 -27c-28.667 25.333 -63 38 -103 38c-40.667 0 -75.667 -13.333 -105 -40
s-44 -58.667 -44 -96c0 -26.667 7.66699 -50.5 23 -71.5s35.666 -37.833 60.999 -50.5c-26.667 -8 -47.334 -18.833 -62.001 -32.5s-22 -29.5 -22 -47.5c0 -28 12.5 -49.5 37.5 -64.5s59.833 -24.5 104.5 -28.5c45.333 -4.66699 79 -12 101 -22s33 -26 33 -48
c0 -22.667 -12.5 -41.167 -37.5 -55.5s-53.833 -21.5 -86.5 -21.5c-32 0 -61 6.5 -87 19.5s-39 30.833 -39 53.5c0 20 10.667 41.667 32 65l-18 11c-42 -22 -63 -49.333 -63 -82c0 -28.667 16 -53.5 48 -74.5s74.333 -31.5 127 -31.5c50.667 0 92.834 12.167 126.501 36.5
s50.5 56.833 50.5 97.5c0 34 -14.167 63 -42.5 87s-74.833 38.667 -139.5 44c-24 2 -45.167 5.83301 -63.5 11.5s-27.5 14.5 -27.5 26.5z" />
    <glyph glyph-name="h" unicode="h" horiz-adv-x="522" 
d="M503 0l-0.00195312 21.002c-18 0 -32 1.5 -42 4.5s-17.667 8.5 -23 16.5s-9.16602 19.5 -11.499 34.5s-3.5 35.5 -3.5 61.5v63c0 46 -9.66699 82.333 -29 109s-50.666 40 -93.999 40c-26.667 0 -51 -6.83301 -73 -20.5s-41.333 -30.834 -58 -51.501v339l-150 -25v-21
c18 0 32 -1.5 42 -4.5s17.667 -8.5 23 -16.5s9 -19.333 11 -34s3 -35.334 3 -62.001v-316c0 -26.667 -1 -47.334 -3 -62.001s-5.66699 -26 -11 -34s-13 -13.5 -23 -16.5s-24 -4.5 -42 -4.5v-21h213v21c-14.667 0 -26 1.33301 -34 4s-14 7.83398 -18 15.501
s-6.83301 19 -8.5 34s-2.5 36.167 -2.5 63.5v65c0 27.333 11.333 50.833 34 70.5s47.334 29.5 74.001 29.5c25.333 0 44.333 -9.5 57 -28.5s19 -45.167 19 -78.5v-58c0 -27.333 -0.833008 -48.333 -2.5 -63s-4.83398 -26 -9.50098 -34s-11.5 -13.333 -20.5 -16
s-21.833 -4 -38.5 -4v-21h221z" />
    <glyph glyph-name="i" unicode="i" horiz-adv-x="286" 
d="M267 0v20.999c-18 0 -31.833 1.5 -41.5 4.5s-17.334 8.5 -23.001 16.5s-9.5 19.333 -11.5 34s-3 35.334 -3 62.001v212l-150 -25v-21c17.333 0 31 -1.5 41 -4.5s17.833 -8.33301 23.5 -16s9.5 -19 11.5 -34s3 -35.5 3 -61.5v-50c0 -26 -1.16699 -46.5 -3.5 -61.5
s-6.16602 -26.5 -11.499 -34.5s-13 -13.5 -23 -16.5s-23.667 -4.5 -41 -4.5v-21h229zM196 492.999c0 12 -4.33301 22.333 -13 31s-19 13 -31 13s-22.333 -4.33301 -31 -13s-13 -19 -13 -31c0 -12.667 4.33301 -23.334 13 -32.001s19 -13 31 -13s22.333 4.33301 31 13
s13 19.334 13 32.001z" />
    <glyph glyph-name="j" unicode="j" horiz-adv-x="273" 
d="M188 -78v428l-150 -25v-21c17.333 0 31 -1.5 41 -4.5s17.833 -8.33301 23.5 -16s9.5 -19 11.5 -34s3 -35.5 3 -61.5v-266c0 -58.667 -6.33301 -99.334 -19 -122.001s-30 -34 -52 -34c-16.667 0 -28.5 3.66699 -35.5 11s-13.5 18 -19.5 32
c-4.66699 12 -9.5 20.833 -14.5 26.5s-12.833 8.5 -23.5 8.5c-19.333 0 -29 -9.66699 -29 -29s10.833 -37.833 32.5 -55.5s49.834 -26.5 84.501 -26.5c41.333 0 76.166 15.833 104.499 47.5s42.5 78.834 42.5 141.501zM196 493c0 12 -4.33301 22.333 -13 31s-19 13 -31 13
s-22.333 -4.33301 -31 -13s-13 -19 -13 -31c0 -12.667 4.33301 -23.334 13 -32.001s19 -13 31 -13s22.333 4.33301 31 13s13 19.334 13 32.001z" />
    <glyph glyph-name="k" unicode="k" horiz-adv-x="440" 
d="M233 207l85 70.002c9.33301 7.33301 19.666 13.333 30.999 18s22.333 8.33398 33 11.001s19.5 4.5 26.5 5.5s11.833 1.5 14.5 1.5v20h-200v-20c32 0 48 -8.33301 48 -25c0 -8.66699 -6 -18 -18 -28l-84 -68v425l-150 -25v-21c18 0 32 -1.5 42 -4.5s17.667 -8.5 23 -16.5
s9 -19.333 11 -34s3 -35.334 3 -62.001v-316c0 -26.667 -1 -47.334 -3 -62.001s-5.66699 -26 -11 -34s-13 -13.5 -23 -16.5s-24 -4.5 -42 -4.5v-21h229v21c-17.333 0 -31 1.5 -41 4.5s-17.667 8.5 -23 16.5s-9.16602 19.5 -11.499 34.5s-3.5 35.5 -3.5 61.5v18l9 7l164 -163
h111v21c-8 0 -17.833 2.16699 -29.5 6.5s-21.5 10.166 -29.5 17.499z" />
    <glyph glyph-name="l" unicode="l" horiz-adv-x="268" 
d="M248 0l-0.000976562 21.002c-17.333 0 -31 1.5 -41 4.5s-17.667 8.5 -23 16.5s-9.16602 19.5 -11.499 34.5s-3.5 35.5 -3.5 61.5v479l-150 -25v-21c18 0 32 -1.5 42 -4.5s17.667 -8.5 23 -16.5s9 -19.333 11 -34s3 -35.334 3 -62.001v-316
c0 -26.667 -1 -47.334 -3 -62.001s-5.66699 -26 -11 -34s-13 -13.5 -23 -16.5s-24 -4.5 -42 -4.5v-21h229z" />
    <glyph glyph-name="m" unicode="m" horiz-adv-x="778" 
d="M433 203c0 14.667 3.49609 28.165 10.4961 40.498s16.167 23 27.5 32s23 15.833 35 20.5s22.333 7 31 7c25.333 0 43.5 -9.33301 54.5 -28s16.5 -45 16.5 -79v-58c0 -28 -0.666992 -49.5 -2 -64.5s-4 -26.333 -8 -34s-10 -12.667 -18 -15s-19.333 -3.5 -34 -3.5v-21h212
v21c-17.333 0 -31 1.5 -41 4.5s-17.667 8.5 -23 16.5s-9.16602 19.5 -11.499 34.5s-3.5 35.5 -3.5 61.5v63c0 46.667 -8.66699 83.167 -26 109.5s-47 39.5 -89 39.5c-27.333 0 -54.166 -7.83301 -80.499 -23.5s-46.166 -32.834 -59.499 -51.501
c-7.33301 24 -19.5 42.5 -36.5 55.5s-40.167 19.5 -69.5 19.5c-26.667 0 -51 -7 -73 -21s-41 -31 -57 -51c-1.33301 10.667 -3.83301 24.167 -7.5 40.5s-6.83398 26.833 -9.50098 31.5l-133 -25v-21c17.333 0 31 -1.5 41 -4.5s17.833 -8.33301 23.5 -16s9.5 -19 11.5 -34
s3 -35.5 3 -61.5v-50c0 -26 -1.16699 -46.5 -3.5 -61.5s-6.16602 -26.5 -11.499 -34.5s-13 -13.5 -23 -16.5s-23.667 -4.5 -41 -4.5v-21h212v21c-14.667 0 -25.834 1.33301 -33.501 4s-13.667 7.83398 -18 15.501s-7.16602 19 -8.49902 34s-2 36.167 -2 63.5v65
c0 14.667 3.5 28.167 10.5 40.5s16 22.833 27 31.5s22.333 15.5 34 20.5s22.167 7.5 31.5 7.5c25.333 0 43.666 -9.33301 54.999 -28s17 -45 17 -79v-58c0 -28 -0.666992 -49.5 -2 -64.5s-4.16602 -26.167 -8.49902 -33.5s-10.5 -12.333 -18.5 -15s-19.333 -4 -34 -4v-21
h196v21c-15.333 0 -26.833 1.33301 -34.5 4s-13.667 7.83398 -18 15.501s-7.16602 18.834 -8.49902 33.501s-2 36 -2 64v65z" />
    <glyph glyph-name="n" unicode="n" horiz-adv-x="555" 
d="M188 278c-1.33301 10.667 -3.83008 24.166 -7.49707 40.499s-6.83398 26.833 -9.50098 31.5l-133 -25v-21c17.333 0 31 -1.5 41 -4.5s17.833 -8.33301 23.5 -16s9.5 -19 11.5 -34s3 -35.5 3 -61.5v-50c0 -26 -1.16699 -46.5 -3.5 -61.5s-6.16602 -26.5 -11.499 -34.5
s-13 -13.5 -23 -16.5s-23.667 -4.5 -41 -4.5v-21h220v21c-16.667 0 -29.334 1.33301 -38.001 4s-15.334 8 -20.001 16s-7.83398 19.333 -9.50098 34s-2.5 35.667 -2.5 63v65c0 26.667 12.167 50 36.5 70s50.5 30 78.5 30c28.667 0 49.667 -9.33301 63 -28s20 -45 20 -79v-58
c0 -26 -1.16699 -46.5 -3.5 -61.5s-6.16602 -26.5 -11.499 -34.5s-13 -13.5 -23 -16.5s-23.667 -4.5 -41 -4.5v-21h229v21c-18 0 -31.833 1.5 -41.5 4.5s-17.334 8.5 -23.001 16.5s-9.5 19.333 -11.5 34s-3 35.334 -3 62.001v63c0 44.667 -10.833 80.667 -32.5 108
s-54.167 41 -97.5 41c-30 0 -56.667 -7 -80 -21s-43 -31 -59 -51z" />
    <glyph glyph-name="o" unicode="o" horiz-adv-x="510" 
d="M452 167c0 24.667 -5.16602 48.167 -15.499 70.5s-24.833 42 -43.5 59s-40.334 30.167 -65.001 39.5s-50.667 14 -78 14s-53.333 -4.66699 -78 -14s-46.167 -22.5 -64.5 -39.5s-32.833 -36.667 -43.5 -59s-16 -45.833 -16 -70.5s5.16699 -48.167 15.5 -70.5
s25 -42.166 44 -59.499s40.667 -30.666 65 -39.999s50.166 -14 77.499 -14s53.333 4.66699 78 14s46.334 22.666 65.001 39.999s33.167 37.166 43.5 59.499s15.5 45.833 15.5 70.5zM371.001 167c0 -42.667 -10.333 -77.5 -31 -104.5s-50.667 -40.5 -90 -40.5
s-69.333 13.667 -90 41s-31 62 -31 104s10.333 76.667 31 104s50.667 41 90 41s69.333 -13.5 90 -40.5s31 -61.833 31 -104.5z" />
    <glyph glyph-name="p" unicode="p" horiz-adv-x="513" 
d="M384 167c0 -42 -9.66699 -76.499 -29 -103.499s-47.333 -40.5 -84 -40.5c-22.667 0 -42.834 7.16699 -60.501 21.5s-31.5 33.833 -41.5 58.5v129c10 23.333 23.833 42.166 41.5 56.499s37.834 21.5 60.501 21.5c36.667 0 64.667 -13.333 84 -40s29 -61 29 -103z
M169 -112.999l-0.000976562 156.007c15.333 -18.667 33.5 -33.334 54.5 -44.001s43.833 -16 68.5 -16c23.333 0 45.5 4.66699 66.5 14s39.5 22.666 55.5 39.999s28.5 37.166 37.5 59.499s13.5 45.833 13.5 70.5s-4.5 48.167 -13.5 70.5s-21.5 42 -37.5 59
s-34.5 30.167 -55.5 39.5s-43.167 14 -66.5 14c-26 0 -49.167 -5.5 -69.5 -16.5s-38.5 -25.833 -54.5 -44.5c-2 12.667 -4.5 25 -7.5 37s-5.5 20 -7.5 24l-134 -25v-21c18 0 32 -1.5 42 -4.5s17.667 -8.33301 23 -16s9 -18.834 11 -33.501s3 -35.334 3 -62.001v-301
c0 -26.667 -1 -47.334 -3 -62.001s-5.66699 -25.834 -11 -33.501s-13 -13 -23 -16s-24 -4.5 -42 -4.5v-21h229v21c-17.333 0 -31 1.5 -41 4.5s-17.667 8.33301 -23 16s-9.16602 19 -11.499 34s-3.5 35.5 -3.5 61.5z" />
    <glyph glyph-name="q" unicode="q" horiz-adv-x="497" 
d="M344 103c-9.33301 -24 -23 -43.334 -41 -58.001s-38 -22 -60 -22c-37.333 0 -65.666 13.333 -84.999 40s-29 61.334 -29 104.001s9.66699 77.167 29 103.5s47.666 39.5 84.999 39.5c22 0 42 -7.16699 60 -21.5s31.667 -33.5 41 -57.5v-128zM415 -113.001
l-0.00292969 462.999h-21l-44 -67c-14.667 21.333 -33.167 37.833 -55.5 49.5s-46.5 17.5 -72.5 17.5c-23.333 0 -45.666 -4.66699 -66.999 -14s-40 -22.5 -56 -39.5s-28.5 -36.667 -37.5 -59s-13.5 -45.833 -13.5 -70.5s4.5 -48.167 13.5 -70.5s21.667 -42.166 38 -59.499
s35 -30.666 56 -39.999s43.167 -14 66.5 -14c24.667 0 47.334 5.33301 68.001 16s38.667 25.334 54 44.001v-156c0 -26.667 -1 -47.334 -3 -62.001s-5.66699 -25.834 -11 -33.501s-13 -13 -23 -16s-24 -4.5 -42 -4.5v-21h229v21c-17.333 0 -31 1.5 -41 4.5
s-17.667 8.33301 -23 16s-9.16602 19 -11.499 34s-3.5 35.5 -3.5 61.5z" />
    <glyph glyph-name="r" unicode="r" horiz-adv-x="393" 
d="M372 288c0 14.667 -6.83203 28.666 -20.499 41.999s-33.167 20 -58.5 20c-20 0 -40 -7 -60 -21s-35 -31 -45 -51c-1.33301 10.667 -3.83301 24.167 -7.5 40.5s-6.83398 26.833 -9.50098 31.5l-133 -25v-21c17.333 0 31 -1.5 41 -4.5s17.833 -8.33301 23.5 -16
s9.5 -19 11.5 -34s3 -35.5 3 -61.5v-50c0 -26 -1.16699 -46.5 -3.5 -61.5s-6.16602 -26.5 -11.499 -34.5s-13 -13.5 -23 -16.5s-23.667 -4.5 -41 -4.5v-21h229v21c-18 0 -31.833 1.5 -41.5 4.5s-17.334 8.5 -23.001 16.5s-9.5 19.333 -11.5 34s-3 35.334 -3 62.001v55
c0 35.333 9 63.666 27 84.999s34.667 32 50 32c21.333 0 32 -11 32 -33c0 -9.33301 3.5 -17.666 10.5 -24.999s15.167 -11 24.5 -11c14 0 24.167 4.66699 30.5 14s9.5 20.333 9.5 33z" />
    <glyph glyph-name="s" unicode="s" horiz-adv-x="323" 
d="M289 92c0 18 -6.00391 35.335 -18.0039 52.002s-29 31.334 -51 44.001l-48 26c-23.333 12.667 -39.333 23.167 -48 31.5s-13 18.166 -13 29.499c0 28.667 17 43 51 43c24.667 0 44.334 -8.33301 59.001 -25s22 -36.334 22 -59.001h21v116h-21
c0 -15.333 -2.33301 -23 -7 -23c-2 0 -6.33301 1.66699 -13 5c-10 5.33301 -20.333 9.66602 -31 12.999s-23.667 5 -39 5c-27.333 0 -51.166 -8.66699 -71.499 -26s-30.5 -39 -30.5 -65c0 -18 5.5 -36.167 16.5 -54.5s27.833 -33.5 50.5 -45.5l55 -30
c18.667 -9.33301 32.667 -18.833 42 -28.5s14 -20.5 14 -32.5c0 -14 -5.33301 -26 -16 -36s-24 -15 -40 -15c-33.333 0 -60 12.167 -80 36.5s-30 49.5 -30 75.5h-20v-146h20c0 21.333 4 32 12 32c4.66699 0 13 -3.33301 25 -10c12.667 -6.66699 24.334 -12 35.001 -16
s22.334 -6 35.001 -6c33.333 0 61.5 10.167 84.5 30.5s34.5 46.5 34.5 78.5z" />
    <glyph glyph-name="t" unicode="t" horiz-adv-x="295" 
d="M80 298l-0.000976562 -202c0 -38 8.33301 -66.333 25 -85s39.334 -28 68.001 -28c16.667 0 34.834 5.33301 54.501 16s36.5 24.667 50.5 42l-17 17c-24.667 -23.333 -46.334 -35 -65.001 -35c-30 0 -45 24.333 -45 73v202h87v35h-87v110h-34
c-4 -34.667 -12.667 -62 -26 -82s-34.333 -33 -63 -39v-24h52z" />
    <glyph glyph-name="u" unicode="u" horiz-adv-x="522" 
d="M503 8v21.0039c-18 0 -32 1.5 -42 4.5s-17.667 8.5 -23 16.5s-9.16602 19.5 -11.499 34.5s-3.5 35.5 -3.5 61.5v187h-150v-20c18 0 32 -1.5 42 -4.5s17.667 -8.5 23 -16.5s9.16602 -19.5 11.499 -34.5s3.5 -35.5 3.5 -61.5v-66c0 -14.667 -3.66699 -28.167 -11 -40.5
s-16.5 -22.833 -27.5 -31.5s-22.833 -15.334 -35.5 -20.001s-24 -7 -34 -7c-26 0 -45.167 9.33301 -57.5 28s-18.5 45 -18.5 79v195h-150v-20c18 0 32 -1.5 42 -4.5s17.667 -8.5 23 -16.5s9 -19.333 11 -34s3 -35.334 3 -62.001v-63c0 -46 9.83301 -82.5 29.5 -109.5
s51.167 -40.5 94.5 -40.5c26 0 50.333 6.5 73 19.5s42 27.833 58 44.5c2 -10.667 4.66699 -22.834 8 -36.501s6 -22.834 8 -27.501z" />
    <glyph glyph-name="v" unicode="v" horiz-adv-x="364" 
d="M377 313l0.00195312 20h-140v-20c26 0 39 -7.33301 39 -22c0 -8 -3.33301 -20.333 -10 -37l-67 -160l-71 160c-7.33301 17.333 -11 30 -11 38c0 14 14.333 21 43 21v20h-178v-20c16.667 0 30 -4.33301 40 -13s19.667 -24 29 -46l122 -272h20l113 272
c9.33301 22 19.166 37.333 29.499 46s24.166 13 41.499 13z" />
    <glyph glyph-name="w" unicode="w" horiz-adv-x="548" 
d="M272 213l99.002 -231h20l101 272c8 22 17.5 37.333 28.5 46s25.167 13 42.5 13v20h-140v-20c24 0 36 -9.33301 36 -28c0 -8 -2.33301 -18.333 -7 -31l-54 -156l-102 235h-22l-81 -235l-68 156c-5.33301 12 -8 22 -8 30c0 19.333 14.667 29 44 29v20h-181v-20
c15.333 0 28.166 -4.33301 38.499 -13s20.166 -24 29.499 -46l118 -272h20z" />
    <glyph glyph-name="x" unicode="x" horiz-adv-x="403" 
d="M185 132l38.001 -53.001c11.333 -16 17 -28.333 17 -37c0 -14 -15.667 -21 -47 -21v-21h210v21c-20.667 0 -37.834 4.16699 -51.501 12.5s-28.167 23.5 -43.5 45.5l-75 104l68 71c20 20.667 37.5 35.667 52.5 45s29.5 14 43.5 14v20h-163v-20c28 0 42 -7.66699 42 -23
c0 -10 -7 -22 -21 -36l-42 -44l-32 44c-14 18.667 -21 32.334 -21 41.001c0 12 16.667 18 50 18v20h-202v-20c16.667 0 31 -4 43 -12s27 -23.667 45 -47l69 -95l-76 -80c-21.333 -21.333 -38.5 -36.333 -51.5 -45s-24.833 -13 -35.5 -13v-21h154v21
c-30 0 -45 6.66699 -45 20c0 9.33301 8 22 24 38z" />
    <glyph glyph-name="y" unicode="y" horiz-adv-x="373" 
d="M38 -237c0 -11.333 3.33301 -19.668 10 -25.001s14.334 -8 23.001 -8c7.33301 0 14.333 3.5 21 10.5s12 15.833 16 26.5l195 487c8.66699 21.333 18.667 36.5 30 45.5s25 13.5 41 13.5v20h-140v-20c26 0 39 -7.66699 39 -23c0 -8 -3.33301 -20 -10 -36l-64 -160l-73 160
c-8 16.667 -12 29.334 -12 38.001c0 14 14.667 21 44 21v20h-177v-20c16 0 28.667 -4.16699 38 -12.5s19 -23.833 29 -46.5l115 -249l-50 -125c-6.66699 -18 -14 -32.333 -22 -43s-17.667 -21.667 -29 -33c-8.66699 -8 -14.834 -14.833 -18.501 -20.5s-5.5 -12.5 -5.5 -20.5
z" />
    <glyph glyph-name="z" unicode="z" horiz-adv-x="363" 
d="M320 333h-277l-7 -110h21l5 20c6 22.667 16 38.167 30 46.5s42.333 12.5 85 12.5h47l-191 -285v-17h290l8 111h-21l-5 -20c-6 -22.667 -15.833 -38.167 -29.5 -46.5s-42.167 -12.5 -85.5 -12.5h-61l191 285v16z" />
    <glyph glyph-name="braceleft" unicode="{" horiz-adv-x="358" 
d="M42 304l-0.00390625 -15.999l3 -1c17.333 -6 31 -11.667 41 -17s19 -13.666 27 -24.999s14.167 -27.5 18.5 -48.5s6.5 -48.5 6.5 -82.5c0 -30 4 -56 12 -78s18.833 -40.667 32.5 -56s28.5 -28.333 44.5 -39s36.667 -23 62 -37c14.667 -8 23.334 -13 26.001 -15l17 21
c-22.667 16 -41 29.5 -55 40.5s-26.167 23.833 -36.5 38.5s-18.333 31.834 -24 51.501s-8.5 43.5 -8.5 71.5c0 35.333 -2 64.333 -6 87s-10.167 40.167 -18.5 52.5s-18.666 21.666 -30.999 27.999s-28.5 11.833 -48.5 16.5c20 4.66699 36.167 10.167 48.5 16.5
s22.666 15.833 30.999 28.5s14.5 30.167 18.5 52.5s6 51.166 6 86.499c0 28 2.83301 52 8.5 72s13.667 37 24 51s22.5 26.667 36.5 38s32.333 25 55 41l-17 21c-1.33301 -0.666992 -9.66602 -5.33398 -24.999 -14.001c-25.333 -14 -46.166 -26.333 -62.499 -37
s-31.333 -23.834 -45 -39.501s-24.5 -34.5 -32.5 -56.5s-12 -48 -12 -78c0 -34 -2.16699 -61.5 -6.5 -82.5s-10.333 -37.167 -18 -48.5s-16.667 -19.666 -27 -24.999s-24.166 -11 -41.499 -17z" />
    <glyph glyph-name="bar" unicode="|" horiz-adv-x="270" 
d="M115 708v-708h44v708h-44z" />
    <glyph glyph-name="braceright" unicode="}" horiz-adv-x="358" 
d="M317 288v16.001l-2 1c-18 6 -32.167 11.667 -42.5 17s-19.333 13.666 -27 24.999s-13.667 27.333 -18 48s-6.5 48.334 -6.5 83.001c0 30.667 -4 57 -12 79s-19 40.667 -33 56s-29 28.166 -45 38.499s-37 22.833 -63 37.5c-11.333 6 -19.666 10.667 -24.999 14l-16 -21
c23.333 -16 41.833 -29.5 55.5 -40.5s25.5 -23.667 35.5 -38s17.833 -31.5 23.5 -51.5s8.5 -44 8.5 -72c0 -35.333 2 -64.166 6 -86.499s10.167 -39.833 18.5 -52.5s18.666 -22.167 30.999 -28.5s28.5 -11.833 48.5 -16.5c-20 -4.66699 -36 -10.167 -48 -16.5
s-22.333 -15.833 -31 -28.5s-15 -30.167 -19 -52.5s-6 -51.166 -6 -86.499c0 -28 -2.83301 -52 -8.5 -72s-13.5 -37.167 -23.5 -51.5s-21.833 -27 -35.5 -38s-32.167 -24.5 -55.5 -40.5l16 -21l26 14c26 14.667 47 27.167 63 37.5s30.833 23.166 44.5 38.499
s24.5 34.166 32.5 56.499s12 48.5 12 78.5c0 34.667 2.16699 62.5 6.5 83.5s10.333 37 18 48s16.667 19.167 27 24.5s24.5 11 42.5 17z" />
    <glyph glyph-name="asciitilde" unicode="~" horiz-adv-x="423" 
d="M298 258c-10.667 0 -22.001 2.99902 -34.001 8.99902s-27.333 14.667 -46 26c-20 12 -36.667 21.167 -50 27.5s-26 9.5 -38 9.5c-24 0 -44.333 -12 -61 -36s-25 -55 -25 -93h21c4 16.667 11.5 31.167 22.5 43.5s22.167 18.5 33.5 18.5c8 0 17.667 -2.83301 29 -8.5
s26.666 -14.167 45.999 -25.5c21.333 -13.333 38.833 -23.333 52.5 -30s25.834 -10 36.501 -10c28 0 50.333 11.833 67 35.5s25 55.834 25 96.501h-21c-5.33301 -20 -12.666 -35.5 -21.999 -46.5s-21.333 -16.5 -36 -16.5z" />
    <glyph glyph-name="nbspace" unicode="&#xa0;" horiz-adv-x="233" 
 />
    <glyph glyph-name="exclamdown" unicode="&#xa1;" horiz-adv-x="313" 
d="M194 390c0 13.333 -4.66699 24.668 -14 34.001s-20.666 14 -33.999 14c-12.667 0 -23.667 -4.66699 -33 -14s-14 -20.666 -14 -33.999c0 -12.667 4.66699 -23.834 14 -33.501s20.333 -14.5 33 -14.5c13.333 0 24.666 4.66699 33.999 14s14 20.666 14 33.999z
M194 -137.998c0 14 -2.33496 38 -7.00195 72c-5.33301 45.333 -10 92.333 -14 141s-7.33301 113.667 -10 195h-34c-2 -81.333 -5.16699 -147 -9.5 -197s-9.16602 -96 -14.499 -138c-4 -34.667 -6 -59 -6 -73c0 -13.333 4.66699 -24.833 14 -34.5s20.333 -14.5 33 -14.5
s23.834 4.83301 33.501 14.5s14.5 21.167 14.5 34.5z" />
    <glyph glyph-name="cent" unicode="&#xa2;" horiz-adv-x="447" 
d="M248 418c11.333 0 20.832 -3.00195 28.499 -9.00195s11.5 -17.333 11.5 -34c0 -11.333 3.83301 -20.833 11.5 -28.5s16.834 -11.5 27.501 -11.5c15.333 0 26.5 4.5 33.5 13.5s10.5 18.833 10.5 29.5c0 20.667 -10.333 37.834 -31 51.501s-51.334 20.5 -92.001 20.5v167
h-36v-173c-18.667 -4.66699 -37.167 -12.334 -55.5 -23.001s-35 -24.167 -50 -40.5s-26.833 -34.833 -35.5 -55.5s-13 -43 -13 -67c0 -43.333 14.333 -80.666 43 -111.999s65.667 -51 111 -59v-170h36v166h4c28 0 55 5.83301 81 17.5s48.667 27.834 68 48.501l-18 22
c-15.333 -14.667 -32.666 -26 -51.999 -34s-37.333 -12 -54 -12c-10 0 -19.667 1 -29 3v290zM211.999 137.998c-22.667 10 -40.5 25.499 -53.5 46.499s-19.5 45.5 -19.5 73.5c0 33.333 7 63.333 21 90s31.333 46.334 52 59.001v-269z" />
    <glyph glyph-name="sterling" unicode="&#xa3;" horiz-adv-x="513" 
d="M133 298l0.00390625 -159.999c0 -26.667 -1.16699 -47.334 -3.5 -62.001s-6.66602 -26 -12.999 -34s-15.5 -13.5 -27.5 -16.5s-29 -4.5 -51 -4.5v-21h460l9 133h-21l-5 -20c-7.33301 -29.333 -17.833 -49.333 -31.5 -60s-41.834 -16 -84.501 -16h-65
c-22 0 -39 1.5 -51 4.5s-21.333 8.33301 -28 16s-11.167 19 -13.5 34s-3.5 35.5 -3.5 61.5v145h101v35h-101v96c0 56 6 95.833 18 119.5s31 35.5 57 35.5c15.333 0 26.166 -3.66699 32.499 -11s12.166 -18 17.499 -32c4.66699 -11.333 9.16699 -19.833 13.5 -25.5
s11.5 -8.5 21.5 -8.5c22 0 33 11.333 33 34c0 18.667 -8.83301 36 -26.5 52s-41.834 24 -72.501 24c-21.333 0 -41.833 -3.5 -61.5 -10.5s-37.334 -18.167 -53.001 -33.5s-28 -35 -37 -59s-13.5 -52.333 -13.5 -85v-96h-81v-35h81z" />
    <glyph glyph-name="currency" unicode="&#xa4;" horiz-adv-x="500" 
d="M133 332c-16.667 -26.667 -25.001 -53.335 -25.001 -80.002c0 -30 8.33301 -56.667 25 -80l-45 -46l34 -35l46 47c22.667 -16.667 49.334 -25 80.001 -25c29.333 0 56 8.33301 80 25l45 -47l35 34l-46 47c16.667 22.667 25 49.334 25 80.001
c0 28.667 -8.33301 55.334 -25 80.001l46 46l-35 34l-45 -46c-24 16.667 -50.667 25 -80 25c-30.667 0 -57.667 -8.66699 -81 -26l-45 46l-34 -34zM247.999 337.999c23.333 0 43.333 -8.5 60 -25.5s25 -37.167 25 -60.5c0 -24 -8.33301 -44.333 -25 -61s-36.667 -25 -60 -25
c-24 0 -44.333 8.33301 -61 25s-25 37 -25 61c0 23.333 8.33301 43.5 25 60.5s37 25.5 61 25.5z" />
    <glyph glyph-name="yen" unicode="&#xa5;" horiz-adv-x="625" 
d="M353 234l121.997 -0.000976562v44h-98l141 214c22.667 34 42.834 57 60.501 69s45.834 18 84.501 18v21h-234v-21c49.333 0 74 -9.66699 74 -29c0 -10.667 -6.66699 -26.334 -20 -47.001l-146 -220l-144 220c-12 18.667 -18 33.334 -18 44.001s5.66699 18.667 17 24
s29.666 8 54.999 8v21h-285v-21c34.667 0 62 -6.16699 82 -18.5s41 -35.166 63 -68.499l138 -214h-122v-44h150v-46h-150v-44h150v-6c0 -26.667 -1.16699 -47.334 -3.5 -62.001s-6.66602 -26 -12.999 -34s-15.5 -13.5 -27.5 -16.5s-29 -4.5 -51 -4.5v-21h270v21
c-22 0 -39 1.5 -51 4.5s-21.167 8.5 -27.5 16.5s-10.666 19.333 -12.999 34s-3.5 35.334 -3.5 62.001v6h122v44h-122v46z" />
    <glyph glyph-name="brokenbar" unicode="&#xa6;" horiz-adv-x="211" 
d="M128 708h-45v-300h45v300zM128 300h-45v-300h45v300z" />
    <glyph glyph-name="section" unicode="&#xa7;" horiz-adv-x="398" 
d="M285 223c-2.66699 2.66699 -6 4.66602 -10 5.99902l-67 35c-30.667 16 -52.834 30.5 -66.501 43.5s-20.5 27.833 -20.5 44.5c0 14.667 5.33301 27.334 16 38.001c0.666992 -0.666992 2.33398 -1.66699 5.00098 -3l4 -2l68 -35c25.333 -13.333 45.333 -26.833 60 -40.5
s22 -28.167 22 -43.5c0 -16 -3.66699 -30.333 -11 -43zM101 416.999c-12 -10 -21.334 -22.333 -28.001 -37s-10 -29.667 -10 -45c0 -26 7.83301 -49.167 23.5 -69.5s35.5 -36.166 59.5 -47.499l68 -35c25.333 -14 45.333 -28 60 -42s22 -28.333 22 -43
c0 -24 -7.83301 -42.667 -23.5 -56s-36.167 -20 -61.5 -20c-28 0 -51 6.33301 -69 19s-31.167 27.167 -39.5 43.5s-13.833 30.833 -16.5 43.5s-4 21.667 -4 27h-20v-172h18c2.66699 14 8.33398 25.333 17.001 34c4 -1.33301 10 -4 18 -8c17.333 -8 33.333 -14.333 48 -19
s30.667 -7 48 -7c39.333 0 72.833 13 100.5 39s41.5 59 41.5 99c0 27.333 -11.333 52.666 -34 75.999c22.667 24.667 34 55 34 91c0 20.667 -6.66699 40.667 -20 60s-32.666 35.666 -57.999 48.999l-67 35c-30.667 16 -52.834 30.333 -66.501 43s-20.5 27.334 -20.5 44.001
c0 18 7 32.5 21 43.5s31 16.5 51 16.5c17.333 0 32.333 -3.83301 45 -11.5s23.167 -17.834 31.5 -30.501s14.833 -26.5 19.5 -41.5s7.66699 -30.833 9 -47.5h20v170h-20c-1.33301 -11.333 -6 -21 -14 -29c-11.333 8 -25.333 14.667 -42 20s-34.667 8 -54 8
c-35.333 0 -65 -11.167 -89 -33.5s-36 -49.166 -36 -80.499c0 -34 12.667 -62.667 38 -86z" />
    <glyph glyph-name="dieresis" unicode="&#xa8;" horiz-adv-x="310" 
d="M71 662c-10.667 0 -19.834 -3.83301 -27.501 -11.5s-11.5 -16.834 -11.5 -27.501c0 -11.333 3.83301 -20.833 11.5 -28.5s16.834 -11.5 27.501 -11.5s19.834 3.83301 27.501 11.5s11.5 17.167 11.5 28.5c0 10.667 -3.83301 19.834 -11.5 27.501
s-16.834 11.5 -27.501 11.5zM237 662c-10.667 0 -19.834 -3.83301 -27.501 -11.5s-11.5 -16.834 -11.5 -27.501c0 -11.333 3.83301 -20.833 11.5 -28.5s16.834 -11.5 27.501 -11.5s19.834 4 27.501 12s11.5 17.333 11.5 28s-3.83301 19.834 -11.5 27.501
s-16.834 11.5 -27.501 11.5z" />
    <glyph glyph-name="copyright" unicode="&#xa9;" horiz-adv-x="683" 
d="M342 617c-43.333 0 -84.166 -8.16992 -122.499 -24.5029s-72.166 -39.166 -101.499 -68.499s-52.166 -63.166 -68.499 -101.499s-24.5 -79.166 -24.5 -122.499s8.16699 -84.166 24.5 -122.499s39.166 -72.166 68.499 -101.499s63.166 -52.166 101.499 -68.499
s79.166 -24.5 122.499 -24.5s84.166 8.16699 122.499 24.5s72 39.166 101 68.499s51.667 63.166 68 101.499s24.5 79.166 24.5 122.499s-8.16699 84.333 -24.5 123s-39 72.5 -68 101.5s-62.667 51.667 -101 68s-79.166 24.5 -122.499 24.5zM342 584.997
c38.667 0 75.335 -7.33203 110.002 -21.999s65.167 -35.167 91.5 -61.5s46.833 -56.833 61.5 -91.5s22 -71.334 22 -110.001s-7.33301 -75.334 -22 -110.001s-35.167 -65.167 -61.5 -91.5s-56.833 -46.833 -91.5 -61.5s-71.334 -22 -110.001 -22
s-75.334 7.33301 -110.001 22s-65.167 35.167 -91.5 61.5s-46.833 56.833 -61.5 91.5s-22 71.334 -22 110.001s7.33301 75.5 22 110.5s35 65.5 61 91.5s56.5 46.333 91.5 61s71.833 22 110.5 22zM506.001 104.998v157.004h-18
c-8.66699 -42.667 -24.667 -76.334 -48 -101.001s-52 -37 -86 -37c-24 0 -44.833 5.33301 -62.5 16s-31.834 24.667 -42.501 42s-18.5 36.166 -23.5 56.499s-7.5 40.833 -7.5 61.5c0 20 2.5 40.167 7.5 60.5s12.833 39.333 23.5 57s24.834 31.834 42.501 42.501
s38.5 16 62.5 16c34 0 62.667 -12.167 86 -36.5s39.333 -57.833 48 -100.5h18v156h-17c-1.33301 -8.66699 -3.66602 -17.334 -6.99902 -26.001s-6.33301 -14.667 -9 -18c-14 17.333 -32 31.5 -54 42.5s-43.667 16.5 -65 16.5c-27.333 0 -53.333 -5.5 -78 -16.5
s-46.334 -26.167 -65.001 -45.5s-33.334 -41.833 -44.001 -67.5s-16 -52.5 -16 -80.5c0 -28.667 5.33301 -55.834 16 -81.501s25.334 -48 44.001 -67s40.334 -34 65.001 -45s50.667 -16.5 78 -16.5c21.333 0 43 5.5 65 16.5s40 25.167 54 42.5
c2.66699 -2.66699 5.66699 -8.33398 9 -17.001s5.66602 -17.667 6.99902 -27h17z" />
    <glyph glyph-name="ordfeminine" unicode="&#xaa;" horiz-adv-x="407" 
d="M368 303l-11.999 18.999c-6.66699 -9.33301 -14.667 -14 -24 -14c-14 0 -21 11.667 -21 35v145c0 45.333 -9.5 78.166 -28.5 98.499s-49.5 30.5 -91.5 30.5c-29.333 0 -55.333 -7.16699 -78 -21.5s-34 -32.5 -34 -54.5c0 -9.33301 3 -17.166 9 -23.499s13 -9.5 21 -9.5
c9.33301 0 16.666 3.16699 21.999 9.5s8 14.166 8 23.499c0 14 5.5 25 16.5 33s22.5 12 34.5 12c24 0 39.833 -7.16699 47.5 -21.5s11.5 -39.833 11.5 -76.5v-1c-28 -5.33301 -53 -11.666 -75 -18.999s-41.5 -16.166 -58.5 -26.499s-30.333 -23 -40 -38
s-14.5 -32.167 -14.5 -51.5c0 -24 7.66699 -43.167 23 -57.5s34.333 -21.5 57 -21.5c18 0 35.5 4.16699 52.5 12.5s35.833 22.5 56.5 42.5c5.33301 -36 25.333 -54 60 -54c22.667 0 42 9.66699 58 29zM249.001 359.999c-19.333 -18 -34.8311 -30.168 -46.498 -36.501
s-22.834 -9.5 -33.501 -9.5c-11.333 0 -20.833 4 -28.5 12s-11.5 18.667 -11.5 32c0 26 9.16699 46.333 27.5 61s49.166 27.334 92.499 38.001v-97z" />
    <glyph glyph-name="guillemotleft" unicode="&#xab;" horiz-adv-x="667" 
d="M428 68l-233 200l233 200l-15 17l-330 -217l330 -218zM579 122l-174 146l174 146l-11 19l-275 -165l275 -166z" />
    <glyph glyph-name="logicalnot" unicode="&#xac;" horiz-adv-x="570" 
d="M459 295h-376v-44h332v-128h44v172z" />
    <glyph glyph-name="minus" unicode="&#xad;" horiz-adv-x="458" 
d="M375 208v44h-292v-44h292z" />
    <glyph glyph-name="minus" unicode="&#x2212;" horiz-adv-x="458" 
d="M375 208v44h-292v-44h292z" />
    <glyph glyph-name="registered" unicode="&#xae;" horiz-adv-x="683" 
d="M342 617c-43.333 0 -84.166 -8.16992 -122.499 -24.5029s-72.166 -39.166 -101.499 -68.499s-52.166 -63.166 -68.499 -101.499s-24.5 -79.166 -24.5 -122.499s8.16699 -84.166 24.5 -122.499s39.166 -72.166 68.499 -101.499s63.166 -52.166 101.499 -68.499
s79.166 -24.5 122.499 -24.5s84.166 8.16699 122.499 24.5s72 39.166 101 68.499s51.667 63.166 68 101.499s24.5 79.166 24.5 122.499s-8.16699 84.333 -24.5 123s-39 72.5 -68 101.5s-62.667 51.667 -101 68s-79.166 24.5 -122.499 24.5zM428 382.997
c0 -22.667 -6.5 -41.333 -19.5 -56s-31.5 -22 -55.5 -22h-59v157h59c24 0 42.5 -7.5 55.5 -22.5s19.5 -33.833 19.5 -56.5zM550 104.998c-26.667 -28 -57.999 -49.999 -93.999 -65.999s-74 -24 -114 -24c-38.667 0 -75.334 7.33301 -110.001 22s-65.167 35.167 -91.5 61.5
s-46.833 56.833 -61.5 91.5s-22 71.334 -22 110.001s7.33301 75.5 22 110.5s35 65.5 61 91.5s56.5 46.333 91.5 61s71.833 22 110.5 22s75.334 -7.33301 110.001 -22s65.167 -35.167 91.5 -61.5s46.833 -56.833 61.5 -91.5s22 -71.334 22 -110.001
c0 -32.667 -5.33301 -64 -16 -94s-26 -57.667 -46 -83c-18.667 0 -39 8.16699 -61 24.5s-43 36.5 -63 60.5l-57 66c33.333 4.66699 59.833 17 79.5 37s29.5 44 29.5 72c0 32.667 -12.333 59.5 -37 80.5s-57.334 31.5 -98.001 31.5h-195v-18c30 0 49.5 -6.33301 58.5 -19
s13.5 -41.334 13.5 -86.001v-144c0 -44.667 -4.5 -73.334 -13.5 -86.001s-28.5 -19 -58.5 -19v-18h202v18c-30 0 -49.333 6.33301 -58 19s-13 41.334 -13 86.001v45h31l125 -168h100z" />
    <glyph glyph-name="macron" unicode="&#xaf;" horiz-adv-x="258" 
d="M203 621v23h-181v-23h181z" />
    <glyph glyph-name="degree" unicode="&#xb0;" horiz-adv-x="400" 
d="M199 601c-20 0 -39.166 -3.83301 -57.499 -11.5s-34.333 -18.5 -48 -32.5s-24.5 -30.167 -32.5 -48.5s-12 -37.5 -12 -57.5c0 -20.667 3.83301 -40 11.5 -58s18.5 -34 32.5 -48s30.167 -24.833 48.5 -32.5s37.5 -11.5 57.5 -11.5c20.667 0 40 3.83301 58 11.5
s34 18.5 48 32.5s24.833 30.167 32.5 48.5s11.5 37.5 11.5 57.5s-3.83301 39.167 -11.5 57.5s-18.334 34.5 -32.001 48.5s-29.667 24.833 -48 32.5s-37.833 11.5 -58.5 11.5zM200.001 553c28 0 52 -10 72 -30s30 -44 30 -72s-10 -52 -30 -72s-44 -30 -72 -30s-52 10 -72 30
s-30 44 -30 72s10 52 30 72s44 30 72 30z" />
    <glyph glyph-name="plusminus" unicode="&#xb1;" horiz-adv-x="458" 
d="M408 43h-358v-44h358v44zM251 268v140h-44v-140h-157v-44h157v-141h44v141h157v44h-157z" />
    <glyph glyph-name="twosuperior" unicode="&#xb2;" horiz-adv-x="336" 
d="M289 335l-159 0.00292969l89 79c18 15.333 32.5 31.166 43.5 47.499s16.5 35.166 16.5 56.499c0 29.333 -12.167 53.166 -36.5 71.499s-53.166 27.5 -86.499 27.5c-34.667 0 -62.667 -9.33301 -84 -28s-32 -40.667 -32 -66c0 -30 14 -54.667 42 -74l26 25
c-10.667 16 -16 31.333 -16 46c0 17.333 6.33301 31.5 19 42.5s27 16.5 43 16.5c21.333 0 38.166 -5.83301 50.499 -17.5s18.5 -27.167 18.5 -46.5c0 -18.667 -3.16699 -34.167 -9.5 -46.5s-17.833 -25.833 -34.5 -40.5l-132 -119v-22h233z" />
    <glyph glyph-name="threesuperior" unicode="&#xb3;" horiz-adv-x="336" 
d="M289 378c0 22.667 -7.99902 43.667 -23.999 63s-36.667 33.333 -62 42l79 94v23h-216l-18 -103h22l5 17c3.33301 14 10.5 23.833 21.5 29.5s24.833 8.5 41.5 8.5h86l-99 -104c-6 -6 -9 -12 -9 -18c0 -12 6 -18 18 -18c10 0 18 5.33301 24 16
c7.33301 12 12.666 19.667 15.999 23c17.333 -3.33301 31.333 -11.833 42 -25.5s16 -29.5 16 -47.5c0 -21.333 -6 -39.666 -18 -54.999s-29.333 -23 -52 -23c-18.667 0 -32.667 3.5 -42 10.5s-18 16.5 -26 28.5s-15 18 -21 18c-13.333 0 -20 -6.33301 -20 -19
c0 -14.667 10 -29.667 30 -45s46.333 -23 79 -23c36 0 66.167 10.667 90.5 32s36.5 46.666 36.5 75.999z" />
    <glyph glyph-name="acute" unicode="&#xb4;" horiz-adv-x="227" 
d="M173 643c0 6.66699 -2.5 13.167 -7.5 19.5s-11.833 9.5 -20.5 9.5c-7.33301 0 -13.833 -1.66699 -19.5 -5s-13.5 -9.33301 -23.5 -18l-1 -1l-93 -87l5 -7l137 59c5.33301 2.66699 10.5 6.66699 15.5 12s7.5 11.333 7.5 18z" />
    <glyph glyph-name="mu" unicode="&#xb5;" horiz-adv-x="522" 
d="M169 -8c18 -6 35.667 -8.99512 53 -8.99512c26 0 50.333 6.5 73 19.5s42 27.833 58 44.5c2 -10.667 4.66699 -22.834 8 -36.501s6 -22.834 8 -27.501l134 25v21c-18 0 -32 1.5 -42 4.5s-17.667 8.5 -23 16.5s-9.16602 19.5 -11.499 34.5s-3.5 35.5 -3.5 61.5v187h-150
v-20c18 0 32 -1.5 42 -4.5s17.667 -8.5 23 -16.5s9.16602 -19.5 11.499 -34.5s3.5 -35.5 3.5 -61.5v-66c0 -14.667 -3.5 -28.167 -10.5 -40.5s-16 -22.833 -27 -31.5s-22.167 -15.334 -33.5 -20.001s-21 -7 -29 -7c-30.667 0 -52.334 9.16699 -65.001 27.5
s-19 44.833 -19 79.5v195h-150v-20c18 0 32 -1.5 42 -4.5s17.667 -8.5 23 -16.5s9 -19.333 11 -34s3 -35.334 3 -62.001v-245c0 -26.667 -1 -47.334 -3 -62.001s-5.66699 -26 -11 -34s-13 -13.5 -23 -16.5s-24 -4.5 -42 -4.5v-21h229v21c-17.333 0 -31 1.5 -41 4.5
s-17.667 8.5 -23 16.5s-9.16602 19.5 -11.499 34.5s-3.5 35.5 -3.5 61.5v41z" />
    <glyph glyph-name="paragraph" unicode="&#xb6;" horiz-adv-x="513" 
d="M454 600l-233.998 0.00195312c-22.667 0 -44.334 -4.5 -65.001 -13.5s-38.834 -21.333 -54.501 -37s-28 -33.834 -37 -54.501s-13.5 -42.334 -13.5 -65.001c0 -43.333 14.667 -81 44 -113s65.333 -50.333 108 -55v-295c0 -26 -1.16699 -46.5 -3.5 -61.5
s-6.83301 -26.333 -13.5 -34s-16 -13 -28 -16s-29 -4.5 -51 -4.5v-21h132v726h84v-726h132v21c-22 0 -39 1.5 -51 4.5s-21.333 8.33301 -28 16s-11.167 19 -13.5 34s-3.5 35.5 -3.5 61.5v496c0 26 1.16699 46.5 3.5 61.5s6.83301 26.333 13.5 34s16 13 28 16s29 4.5 51 4.5
v21z" />
    <glyph glyph-name="periodcentered" unicode="&#xb7;" horiz-adv-x="292" 
d="M173 233c0 13.333 -4.83301 24.833 -14.5 34.5s-20.834 14.5 -33.501 14.5s-23.667 -4.83301 -33 -14.5s-14 -21.167 -14 -34.5c0 -12.667 4.66699 -23.834 14 -33.501s20.333 -14.5 33 -14.5s23.834 4.83301 33.501 14.5s14.5 20.834 14.5 33.501z" />
    <glyph glyph-name="periodcentered" unicode="&#x2219;" horiz-adv-x="292" 
d="M173 233c0 13.333 -4.83301 24.833 -14.5 34.5s-20.834 14.5 -33.501 14.5s-23.667 -4.83301 -33 -14.5s-14 -21.167 -14 -34.5c0 -12.667 4.66699 -23.834 14 -33.501s20.333 -14.5 33 -14.5s23.834 4.83301 33.501 14.5s14.5 20.834 14.5 33.501z" />
    <glyph glyph-name="cedilla" unicode="&#xb8;" horiz-adv-x="218" 
d="M199 -126c0 24.667 -8.83301 43.668 -26.5 57.001s-36.834 20.333 -57.501 21l75 76h-45l-108 -107v-14c12.667 4 25.334 6 38.001 6c18 0 33 -3.5 45 -10.5s18 -16.5 18 -28.5c0 -11.333 -3 -21.333 -9 -30s-13.333 -15.834 -22 -21.501s-17 -10 -25 -13l-29 -10.5v0
v-27c10.667 1.33301 23.834 4 39.501 8s31.667 10 48 18s30.166 18.5 41.499 31.5s17 27.833 17 44.5z" />
    <glyph glyph-name="onesuperior" unicode="&#xb9;" horiz-adv-x="336" 
d="M253 287l0.000976562 21c-24 0 -39.333 4.83301 -46 14.5s-10 31.834 -10 66.501v232l-127 -26v-21c28 0 46.5 -4.5 55.5 -13.5s13.5 -29.5 13.5 -61.5v-110c0 -34.667 -3.33301 -56.834 -10 -66.501s-22.334 -14.5 -47.001 -14.5v-21h171z" />
    <glyph glyph-name="ordmasculine" unicode="&#xba;" horiz-adv-x="513" 
d="M429 443c0 23.333 -4.5 45.5 -13.5 66.5s-21.833 39.667 -38.5 56s-35.667 29 -57 38s-44 13.5 -68 13.5s-46.833 -4.5 -68.5 -13.5s-40.834 -21.667 -57.501 -38s-29.5 -35 -38.5 -56s-13.5 -43.167 -13.5 -66.5s4.5 -45.666 13.5 -66.999s21.833 -40.166 38.5 -56.499
s35.834 -29 57.501 -38s44.5 -13.5 68.5 -13.5s46.667 4.5 68 13.5s40.333 21.667 57 38s29.5 35.166 38.5 56.499s13.5 43.666 13.5 66.999zM358 443c0 -40 -9 -73 -27 -99s-44.333 -39 -79 -39s-61.167 13 -79.5 39s-27.5 59 -27.5 99s9.16699 72.833 27.5 98.5
s44.833 38.5 79.5 38.5s61 -12.833 79 -38.5s27 -58.5 27 -98.5z" />
    <glyph glyph-name="guillemotright" unicode="&#xbb;" horiz-adv-x="667" 
d="M583 268l-329 217l-15 -17l233 -200l-233 -200l15 -18zM373 268l-274 165l-11 -19l174 -146l-174 -146l11 -20z" />
    <glyph glyph-name="onequarter" unicode="&#xbc;" horiz-adv-x="853" 
d="M636 600l-36 18l-383 -618l36 -18zM779 194h-21l-4 -16c-5.33301 -20 -11.833 -33.5 -19.5 -40.5s-18.5 -10.833 -32.5 -11.5v213h-24l-173 -229v-17h139c0 -30 -3.5 -49.333 -10.5 -58s-22.5 -13 -46.5 -13v-22h171v22c-23.333 0 -38.5 4.33301 -45.5 13
s-10.5 28 -10.5 58h71zM644 126h-89l89 118v-118zM270 287v21c-24 0 -39.5 4.83301 -46.5 14.5s-10.5 31.834 -10.5 66.501v232l-126 -26v-21c28 0 46.5 -4.5 55.5 -13.5s13.5 -29.5 13.5 -61.5v-110c0 -34.667 -3.33301 -56.834 -10 -66.501s-22.667 -14.5 -48 -14.5v-21
h172z" />
    <glyph glyph-name="onehalf" unicode="&#xbd;" horiz-adv-x="853" 
d="M636 600l-36 18l-383 -618l36 -18zM781 48l-159.001 -0.00195312l89 80c18 16 32.5 32 43.5 48s16.5 34.333 16.5 55c0 30 -12 54 -36 72s-53 27 -87 27c-35.333 0 -63.666 -9.33301 -84.999 -28s-32 -40.667 -32 -66c0 -29.333 14 -53.666 42 -72.999l27 25
c-10.667 16 -16 31.667 -16 47c0 16.667 6 30.5 18 41.5s25.667 16.5 41 16.5c22.667 0 40.167 -5.66699 52.5 -17s18.5 -29 18.5 -53c0 -17.333 -3.83301 -32.666 -11.5 -45.999s-18.167 -25.333 -31.5 -36l-133 -118v-23h234zM269.999 286.998v21
c-24 0 -39.5 4.83301 -46.5 14.5s-10.5 31.834 -10.5 66.501v232l-126 -26v-21c28 0 46.5 -4.5 55.5 -13.5s13.5 -29.5 13.5 -61.5v-110c0 -34.667 -3.33301 -56.834 -10 -66.501s-22.667 -14.5 -48 -14.5v-21h172z" />
    <glyph glyph-name="threequarters" unicode="&#xbe;" horiz-adv-x="853" 
d="M636 600l-36 18l-383 -618l36 -18zM771 194h-21l-4 -16c-5.33301 -20 -11.833 -33.5 -19.5 -40.5s-18.834 -10.833 -33.501 -11.5v213h-24l-172 -229v-17h139c0 -30 -3.5 -49.333 -10.5 -58s-22.833 -13 -47.5 -13v-22h172v22c-23.333 0 -38.666 4.33301 -45.999 13
s-11 28 -11 58h72zM636 126h-89l89 118v-118zM306 378c0 22.667 -8.16602 43.667 -24.499 63s-37.166 33.333 -62.499 42l79 94v23h-215l-19 -103h23l5 17c2.66699 14 9.5 23.833 20.5 29.5s24.833 8.5 41.5 8.5h87l-99 -104c-6 -6 -9 -12 -9 -18c0 -12 6 -18 18 -18
c10 0 18 5.33301 24 16c7.33301 12 12.666 19.667 15.999 23c17.333 -3.33301 31.166 -11.833 41.499 -25.5s15.5 -29.5 15.5 -47.5c0 -21.333 -6 -39.666 -18 -54.999s-29.333 -23 -52 -23c-18.667 0 -32.667 3.5 -42 10.5s-18 16.5 -26 28.5s-15 18 -21 18
c-13.333 0 -20 -6.33301 -20 -19c0 -14.667 10.167 -29.667 30.5 -45s46.5 -23 78.5 -23c36.667 0 67.167 10.667 91.5 32s36.5 46.666 36.5 75.999z" />
    <glyph glyph-name="questiondown" unicode="&#xbf;" horiz-adv-x="504" 
d="M352 390c0 13.333 -4.5 24.6641 -13.5 33.9971s-20.167 14 -33.5 14s-24.666 -4.66699 -33.999 -14s-14 -20.666 -14 -33.999s4.66699 -24.666 14 -33.999s20.666 -14 33.999 -14s24.5 4.83301 33.5 14.5s13.5 20.834 13.5 33.501zM457 -71.002
c0 27.333 -7.83203 49.666 -23.499 66.999s-32.834 26 -51.501 26c-12 0 -23.5 -3.83301 -34.5 -11.5s-16.5 -18.834 -16.5 -33.501c0 -10.667 4 -19.834 12 -27.501s17.333 -11.5 28 -11.5c15.333 0 26.333 -2.33301 33 -7s10 -11 10 -19c0 -16.667 -10.667 -32 -32 -46
s-49.333 -21 -84 -21c-42.667 0 -79.167 11.333 -109.5 34s-45.5 53.334 -45.5 92.001c0 24 5.33301 44.667 16 62s25 31.333 43 42s37.833 18.5 59.5 23.5s43.834 7.5 66.501 7.5v164h-45v-94c-8.66699 -0.666992 -22.667 -3.16699 -42 -7.5s-42 -13.166 -68 -26.499
s-48.667 -33.166 -68 -59.499s-29 -59.833 -29 -100.5c0 -25.333 5.83301 -48.666 17.5 -69.999s27.5 -39.333 47.5 -54s42.833 -25.834 68.5 -33.501s52.167 -11.5 79.5 -11.5c47.333 0 87.166 11.333 119.499 34s48.5 50 48.5 82z" />
    <glyph glyph-name="Agrave" unicode="&#xc0;" 
d="M342 681l-93.001 88c-9.33301 8 -17.166 13.833 -23.499 17.5s-13.5 5.5 -21.5 5.5c-8.66699 0 -15.5 -3.16699 -20.5 -9.5s-7.5 -12.833 -7.5 -19.5s2.5 -12.667 7.5 -18s10.167 -9.33301 15.5 -12l138 -58zM165.999 208h241.999l48 -111
c6.66699 -14.667 10 -26.667 10 -36c0 -14 -7 -24.167 -21 -30.5s-36.333 -9.5 -67 -9.5v-21h277v21c-20.667 0 -36.834 1.16699 -48.501 3.5s-21.167 6.33301 -28.5 12s-13.666 13.334 -18.999 23.001s-12 23.834 -20 42.501l-3 6l-221 509h-13l-220 -509l-3 -6
c-8 -18.667 -14.667 -32.834 -20 -42.501s-11.666 -17.334 -18.999 -23.001s-17 -9.66699 -29 -12s-28.333 -3.5 -49 -3.5v-21h234v21c-30.667 0 -53 3.16699 -67 9.5s-21 16.5 -21 30.5c0 9.33301 3.33301 21.333 10 36zM390.998 245h-209l104 241z" />
    <glyph glyph-name="Aacute" unicode="&#xc1;" 
d="M435 763c0 6.66699 -2.5 13.167 -7.5 19.5s-11.833 9.5 -20.5 9.5c-7.33301 0 -13.833 -1.66699 -19.5 -5s-13.5 -9.33301 -23.5 -18l-1 -1l-93 -87l5 -7l137 59c5.33301 2.66699 10.5 6.66699 15.5 12s7.5 11.333 7.5 18zM166 208h241.999l48 -111
c6.66699 -14.667 10 -26.667 10 -36c0 -14 -7 -24.167 -21 -30.5s-36.333 -9.5 -67 -9.5v-21h277v21c-20.667 0 -36.834 1.16699 -48.501 3.5s-21.167 6.33301 -28.5 12s-13.666 13.334 -18.999 23.001s-12 23.834 -20 42.501l-3 6l-221 509h-13l-220 -509l-3 -6
c-8 -18.667 -14.667 -32.834 -20 -42.501s-11.666 -17.334 -18.999 -23.001s-17 -9.66699 -29 -12s-28.333 -3.5 -49 -3.5v-21h234v21c-30.667 0 -53 3.16699 -67 9.5s-21 16.5 -21 30.5c0 9.33301 3.33301 21.333 10 36zM390.999 245h-209l104 241z" />
    <glyph glyph-name="Acircumflex" unicode="&#xc2;" 
d="M433 686l-120 130l-119 -130l13 -11l106 76l107 -76zM166 208h241.999l48 -111c6.66699 -14.667 10 -26.667 10 -36c0 -14 -7 -24.167 -21 -30.5s-36.333 -9.5 -67 -9.5v-21h277v21c-20.667 0 -36.834 1.16699 -48.501 3.5s-21.167 6.33301 -28.5 12
s-13.666 13.334 -18.999 23.001s-12 23.834 -20 42.501l-3 6l-221 509h-13l-220 -509l-3 -6c-8 -18.667 -14.667 -32.834 -20 -42.501s-11.666 -17.334 -18.999 -23.001s-17 -9.66699 -29 -12s-28.333 -3.5 -49 -3.5v-21h234v21c-30.667 0 -53 3.16699 -67 9.5
s-21 16.5 -21 30.5c0 9.33301 3.33301 21.333 10 36zM390.999 245h-209l104 241z" />
    <glyph glyph-name="Atilde" unicode="&#xc3;" 
d="M370 726c-7.33301 0 -15.6689 2.16602 -25.002 6.49902s-21 10.833 -35 19.5c-15.333 10 -27.833 17.333 -37.5 22s-19.167 7 -28.5 7c-18 0 -33.167 -9.16699 -45.5 -27.5s-18.5 -41.5 -18.5 -69.5h15c3.33301 12.667 9 23.5 17 32.5s16.333 13.5 25 13.5
c6 0 13.5 -2.16699 22.5 -6.5s20.167 -10.833 33.5 -19.5c16 -9.33301 29.167 -16.5 39.5 -21.5s19.5 -7.5 27.5 -7.5c20.667 0 37.334 8.83301 50.001 26.5s19 41.834 19 72.501h-16c-7.33301 -32 -21.666 -48 -42.999 -48zM165.997 207.999h241.999l48 -111
c6.66699 -14.667 10 -26.667 10 -36c0 -14 -7 -24.167 -21 -30.5s-36.333 -9.5 -67 -9.5v-21h277v21c-20.667 0 -36.834 1.16699 -48.501 3.5s-21.167 6.33301 -28.5 12s-13.666 13.334 -18.999 23.001s-12 23.834 -20 42.501l-3 6l-221 509h-13l-220 -509l-3 -6
c-8 -18.667 -14.667 -32.834 -20 -42.501s-11.666 -17.334 -18.999 -23.001s-17 -9.66699 -29 -12s-28.333 -3.5 -49 -3.5v-21h234v21c-30.667 0 -53 3.16699 -67 9.5s-21 16.5 -21 30.5c0 9.33301 3.33301 21.333 10 36zM390.996 244.999h-209l104 241z" />
    <glyph glyph-name="Adieresis" unicode="&#xc4;" 
d="M230 753c-10.667 0 -19.834 -3.83301 -27.501 -11.5s-11.5 -16.834 -11.5 -27.501c0 -11.333 3.83301 -20.833 11.5 -28.5s16.834 -11.5 27.501 -11.5s19.834 3.83301 27.501 11.5s11.5 17.167 11.5 28.5c0 10.667 -3.83301 19.834 -11.5 27.501
s-16.834 11.5 -27.501 11.5zM396 753c-10.667 0 -19.834 -3.83301 -27.501 -11.5s-11.5 -16.834 -11.5 -27.501c0 -11.333 3.83301 -20.833 11.5 -28.5s16.834 -11.5 27.501 -11.5s19.834 4 27.501 12s11.5 17.333 11.5 28s-3.83301 19.834 -11.5 27.501
s-16.834 11.5 -27.501 11.5zM166 208h241.999l48 -111c6.66699 -14.667 10 -26.667 10 -36c0 -14 -7 -24.167 -21 -30.5s-36.333 -9.5 -67 -9.5v-21h277v21c-20.667 0 -36.834 1.16699 -48.501 3.5s-21.167 6.33301 -28.5 12s-13.666 13.334 -18.999 23.001
s-12 23.834 -20 42.501l-3 6l-221 509h-13l-220 -509l-3 -6c-8 -18.667 -14.667 -32.834 -20 -42.501s-11.666 -17.334 -18.999 -23.001s-17 -9.66699 -29 -12s-28.333 -3.5 -49 -3.5v-21h234v21c-30.667 0 -53 3.16699 -67 9.5s-21 16.5 -21 30.5
c0 9.33301 3.33301 21.333 10 36zM390.999 245h-209l104 241z" />
    <glyph glyph-name="Aring" unicode="&#xc5;" 
d="M307 840c-22.667 0 -42 -8 -58 -24s-24 -35.333 -24 -58c0 -23.333 8 -43 24 -59s35.333 -24 58 -24c23.333 0 43 8 59 24s24 35.667 24 59c0 22.667 -8 42 -24 58s-35.667 24 -59 24zM307 804c12.667 0 23.5 -4.5 32.5 -13.5s13.5 -19.833 13.5 -32.5
s-4.5 -23.5 -13.5 -32.5s-19.833 -13.5 -32.5 -13.5s-23.5 4.5 -32.5 13.5s-13.5 19.833 -13.5 32.5s4.5 23.5 13.5 32.5s19.833 13.5 32.5 13.5zM166 208h241.999l48 -111c6.66699 -14.667 10 -26.667 10 -36c0 -14 -7 -24.167 -21 -30.5s-36.333 -9.5 -67 -9.5v-21h277v21
c-20.667 0 -36.834 1.16699 -48.501 3.5s-21.167 6.33301 -28.5 12s-13.666 13.334 -18.999 23.001s-12 23.834 -20 42.501l-3 6l-221 509h-13l-220 -509l-3 -6c-8 -18.667 -14.667 -32.834 -20 -42.501s-11.666 -17.334 -18.999 -23.001s-17 -9.66699 -29 -12
s-28.333 -3.5 -49 -3.5v-21h234v21c-30.667 0 -53 3.16699 -67 9.5s-21 16.5 -21 30.5c0 9.33301 3.33301 21.333 10 36zM390.999 245h-209l104 241z" />
    <glyph glyph-name="AE" unicode="&#xc6;" horiz-adv-x="758" 
d="M358 547v-261h-135zM204 249l153.997 -0.00292969v-111c0 -26.667 -1.16699 -47.334 -3.5 -62.001s-6.66602 -26 -12.999 -34s-15.5 -13.5 -27.5 -16.5s-29 -4.5 -51 -4.5v-21h440l8 133h-21l-5 -20c-7.33301 -29.333 -17.833 -49.333 -31.5 -60s-41.834 -16 -84.501 -16
h-36c-22 0 -39 1.5 -51 4.5s-21.167 8.33301 -27.5 16s-10.666 19 -12.999 34s-3.5 35.5 -3.5 61.5v96h12c26 0 45.833 -1.16699 59.5 -3.5s23.667 -6.66602 30 -12.999s10.333 -15.166 12 -26.499s2.5 -29 2.5 -53h21v229h-21c0 -23.333 -0.833008 -40.833 -2.5 -52.5
s-5.66699 -20.667 -12 -27s-16.333 -10.666 -30 -12.999s-33.5 -3.5 -59.5 -3.5h-12v277h98c42.667 0 70.667 -5.16699 84 -15.5s24 -30.166 32 -59.499l5 -20h21l-9 132h-325l-254 -492c-9.33301 -18 -18.166 -32.667 -26.499 -44s-17.5 -20 -27.5 -26
c-17.333 -11.333 -44.666 -17 -81.999 -17v-21h234v21c-26.667 0 -46 2.5 -58 7.5s-18 13.5 -18 25.5c0 10 4.66699 24.333 14 43z" />
    <glyph glyph-name="Ccedilla" unicode="&#xc7;" horiz-adv-x="692" 
d="M333 -13l-80.002 -79.999v-14c13.333 4 26.666 6 39.999 6c18 0 32.833 -3.5 44.5 -10.5s17.5 -16.167 17.5 -27.5s-3 -21.333 -9 -30s-13.667 -16 -23 -22s-18.333 -10.667 -27 -14s-17.667 -6.33301 -27 -9v-28c10.667 1.33301 24 4 40 8s32.167 10.167 48.5 18.5
s30.166 18.833 41.499 31.5s17 27.667 17 45c0 24.667 -8.66699 43.5 -26 56.5s-36.666 20.167 -57.999 21.5l43 44h3c34.667 0 67.834 7.33301 99.501 22s60.5 35.667 86.5 63c6.66699 -4.66699 13.334 -12.5 20.001 -23.5s11.334 -22.167 14.001 -33.5h20v220h-20
c-14 -64.667 -39.833 -115.5 -77.5 -152.5s-83.834 -55.5 -138.501 -55.5c-38 0 -71 8.16699 -99 24.5s-50.833 38.166 -68.5 65.499s-30.5 57.166 -38.5 89.499s-12 64.833 -12 97.5s4 65.334 12 98.001s20.667 62.667 38 90s40.166 49.166 68.499 65.499
s61.5 24.5 99.5 24.5c54.667 0 100.834 -18.5 138.501 -55.5s63.5 -88.167 77.5 -153.5h20v220h-20c-2 -11.333 -6.33301 -22.333 -13 -33s-13.667 -18.667 -21 -24c-26 27.333 -54.833 48.333 -86.5 63s-64.834 22 -99.501 22c-41.333 0 -80.666 -8.16699 -117.999 -24.5
s-70.166 -39.166 -98.499 -68.499s-50.5 -63.333 -66.5 -102s-24 -79.334 -24 -122.001c0 -38.667 6.66699 -75.834 20 -111.501s32 -67.667 56 -96s52 -51.666 84 -69.999s66 -30.166 102 -35.499z" />
    <glyph glyph-name="Egrave" unicode="&#xc8;" horiz-adv-x="583" 
d="M330 681l-93.001 88c-9.33301 8 -17.166 13.833 -23.499 17.5s-13.5 5.5 -21.5 5.5c-8.66699 0 -15.5 -3.16699 -20.5 -9.5s-7.5 -12.833 -7.5 -19.5s2.5 -12.667 7.5 -18s10.167 -9.33301 15.5 -12l138 -58zM37.999 0l490 -0.00195312l8 133h-21l-5 -20
c-7.33301 -29.333 -17.833 -49.333 -31.5 -60s-41.834 -16 -84.501 -16h-86c-22 0 -39 1.5 -51 4.5s-21.167 8.33301 -27.5 16s-10.666 19 -12.999 34s-3.5 35.5 -3.5 61.5v146h50c26.667 0 47.334 -1.16699 62.001 -3.5s25.834 -6.66602 33.501 -12.999
s13 -15.666 16 -27.999s4.5 -29.5 4.5 -51.5h21v229h-21c0 -22 -1.5 -39.167 -4.5 -51.5s-8.33301 -21.666 -16 -27.999s-18.834 -10.666 -33.501 -12.999s-35.334 -3.5 -62.001 -3.5h-50v227h148c42.667 0 70.667 -5.16699 84 -15.5s24 -30.166 32 -59.499l5 -20h21l-9 132
h-456v-21c22 0 39 -1.5 51 -4.5s21.167 -8.33301 27.5 -16s10.666 -18.834 12.999 -33.501s3.5 -35.334 3.5 -62.001v-325c0 -26.667 -1.16699 -47.334 -3.5 -62.001s-6.66602 -26 -12.999 -34s-15.5 -13.5 -27.5 -16.5s-29 -4.5 -51 -4.5v-21z" />
    <glyph glyph-name="Eacute" unicode="&#xc9;" horiz-adv-x="583" 
d="M392 764c0 6.66699 -2.5 13.167 -7.5 19.5s-11.833 9.5 -20.5 9.5c-7.33301 0 -13.833 -1.66699 -19.5 -5s-13.5 -9.33301 -23.5 -18l-1 -1l-93 -87l5 -7l137 59c5.33301 2.66699 10.5 6.66699 15.5 12s7.5 11.333 7.5 18zM38 0l490 -0.00195312l8 133h-21l-5 -20
c-7.33301 -29.333 -17.833 -49.333 -31.5 -60s-41.834 -16 -84.501 -16h-86c-22 0 -39 1.5 -51 4.5s-21.167 8.33301 -27.5 16s-10.666 19 -12.999 34s-3.5 35.5 -3.5 61.5v146h50c26.667 0 47.334 -1.16699 62.001 -3.5s25.834 -6.66602 33.501 -12.999
s13 -15.666 16 -27.999s4.5 -29.5 4.5 -51.5h21v229h-21c0 -22 -1.5 -39.167 -4.5 -51.5s-8.33301 -21.666 -16 -27.999s-18.834 -10.666 -33.501 -12.999s-35.334 -3.5 -62.001 -3.5h-50v227h148c42.667 0 70.667 -5.16699 84 -15.5s24 -30.166 32 -59.499l5 -20h21l-9 132
h-456v-21c22 0 39 -1.5 51 -4.5s21.167 -8.33301 27.5 -16s10.666 -18.834 12.999 -33.501s3.5 -35.334 3.5 -62.001v-325c0 -26.667 -1.16699 -47.334 -3.5 -62.001s-6.66602 -26 -12.999 -34s-15.5 -13.5 -27.5 -16.5s-29 -4.5 -51 -4.5v-21z" />
    <glyph glyph-name="Ecircumflex" unicode="&#xca;" horiz-adv-x="583" 
d="M418 686l-120 130l-119 -130l13 -11l106 76l107 -76zM38 0l490 -0.00195312l8 133h-21l-5 -20c-7.33301 -29.333 -17.833 -49.333 -31.5 -60s-41.834 -16 -84.501 -16h-86c-22 0 -39 1.5 -51 4.5s-21.167 8.33301 -27.5 16s-10.666 19 -12.999 34s-3.5 35.5 -3.5 61.5
v146h50c26.667 0 47.334 -1.16699 62.001 -3.5s25.834 -6.66602 33.501 -12.999s13 -15.666 16 -27.999s4.5 -29.5 4.5 -51.5h21v229h-21c0 -22 -1.5 -39.167 -4.5 -51.5s-8.33301 -21.666 -16 -27.999s-18.834 -10.666 -33.501 -12.999s-35.334 -3.5 -62.001 -3.5h-50v227
h148c42.667 0 70.667 -5.16699 84 -15.5s24 -30.166 32 -59.499l5 -20h21l-9 132h-456v-21c22 0 39 -1.5 51 -4.5s21.167 -8.33301 27.5 -16s10.666 -18.834 12.999 -33.501s3.5 -35.334 3.5 -62.001v-325c0 -26.667 -1.16699 -47.334 -3.5 -62.001
s-6.66602 -26 -12.999 -34s-15.5 -13.5 -27.5 -16.5s-29 -4.5 -51 -4.5v-21z" />
    <glyph glyph-name="Edieresis" unicode="&#xcb;" horiz-adv-x="583" 
d="M214 753c-10.667 0 -19.834 -3.83301 -27.501 -11.5s-11.5 -16.834 -11.5 -27.501c0 -11.333 3.83301 -20.833 11.5 -28.5s16.834 -11.5 27.501 -11.5s19.834 3.83301 27.501 11.5s11.5 17.167 11.5 28.5c0 10.667 -3.83301 19.834 -11.5 27.501
s-16.834 11.5 -27.501 11.5zM380 753c-10.667 0 -19.834 -3.83301 -27.501 -11.5s-11.5 -16.834 -11.5 -27.501c0 -11.333 3.83301 -20.833 11.5 -28.5s16.834 -11.5 27.501 -11.5s19.834 4 27.501 12s11.5 17.333 11.5 28s-3.83301 19.834 -11.5 27.501
s-16.834 11.5 -27.501 11.5zM38 0l490 -0.00195312l8 133h-21l-5 -20c-7.33301 -29.333 -17.833 -49.333 -31.5 -60s-41.834 -16 -84.501 -16h-86c-22 0 -39 1.5 -51 4.5s-21.167 8.33301 -27.5 16s-10.666 19 -12.999 34s-3.5 35.5 -3.5 61.5v146h50
c26.667 0 47.334 -1.16699 62.001 -3.5s25.834 -6.66602 33.501 -12.999s13 -15.666 16 -27.999s4.5 -29.5 4.5 -51.5h21v229h-21c0 -22 -1.5 -39.167 -4.5 -51.5s-8.33301 -21.666 -16 -27.999s-18.834 -10.666 -33.501 -12.999s-35.334 -3.5 -62.001 -3.5h-50v227h148
c42.667 0 70.667 -5.16699 84 -15.5s24 -30.166 32 -59.499l5 -20h21l-9 132h-456v-21c22 0 39 -1.5 51 -4.5s21.167 -8.33301 27.5 -16s10.666 -18.834 12.999 -33.501s3.5 -35.334 3.5 -62.001v-325c0 -26.667 -1.16699 -47.334 -3.5 -62.001s-6.66602 -26 -12.999 -34
s-15.5 -13.5 -27.5 -16.5s-29 -4.5 -51 -4.5v-21z" />
    <glyph glyph-name="Igrave" unicode="&#xcc;" horiz-adv-x="346" 
d="M223 681l-93.001 88c-9.33301 8 -17.166 13.833 -23.499 17.5s-13.5 5.5 -21.5 5.5c-8.66699 0 -15.5 -3.16699 -20.5 -9.5s-7.5 -12.833 -7.5 -19.5s2.5 -12.667 7.5 -18s10.167 -9.33301 15.5 -12l138 -58zM307.999 0v21c-22 0 -39 1.5 -51 4.5s-21.167 8.5 -27.5 16.5
s-10.666 19.333 -12.999 34s-3.5 35.334 -3.5 62.001v325c0 26.667 1.16699 47.334 3.5 62.001s6.66602 25.834 12.999 33.501s15.5 13 27.5 16s29 4.5 51 4.5v21h-270v-21c22 0 39 -1.5 51 -4.5s21.167 -8.33301 27.5 -16s10.666 -18.834 12.999 -33.501
s3.5 -35.334 3.5 -62.001v-325c0 -26.667 -1.16699 -47.334 -3.5 -62.001s-6.66602 -26 -12.999 -34s-15.5 -13.5 -27.5 -16.5s-29 -4.5 -51 -4.5v-21h270z" />
    <glyph glyph-name="Iacute" unicode="&#xcd;" horiz-adv-x="346" 
d="M283 763c0 6.66699 -2.5 13.167 -7.5 19.5s-11.833 9.5 -20.5 9.5c-7.33301 0 -13.833 -1.66699 -19.5 -5s-13.5 -9.33301 -23.5 -18l-1 -1l-93 -87l5 -7l137 59c5.33301 2.66699 10.5 6.66699 15.5 12s7.5 11.333 7.5 18zM308 0v21c-22 0 -39 1.5 -51 4.5
s-21.167 8.5 -27.5 16.5s-10.666 19.333 -12.999 34s-3.5 35.334 -3.5 62.001v325c0 26.667 1.16699 47.334 3.5 62.001s6.66602 25.834 12.999 33.501s15.5 13 27.5 16s29 4.5 51 4.5v21h-270v-21c22 0 39 -1.5 51 -4.5s21.167 -8.33301 27.5 -16
s10.666 -18.834 12.999 -33.501s3.5 -35.334 3.5 -62.001v-325c0 -26.667 -1.16699 -47.334 -3.5 -62.001s-6.66602 -26 -12.999 -34s-15.5 -13.5 -27.5 -16.5s-29 -4.5 -51 -4.5v-21h270z" />
    <glyph glyph-name="Icircumflex" unicode="&#xce;" horiz-adv-x="346" 
d="M290 686l-120 130l-119 -130l13 -11l106 76l107 -76zM308 0v21c-22 0 -39 1.5 -51 4.5s-21.167 8.5 -27.5 16.5s-10.666 19.333 -12.999 34s-3.5 35.334 -3.5 62.001v325c0 26.667 1.16699 47.334 3.5 62.001s6.66602 25.834 12.999 33.501s15.5 13 27.5 16
s29 4.5 51 4.5v21h-270v-21c22 0 39 -1.5 51 -4.5s21.167 -8.33301 27.5 -16s10.666 -18.834 12.999 -33.501s3.5 -35.334 3.5 -62.001v-325c0 -26.667 -1.16699 -47.334 -3.5 -62.001s-6.66602 -26 -12.999 -34s-15.5 -13.5 -27.5 -16.5s-29 -4.5 -51 -4.5v-21h270z" />
    <glyph glyph-name="Idieresis" unicode="&#xcf;" horiz-adv-x="346" 
d="M87 753c-10.667 0 -19.834 -3.83301 -27.501 -11.5s-11.5 -16.834 -11.5 -27.501c0 -11.333 3.83301 -20.833 11.5 -28.5s16.834 -11.5 27.501 -11.5s19.834 3.83301 27.501 11.5s11.5 17.167 11.5 28.5c0 10.667 -3.83301 19.834 -11.5 27.501
s-16.834 11.5 -27.501 11.5zM253 753c-10.667 0 -19.834 -3.83301 -27.501 -11.5s-11.5 -16.834 -11.5 -27.501c0 -11.333 3.83301 -20.833 11.5 -28.5s16.834 -11.5 27.501 -11.5s19.834 4 27.501 12s11.5 17.333 11.5 28s-3.83301 19.834 -11.5 27.501
s-16.834 11.5 -27.501 11.5zM308 0v21c-22 0 -39 1.5 -51 4.5s-21.167 8.5 -27.5 16.5s-10.666 19.333 -12.999 34s-3.5 35.334 -3.5 62.001v325c0 26.667 1.16699 47.334 3.5 62.001s6.66602 25.834 12.999 33.501s15.5 13 27.5 16s29 4.5 51 4.5v21h-270v-21
c22 0 39 -1.5 51 -4.5s21.167 -8.33301 27.5 -16s10.666 -18.834 12.999 -33.501s3.5 -35.334 3.5 -62.001v-325c0 -26.667 -1.16699 -47.334 -3.5 -62.001s-6.66602 -26 -12.999 -34s-15.5 -13.5 -27.5 -16.5s-29 -4.5 -51 -4.5v-21h270z" />
    <glyph glyph-name="Eth" unicode="&#xd0;" horiz-adv-x="713" 
d="M208 324v239h101c47.333 0 87 -7.66699 119 -23s56.833 -35.833 74.5 -61.5s30.167 -53.5 37.5 -83.5s11 -61.667 11 -95c0 -32.667 -3.66699 -64.167 -11 -94.5s-19.833 -58.333 -37.5 -84s-42.5 -46.167 -74.5 -61.5s-71.667 -23 -119 -23h-5c-22 0 -39 1.5 -51 4.5
s-21.333 8.33301 -28 16s-11.167 19 -13.5 34s-3.5 35.5 -3.5 61.5v126h100v45h-100zM133 279v-140.993c0 -26.667 -1.16699 -47.334 -3.5 -62.001s-6.66602 -26 -12.999 -34s-15.5 -13.5 -27.5 -16.5s-29 -4.5 -51 -4.5v-21h271c56.667 0 106.167 7.66699 148.5 23
s77.166 36.666 104.499 63.999s47.666 59.166 60.999 95.499s20 75.5 20 117.5s-6.66699 81.167 -20 117.5s-33.666 68.166 -60.999 95.499s-62.166 48.666 -104.499 63.999s-91.833 23 -148.5 23h-271v-21c22 0 39 -1.5 51 -4.5s21.167 -8.33301 27.5 -16
s10.666 -18.834 12.999 -33.501s3.5 -35.334 3.5 -62.001v-139h-116v-45h116z" />
    <glyph glyph-name="Ntilde" unicode="&#xd1;" horiz-adv-x="725" 
d="M424 726c-7.33301 0 -15.6689 2.16602 -25.002 6.49902s-21 10.833 -35 19.5c-15.333 10 -27.833 17.333 -37.5 22s-19.167 7 -28.5 7c-18 0 -33.167 -9.16699 -45.5 -27.5s-18.5 -41.5 -18.5 -69.5h15c3.33301 12.667 9 23.5 17 32.5s16.333 13.5 25 13.5
c6 0 13.5 -2.16699 22.5 -6.5s20.167 -10.833 33.5 -19.5c16 -9.33301 29.167 -16.5 39.5 -21.5s19.5 -7.5 27.5 -7.5c20.667 0 37.334 8.83301 50.001 26.5s19 41.834 19 72.501h-16c-7.33301 -32 -21.666 -48 -42.999 -48zM562.997 123.999l-383.999 476.005h-141v-21
c22 0 39 -1.5 51 -4.5s21.167 -8.33301 27.5 -16s10.666 -18.834 12.999 -33.501s3.5 -35.334 3.5 -62.001v-325c0 -26.667 -1.16699 -47.334 -3.5 -62.001s-6.66602 -26 -12.999 -34s-15.5 -13.5 -27.5 -16.5s-29 -4.5 -51 -4.5v-21h228v21c-22 0 -39 1.5 -51 4.5
s-21.333 8.5 -28 16.5s-11.167 19.5 -13.5 34.5s-3.5 35.5 -3.5 61.5v348l407 -503h23v480c0 26 1.16699 46.5 3.5 61.5s6.83301 26.333 13.5 34s16 13 28 16s29 4.5 51 4.5v21h-228v-21c22 0 39 -1.5 51 -4.5s21.167 -8.33301 27.5 -16s10.666 -18.834 12.999 -33.501
s3.5 -35.334 3.5 -62.001v-339z" />
    <glyph glyph-name="Ograve" unicode="&#xd2;" horiz-adv-x="808" 
d="M457 681l-93.001 88c-9.33301 8 -17.166 13.833 -23.499 17.5s-13.5 5.5 -21.5 5.5c-8.66699 0 -15.5 -3.16699 -20.5 -9.5s-7.5 -12.833 -7.5 -19.5s2.5 -12.667 7.5 -18s10.167 -9.33301 15.5 -12l138 -58zM737.999 300c0 42.667 -8.66699 83.334 -26 122.001
s-41.333 72.667 -72 102s-66.334 52.166 -107.001 68.499s-83.667 24.5 -129 24.5c-44.667 0 -87.334 -8.16699 -128.001 -24.5s-76.334 -39.166 -107.001 -68.499s-54.667 -63.333 -72 -102s-26 -79.334 -26 -122.001s8.66699 -83.334 26 -122.001s41.333 -72.667 72 -102
s66.334 -52.166 107.001 -68.499s83.334 -24.5 128.001 -24.5c45.333 0 88.333 8.16699 129 24.5s76.334 39.166 107.001 68.499s54.667 63.333 72 102s26 79.334 26 122.001zM403.999 578c41.333 0 77.333 -8.16699 108 -24.5s55.667 -38.166 75 -65.499
s33.5 -57.333 42.5 -90s13.5 -65.334 13.5 -98.001s-4.5 -65.167 -13.5 -97.5s-23.167 -62.166 -42.5 -89.499s-44.333 -49.166 -75 -65.499s-66.667 -24.5 -108 -24.5s-77.166 8.16699 -107.499 24.5s-55.166 38.166 -74.499 65.499s-33.5 57.166 -42.5 89.499
s-13.5 64.833 -13.5 97.5s4.5 65.334 13.5 98.001s23.167 62.667 42.5 90s44.166 49.166 74.499 65.499s66.166 24.5 107.499 24.5z" />
    <glyph glyph-name="Oacute" unicode="&#xd3;" horiz-adv-x="808" 
d="M501 763c0 6.66699 -2.5 13.167 -7.5 19.5s-11.833 9.5 -20.5 9.5c-7.33301 0 -13.833 -1.66699 -19.5 -5s-13.5 -9.33301 -23.5 -18l-1 -1l-93 -87l5 -7l137 59c5.33301 2.66699 10.5 6.66699 15.5 12s7.5 11.333 7.5 18zM738 300c0 42.667 -8.66699 83.334 -26 122.001
s-41.333 72.667 -72 102s-66.334 52.166 -107.001 68.499s-83.667 24.5 -129 24.5c-44.667 0 -87.334 -8.16699 -128.001 -24.5s-76.334 -39.166 -107.001 -68.499s-54.667 -63.333 -72 -102s-26 -79.334 -26 -122.001s8.66699 -83.334 26 -122.001s41.333 -72.667 72 -102
s66.334 -52.166 107.001 -68.499s83.334 -24.5 128.001 -24.5c45.333 0 88.333 8.16699 129 24.5s76.334 39.166 107.001 68.499s54.667 63.333 72 102s26 79.334 26 122.001zM404 578c41.333 0 77.333 -8.16699 108 -24.5s55.667 -38.166 75 -65.499s33.5 -57.333 42.5 -90
s13.5 -65.334 13.5 -98.001s-4.5 -65.167 -13.5 -97.5s-23.167 -62.166 -42.5 -89.499s-44.333 -49.166 -75 -65.499s-66.667 -24.5 -108 -24.5s-77.166 8.16699 -107.499 24.5s-55.166 38.166 -74.499 65.499s-33.5 57.166 -42.5 89.499s-13.5 64.833 -13.5 97.5
s4.5 65.334 13.5 98.001s23.167 62.667 42.5 90s44.166 49.166 74.499 65.499s66.166 24.5 107.499 24.5z" />
    <glyph glyph-name="Ocircumflex" unicode="&#xd4;" horiz-adv-x="808" 
d="M528 686l-120 130l-119 -130l13 -11l106 76l107 -76zM738 300c0 42.667 -8.66699 83.334 -26 122.001s-41.333 72.667 -72 102s-66.334 52.166 -107.001 68.499s-83.667 24.5 -129 24.5c-44.667 0 -87.334 -8.16699 -128.001 -24.5s-76.334 -39.166 -107.001 -68.499
s-54.667 -63.333 -72 -102s-26 -79.334 -26 -122.001s8.66699 -83.334 26 -122.001s41.333 -72.667 72 -102s66.334 -52.166 107.001 -68.499s83.334 -24.5 128.001 -24.5c45.333 0 88.333 8.16699 129 24.5s76.334 39.166 107.001 68.499s54.667 63.333 72 102
s26 79.334 26 122.001zM404 578c41.333 0 77.333 -8.16699 108 -24.5s55.667 -38.166 75 -65.499s33.5 -57.333 42.5 -90s13.5 -65.334 13.5 -98.001s-4.5 -65.167 -13.5 -97.5s-23.167 -62.166 -42.5 -89.499s-44.333 -49.166 -75 -65.499s-66.667 -24.5 -108 -24.5
s-77.166 8.16699 -107.499 24.5s-55.166 38.166 -74.499 65.499s-33.5 57.166 -42.5 89.499s-13.5 64.833 -13.5 97.5s4.5 65.334 13.5 98.001s23.167 62.667 42.5 90s44.166 49.166 74.499 65.499s66.166 24.5 107.499 24.5z" />
    <glyph glyph-name="Otilde" unicode="&#xd5;" horiz-adv-x="808" 
d="M473 726c-7.33301 0 -15.6689 2.16602 -25.002 6.49902s-21 10.833 -35 19.5c-15.333 10 -27.833 17.333 -37.5 22s-19.167 7 -28.5 7c-18 0 -33.167 -9.16699 -45.5 -27.5s-18.5 -41.5 -18.5 -69.5h15c3.33301 12.667 9 23.5 17 32.5s16.333 13.5 25 13.5
c6 0 13.5 -2.16699 22.5 -6.5s20.167 -10.833 33.5 -19.5c16 -9.33301 29.167 -16.5 39.5 -21.5s19.5 -7.5 27.5 -7.5c20.667 0 37.334 8.83301 50.001 26.5s19 41.834 19 72.501h-16c-7.33301 -32 -21.666 -48 -42.999 -48zM737.997 299.999
c0 42.667 -8.66699 83.334 -26 122.001s-41.333 72.667 -72 102s-66.334 52.166 -107.001 68.499s-83.667 24.5 -129 24.5c-44.667 0 -87.334 -8.16699 -128.001 -24.5s-76.334 -39.166 -107.001 -68.499s-54.667 -63.333 -72 -102s-26 -79.334 -26 -122.001
s8.66699 -83.334 26 -122.001s41.333 -72.667 72 -102s66.334 -52.166 107.001 -68.499s83.334 -24.5 128.001 -24.5c45.333 0 88.333 8.16699 129 24.5s76.334 39.166 107.001 68.499s54.667 63.333 72 102s26 79.334 26 122.001zM403.997 577.999
c41.333 0 77.333 -8.16699 108 -24.5s55.667 -38.166 75 -65.499s33.5 -57.333 42.5 -90s13.5 -65.334 13.5 -98.001s-4.5 -65.167 -13.5 -97.5s-23.167 -62.166 -42.5 -89.499s-44.333 -49.166 -75 -65.499s-66.667 -24.5 -108 -24.5s-77.166 8.16699 -107.499 24.5
s-55.166 38.166 -74.499 65.499s-33.5 57.166 -42.5 89.499s-13.5 64.833 -13.5 97.5s4.5 65.334 13.5 98.001s23.167 62.667 42.5 90s44.166 49.166 74.499 65.499s66.166 24.5 107.499 24.5z" />
    <glyph glyph-name="Odieresis" unicode="&#xd6;" horiz-adv-x="808" 
d="M327 753c-10.667 0 -19.834 -3.83301 -27.501 -11.5s-11.5 -16.834 -11.5 -27.501c0 -11.333 3.83301 -20.833 11.5 -28.5s16.834 -11.5 27.501 -11.5s19.834 3.83301 27.501 11.5s11.5 17.167 11.5 28.5c0 10.667 -3.83301 19.834 -11.5 27.501
s-16.834 11.5 -27.501 11.5zM493 753c-10.667 0 -19.834 -3.83301 -27.501 -11.5s-11.5 -16.834 -11.5 -27.501c0 -11.333 3.83301 -20.833 11.5 -28.5s16.834 -11.5 27.501 -11.5s19.834 4 27.501 12s11.5 17.333 11.5 28s-3.83301 19.834 -11.5 27.501
s-16.834 11.5 -27.501 11.5zM738 300c0 42.667 -8.66699 83.334 -26 122.001s-41.333 72.667 -72 102s-66.334 52.166 -107.001 68.499s-83.667 24.5 -129 24.5c-44.667 0 -87.334 -8.16699 -128.001 -24.5s-76.334 -39.166 -107.001 -68.499s-54.667 -63.333 -72 -102
s-26 -79.334 -26 -122.001s8.66699 -83.334 26 -122.001s41.333 -72.667 72 -102s66.334 -52.166 107.001 -68.499s83.334 -24.5 128.001 -24.5c45.333 0 88.333 8.16699 129 24.5s76.334 39.166 107.001 68.499s54.667 63.333 72 102s26 79.334 26 122.001zM404 578
c41.333 0 77.333 -8.16699 108 -24.5s55.667 -38.166 75 -65.499s33.5 -57.333 42.5 -90s13.5 -65.334 13.5 -98.001s-4.5 -65.167 -13.5 -97.5s-23.167 -62.166 -42.5 -89.499s-44.333 -49.166 -75 -65.499s-66.667 -24.5 -108 -24.5s-77.166 8.16699 -107.499 24.5
s-55.166 38.166 -74.499 65.499s-33.5 57.166 -42.5 89.499s-13.5 64.833 -13.5 97.5s4.5 65.334 13.5 98.001s23.167 62.667 42.5 90s44.166 49.166 74.499 65.499s66.166 24.5 107.499 24.5z" />
    <glyph glyph-name="multiply" unicode="&#xd7;" horiz-adv-x="0" 
 />
    <glyph glyph-name="Oslash" unicode="&#xd8;" horiz-adv-x="808" 
d="M563 516c27.333 -27.333 47.832 -60.335 61.499 -99.002s20.5 -77.667 20.5 -117c0 -32.667 -4.66699 -65.167 -14 -97.5s-23.666 -62.166 -42.999 -89.499s-44.5 -49.166 -75.5 -65.499s-67.167 -24.5 -108.5 -24.5c-48 0 -90 11.667 -126 35zM246.999 82.998
c-28 26.667 -49.001 59.5 -63.001 98.5s-21 78.5 -21 118.5c0 32.667 4.66699 65.334 14 98.001s23.833 62.667 43.5 90s44.834 49.166 75.501 65.499s66.667 24.5 108 24.5c48.667 0 91.667 -12.333 129 -37zM217.998 37.998l-38.998 -63l36 -18l38 61
c48 -23.333 98.333 -35 151 -35c45.333 0 88.333 8.16699 129 24.5s76.334 39.166 107.001 68.499s54.667 63.333 72 102s26 79.334 26 122.001c0 53.333 -13.167 103 -39.5 149s-61.833 83.667 -106.5 113l40 63l-36 18l-38 -62c-48 24 -99.333 36 -154 36
c-44.667 0 -87.334 -8.16699 -128.001 -24.5s-76.334 -39.166 -107.001 -68.499s-54.667 -63.333 -72 -102s-26 -79.334 -26 -122.001c0 -54 13.167 -104 39.5 -150s62.166 -83.333 107.499 -112z" />
    <glyph glyph-name="Ugrave" unicode="&#xd9;" horiz-adv-x="716" 
d="M402 681l-93.001 88c-9.33301 8 -17.166 13.833 -23.499 17.5s-13.5 5.5 -21.5 5.5c-8.66699 0 -15.5 -3.16699 -20.5 -9.5s-7.5 -12.833 -7.5 -19.5s2.5 -12.667 7.5 -18s10.167 -9.33301 15.5 -12l138 -58zM556.999 463l0.00488281 -245
c0 -62.667 -16.833 -110 -50.5 -142s-78.167 -48 -133.5 -48c-52.667 0 -95 16 -127 48s-48 79.333 -48 142v245c0 26.667 1.16699 47.334 3.5 62.001s6.66602 25.834 12.999 33.501s15.5 13 27.5 16s29 4.5 51 4.5v21h-270v-21c22 0 39 -1.5 51 -4.5
s21.167 -8.33301 27.5 -16s10.666 -18.834 12.999 -33.501s3.5 -35.334 3.5 -62.001v-240c0 -75.333 22.667 -134.166 68 -176.499s102.666 -63.5 171.999 -63.5c70 0 127.667 21.167 173 63.5s68 101.166 68 176.499v240c0 26 1.16699 46.5 3.5 61.5
s6.83301 26.333 13.5 34s16 13 28 16s29 4.5 51 4.5v21h-234v-21c22 0 39.167 -1.5 51.5 -4.5s21.666 -8.33301 27.999 -16s10.666 -19 12.999 -34s3.5 -35.5 3.5 -61.5z" />
    <glyph glyph-name="Uacute" unicode="&#xda;" horiz-adv-x="716" 
d="M495 763c0 6.66699 -2.5 13.167 -7.5 19.5s-11.833 9.5 -20.5 9.5c-7.33301 0 -13.833 -1.66699 -19.5 -5s-13.5 -9.33301 -23.5 -18l-1 -1l-93 -87l5 -7l137 59c5.33301 2.66699 10.5 6.66699 15.5 12s7.5 11.333 7.5 18zM557 463l0.00488281 -245
c0 -62.667 -16.833 -110 -50.5 -142s-78.167 -48 -133.5 -48c-52.667 0 -95 16 -127 48s-48 79.333 -48 142v245c0 26.667 1.16699 47.334 3.5 62.001s6.66602 25.834 12.999 33.501s15.5 13 27.5 16s29 4.5 51 4.5v21h-270v-21c22 0 39 -1.5 51 -4.5
s21.167 -8.33301 27.5 -16s10.666 -18.834 12.999 -33.501s3.5 -35.334 3.5 -62.001v-240c0 -75.333 22.667 -134.166 68 -176.499s102.666 -63.5 171.999 -63.5c70 0 127.667 21.167 173 63.5s68 101.166 68 176.499v240c0 26 1.16699 46.5 3.5 61.5
s6.83301 26.333 13.5 34s16 13 28 16s29 4.5 51 4.5v21h-234v-21c22 0 39.167 -1.5 51.5 -4.5s21.666 -8.33301 27.999 -16s10.666 -19 12.999 -34s3.5 -35.5 3.5 -61.5z" />
    <glyph glyph-name="Ucircumflex" unicode="&#xdb;" horiz-adv-x="716" 
d="M507 686l-120 130l-119 -130l13 -11l106 76l107 -76zM557 463l0.00488281 -245c0 -62.667 -16.833 -110 -50.5 -142s-78.167 -48 -133.5 -48c-52.667 0 -95 16 -127 48s-48 79.333 -48 142v245c0 26.667 1.16699 47.334 3.5 62.001s6.66602 25.834 12.999 33.501
s15.5 13 27.5 16s29 4.5 51 4.5v21h-270v-21c22 0 39 -1.5 51 -4.5s21.167 -8.33301 27.5 -16s10.666 -18.834 12.999 -33.501s3.5 -35.334 3.5 -62.001v-240c0 -75.333 22.667 -134.166 68 -176.499s102.666 -63.5 171.999 -63.5c70 0 127.667 21.167 173 63.5
s68 101.166 68 176.499v240c0 26 1.16699 46.5 3.5 61.5s6.83301 26.333 13.5 34s16 13 28 16s29 4.5 51 4.5v21h-234v-21c22 0 39.167 -1.5 51.5 -4.5s21.666 -8.33301 27.999 -16s10.666 -19 12.999 -34s3.5 -35.5 3.5 -61.5z" />
    <glyph glyph-name="Udieresis" unicode="&#xdc;" horiz-adv-x="716" 
d="M291 754c-10.667 0 -19.834 -3.83301 -27.501 -11.5s-11.5 -16.834 -11.5 -27.501c0 -11.333 3.83301 -20.833 11.5 -28.5s16.834 -11.5 27.501 -11.5s19.834 3.83301 27.501 11.5s11.5 17.167 11.5 28.5c0 10.667 -3.83301 19.834 -11.5 27.501
s-16.834 11.5 -27.501 11.5zM457 754c-10.667 0 -19.834 -3.83301 -27.501 -11.5s-11.5 -16.834 -11.5 -27.501c0 -11.333 3.83301 -20.833 11.5 -28.5s16.834 -11.5 27.501 -11.5s19.834 4 27.501 12s11.5 17.333 11.5 28s-3.83301 19.834 -11.5 27.501
s-16.834 11.5 -27.501 11.5zM557 463l0.00488281 -245c0 -62.667 -16.833 -110 -50.5 -142s-78.167 -48 -133.5 -48c-52.667 0 -95 16 -127 48s-48 79.333 -48 142v245c0 26.667 1.16699 47.334 3.5 62.001s6.66602 25.834 12.999 33.501s15.5 13 27.5 16s29 4.5 51 4.5v21
h-270v-21c22 0 39 -1.5 51 -4.5s21.167 -8.33301 27.5 -16s10.666 -18.834 12.999 -33.501s3.5 -35.334 3.5 -62.001v-240c0 -75.333 22.667 -134.166 68 -176.499s102.666 -63.5 171.999 -63.5c70 0 127.667 21.167 173 63.5s68 101.166 68 176.499v240
c0 26 1.16699 46.5 3.5 61.5s6.83301 26.333 13.5 34s16 13 28 16s29 4.5 51 4.5v21h-234v-21c22 0 39.167 -1.5 51.5 -4.5s21.666 -8.33301 27.999 -16s10.666 -19 12.999 -34s3.5 -35.5 3.5 -61.5z" />
    <glyph glyph-name="Yacute" unicode="&#xdd;" horiz-adv-x="625" 
d="M464 764c0 6.66699 -2.5 13.167 -7.5 19.5s-11.833 9.5 -20.5 9.5c-7.33301 0 -13.833 -1.66699 -19.5 -5s-13.5 -9.33301 -23.5 -18l-1 -1l-93 -87l5 -7l137 59c5.33301 2.66699 10.5 6.66699 15.5 12s7.5 11.333 7.5 18zM353 242l164.997 249.999
c22.667 34 42.834 57 60.501 69s45.834 18 84.501 18v21h-234v-21c49.333 0 74 -9.66699 74 -29c0 -10.667 -6.66699 -26.334 -20 -47.001l-146 -220l-144 220c-12 18.667 -18 33.334 -18 44.001s5.66699 18.667 17 24s29.666 8 54.999 8v21h-285v-21
c34.667 0 62 -6.16699 82 -18.5s41 -35.166 63 -68.499l166 -257v-97c0 -26.667 -1.16699 -47.334 -3.5 -62.001s-6.66602 -26 -12.999 -34s-15.5 -13.5 -27.5 -16.5s-29 -4.5 -51 -4.5v-21h270v21c-22 0 -39 1.5 -51 4.5s-21.167 8.5 -27.5 16.5s-10.666 19.333 -12.999 34
s-3.5 35.334 -3.5 62.001v104z" />
    <glyph glyph-name="Thorn" unicode="&#xde;" horiz-adv-x="513" 
d="M384 167c0 -42 -9.66699 -76.499 -29 -103.499s-47.333 -40.5 -84 -40.5c-22.667 0 -42.834 7.16699 -60.501 21.5s-31.5 33.833 -41.5 58.5v129c10 23.333 23.833 42.166 41.5 56.499s37.834 21.5 60.501 21.5c36.667 0 64.667 -13.333 84 -40s29 -61 29 -103z
M98 454.001l-0.000976562 -566.993c0 -26.667 -1 -47.334 -3 -62.001s-5.66699 -25.834 -11 -33.501s-13 -13 -23 -16s-24 -4.5 -42 -4.5v-21h229v21c-17.333 0 -31 1.5 -41 4.5s-17.667 8.33301 -23 16s-9.16602 19 -11.499 34s-3.5 35.5 -3.5 61.5v156
c15.333 -18.667 33.5 -33.334 54.5 -44.001s43.833 -16 68.5 -16c23.333 0 45.5 4.66699 66.5 14s39.5 22.666 55.5 39.999s28.5 37.166 37.5 59.499s13.5 45.833 13.5 70.5s-4.5 48.167 -13.5 70.5s-21.5 42 -37.5 59s-34.5 30.167 -55.5 39.5s-43.167 14 -66.5 14
c-25.333 0 -48.333 -5.33301 -69 -16s-38.667 -25.334 -54 -44.001v327l-150 -25v-21c18 0 32 -1.5 42 -4.5s17.667 -8.5 23 -16.5s9 -19.333 11 -34s3 -35.334 3 -62.001z" />
    <glyph glyph-name="germandbls" unicode="&#xdf;" horiz-adv-x="525" 
d="M117 429c0 -41.333 -5.6709 -67.666 -17.0039 -78.999s-32 -17 -62 -17v-20h79v-175c0 -26 -1.16699 -46.5 -3.5 -61.5s-6.16602 -26.5 -11.499 -34.5s-13 -13.5 -23 -16.5s-23.667 -4.5 -41 -4.5v-21h150v429c0 54.667 8 94.167 24 118.5s37.667 36.5 65 36.5
c22 0 39.333 -7.83301 52 -23.5s19 -35.167 19 -58.5c0 -22 -4 -41.333 -12 -58s-19.667 -35.667 -35 -57s-26.833 -40 -34.5 -56s-11.5 -34.333 -11.5 -55s5.5 -40.834 16.5 -60.501s27.833 -35.5 50.5 -47.5l56 -30c15.333 -8 28.333 -17.833 39 -29.5s16 -23.5 16 -35.5
c0 -17.333 -5.16699 -31 -15.5 -41s-23.833 -15 -40.5 -15c-33.333 0 -59.833 12.167 -79.5 36.5s-29.5 49.5 -29.5 75.5h-21v-146h21c0 21.333 4 32 12 32c4 0 12.333 -3.33301 25 -10c12 -6.66699 23.333 -12 34 -16s22.334 -6 35.001 -6c33.333 0 61.5 10.167 84.5 30.5
s34.5 46.5 34.5 78.5c0 19.333 -6.16699 37.833 -18.5 55.5s-29.166 32.5 -50.499 44.5l-48 26c-20.667 11.333 -36 22.333 -46 33s-15 23 -15 37c0 19.333 3.83301 35.833 11.5 49.5s18.834 29.167 33.501 46.5c16 18.667 28.167 35.834 36.5 51.501s12.5 35.167 12.5 58.5
c0 33.333 -12.333 62.166 -37 86.499s-56 36.5 -94 36.5c-21.333 0 -41.5 -3.5 -60.5 -10.5s-36 -18.167 -51 -33.5s-27 -35 -36 -59s-13.5 -52.333 -13.5 -85z" />
    <glyph glyph-name="agrave" unicode="&#xe0;" horiz-adv-x="403" 
d="M243 415l-93.001 88c-9.33301 8 -17.166 13.833 -23.499 17.5s-13.5 5.5 -21.5 5.5c-8.66699 0 -15.5 -3.16699 -20.5 -9.5s-7.5 -12.833 -7.5 -19.5s2.5 -12.667 7.5 -18s10.167 -9.33301 15.5 -12l138 -58zM386.999 20l-13.9971 18.999c-4 -4 -8.5 -7.5 -13.5 -10.5
s-9.83301 -4.5 -14.5 -4.5c-15.333 0 -23 13 -23 39v151c0 48 -10.667 82.667 -32 104s-56.333 32 -105 32c-33.333 0 -62.833 -7.5 -88.5 -22.5s-38.5 -34.167 -38.5 -57.5c0 -10 3.33301 -18.333 10 -25s15 -10 25 -10c9.33301 0 17.333 3.33301 24 10s10 15 10 25
c0 14.667 6.16699 26.334 18.5 35.001s25.166 13 38.499 13c27.333 0 45.333 -7.66699 54 -23s13 -42.666 13 -81.999c-31.333 -5.33301 -59.333 -11.833 -84 -19.5s-46.834 -17 -66.501 -28s-35 -24.333 -46 -40s-16.5 -33.834 -16.5 -54.501
c0 -25.333 8.66699 -45.666 26 -60.999s38.666 -23 63.999 -23c20.667 0 40.667 4.66699 60 14s41 24.666 65 45.999c5.33301 -38.667 28 -58 68 -58c24.667 0 46.667 10.333 66 31zM251.002 79.999c-21.333 -18.667 -38.833 -31.332 -52.5 -37.999s-26.5 -10 -38.5 -10
c-13.333 0 -24.5 4.66699 -33.5 14s-13.5 21.666 -13.5 36.999c0 44.667 46 77.667 138 99v-102z" />
    <glyph glyph-name="aacute" unicode="&#xe1;" horiz-adv-x="403" 
d="M307 497c0 6.66699 -2.5 13.167 -7.5 19.5s-11.833 9.5 -20.5 9.5c-7.33301 0 -13.833 -1.66699 -19.5 -5s-13.5 -9.33301 -23.5 -18l-1 -1l-93 -87l5 -7l137 59c5.33301 2.66699 10.5 6.66699 15.5 12s7.5 11.333 7.5 18zM387 20l-13.9971 18.999
c-4 -4 -8.5 -7.5 -13.5 -10.5s-9.83301 -4.5 -14.5 -4.5c-15.333 0 -23 13 -23 39v151c0 48 -10.667 82.667 -32 104s-56.333 32 -105 32c-33.333 0 -62.833 -7.5 -88.5 -22.5s-38.5 -34.167 -38.5 -57.5c0 -10 3.33301 -18.333 10 -25s15 -10 25 -10
c9.33301 0 17.333 3.33301 24 10s10 15 10 25c0 14.667 6.16699 26.334 18.5 35.001s25.166 13 38.499 13c27.333 0 45.333 -7.66699 54 -23s13 -42.666 13 -81.999c-31.333 -5.33301 -59.333 -11.833 -84 -19.5s-46.834 -17 -66.501 -28s-35 -24.333 -46 -40
s-16.5 -33.834 -16.5 -54.501c0 -25.333 8.66699 -45.666 26 -60.999s38.666 -23 63.999 -23c20.667 0 40.667 4.66699 60 14s41 24.666 65 45.999c5.33301 -38.667 28 -58 68 -58c24.667 0 46.667 10.333 66 31zM251.003 79.999
c-21.333 -18.667 -38.833 -31.332 -52.5 -37.999s-26.5 -10 -38.5 -10c-13.333 0 -24.5 4.66699 -33.5 14s-13.5 21.666 -13.5 36.999c0 44.667 46 77.667 138 99v-102z" />
    <glyph glyph-name="acircumflex" unicode="&#xe2;" horiz-adv-x="403" 
d="M313 420l-120 130l-119 -130l13 -11l106 76l107 -76zM387 20l-13.9971 18.999c-4 -4 -8.5 -7.5 -13.5 -10.5s-9.83301 -4.5 -14.5 -4.5c-15.333 0 -23 13 -23 39v151c0 48 -10.667 82.667 -32 104s-56.333 32 -105 32c-33.333 0 -62.833 -7.5 -88.5 -22.5
s-38.5 -34.167 -38.5 -57.5c0 -10 3.33301 -18.333 10 -25s15 -10 25 -10c9.33301 0 17.333 3.33301 24 10s10 15 10 25c0 14.667 6.16699 26.334 18.5 35.001s25.166 13 38.499 13c27.333 0 45.333 -7.66699 54 -23s13 -42.666 13 -81.999
c-31.333 -5.33301 -59.333 -11.833 -84 -19.5s-46.834 -17 -66.501 -28s-35 -24.333 -46 -40s-16.5 -33.834 -16.5 -54.501c0 -25.333 8.66699 -45.666 26 -60.999s38.666 -23 63.999 -23c20.667 0 40.667 4.66699 60 14s41 24.666 65 45.999c5.33301 -38.667 28 -58 68 -58
c24.667 0 46.667 10.333 66 31zM251.003 79.999c-21.333 -18.667 -38.833 -31.332 -52.5 -37.999s-26.5 -10 -38.5 -10c-13.333 0 -24.5 4.66699 -33.5 14s-13.5 21.666 -13.5 36.999c0 44.667 46 77.667 138 99v-102z" />
    <glyph glyph-name="atilde" unicode="&#xe3;" horiz-adv-x="403" 
d="M257 460c-7.33301 0 -15.6689 2.16602 -25.002 6.49902s-21 10.833 -35 19.5c-15.333 10 -27.833 17.333 -37.5 22s-19.167 7 -28.5 7c-18 0 -33.167 -9.16699 -45.5 -27.5s-18.5 -41.5 -18.5 -69.5h15c3.33301 12.667 9 23.5 17 32.5s16.333 13.5 25 13.5
c6 0 13.5 -2.16699 22.5 -6.5s20.167 -10.833 33.5 -19.5c16 -9.33301 29.167 -16.5 39.5 -21.5s19.5 -7.5 27.5 -7.5c20.667 0 37.334 8.83301 50.001 26.5s19 41.834 19 72.501h-16c-7.33301 -32 -21.666 -48 -42.999 -48zM386.997 19.999l-13.9971 18.999
c-4 -4 -8.5 -7.5 -13.5 -10.5s-9.83301 -4.5 -14.5 -4.5c-15.333 0 -23 13 -23 39v151c0 48 -10.667 82.667 -32 104s-56.333 32 -105 32c-33.333 0 -62.833 -7.5 -88.5 -22.5s-38.5 -34.167 -38.5 -57.5c0 -10 3.33301 -18.333 10 -25s15 -10 25 -10
c9.33301 0 17.333 3.33301 24 10s10 15 10 25c0 14.667 6.16699 26.334 18.5 35.001s25.166 13 38.499 13c27.333 0 45.333 -7.66699 54 -23s13 -42.666 13 -81.999c-31.333 -5.33301 -59.333 -11.833 -84 -19.5s-46.834 -17 -66.501 -28s-35 -24.333 -46 -40
s-16.5 -33.834 -16.5 -54.501c0 -25.333 8.66699 -45.666 26 -60.999s38.666 -23 63.999 -23c20.667 0 40.667 4.66699 60 14s41 24.666 65 45.999c5.33301 -38.667 28 -58 68 -58c24.667 0 46.667 10.333 66 31zM251 79.998c-21.333 -18.667 -38.833 -31.332 -52.5 -37.999
s-26.5 -10 -38.5 -10c-13.333 0 -24.5 4.66699 -33.5 14s-13.5 21.666 -13.5 36.999c0 44.667 46 77.667 138 99v-102z" />
    <glyph glyph-name="adieresis" unicode="&#xe4;" horiz-adv-x="403" 
d="M112 487c-10.667 0 -19.834 -3.83301 -27.501 -11.5s-11.5 -16.834 -11.5 -27.501c0 -11.333 3.83301 -20.833 11.5 -28.5s16.834 -11.5 27.501 -11.5s19.834 3.83301 27.501 11.5s11.5 17.167 11.5 28.5c0 10.667 -3.83301 19.834 -11.5 27.501
s-16.834 11.5 -27.501 11.5zM278 487c-10.667 0 -19.834 -3.83301 -27.501 -11.5s-11.5 -16.834 -11.5 -27.501c0 -11.333 3.83301 -20.833 11.5 -28.5s16.834 -11.5 27.501 -11.5s19.834 4 27.501 12s11.5 17.333 11.5 28s-3.83301 19.834 -11.5 27.501
s-16.834 11.5 -27.501 11.5zM387 20l-13.9971 18.999c-4 -4 -8.5 -7.5 -13.5 -10.5s-9.83301 -4.5 -14.5 -4.5c-15.333 0 -23 13 -23 39v151c0 48 -10.667 82.667 -32 104s-56.333 32 -105 32c-33.333 0 -62.833 -7.5 -88.5 -22.5s-38.5 -34.167 -38.5 -57.5
c0 -10 3.33301 -18.333 10 -25s15 -10 25 -10c9.33301 0 17.333 3.33301 24 10s10 15 10 25c0 14.667 6.16699 26.334 18.5 35.001s25.166 13 38.499 13c27.333 0 45.333 -7.66699 54 -23s13 -42.666 13 -81.999c-31.333 -5.33301 -59.333 -11.833 -84 -19.5
s-46.834 -17 -66.501 -28s-35 -24.333 -46 -40s-16.5 -33.834 -16.5 -54.501c0 -25.333 8.66699 -45.666 26 -60.999s38.666 -23 63.999 -23c20.667 0 40.667 4.66699 60 14s41 24.666 65 45.999c5.33301 -38.667 28 -58 68 -58c24.667 0 46.667 10.333 66 31z
M251.003 79.999c-21.333 -18.667 -38.833 -31.332 -52.5 -37.999s-26.5 -10 -38.5 -10c-13.333 0 -24.5 4.66699 -33.5 14s-13.5 21.666 -13.5 36.999c0 44.667 46 77.667 138 99v-102z" />
    <glyph glyph-name="aring" unicode="&#xe5;" horiz-adv-x="403" 
d="M190 572c-22.667 0 -42 -8 -58 -24s-24 -35.333 -24 -58c0 -23.333 8 -43 24 -59s35.333 -24 58 -24c23.333 0 43 8 59 24s24 35.667 24 59c0 22.667 -8 42 -24 58s-35.667 24 -59 24zM190 536c12.667 0 23.5 -4.5 32.5 -13.5s13.5 -19.833 13.5 -32.5
s-4.5 -23.5 -13.5 -32.5s-19.833 -13.5 -32.5 -13.5s-23.5 4.5 -32.5 13.5s-13.5 19.833 -13.5 32.5s4.5 23.5 13.5 32.5s19.833 13.5 32.5 13.5zM387 20l-13.9971 18.999c-4 -4 -8.5 -7.5 -13.5 -10.5s-9.83301 -4.5 -14.5 -4.5c-15.333 0 -23 13 -23 39v151
c0 48 -10.667 82.667 -32 104s-56.333 32 -105 32c-33.333 0 -62.833 -7.5 -88.5 -22.5s-38.5 -34.167 -38.5 -57.5c0 -10 3.33301 -18.333 10 -25s15 -10 25 -10c9.33301 0 17.333 3.33301 24 10s10 15 10 25c0 14.667 6.16699 26.334 18.5 35.001s25.166 13 38.499 13
c27.333 0 45.333 -7.66699 54 -23s13 -42.666 13 -81.999c-31.333 -5.33301 -59.333 -11.833 -84 -19.5s-46.834 -17 -66.501 -28s-35 -24.333 -46 -40s-16.5 -33.834 -16.5 -54.501c0 -25.333 8.66699 -45.666 26 -60.999s38.666 -23 63.999 -23
c20.667 0 40.667 4.66699 60 14s41 24.666 65 45.999c5.33301 -38.667 28 -58 68 -58c24.667 0 46.667 10.333 66 31zM251.003 79.999c-21.333 -18.667 -38.833 -31.332 -52.5 -37.999s-26.5 -10 -38.5 -10c-13.333 0 -24.5 4.66699 -33.5 14s-13.5 21.666 -13.5 36.999
c0 44.667 46 77.667 138 99v-102z" />
    <glyph glyph-name="ae" unicode="&#xe6;" horiz-adv-x="624" 
d="M337 229c7.33301 26 19 46 35 60s37.333 21 64 21c23.333 0 40.833 -6.16699 52.5 -18.5s17.5 -26.833 17.5 -43.5c0 -6.66699 -1 -13 -3 -19h-166zM275 73c16 -27.333 38.002 -49.168 66.002 -65.501s59.667 -24.5 95 -24.5c28 0 55.833 6.16699 83.5 18.5
s50.5 28.166 68.5 47.499l-17 22c-14 -13.333 -31.833 -24.333 -53.5 -33s-40.5 -13 -56.5 -13c-44 0 -77.167 12.333 -99.5 37s-33.5 57.667 -33.5 99c0 10 0.666992 20.333 2 31h242c2.66699 10.667 4 21.667 4 33c0 34.667 -13.667 64.167 -41 88.5
s-60.333 36.5 -99 36.5c-24 0 -47.167 -4.66699 -69.5 -14s-42.5 -22.666 -60.5 -39.999c-19.333 36 -59.666 54 -120.999 54c-33.333 0 -62.833 -7.5 -88.5 -22.5s-38.5 -34.167 -38.5 -57.5c0 -10 3.33301 -18.333 10 -25s15 -10 25 -10c9.33301 0 17.333 3.33301 24 10
s10 15 10 25c0 14.667 6.16699 26.334 18.5 35.001s25.166 13 38.499 13c27.333 0 45.333 -7.5 54 -22.5s13 -42.167 13 -81.5v-1c-31.333 -5.33301 -59.333 -11.833 -84 -19.5s-46.834 -17 -66.501 -28s-35 -24.333 -46 -40s-16.5 -33.834 -16.5 -54.501
c0 -25.333 8.66699 -45.666 26 -60.999s38.666 -23 63.999 -23c34 0 62.5 6.5 85.5 19.5s43.5 35.167 61.5 66.5zM251.002 103.998c-7.33301 -24 -20.666 -42.001 -39.999 -54.001s-36.333 -18 -51 -18c-12.667 0 -23.334 4.16699 -32.001 12.5s-13 19.5 -13 33.5
c0 26.667 10.5 47.834 31.5 63.501s55.833 29.167 104.5 40.5v-78z" />
    <glyph glyph-name="ccedilla" unicode="&#xe7;" horiz-adv-x="393" 
d="M191 -14l-79.002 -79v-14c13.333 4 26.666 6 39.999 6c17.333 0 31.833 -3.33301 43.5 -10s17.5 -16 17.5 -28c0 -11.333 -3 -21.333 -9 -30s-13.5 -16 -22.5 -22s-18 -10.667 -27 -14s-17.833 -6.33301 -26.5 -9v-28c10.667 1.33301 23.834 4.16602 39.501 8.49902
s31.667 10.5 48 18.5s30.166 18.333 41.499 31s17 27.667 17 45c0 24.667 -8.66699 43.5 -26 56.5s-36.666 20.167 -57.999 21.5l44 44c27.333 1.33301 53 7.83301 77 19.5s45 27.167 63 46.5l-17 22c-16 -14.667 -33.5 -26 -52.5 -34s-37.167 -12 -54.5 -12
c-40 0 -70.167 11.833 -90.5 35.5s-30.5 56.167 -30.5 97.5c0 46 9.33301 84.167 28 114.5s41.334 45.5 68.001 45.5c10 0 18.5 -3.33301 25.5 -10s10.5 -17.667 10.5 -33c0 -11.333 3.83301 -20.833 11.5 -28.5s16.834 -11.5 27.501 -11.5c15.333 0 26.5 4.5 33.5 13.5
s10.5 18.833 10.5 29.5c0 20 -10 37 -30 51s-49.667 21 -89 21c-20 0 -40.5 -4.5 -61.5 -13.5s-40.333 -22 -58 -39s-31.667 -37.5 -42 -61.5s-15.5 -50 -15.5 -78c0 -45.333 12.667 -83.666 38 -114.999s60.333 -50.333 105 -57z" />
    <glyph glyph-name="egrave" unicode="&#xe8;" horiz-adv-x="422" 
d="M276 415l-93.001 88c-9.33301 8 -17.166 13.833 -23.499 17.5s-13.5 5.5 -21.5 5.5c-8.66699 0 -15.5 -3.16699 -20.5 -9.5s-7.5 -12.833 -7.5 -19.5s2.5 -12.667 7.5 -18s10.167 -9.33301 15.5 -12l138 -58zM133.999 229c7.33301 24.667 19.501 44.333 36.501 59
s36.167 22 57.5 22c25.333 0 44.166 -6.16699 56.499 -18.5s18.5 -26.833 18.5 -43.5c0 -6.66699 -1 -13 -3 -19h-166zM128 191.999l241.001 0.000976562c3.33301 11.333 5 22.666 5 33.999c0 34.667 -13.833 64 -41.5 88s-60.834 36 -99.501 36
c-23.333 0 -46 -4.5 -68 -13.5s-41.833 -21.833 -59.5 -38.5s-31.667 -36.167 -42 -58.5s-15.5 -46.5 -15.5 -72.5c0 -24.667 4.5 -48.334 13.5 -71.001s21.667 -42.5 38 -59.5s36 -30.167 59 -39.5s47.833 -14 74.5 -14c28 0 56 6.16699 84 18.5s51 28.166 69 47.499
l-18 22c-14 -13.333 -31.667 -24.333 -53 -33s-40.333 -13 -57 -13c-44 0 -77 12.333 -99 37s-33 57.334 -33 98.001c0 10.667 0.666992 21.334 2 32.001z" />
    <glyph glyph-name="eacute" unicode="&#xe9;" horiz-adv-x="422" 
d="M343 497c0 6.66699 -2.5 13.167 -7.5 19.5s-11.833 9.5 -20.5 9.5c-7.33301 0 -13.833 -1.66699 -19.5 -5s-13.5 -9.33301 -23.5 -18l-1 -1l-93 -87l5 -7l137 59c5.33301 2.66699 10.5 6.66699 15.5 12s7.5 11.333 7.5 18zM134 229
c7.33301 24.667 19.501 44.333 36.501 59s36.167 22 57.5 22c25.333 0 44.166 -6.16699 56.499 -18.5s18.5 -26.833 18.5 -43.5c0 -6.66699 -1 -13 -3 -19h-166zM128.001 191.999l241.001 0.000976562c3.33301 11.333 5 22.666 5 33.999c0 34.667 -13.833 64 -41.5 88
s-60.834 36 -99.501 36c-23.333 0 -46 -4.5 -68 -13.5s-41.833 -21.833 -59.5 -38.5s-31.667 -36.167 -42 -58.5s-15.5 -46.5 -15.5 -72.5c0 -24.667 4.5 -48.334 13.5 -71.001s21.667 -42.5 38 -59.5s36 -30.167 59 -39.5s47.833 -14 74.5 -14c28 0 56 6.16699 84 18.5
s51 28.166 69 47.499l-18 22c-14 -13.333 -31.667 -24.333 -53 -33s-40.333 -13 -57 -13c-44 0 -77 12.333 -99 37s-33 57.334 -33 98.001c0 10.667 0.666992 21.334 2 32.001z" />
    <glyph glyph-name="ecircumflex" unicode="&#xea;" horiz-adv-x="422" 
d="M348 420l-120 130l-119 -130l13 -11l106 76l107 -76zM134 229c7.33301 24.667 19.501 44.333 36.501 59s36.167 22 57.5 22c25.333 0 44.166 -6.16699 56.499 -18.5s18.5 -26.833 18.5 -43.5c0 -6.66699 -1 -13 -3 -19h-166zM128.001 191.999l241.001 0.000976562
c3.33301 11.333 5 22.666 5 33.999c0 34.667 -13.833 64 -41.5 88s-60.834 36 -99.501 36c-23.333 0 -46 -4.5 -68 -13.5s-41.833 -21.833 -59.5 -38.5s-31.667 -36.167 -42 -58.5s-15.5 -46.5 -15.5 -72.5c0 -24.667 4.5 -48.334 13.5 -71.001s21.667 -42.5 38 -59.5
s36 -30.167 59 -39.5s47.833 -14 74.5 -14c28 0 56 6.16699 84 18.5s51 28.166 69 47.499l-18 22c-14 -13.333 -31.667 -24.333 -53 -33s-40.333 -13 -57 -13c-44 0 -77 12.333 -99 37s-33 57.334 -33 98.001c0 10.667 0.666992 21.334 2 32.001z" />
    <glyph glyph-name="edieresis" unicode="&#xeb;" horiz-adv-x="422" 
d="M147 487c-10.667 0 -19.834 -3.83301 -27.501 -11.5s-11.5 -16.834 -11.5 -27.501c0 -11.333 3.83301 -20.833 11.5 -28.5s16.834 -11.5 27.501 -11.5s19.834 3.83301 27.501 11.5s11.5 17.167 11.5 28.5c0 10.667 -3.83301 19.834 -11.5 27.501
s-16.834 11.5 -27.501 11.5zM313 487c-10.667 0 -19.834 -3.83301 -27.501 -11.5s-11.5 -16.834 -11.5 -27.501c0 -11.333 3.83301 -20.833 11.5 -28.5s16.834 -11.5 27.501 -11.5s19.834 4 27.501 12s11.5 17.333 11.5 28s-3.83301 19.834 -11.5 27.501
s-16.834 11.5 -27.501 11.5zM134 229c7.33301 24.667 19.501 44.333 36.501 59s36.167 22 57.5 22c25.333 0 44.166 -6.16699 56.499 -18.5s18.5 -26.833 18.5 -43.5c0 -6.66699 -1 -13 -3 -19h-166zM128.001 191.999l241.001 0.000976562c3.33301 11.333 5 22.666 5 33.999
c0 34.667 -13.833 64 -41.5 88s-60.834 36 -99.501 36c-23.333 0 -46 -4.5 -68 -13.5s-41.833 -21.833 -59.5 -38.5s-31.667 -36.167 -42 -58.5s-15.5 -46.5 -15.5 -72.5c0 -24.667 4.5 -48.334 13.5 -71.001s21.667 -42.5 38 -59.5s36 -30.167 59 -39.5
s47.833 -14 74.5 -14c28 0 56 6.16699 84 18.5s51 28.166 69 47.499l-18 22c-14 -13.333 -31.667 -24.333 -53 -33s-40.333 -13 -57 -13c-44 0 -77 12.333 -99 37s-33 57.334 -33 98.001c0 10.667 0.666992 21.334 2 32.001z" />
    <glyph glyph-name="igrave" unicode="&#xec;" horiz-adv-x="286" 
d="M182 415l-93.001 88c-9.33301 8 -17.166 13.833 -23.499 17.5s-13.5 5.5 -21.5 5.5c-8.66699 0 -15.5 -3.16699 -20.5 -9.5s-7.5 -12.833 -7.5 -19.5s2.5 -12.667 7.5 -18s10.167 -9.33301 15.5 -12l138 -58zM266.999 0v20.999c-18 0 -31.833 1.5 -41.5 4.5
s-17.334 8.5 -23.001 16.5s-9.5 19.333 -11.5 34s-3 35.334 -3 62.001v212l-150 -25v-21c17.333 0 31 -1.5 41 -4.5s17.833 -8.33301 23.5 -16s9.5 -19 11.5 -34s3 -35.5 3 -61.5v-50c0 -26 -1.16699 -46.5 -3.5 -61.5s-6.16602 -26.5 -11.499 -34.5s-13 -13.5 -23 -16.5
s-23.667 -4.5 -41 -4.5v-21h229z" />
    <glyph glyph-name="iacute" unicode="&#xed;" horiz-adv-x="286" 
d="M253 497c0 6.66699 -2.5 13.167 -7.5 19.5s-11.833 9.5 -20.5 9.5c-7.33301 0 -13.833 -1.66699 -19.5 -5s-13.5 -9.33301 -23.5 -18l-1 -1l-93 -87l5 -7l137 59c5.33301 2.66699 10.5 6.66699 15.5 12s7.5 11.333 7.5 18zM267 0v20.999c-18 0 -31.833 1.5 -41.5 4.5
s-17.334 8.5 -23.001 16.5s-9.5 19.333 -11.5 34s-3 35.334 -3 62.001v212l-150 -25v-21c17.333 0 31 -1.5 41 -4.5s17.833 -8.33301 23.5 -16s9.5 -19 11.5 -34s3 -35.5 3 -61.5v-50c0 -26 -1.16699 -46.5 -3.5 -61.5s-6.16602 -26.5 -11.499 -34.5s-13 -13.5 -23 -16.5
s-23.667 -4.5 -41 -4.5v-21h229z" />
    <glyph glyph-name="icircumflex" unicode="&#xee;" horiz-adv-x="286" 
d="M264 419l-120 130l-119 -130l13 -11l106 76l107 -76zM267 0v20.999c-18 0 -31.833 1.5 -41.5 4.5s-17.334 8.5 -23.001 16.5s-9.5 19.333 -11.5 34s-3 35.334 -3 62.001v212l-150 -25v-21c17.333 0 31 -1.5 41 -4.5s17.833 -8.33301 23.5 -16s9.5 -19 11.5 -34
s3 -35.5 3 -61.5v-50c0 -26 -1.16699 -46.5 -3.5 -61.5s-6.16602 -26.5 -11.499 -34.5s-13 -13.5 -23 -16.5s-23.667 -4.5 -41 -4.5v-21h229z" />
    <glyph glyph-name="idieresis" unicode="&#xef;" horiz-adv-x="286" 
d="M59 487c-10.667 0 -19.834 -3.83301 -27.501 -11.5s-11.5 -16.834 -11.5 -27.501c0 -11.333 3.83301 -20.833 11.5 -28.5s16.834 -11.5 27.501 -11.5s19.834 3.83301 27.501 11.5s11.5 17.167 11.5 28.5c0 10.667 -3.83301 19.834 -11.5 27.501
s-16.834 11.5 -27.501 11.5zM225 487c-10.667 0 -19.834 -3.83301 -27.501 -11.5s-11.5 -16.834 -11.5 -27.501c0 -11.333 3.83301 -20.833 11.5 -28.5s16.834 -11.5 27.501 -11.5s19.834 4 27.501 12s11.5 17.333 11.5 28s-3.83301 19.834 -11.5 27.501
s-16.834 11.5 -27.501 11.5zM267 0v20.999c-18 0 -31.833 1.5 -41.5 4.5s-17.334 8.5 -23.001 16.5s-9.5 19.333 -11.5 34s-3 35.334 -3 62.001v212l-150 -25v-21c17.333 0 31 -1.5 41 -4.5s17.833 -8.33301 23.5 -16s9.5 -19 11.5 -34s3 -35.5 3 -61.5v-50
c0 -26 -1.16699 -46.5 -3.5 -61.5s-6.16602 -26.5 -11.499 -34.5s-13 -13.5 -23 -16.5s-23.667 -4.5 -41 -4.5v-21h229z" />
    <glyph glyph-name="eth" unicode="&#xf0;" horiz-adv-x="525" 
d="M390 244c-1.33301 -45.333 -6.83105 -83 -16.498 -113s-21.334 -52.833 -35.001 -68.5s-27.334 -26.167 -41.001 -31.5s-26.167 -8 -37.5 -8c-41.333 0 -73.166 14.667 -95.499 44s-33.5 64.333 -33.5 105c0 39.333 11.167 73.5 33.5 102.5s54.166 43.5 95.499 43.5
c30 0 57.667 -7.16699 83 -21.5s41 -31.833 47 -52.5zM326.002 586c-32 22.667 -67.667 34.002 -107 34.002c-48.667 0 -87 -5.83301 -115 -17.5s-42 -24.834 -42 -39.501c0 -4 1 -8 3 -12c5.33301 -8.66699 11.333 -13 18 -13c6 0 16.333 4.66699 31 14
c16.667 11.333 32.667 20.166 48 26.499s34 9.5 56 9.5c28 0 53 -9 75 -27l-135 -101l27 -28l136 101c20 -26.667 36 -61 48 -103s18.667 -85.667 20 -131c-12.667 17.333 -30.5 31.5 -53.5 42.5s-48.167 16.5 -75.5 16.5s-53.333 -4.83301 -78 -14.5
s-46.167 -23.167 -64.5 -40.5s-32.833 -37.333 -43.5 -60s-16 -46.667 -16 -72s5.33301 -49.333 16 -72s25.334 -42.834 44.001 -60.501s40.167 -31.334 64.5 -41.001s50.166 -14.5 77.499 -14.5c22 0 44.333 4.16699 67 12.5s44.5 23 65.5 44s38 50.333 51 88
s19.5 83.834 19.5 138.501c0 56.667 -9.33301 111.5 -28 164.5s-44.667 96.167 -78 129.5l12 9l23 17l24.5 18c9 6.66699 15.167 11.334 18.5 14.001l-28 28z" />
    <glyph glyph-name="ntilde" unicode="&#xf1;" horiz-adv-x="555" 
d="M344 460c-7.33301 0 -15.6689 2.16602 -25.002 6.49902s-21 10.833 -35 19.5c-15.333 10 -27.833 17.333 -37.5 22s-19.167 7 -28.5 7c-18 0 -33.167 -9.16699 -45.5 -27.5s-18.5 -41.5 -18.5 -69.5h15c3.33301 12.667 9 23.5 17 32.5s16.333 13.5 25 13.5
c6 0 13.5 -2.16699 22.5 -6.5s20.167 -10.833 33.5 -19.5c16 -9.33301 29.167 -16.5 39.5 -21.5s19.5 -7.5 27.5 -7.5c20.667 0 37.334 8.83301 50.001 26.5s19 41.834 19 72.501h-16c-7.33301 -32 -21.666 -48 -42.999 -48zM187.997 277.999
c-1.33301 10.667 -3.83008 24.166 -7.49707 40.499s-6.83398 26.833 -9.50098 31.5l-133 -25v-21c17.333 0 31 -1.5 41 -4.5s17.833 -8.33301 23.5 -16s9.5 -19 11.5 -34s3 -35.5 3 -61.5v-50c0 -26 -1.16699 -46.5 -3.5 -61.5s-6.16602 -26.5 -11.499 -34.5
s-13 -13.5 -23 -16.5s-23.667 -4.5 -41 -4.5v-21h220v21c-16.667 0 -29.334 1.33301 -38.001 4s-15.334 8 -20.001 16s-7.83398 19.333 -9.50098 34s-2.5 35.667 -2.5 63v65c0 26.667 12.167 50 36.5 70s50.5 30 78.5 30c28.667 0 49.667 -9.33301 63 -28s20 -45 20 -79v-58
c0 -26 -1.16699 -46.5 -3.5 -61.5s-6.16602 -26.5 -11.499 -34.5s-13 -13.5 -23 -16.5s-23.667 -4.5 -41 -4.5v-21h229v21c-18 0 -31.833 1.5 -41.5 4.5s-17.334 8.5 -23.001 16.5s-9.5 19.333 -11.5 34s-3 35.334 -3 62.001v63c0 44.667 -10.833 80.667 -32.5 108
s-54.167 41 -97.5 41c-30 0 -56.667 -7 -80 -21s-43 -31 -59 -51z" />
    <glyph glyph-name="ograve" unicode="&#xf2;" horiz-adv-x="510" 
d="M283 415l-93.001 88c-9.33301 8 -17.166 13.833 -23.499 17.5s-13.5 5.5 -21.5 5.5c-8.66699 0 -15.5 -3.16699 -20.5 -9.5s-7.5 -12.833 -7.5 -19.5s2.5 -12.667 7.5 -18s10.167 -9.33301 15.5 -12l138 -58zM451.999 167c0 24.667 -5.16602 48.167 -15.499 70.5
s-24.833 42 -43.5 59s-40.334 30.167 -65.001 39.5s-50.667 14 -78 14s-53.333 -4.66699 -78 -14s-46.167 -22.5 -64.5 -39.5s-32.833 -36.667 -43.5 -59s-16 -45.833 -16 -70.5s5.16699 -48.167 15.5 -70.5s25 -42.166 44 -59.499s40.667 -30.666 65 -39.999
s50.166 -14 77.499 -14s53.333 4.66699 78 14s46.334 22.666 65.001 39.999s33.167 37.166 43.5 59.499s15.5 45.833 15.5 70.5zM371 167c0 -42.667 -10.333 -77.5 -31 -104.5s-50.667 -40.5 -90 -40.5s-69.333 13.667 -90 41s-31 62 -31 104s10.333 76.667 31 104
s50.667 41 90 41s69.333 -13.5 90 -40.5s31 -61.833 31 -104.5z" />
    <glyph glyph-name="oacute" unicode="&#xf3;" horiz-adv-x="510" 
d="M357 497c0 6.66699 -2.5 13.167 -7.5 19.5s-11.833 9.5 -20.5 9.5c-7.33301 0 -13.833 -1.66699 -19.5 -5s-13.5 -9.33301 -23.5 -18l-1 -1l-93 -87l5 -7l137 59c5.33301 2.66699 10.5 6.66699 15.5 12s7.5 11.333 7.5 18zM452 167
c0 24.667 -5.16602 48.167 -15.499 70.5s-24.833 42 -43.5 59s-40.334 30.167 -65.001 39.5s-50.667 14 -78 14s-53.333 -4.66699 -78 -14s-46.167 -22.5 -64.5 -39.5s-32.833 -36.667 -43.5 -59s-16 -45.833 -16 -70.5s5.16699 -48.167 15.5 -70.5s25 -42.166 44 -59.499
s40.667 -30.666 65 -39.999s50.166 -14 77.499 -14s53.333 4.66699 78 14s46.334 22.666 65.001 39.999s33.167 37.166 43.5 59.499s15.5 45.833 15.5 70.5zM371.001 167c0 -42.667 -10.333 -77.5 -31 -104.5s-50.667 -40.5 -90 -40.5s-69.333 13.667 -90 41s-31 62 -31 104
s10.333 76.667 31 104s50.667 41 90 41s69.333 -13.5 90 -40.5s31 -61.833 31 -104.5z" />
    <glyph glyph-name="ocircumflex" unicode="&#xf4;" horiz-adv-x="510" 
d="M369 420l-120 130l-119 -130l13 -11l106 76l107 -76zM452 167c0 24.667 -5.16602 48.167 -15.499 70.5s-24.833 42 -43.5 59s-40.334 30.167 -65.001 39.5s-50.667 14 -78 14s-53.333 -4.66699 -78 -14s-46.167 -22.5 -64.5 -39.5s-32.833 -36.667 -43.5 -59
s-16 -45.833 -16 -70.5s5.16699 -48.167 15.5 -70.5s25 -42.166 44 -59.499s40.667 -30.666 65 -39.999s50.166 -14 77.499 -14s53.333 4.66699 78 14s46.334 22.666 65.001 39.999s33.167 37.166 43.5 59.499s15.5 45.833 15.5 70.5zM371.001 167
c0 -42.667 -10.333 -77.5 -31 -104.5s-50.667 -40.5 -90 -40.5s-69.333 13.667 -90 41s-31 62 -31 104s10.333 76.667 31 104s50.667 41 90 41s69.333 -13.5 90 -40.5s31 -61.833 31 -104.5z" />
    <glyph glyph-name="otilde" unicode="&#xf5;" horiz-adv-x="510" 
d="M314 460c-7.33301 0 -15.6689 2.16602 -25.002 6.49902s-21 10.833 -35 19.5c-15.333 10 -27.833 17.333 -37.5 22s-19.167 7 -28.5 7c-18 0 -33.167 -9.16699 -45.5 -27.5s-18.5 -41.5 -18.5 -69.5h15c3.33301 12.667 9 23.5 17 32.5s16.333 13.5 25 13.5
c6 0 13.5 -2.16699 22.5 -6.5s20.167 -10.833 33.5 -19.5c16 -9.33301 29.167 -16.5 39.5 -21.5s19.5 -7.5 27.5 -7.5c20.667 0 37.334 8.83301 50.001 26.5s19 41.834 19 72.501h-16c-7.33301 -32 -21.666 -48 -42.999 -48zM451.997 166.999
c0 24.667 -5.16602 48.167 -15.499 70.5s-24.833 42 -43.5 59s-40.334 30.167 -65.001 39.5s-50.667 14 -78 14s-53.333 -4.66699 -78 -14s-46.167 -22.5 -64.5 -39.5s-32.833 -36.667 -43.5 -59s-16 -45.833 -16 -70.5s5.16699 -48.167 15.5 -70.5s25 -42.166 44 -59.499
s40.667 -30.666 65 -39.999s50.166 -14 77.499 -14s53.333 4.66699 78 14s46.334 22.666 65.001 39.999s33.167 37.166 43.5 59.499s15.5 45.833 15.5 70.5zM370.998 166.999c0 -42.667 -10.333 -77.5 -31 -104.5s-50.667 -40.5 -90 -40.5s-69.333 13.667 -90 41
s-31 62 -31 104s10.333 76.667 31 104s50.667 41 90 41s69.333 -13.5 90 -40.5s31 -61.833 31 -104.5z" />
    <glyph glyph-name="odieresis" unicode="&#xf6;" horiz-adv-x="510" 
d="M165 487c-10.667 0 -19.834 -3.83301 -27.501 -11.5s-11.5 -16.834 -11.5 -27.501c0 -11.333 3.83301 -20.833 11.5 -28.5s16.834 -11.5 27.501 -11.5s19.834 3.83301 27.501 11.5s11.5 17.167 11.5 28.5c0 10.667 -3.83301 19.834 -11.5 27.501
s-16.834 11.5 -27.501 11.5zM331 487c-10.667 0 -19.834 -3.83301 -27.501 -11.5s-11.5 -16.834 -11.5 -27.501c0 -11.333 3.83301 -20.833 11.5 -28.5s16.834 -11.5 27.501 -11.5s19.834 4 27.501 12s11.5 17.333 11.5 28s-3.83301 19.834 -11.5 27.501
s-16.834 11.5 -27.501 11.5zM452 167c0 24.667 -5.16602 48.167 -15.499 70.5s-24.833 42 -43.5 59s-40.334 30.167 -65.001 39.5s-50.667 14 -78 14s-53.333 -4.66699 -78 -14s-46.167 -22.5 -64.5 -39.5s-32.833 -36.667 -43.5 -59s-16 -45.833 -16 -70.5
s5.16699 -48.167 15.5 -70.5s25 -42.166 44 -59.499s40.667 -30.666 65 -39.999s50.166 -14 77.499 -14s53.333 4.66699 78 14s46.334 22.666 65.001 39.999s33.167 37.166 43.5 59.499s15.5 45.833 15.5 70.5zM371.001 167c0 -42.667 -10.333 -77.5 -31 -104.5
s-50.667 -40.5 -90 -40.5s-69.333 13.667 -90 41s-31 62 -31 104s10.333 76.667 31 104s50.667 41 90 41s69.333 -13.5 90 -40.5s31 -61.833 31 -104.5z" />
    <glyph glyph-name="divide" unicode="&#xf7;" horiz-adv-x="458" 
d="M375 199v44h-292v-44h292zM277 84c0 12.667 -5 23.998 -15 33.998s-21.333 15 -34 15s-23.5 -4.83301 -32.5 -14.5s-13.5 -21.167 -13.5 -34.5s4.5 -24.666 13.5 -33.999s19.833 -14 32.5 -14c13.333 0 24.833 4.83301 34.5 14.5s14.5 20.834 14.5 33.501zM277 357.998
c0 12.667 -5 24 -15 34s-21.333 15 -34 15s-23.5 -4.83301 -32.5 -14.5s-13.5 -21.167 -13.5 -34.5c0 -12.667 4.5 -23.834 13.5 -33.501s19.833 -14.5 32.5 -14.5s24 4.83301 34 14.5s15 20.834 15 33.501z" />
    <glyph glyph-name="oslash" unicode="&#xf8;" horiz-adv-x="513" 
d="M343 276c25.333 -27.333 38 -63.667 38 -109c0 -42.667 -11 -77.5 -33 -104.5s-54 -40.5 -96 -40.5c-23.333 0 -43 4 -59 12zM160 57.999c-24.667 24.667 -37.002 61 -37.002 109c0 42.667 10.833 77.5 32.5 104.5s53.834 40.5 96.501 40.5
c22.667 0 42.334 -4.33301 59.001 -13zM134.998 17.999l-26.999 -42.998l36 -18l26 42c26.667 -10.667 54 -16 82 -16c27.333 0 53.166 4.66699 77.499 14s45.833 22.666 64.5 39.999s33.167 37.166 43.5 59.499s15.5 45.833 15.5 70.5c0 30 -7.66699 58.167 -23 84.5
s-36 47.833 -62 64.5l26 42l-36 18l-25 -42c-26.667 10.667 -53.667 16 -81 16s-53.333 -4.66699 -78 -14s-46.167 -22.5 -64.5 -39.5s-32.833 -36.667 -43.5 -59s-16 -45.833 -16 -70.5c0 -30 7.66699 -58.167 23 -84.5s36 -47.833 62 -64.5z" />
    <glyph glyph-name="ugrave" unicode="&#xf9;" horiz-adv-x="522" 
d="M281 414l-93.001 88c-9.33301 8 -17.166 13.833 -23.499 17.5s-13.5 5.5 -21.5 5.5c-8.66699 0 -15.5 -3.16699 -20.5 -9.5s-7.5 -12.833 -7.5 -19.5s2.5 -12.667 7.5 -18s10.167 -9.33301 15.5 -12l138 -58zM502.999 8v21.0039c-18 0 -32 1.5 -42 4.5
s-17.667 8.5 -23 16.5s-9.16602 19.5 -11.499 34.5s-3.5 35.5 -3.5 61.5v187h-150v-20c18 0 32 -1.5 42 -4.5s17.667 -8.5 23 -16.5s9.16602 -19.5 11.499 -34.5s3.5 -35.5 3.5 -61.5v-66c0 -14.667 -3.66699 -28.167 -11 -40.5s-16.5 -22.833 -27.5 -31.5
s-22.833 -15.334 -35.5 -20.001s-24 -7 -34 -7c-26 0 -45.167 9.33301 -57.5 28s-18.5 45 -18.5 79v195h-150v-20c18 0 32 -1.5 42 -4.5s17.667 -8.5 23 -16.5s9 -19.333 11 -34s3 -35.334 3 -62.001v-63c0 -46 9.83301 -82.5 29.5 -109.5s51.167 -40.5 94.5 -40.5
c26 0 50.333 6.5 73 19.5s42 27.833 58 44.5c2 -10.667 4.66699 -22.834 8 -36.501s6 -22.834 8 -27.501z" />
    <glyph glyph-name="uacute" unicode="&#xfa;" horiz-adv-x="522" 
d="M355 496c0 6.66699 -2.5 13.167 -7.5 19.5s-11.833 9.5 -20.5 9.5c-7.33301 0 -13.833 -1.66699 -19.5 -5s-13.5 -9.33301 -23.5 -18l-1 -1l-93 -87l5 -7l137 59c5.33301 2.66699 10.5 6.66699 15.5 12s7.5 11.333 7.5 18zM503 8v21.0039c-18 0 -32 1.5 -42 4.5
s-17.667 8.5 -23 16.5s-9.16602 19.5 -11.499 34.5s-3.5 35.5 -3.5 61.5v187h-150v-20c18 0 32 -1.5 42 -4.5s17.667 -8.5 23 -16.5s9.16602 -19.5 11.499 -34.5s3.5 -35.5 3.5 -61.5v-66c0 -14.667 -3.66699 -28.167 -11 -40.5s-16.5 -22.833 -27.5 -31.5
s-22.833 -15.334 -35.5 -20.001s-24 -7 -34 -7c-26 0 -45.167 9.33301 -57.5 28s-18.5 45 -18.5 79v195h-150v-20c18 0 32 -1.5 42 -4.5s17.667 -8.5 23 -16.5s9 -19.333 11 -34s3 -35.334 3 -62.001v-63c0 -46 9.83301 -82.5 29.5 -109.5s51.167 -40.5 94.5 -40.5
c26 0 50.333 6.5 73 19.5s42 27.833 58 44.5c2 -10.667 4.66699 -22.834 8 -36.501s6 -22.834 8 -27.501z" />
    <glyph glyph-name="ucircumflex" unicode="&#xfb;" horiz-adv-x="522" 
d="M358 420l-120 130l-119 -130l13 -11l106 76l107 -76zM503 8v21.0039c-18 0 -32 1.5 -42 4.5s-17.667 8.5 -23 16.5s-9.16602 19.5 -11.499 34.5s-3.5 35.5 -3.5 61.5v187h-150v-20c18 0 32 -1.5 42 -4.5s17.667 -8.5 23 -16.5s9.16602 -19.5 11.499 -34.5
s3.5 -35.5 3.5 -61.5v-66c0 -14.667 -3.66699 -28.167 -11 -40.5s-16.5 -22.833 -27.5 -31.5s-22.833 -15.334 -35.5 -20.001s-24 -7 -34 -7c-26 0 -45.167 9.33301 -57.5 28s-18.5 45 -18.5 79v195h-150v-20c18 0 32 -1.5 42 -4.5s17.667 -8.5 23 -16.5s9 -19.333 11 -34
s3 -35.334 3 -62.001v-63c0 -46 9.83301 -82.5 29.5 -109.5s51.167 -40.5 94.5 -40.5c26 0 50.333 6.5 73 19.5s42 27.833 58 44.5c2 -10.667 4.66699 -22.834 8 -36.501s6 -22.834 8 -27.501z" />
    <glyph glyph-name="udieresis" unicode="&#xfc;" horiz-adv-x="522" 
d="M168 487c-10.667 0 -19.834 -3.83301 -27.501 -11.5s-11.5 -16.834 -11.5 -27.501c0 -11.333 3.83301 -20.833 11.5 -28.5s16.834 -11.5 27.501 -11.5s19.834 3.83301 27.501 11.5s11.5 17.167 11.5 28.5c0 10.667 -3.83301 19.834 -11.5 27.501
s-16.834 11.5 -27.501 11.5zM334 487c-10.667 0 -19.834 -3.83301 -27.501 -11.5s-11.5 -16.834 -11.5 -27.501c0 -11.333 3.83301 -20.833 11.5 -28.5s16.834 -11.5 27.501 -11.5s19.834 4 27.501 12s11.5 17.333 11.5 28s-3.83301 19.834 -11.5 27.501
s-16.834 11.5 -27.501 11.5zM503 8v21.0039c-18 0 -32 1.5 -42 4.5s-17.667 8.5 -23 16.5s-9.16602 19.5 -11.499 34.5s-3.5 35.5 -3.5 61.5v187h-150v-20c18 0 32 -1.5 42 -4.5s17.667 -8.5 23 -16.5s9.16602 -19.5 11.499 -34.5s3.5 -35.5 3.5 -61.5v-66
c0 -14.667 -3.66699 -28.167 -11 -40.5s-16.5 -22.833 -27.5 -31.5s-22.833 -15.334 -35.5 -20.001s-24 -7 -34 -7c-26 0 -45.167 9.33301 -57.5 28s-18.5 45 -18.5 79v195h-150v-20c18 0 32 -1.5 42 -4.5s17.667 -8.5 23 -16.5s9 -19.333 11 -34s3 -35.334 3 -62.001v-63
c0 -46 9.83301 -82.5 29.5 -109.5s51.167 -40.5 94.5 -40.5c26 0 50.333 6.5 73 19.5s42 27.833 58 44.5c2 -10.667 4.66699 -22.834 8 -36.501s6 -22.834 8 -27.501z" />
    <glyph glyph-name="yacute" unicode="&#xfd;" horiz-adv-x="373" 
d="M330 497c0 6.66699 -2.5 13.167 -7.5 19.5s-11.833 9.5 -20.5 9.5c-7.33301 0 -13.833 -1.66699 -19.5 -5s-13.5 -9.33301 -23.5 -18l-1 -1l-93 -87l5 -7l137 59c5.33301 2.66699 10.5 6.66699 15.5 12s7.5 11.333 7.5 18zM38 -237c0 -11.333 3.33301 -19.668 10 -25.001
s14.334 -8 23.001 -8c7.33301 0 14.333 3.5 21 10.5s12 15.833 16 26.5l195 487c8.66699 21.333 18.667 36.5 30 45.5s25 13.5 41 13.5v20h-140v-20c26 0 39 -7.66699 39 -23c0 -8 -3.33301 -20 -10 -36l-64 -160l-73 160c-8 16.667 -12 29.334 -12 38.001
c0 14 14.667 21 44 21v20h-177v-20c16 0 28.667 -4.16699 38 -12.5s19 -23.833 29 -46.5l115 -249l-50 -125c-6.66699 -18 -14 -32.333 -22 -43s-17.667 -21.667 -29 -33c-8.66699 -8 -14.834 -14.833 -18.501 -20.5s-5.5 -12.5 -5.5 -20.5z" />
    <glyph glyph-name="thorn" unicode="&#xfe;" horiz-adv-x="540" 
d="M301 174l-88 0.00195312v264h88c41.333 0 72.833 -12.333 94.5 -37s32.5 -56.334 32.5 -95.001s-10.833 -70.334 -32.5 -95.001s-53.167 -37 -94.5 -37zM133 475.002l-0.00195312 -337c0 -26.667 -1.16699 -47.334 -3.5 -62.001s-6.66602 -26 -12.999 -34
s-15.5 -13.5 -27.5 -16.5s-29 -4.5 -51 -4.5v-21h270v21c-22 0 -39 1.5 -51 4.5s-21.167 8.5 -27.5 16.5s-10.666 19.333 -12.999 34s-3.5 35.334 -3.5 62.001h89c66 0 118.333 16 157 48s58 72 58 120s-19.333 88.167 -58 120.5s-91 48.5 -157 48.5h-89
c0 23.333 1.33301 41.666 4 54.999s7.16699 23.5 13.5 30.5s15.5 11.833 27.5 14.5s28.667 4 50 4v21h-270v-21c21.333 0 38 -1.33301 50 -4s21.167 -7.5 27.5 -14.5s10.833 -17.167 13.5 -30.5s4 -31.666 4 -54.999z" />
    <glyph glyph-name="ydieresis" unicode="&#xff;" horiz-adv-x="373" 
d="M101 487c-10.667 0 -19.834 -3.83301 -27.501 -11.5s-11.5 -16.834 -11.5 -27.501c0 -11.333 3.83301 -20.833 11.5 -28.5s16.834 -11.5 27.501 -11.5s19.834 3.83301 27.501 11.5s11.5 17.167 11.5 28.5c0 10.667 -3.83301 19.834 -11.5 27.501
s-16.834 11.5 -27.501 11.5zM267 487c-10.667 0 -19.834 -3.83301 -27.501 -11.5s-11.5 -16.834 -11.5 -27.501c0 -11.333 3.83301 -20.833 11.5 -28.5s16.834 -11.5 27.501 -11.5s19.834 4 27.501 12s11.5 17.333 11.5 28s-3.83301 19.834 -11.5 27.501
s-16.834 11.5 -27.501 11.5zM38 -237c0 -11.333 3.33301 -19.668 10 -25.001s14.334 -8 23.001 -8c7.33301 0 14.333 3.5 21 10.5s12 15.833 16 26.5l195 487c8.66699 21.333 18.667 36.5 30 45.5s25 13.5 41 13.5v20h-140v-20c26 0 39 -7.66699 39 -23
c0 -8 -3.33301 -20 -10 -36l-64 -160l-73 160c-8 16.667 -12 29.334 -12 38.001c0 14 14.667 21 44 21v20h-177v-20c16 0 28.667 -4.16699 38 -12.5s19 -23.833 29 -46.5l115 -249l-50 -125c-6.66699 -18 -14 -32.333 -22 -43s-17.667 -21.667 -29 -33
c-8.66699 -8 -14.834 -14.833 -18.501 -20.5s-5.5 -12.5 -5.5 -20.5z" />
    <glyph glyph-name="OE" unicode="&#x152;" horiz-adv-x="934" 
d="M512 600c-34.667 11.333 -70.666 16.9961 -107.999 16.9961c-44.667 0 -87.334 -8.16699 -128.001 -24.5s-76.334 -39.166 -107.001 -68.499s-54.667 -63.333 -72 -102s-26 -79.334 -26 -122.001s8.66699 -83.334 26 -122.001s41.333 -72.667 72 -102
s66.334 -52.166 107.001 -68.499s83.334 -24.5 128.001 -24.5c37.333 0 73 5.66699 107 17h368l9 133h-21l-5 -20c-8 -29.333 -18.667 -49.333 -32 -60s-41.333 -16 -84 -16h-86c-22 0 -39 1.5 -51 4.5s-21.333 8.33301 -28 16s-11.167 19 -13.5 34s-3.5 35.5 -3.5 61.5v146
h50c26.667 0 47.334 -1.16699 62.001 -3.5s26 -6.66602 34 -12.999s13.5 -15.5 16.5 -27.5s4.5 -29.333 4.5 -52h21v229h-21c0 -22 -1.5 -39.167 -4.5 -51.5s-8.5 -21.666 -16.5 -27.999s-19.333 -10.666 -34 -12.999s-35.334 -3.5 -62.001 -3.5h-50v227h149
c42.667 0 70.667 -5.16699 84 -15.5s23.666 -30.166 30.999 -59.499l5 -20h21l-8 132h-334zM404.001 577.996c29.333 0 56.333 -4.66504 81 -13.998v-528c-26 -8.66699 -53 -13 -81 -13c-41.333 0 -77.166 8.16699 -107.499 24.5s-55.166 38.166 -74.499 65.499
s-33.5 57.166 -42.5 89.499s-13.5 64.833 -13.5 97.5s4.5 65.334 13.5 98.001s23.167 62.667 42.5 90s44.166 49.166 74.499 65.499s66.166 24.5 107.499 24.5z" />
    <glyph glyph-name="oe" unicode="&#x153;" horiz-adv-x="744" 
d="M457 229c7.33301 26 19 46 35 60s37.333 21 64 21c23.333 0 40.833 -6.16699 52.5 -18.5s17.5 -26.833 17.5 -43.5c0 -6.66699 -1 -13 -3 -19h-166zM408 53c16.667 -22 37.6709 -39.168 63.0039 -51.501s53.666 -18.5 84.999 -18.5c28 0 55.833 6.16699 83.5 18.5
s50.5 28.166 68.5 47.499l-17 22c-14 -13.333 -31.833 -24.333 -53.5 -33s-40.5 -13 -56.5 -13c-44 0 -77.167 12.333 -99.5 37s-33.5 57.667 -33.5 99c0 10 0.666992 20.333 2 31h242c2.66699 10.667 4 21.667 4 33c0 34.667 -13.667 64.167 -41 88.5
s-60.333 36.5 -99 36.5c-28 0 -55 -6.33301 -81 -19s-47.667 -30.334 -65 -53.001c-18.667 22.667 -42 40.334 -70 53.001s-58 19 -90 19c-27.333 0 -53.333 -4.66699 -78 -14s-46.167 -22.5 -64.5 -39.5s-32.833 -36.667 -43.5 -59s-16 -45.833 -16 -70.5
s5.16699 -48.167 15.5 -70.5s25 -42.166 44 -59.499s40.667 -30.666 65 -39.999s50.166 -14 77.499 -14c31.333 0 60.666 6.16699 87.999 18.5s50.666 29.5 69.999 51.5zM371.004 166.999c0 -42.667 -10.333 -77.5 -31 -104.5s-50.667 -40.5 -90 -40.5
s-69.333 13.667 -90 41s-31 62 -31 104s10.333 76.667 31 104s50.667 41 90 41s69.333 -13.5 90 -40.5s31 -61.833 31 -104.5z" />
    <glyph glyph-name="Scaron" unicode="&#x160;" horiz-adv-x="498" 
d="M364 803l-12 12l-107 -76l-107 76l-12 -12l119 -129zM107 30c7.33301 -1.33301 19.334 -6.33398 36.001 -15.001c20.667 -9.33301 40.167 -17 58.5 -23s38.833 -9 61.5 -9c26 0 50.5 4.33301 73.5 13s43.167 20.834 60.5 36.501s31 34.667 41 57s15 46.833 15 73.5
c0 30 -8.33301 58.333 -25 85s-43 49 -79 67l-96 49c-45.333 24 -76.833 44.5 -94.5 61.5s-26.5 37.833 -26.5 62.5c0 25.333 9.16699 46.5 27.5 63.5s41.5 25.5 69.5 25.5s51.5 -5 70.5 -15s34.167 -23.5 45.5 -40.5s19.833 -35.5 25.5 -55.5s9.5 -41.333 11.5 -64h21v220
h-20c-4 -18 -13.667 -33.333 -29 -46c-18 13.333 -36.167 23.5 -54.5 30.5s-40.833 10.5 -67.5 10.5c-48 0 -87.667 -14.333 -119 -43s-47 -64 -47 -106c0 -36 10.667 -68.333 32 -97s47.666 -51.334 78.999 -68.001l96 -49c36.667 -19.333 65 -38.833 85 -58.5
s30 -40.5 30 -62.5c0 -32 -11.833 -58.333 -35.5 -79s-53.5 -31 -89.5 -31c-42 0 -76 8.5 -102 25.5s-44.833 36.667 -56.5 59s-19 42 -22 59s-4.5 29.167 -4.5 36.5h-20v-220h20c4 18.667 13.667 34.334 29 47.001z" />
    <glyph glyph-name="scaron" unicode="&#x161;" horiz-adv-x="323" 
d="M286 537l-12 12l-107 -76l-107 76l-12 -12l119 -129zM289 92c0 18 -6.00391 35.335 -18.0039 52.002s-29 31.334 -51 44.001l-48 26c-23.333 12.667 -39.333 23.167 -48 31.5s-13 18.166 -13 29.499c0 28.667 17 43 51 43c24.667 0 44.334 -8.33301 59.001 -25
s22 -36.334 22 -59.001h21v116h-21c0 -15.333 -2.33301 -23 -7 -23c-2 0 -6.33301 1.66699 -13 5c-10 5.33301 -20.333 9.66602 -31 12.999s-23.667 5 -39 5c-27.333 0 -51.166 -8.66699 -71.499 -26s-30.5 -39 -30.5 -65c0 -18 5.5 -36.167 16.5 -54.5
s27.833 -33.5 50.5 -45.5l55 -30c18.667 -9.33301 32.667 -18.833 42 -28.5s14 -20.5 14 -32.5c0 -14 -5.33301 -26 -16 -36s-24 -15 -40 -15c-33.333 0 -60 12.167 -80 36.5s-30 49.5 -30 75.5h-20v-146h20c0 21.333 4 32 12 32c4.66699 0 13 -3.33301 25 -10
c12.667 -6.66699 24.334 -12 35.001 -16s22.334 -6 35.001 -6c33.333 0 61.5 10.167 84.5 30.5s34.5 46.5 34.5 78.5z" />
    <glyph glyph-name="Ydieresis" unicode="&#x178;" horiz-adv-x="625" 
d="M245 753c-10.667 0 -19.834 -3.83301 -27.501 -11.5s-11.5 -16.834 -11.5 -27.501c0 -11.333 3.83301 -20.833 11.5 -28.5s16.834 -11.5 27.501 -11.5s19.834 3.83301 27.501 11.5s11.5 17.167 11.5 28.5c0 10.667 -3.83301 19.834 -11.5 27.501
s-16.834 11.5 -27.501 11.5zM411 753c-10.667 0 -19.834 -3.83301 -27.501 -11.5s-11.5 -16.834 -11.5 -27.501c0 -11.333 3.83301 -20.833 11.5 -28.5s16.834 -11.5 27.501 -11.5s19.834 4 27.501 12s11.5 17.333 11.5 28s-3.83301 19.834 -11.5 27.501
s-16.834 11.5 -27.501 11.5zM353 242l164.997 249.999c22.667 34 42.834 57 60.501 69s45.834 18 84.501 18v21h-234v-21c49.333 0 74 -9.66699 74 -29c0 -10.667 -6.66699 -26.334 -20 -47.001l-146 -220l-144 220c-12 18.667 -18 33.334 -18 44.001s5.66699 18.667 17 24
s29.666 8 54.999 8v21h-285v-21c34.667 0 62 -6.16699 82 -18.5s41 -35.166 63 -68.499l166 -257v-97c0 -26.667 -1.16699 -47.334 -3.5 -62.001s-6.66602 -26 -12.999 -34s-15.5 -13.5 -27.5 -16.5s-29 -4.5 -51 -4.5v-21h270v21c-22 0 -39 1.5 -51 4.5
s-21.167 8.5 -27.5 16.5s-10.666 19.333 -12.999 34s-3.5 35.334 -3.5 62.001v104z" />
    <glyph glyph-name="florin" unicode="&#x192;" horiz-adv-x="316" 
d="M189 -78l0.00292969 375.999h101v35h-101v96c0 56 6 95.833 18 119.5s31 35.5 57 35.5c15.333 0 26.166 -3.66699 32.499 -11s12.166 -18 17.499 -32c4.66699 -11.333 9.16699 -19.833 13.5 -25.5s11.5 -8.5 21.5 -8.5c22 0 33 11.333 33 34
c0 18.667 -8.83301 36 -26.5 52s-41.834 24 -72.501 24c-21.333 0 -41.833 -3.5 -61.5 -10.5s-37.334 -18.167 -53.001 -33.5s-28 -35 -37 -59s-13.5 -52.333 -13.5 -85v-96h-81v-35h81v-376c0 -58.667 -6.16699 -99.334 -18.5 -122.001s-29.5 -34 -51.5 -34
c-16 0 -27.667 3.5 -35 10.5s-14 17.5 -20 31.5c-5.33301 12 -10.666 21 -15.999 27s-13.666 9 -24.999 9c-17.333 -1.33301 -26 -10.666 -26 -27.999c0 -19.333 10.667 -38 32 -56s49.666 -27 84.999 -27c41.333 0 76 15.833 104 47.5s42 78.834 42 141.501z" />
    <glyph glyph-name="circumflex" unicode="&#x2c6;" horiz-adv-x="342" 
d="M273 533l-120 130l-119 -130l13 -11l106 76l107 -76z" />
    <glyph glyph-name="tilde" unicode="&#x2dc;" horiz-adv-x="300" 
d="M212 603c-7.33301 0 -15.6689 2.16602 -25.002 6.49902s-21 10.833 -35 19.5c-15.333 10 -27.833 17.333 -37.5 22s-19.167 7 -28.5 7c-18 0 -33.167 -9.16699 -45.5 -27.5s-18.5 -41.5 -18.5 -69.5h15c3.33301 12.667 9 23.5 17 32.5s16.333 13.5 25 13.5
c6 0 13.5 -2.16699 22.5 -6.5s20.167 -10.833 33.5 -19.5c16 -9.33301 29.167 -16.5 39.5 -21.5s19.5 -7.5 27.5 -7.5c20.667 0 37.334 8.83301 50.001 26.5s19 41.834 19 72.501h-16c-7.33301 -32 -21.666 -48 -42.999 -48z" />
    <glyph glyph-name="endash" unicode="&#x2013;" horiz-adv-x="525" 
d="M525 183v44h-526v-44h526z" />
    <glyph glyph-name="emdash" unicode="&#x2014;" horiz-adv-x="667" 
d="M667 183v44h-668v-44h668z" />
    <glyph glyph-name="quoteleft" unicode="&#x2018;" horiz-adv-x="252" 
d="M178 414c-18 18.667 -31.167 36.166 -39.5 52.499s-14.166 34.5 -17.499 54.5c1.33301 -0.666992 4 -1 8 -1c12.667 0 23.667 4.83301 33 14.5s14 20.834 14 33.501c0 13.333 -4.66699 24.833 -14 34.5s-20.333 14.5 -33 14.5c-14.667 0 -27.334 -5.5 -38.001 -16.5
s-16 -26.833 -16 -47.5c0 -24 8 -50.5 24 -79.5s38.667 -52.5 68 -70.5z" />
    <glyph glyph-name="quoteright" unicode="&#x2019;" horiz-adv-x="268" 
d="M130 521c-3.33301 -20 -9.16602 -38.166 -17.499 -54.499s-21.5 -33.833 -39.5 -52.5l11 -11c29.333 18 52 41.5 68 70.5s24 55.5 24 79.5c0 20.667 -5.33301 36.5 -16 47.5s-23.334 16.5 -38.001 16.5c-12.667 0 -23.667 -4.83301 -33 -14.5s-14 -21.167 -14 -34.5
c0 -12.667 4.66699 -23.834 14 -33.501s20.333 -14.5 33 -14.5c4 0 6.66699 0.333008 8 1z" />
    <glyph glyph-name="quotesinglbase" unicode="&#x201a;" horiz-adv-x="292" 
d="M133 -8c-2.66699 -19.333 -8.16602 -37.001 -16.499 -53.001s-21.833 -33.667 -40.5 -53l12 -12c28.667 18 51 41.667 67 71s24 56 24 80c0 20.667 -5.33301 36.334 -16 47.001s-23.334 16 -38.001 16c-12.667 0 -23.667 -4.66699 -33 -14s-14 -20.666 -14 -33.999
c0 -12.667 4.66699 -23.834 14 -33.501s20.333 -14.5 33 -14.5h8z" />
    <glyph glyph-name="quotedblleft" unicode="&#x201c;" horiz-adv-x="418" 
d="M345 414c-18.667 19.333 -32.166 37.168 -40.499 53.501s-13.833 34.166 -16.5 53.499c1.33301 -0.666992 4 -1 8 -1c12.667 0 23.667 4.83301 33 14.5s14 20.834 14 33.501c0 13.333 -4.66699 24.833 -14 34.5s-20.333 14.5 -33 14.5
c-14.667 0 -27.334 -5.5 -38.001 -16.5s-16 -26.833 -16 -47.5c0 -24 8 -50.333 24 -79s38.333 -52.334 67 -71.001zM178.001 414.002c-18 18.667 -31.167 36.166 -39.5 52.499s-14.166 34.5 -17.499 54.5c1.33301 -0.666992 4 -1 8 -1c12.667 0 23.667 4.83301 33 14.5
s14 20.834 14 33.501c0 13.333 -4.66699 24.833 -14 34.5s-20.333 14.5 -33 14.5c-14.667 0 -27.334 -5.5 -38.001 -16.5s-16 -26.833 -16 -47.5c0 -24 8 -50.5 24 -79.5s38.667 -52.5 68 -70.5z" />
    <glyph glyph-name="quotedblright" unicode="&#x201d;" horiz-adv-x="418" 
d="M130 521c-3.33301 -20 -9.16602 -38.166 -17.499 -54.499s-21.5 -33.833 -39.5 -52.5l11 -11c29.333 18 52 41.5 68 70.5s24 55.5 24 79.5c0 20.667 -5.33301 36.5 -16 47.5s-23.334 16.5 -38.001 16.5c-12.667 0 -23.667 -4.83301 -33 -14.5s-14 -21.167 -14 -34.5
c0 -12.667 4.66699 -23.834 14 -33.501s20.333 -14.5 33 -14.5c4 0 6.66699 0.333008 8 1zM297 521.001c-3.33301 -20 -9.16699 -37.999 -17.5 -53.999s-21.833 -33.667 -40.5 -53l12 -11c29.333 18 52 41.5 68 70.5s24 55.5 24 79.5c0 20.667 -5.5 36.5 -16.5 47.5
s-23.833 16.5 -38.5 16.5c-12.667 0 -23.5 -4.83301 -32.5 -14.5s-13.5 -21.167 -13.5 -34.5c0 -12.667 4.5 -23.834 13.5 -33.501s19.833 -14.5 32.5 -14.5c4 0 7 0.333008 9 1z" />
    <glyph glyph-name="quotedblbase" unicode="&#x201e;" horiz-adv-x="418" 
d="M130 -8c-3.33301 -20 -9.16602 -37.834 -17.499 -53.501s-21.5 -33.167 -39.5 -52.5l11 -12c29.333 18 52 41.667 68 71s24 56 24 80c0 20.667 -5.33301 36.334 -16 47.001s-23.334 16 -38.001 16c-12.667 0 -23.667 -4.66699 -33 -14s-14 -20.666 -14 -33.999
c0 -12.667 4.66699 -23.834 14 -33.501s20.333 -14.5 33 -14.5h8zM297 -8.00098c-3.33301 -20 -9.16699 -37.8359 -17.5 -53.5029s-21.833 -33.167 -40.5 -52.5l12 -12c29.333 18 52 41.667 68 71s24 56 24 80c0 20.667 -5.5 36.334 -16.5 47.001s-23.833 16 -38.5 16
c-12.667 0 -23.5 -4.66699 -32.5 -14s-13.5 -20.666 -13.5 -33.999s4.5 -24.666 13.5 -33.999s19.833 -14 32.5 -14h9z" />
    <glyph glyph-name="dagger" unicode="&#x2020;" horiz-adv-x="448" 
d="M238 426l90.001 -29c4 -1.33301 8 -2 12 -2c12 0 22.667 4.83301 32 14.5s14 20.834 14 33.501s-4.66699 23.667 -14 33s-20 14 -32 14c-4 0 -8 -0.666992 -12 -2l-92 -30l34 101c0 1.33301 0.333008 3.33301 1 6c0.666992 2 1 3.66699 1 5
c0 12.667 -4.83301 23.667 -14.5 33s-20.834 14 -33.501 14s-23.667 -4.66699 -33 -14s-14 -20.333 -14 -33v-5c0.666992 -2.66699 1 -4.66699 1 -6l35 -101l-94 30c-4 1.33301 -7.66699 2 -11 2c-12 0 -22.667 -4.66699 -32 -14s-14 -20.333 -14 -33
s4.66699 -23.834 14 -33.501s20 -14.5 32 -14.5c3.33301 0 7 0.666992 11 2l92 30l-28 -204l37 -410h8l37 410z" />
    <glyph glyph-name="daggerdbl" unicode="&#x2021;" horiz-adv-x="448" 
d="M386 -20c0 12.667 -4.83301 23.834 -14.5 33.501s-20.5 14.5 -32.5 14.5c-1.33301 0 -3.33301 -0.333008 -6 -1c-2 -0.666992 -3.66699 -1 -5 -1l-90 -29l25 215l-25 214l90 -30c1.33301 0 3 -0.333008 5 -1h6c12 0 22.833 4.83301 32.5 14.5s14.5 20.834 14.5 33.501
c0 12 -4.66699 22.833 -14 32.5s-20 14.5 -32 14.5c-4 0 -8 -0.666992 -12 -2l-92 -31l34 102c0 1.33301 0.333008 3 1 5c0.666992 2.66699 1 4.66699 1 6c0 12 -4.83301 22.833 -14.5 32.5s-20.834 14.5 -33.501 14.5s-23.667 -4.83301 -33 -14.5s-14 -20.5 -14 -32.5v-6
c0.666992 -2 1 -3.66699 1 -5l35 -102l-94 31c-4 1.33301 -7.66699 2 -11 2c-12 0 -22.667 -4.83301 -32 -14.5s-14 -20.5 -14 -32.5c0 -12.667 4.83301 -23.834 14.5 -33.501s20.5 -14.5 32.5 -14.5h5c2 0.666992 3.66699 1 5 1l92 31l-26 -216l26 -215l-92 30
c-1.33301 0 -3 0.333008 -5 1s-3.66699 1 -5 1c-12 0 -22.833 -4.83301 -32.5 -14.5s-14.5 -20.834 -14.5 -33.501c0 -12 4.83301 -23 14.5 -33s20.5 -15 32.5 -15c1.33301 0 3 0.333008 5 1s3.66699 1 5 1l94 31l-35 -102c0 -1.33301 -0.333008 -3 -1 -5v-6
c0 -11.333 4.66699 -21.833 14 -31.5s20.333 -14.5 33 -14.5s23.834 4.83301 33.501 14.5s14.5 20.167 14.5 31.5c0 2 -0.333008 4 -1 6s-1 3.66699 -1 5l-34 102l92 -31c1.33301 0 3 -0.333008 5 -1s4 -1 6 -1c12 0 22.833 5 32.5 15s14.5 21 14.5 33z" />
    <glyph glyph-name="bullet" unicode="&#x2022;" horiz-adv-x="270" 
d="M135 307c-21.333 0 -39.5 -7.5 -54.5 -22.5s-22.5 -33.167 -22.5 -54.5c0 -20.667 7.66699 -38.667 23 -54s33.333 -23 54 -23c21.333 0 39.5 7.5 54.5 22.5s22.5 33.167 22.5 54.5s-7.5 39.5 -22.5 54.5s-33.167 22.5 -54.5 22.5z" />
    <glyph glyph-name="ellipsis" unicode="&#x2026;" horiz-adv-x="896" 
d="M194 40c0 13.333 -4.66699 24.668 -14 34.001s-20.666 14 -33.999 14c-12.667 0 -23.667 -4.66699 -33 -14s-14 -20.666 -14 -33.999c0 -12.667 4.66699 -23.834 14 -33.501s20.333 -14.5 33 -14.5c13.333 0 24.666 4.66699 33.999 14s14 20.666 14 33.999zM486 40.002
c0 12.667 -4.83301 23.832 -14.5 33.499s-20.834 14.5 -33.501 14.5s-23.667 -4.66699 -33 -14s-14 -20.666 -14 -33.999c0 -12.667 4.66699 -23.834 14 -33.501s20.333 -14.5 33 -14.5s23.834 4.83301 33.501 14.5s14.5 20.834 14.5 33.501zM778 40
c0 12.667 -4.83301 23.8301 -14.5 33.4971s-21.167 14.5 -34.5 14.5s-24.333 -4.66699 -33 -14s-13 -20.666 -13 -33.999s4.33301 -24.666 13 -33.999s19.667 -14 33 -14s24.833 4.83301 34.5 14.5s14.5 20.834 14.5 33.501z" />
    <glyph glyph-name="perthousand" unicode="&#x2030;" horiz-adv-x="1133" 
d="M704 128c0 19.333 -3.83203 37.666 -11.499 54.999s-18.334 32.666 -32.001 45.999s-29.667 23.666 -48 30.999s-37.5 11 -57.5 11s-39.167 -3.66699 -57.5 -11s-34.333 -17.666 -48 -30.999s-24.334 -28.666 -32.001 -45.999s-11.5 -35.666 -11.5 -54.999
s3.83301 -37.833 11.5 -55.5s18.5 -33.167 32.5 -46.5s30 -23.666 48 -30.999s37 -11 57 -11s39.167 3.66699 57.5 11s34.333 17.666 48 30.999s24.334 28.833 32.001 46.5s11.5 36.167 11.5 55.5zM591.001 600l-36 18l-383 -618l36 -18zM357.001 473
c0 19.333 -3.83301 37.8301 -11.5 55.4971s-18.5 33.167 -32.5 46.5s-30 23.666 -48 30.999s-37 11 -57 11s-39.167 -3.66699 -57.5 -11s-34.333 -17.666 -48 -30.999s-24.5 -28.833 -32.5 -46.5s-12 -36.167 -12 -55.5s4 -37.666 12 -54.999s18.833 -32.666 32.5 -45.999
s29.667 -23.666 48 -30.999s37.5 -11 57.5 -11s39 3.66699 57 11s34 17.666 48 30.999s24.833 28.833 32.5 46.5s11.5 35.834 11.5 54.501zM638.001 127.997c0 -32 -7 -58.333 -21 -79s-34.667 -31 -62 -31s-47.833 10.167 -61.5 30.5s-20.5 46.833 -20.5 79.5
c0 32 6.83301 58.333 20.5 79s34.167 31 61.5 31s48 -10.333 62 -31s21 -47 21 -79zM290.001 472.997c0 -32 -7 -58.333 -21 -79s-34.333 -31 -61 -31c-27.333 0 -48 10.333 -62 31s-21 47 -21 79c0 32.667 7 59.167 21 79.5s34.667 30.5 62 30.5
c26.667 0 47 -10.333 61 -31s21 -47 21 -79zM1075 127.997c0 19.333 -3.83203 37.666 -11.499 54.999s-18.334 32.666 -32.001 45.999s-29.667 23.666 -48 30.999s-37.5 11 -57.5 11s-39.167 -3.66699 -57.5 -11s-34.333 -17.666 -48 -30.999
s-24.334 -28.666 -32.001 -45.999s-11.5 -35.666 -11.5 -54.999s3.83301 -37.833 11.5 -55.5s18.5 -33.167 32.5 -46.5s30 -23.666 48 -30.999s37 -11 57 -11s39.167 3.66699 57.5 11s34.333 17.666 48 30.999s24.334 28.833 32.001 46.5s11.5 36.167 11.5 55.5z
M1008 127.997c0 -32.667 -6.83301 -59.167 -20.5 -79.5s-34.167 -30.5 -61.5 -30.5s-48 10.333 -62 31s-21 47 -21 79s7 58.333 21 79s34.667 31 62 31s47.833 -10.333 61.5 -31s20.5 -47 20.5 -79z" />
    <glyph glyph-name="guilsinglleft" unicode="&#x2039;" horiz-adv-x="500" 
d="M428 68l-233 200l233 200l-15 17l-330 -217l330 -218z" />
    <glyph glyph-name="guilsinglright" unicode="&#x203a;" horiz-adv-x="500" 
d="M417 268l-329 217l-15 -17l232 -200l-232 -200l15 -18z" />
    <glyph glyph-name="trademark" unicode="&#x2122;" horiz-adv-x="1013" 
d="M199 566l-0.000976562 -233c0 -44.667 -4.33301 -73.334 -13 -86.001s-28 -19 -58 -19v-18h202v18c-30 0 -49.5 6.33301 -58.5 19s-13.5 41.334 -13.5 86.001v233h50c38.667 0 64.167 -4 76.5 -12s21.5 -23.333 27.5 -46l4 -18h19l-7 110h-400l-6 -110h18l5 18
c5.33301 22.667 14.333 38 27 46s38.334 12 77.001 12h50zM582.999 513l137.001 -318.002h12l131 305v-167c0 -24 -0.833008 -42.5 -2.5 -55.5s-4.83398 -23.167 -9.50098 -30.5c-8.66699 -12.667 -28 -19 -58 -19v-18h201v18c-30 0 -49.333 6.33301 -58 19
s-13 41.334 -13 86.001v144c0 44.667 4.33301 73.334 13 86.001s28 19 58 19v18h-121l-131 -304l-131 304h-133v-18c30 0 49.333 -6.33301 58 -19c4.66699 -6.66699 7.83398 -16.667 9.50098 -30s2.5 -32 2.5 -56v-144c0 -24 -0.833008 -42.5 -2.5 -55.5
s-4.83398 -23.167 -9.50098 -30.5c-8.66699 -12.667 -28 -19 -58 -19v-18h175v18c-30 0 -49 6.33301 -57 19c-5.33301 7.33301 -8.83301 17.5 -10.5 30.5s-2.5 31.5 -2.5 55.5v180z" />
    </font>
</defs>
</svg>
