<?xml version="1.0" standalone="no"?>
<!DOCTYPE svg PUBLIC "-//W3C//DTD SVG 1.1//EN" "http://www.w3.org/Graphics/SVG/1.1/DTD/svg11.dtd" >
<svg xmlns="http://www.w3.org/2000/svg" xmlns:xlink="http://www.w3.org/1999/xlink" version="1.1">
<metadata>
Created by FontForge 20141024 at Tue Jun 30 05:06:20 2015
 By Jimmy Warting
Copyright (c) 2011 by Jos Buivenga. All rights reserved.
</metadata>
<defs>
<font id="MuseoSansW01-Rounded300" horiz-adv-x="609" >
  <font-face 
    font-family="MuseoSansW01-Rounded300"
    font-weight="400"
    font-stretch="normal"
    units-per-em="1000"
    panose-1="2 0 0 0 0 0 0 0 0 0"
    ascent="749"
    descent="-251"
    x-height="503"
    cap-height="703"
    bbox="-77 -214.002 1008 883"
    underline-thickness="50"
    underline-position="-100"
    unicode-range="U+000D-2122"
  />
<missing-glyph horiz-adv-x="0" 
 />
    <glyph glyph-name=".notdef" horiz-adv-x="0" 
 />
    <glyph glyph-name="uni000D" unicode="&#xd;" horiz-adv-x="0" 
 />
    <glyph glyph-name="space" unicode=" " horiz-adv-x="250" 
 />
    <glyph glyph-name="exclam" unicode="!" horiz-adv-x="249" 
d="M86 54c0 16.667 8 25 24 25h30c16 0 24 -8.33301 24 -25v-29c0 -16.667 -8 -25 -24 -25h-30c-16 -0 -24 8.33301 -24 25v29zM117 184c-16.667 0 -25 8 -25 24l-3 470c0 16.667 8.33301 25 25 25h21c16 0 24 -8.33301 24 -25l-3 -470c0 -16 -8 -24 -24 -24h-15z" />
    <glyph glyph-name="quotedbl" unicode="&#x22;" horiz-adv-x="305" 
d="M87 512c-16.667 0 -25 8.33301 -25 25v152c0 16 8.33301 24 25 24h10c16 0 24 -8 24 -24v-152c0 -16.667 -8 -25 -24 -25h-10zM208 512c-16 0 -24 8.33301 -24 25v152c0 16 8 24 24 24h10c16 0 24 -8 24 -24v-152c0 -16.667 -8 -25 -24 -25h-10z" />
    <glyph glyph-name="numbersign" unicode="#" horiz-adv-x="708" 
d="M419.758 251l35 196h-173l-35 -196h173zM175.758 195h-114.002c-18.667 0 -26.334 8.66699 -23.001 26l1 8c2.66699 14.667 11.667 22 27 22h119l35 196h-115c-17.333 0 -25 8.66699 -23 26l2 8c2 14.667 10.667 22 26 22h119l31 178c2.66699 14.667 11.667 22 27 22h11
c18.667 0 26.334 -8.66699 23.001 -26l-31 -174h173l31 178c2.66699 14.667 11.667 22 27 22h11c18.667 0 26.334 -8.66699 23.001 -26l-31 -174h113c18.667 0 26.334 -8.66699 23.001 -26l-1 -8c-2.66699 -14.667 -11.667 -22 -27 -22h-117l-35 -196h113
c18 0 25.333 -8.66699 22 -26l-1 -8c-2 -14.667 -11 -22 -27 -22h-117l-30 -173c-2 -14.667 -11 -22 -27 -22h-11c-17.333 0 -25 8.66699 -23 26l30 169h-173l-30 -173c-2 -14.667 -11 -22 -27 -22h-11c-17.333 0 -25 8.66699 -23 26z" />
    <glyph glyph-name="dollar" unicode="$" horiz-adv-x="523" 
d="M51.8184 62c-12 10 -13.001 21.3359 -3.00098 34.0029l12 15c9.33301 12 20.666 13.333 33.999 4c6.66699 -5.33301 15.334 -11.5 26.001 -18.5s23 -13.667 37 -20s29.5 -11.666 46.5 -15.999s35.5 -6.5 55.5 -6.5c19.333 0 37.5 2.83301 54.5 8.5s31.833 13.667 44.5 24
s22.667 23 30 38s11 32.167 11 51.5c0 28.667 -8.66699 52.167 -26 70.5s-39.166 34.5 -65.499 48.5s-54.833 27.333 -85.5 40s-59.167 27.167 -85.5 43.5s-48.166 36 -65.499 59s-26 52.5 -26 88.5c0 22.667 4.33301 44.5 13 65.5s21 39.833 37 56.5s35.333 30.667 58 42
s48 18.666 76 21.999v70c0 16.667 8 25 24 25h8c16 0 24 -7.66699 24 -23v-70c18.667 -1.33301 35.834 -3.83301 51.501 -7.5s29.834 -8.16699 42.501 -13.5s23.5 -10.833 32.5 -16.5s16.5 -10.834 22.5 -15.501c12.667 -8 14.667 -19.333 6 -34l-9 -16
c-8 -13.333 -19.333 -15.333 -34 -6c-12 8.66699 -29.333 18.167 -52 28.5s-49.667 15.5 -81 15.5c-22.667 0 -43.167 -3.33301 -61.5 -10s-33.833 -15.667 -46.5 -27s-22.5 -24.333 -29.5 -39s-10.5 -29.667 -10.5 -45c0 -27.333 8.66699 -49.5 26 -66.5
s39.166 -32.167 65.499 -45.5s54.833 -26.166 85.5 -38.499s59.167 -27 85.5 -44s48.166 -37.667 65.499 -62s26 -55.5 26 -93.5c0 -24 -4.16699 -46.833 -12.5 -68.5s-20.5 -40.834 -36.5 -57.501s-35.5 -30.5 -58.5 -41.5s-48.833 -17.833 -77.5 -20.5v-68
c0 -16.667 -8 -25 -24 -25h-8c-16 0 -24 7.66699 -24 23v70c-22.667 2 -43.5 5.66699 -62.5 11s-36 11.666 -51 18.999s-27.833 14.666 -38.5 21.999s-19.334 14 -26.001 20z" />
    <glyph glyph-name="percent" unicode="%" horiz-adv-x="718" 
d="M447 127c0 -23.333 7.66699 -43 23 -59s34.666 -24 57.999 -24s42.666 8 57.999 24s23 35.667 23 59c0 22.667 -7.66699 42.167 -23 58.5s-34.666 24.5 -57.999 24.5s-42.666 -8.16699 -57.999 -24.5s-23 -35.833 -23 -58.5zM387 126c0 19.333 3.66699 37.5 11 54.5
s17.333 31.833 30 44.5s27.667 22.667 45 30s35.666 11 54.999 11s37.5 -3.66699 54.5 -11s32 -17.333 45 -30s23.167 -27.5 30.5 -44.5s11 -35.167 11 -54.5s-3.66699 -37.333 -11 -54s-17.5 -31.167 -30.5 -43.5s-28 -22.166 -45 -29.499s-35.167 -11 -54.5 -11
s-37.666 3.66699 -54.999 11s-32.333 17.166 -45 29.499s-22.667 26.833 -30 43.5s-11 34.667 -11 54zM190 493c23.333 0 42.666 8 57.999 24s23 35.667 23 59c0 22.667 -7.66699 42.167 -23 58.5s-34.666 24.5 -57.999 24.5s-42.666 -8.16699 -57.999 -24.5
s-23 -35.833 -23 -58.5c0 -23.333 7.66699 -43 23 -59s34.666 -24 57.999 -24zM580 688c7.33301 10 17.333 15 30 15h15c10.667 0 17.5 -2.83301 20.5 -8.5s1.16699 -12.834 -5.5 -21.501l-501 -658c-7.33301 -10 -17.333 -15 -30 -15h-16c-10 0 -16.5 2.83301 -19.5 8.5
s-1.16699 12.834 5.5 21.501zM190 437c-19.333 0 -37.666 3.66699 -54.999 11s-32.333 17.166 -45 29.499s-22.667 27 -30 44s-11 35.167 -11 54.5c0 18.667 3.66699 36.5 11 53.5s17.333 31.833 30 44.5s27.667 22.667 45 30s35.666 11 54.999 11s37.5 -3.66699 54.5 -11
s31.833 -17.333 44.5 -30s22.667 -27.5 30 -44.5s11 -34.833 11 -53.5c0 -19.333 -3.66699 -37.5 -11 -54.5s-17.333 -31.667 -30 -44s-27.5 -22.166 -44.5 -29.499s-35.167 -11 -54.5 -11z" />
    <glyph glyph-name="ampersand" unicode="&#x26;" horiz-adv-x="637" 
d="M122 198c0 -20 3.83398 -38.833 11.501 -56.5s18.5 -33 32.5 -46s31.333 -23.333 52 -31s44 -11.5 70 -11.5c24.667 0 47.167 3.5 67.5 10.5s37.666 18.167 51.999 33.5s25.333 35 33 59s11.5 53 11.5 87v101h-148c-61.333 0 -107 -13.333 -137 -40s-45 -62 -45 -106z
M51.001 194c0 20 2.83203 39.834 8.49902 59.501s14 37.667 25 54s24.333 30.833 40 43.5s33.834 22 54.501 28v2c-18.667 7.33301 -35 17.666 -49 30.999c-12 11.333 -23 27 -33 47s-15 46 -15 78c0 26.667 5 51 15 73s24 40.833 42 56.5s40 27.667 66 36s55 12.5 87 12.5
h50c16 0 24 -8.33301 24 -25v-11c0 -16.667 -8 -25 -24 -25h-49c-40.667 0 -74.167 -11 -100.5 -33s-39.5 -51.333 -39.5 -88c0 -12 1.66699 -25.333 5 -40s10.333 -28.5 21 -41.5s26 -23.833 46 -32.5s46.333 -13 79 -13h148v75c0 16 8.33301 24 25 24h19
c16.667 0 25 -7.33301 25 -22v-77h71c16 0 24 -8 24 -24v-13c0 -16.667 -8 -25 -24 -25h-71v-103c0 -84 -21.167 -147.167 -63.5 -189.5s-98.833 -63.5 -169.5 -63.5c-35.333 0 -67.5 5.16699 -96.5 15.5s-54 24.833 -75 43.5s-37.167 40.5 -48.5 65.5s-17 52.167 -17 81.5z
" />
    <glyph glyph-name="quotesingle" unicode="'" horiz-adv-x="181" 
d="M85 545c-16 0 -24 8 -24 24v120c0 16 8 24 24 24h11c16 0 24 -8 24 -24v-120c0 -16 -8 -24 -24 -24h-11z" />
    <glyph glyph-name="parenleft" unicode="(" horiz-adv-x="265" 
d="M160 -80c-32 58.667 -57.332 123.836 -75.999 195.503s-28 145.5 -28 221.5c0 69.333 8.83301 135.166 26.5 197.499s43.167 121.833 76.5 178.5c3.33301 6.66699 7.33301 11.167 12 13.5s10.334 3.5 17.001 3.5h11c9.33301 0 15.666 -2.66699 18.999 -8
s2.66602 -12.333 -2.00098 -21c-31.333 -56.667 -55.333 -115.334 -72 -176.001s-25 -123.334 -25 -188.001c0 -70 8 -138.667 24 -206s40.667 -133 74 -197c4 -8.66699 4.66699 -15.667 2 -21s-8.66699 -8 -18 -8h-12c-14 0 -23.667 5 -29 15z" />
    <glyph glyph-name="parenright" unicode=")" horiz-adv-x="265" 
d="M44.4541 -65c33.333 63.333 57.999 128.829 73.999 196.496s24 136.167 24 205.5c0 64.667 -8.33301 127.334 -25 188.001s-40.667 119.334 -72 176.001c-4.66699 8.66699 -5.66699 15.667 -3 21s8.66699 8 18 8h13c6.66699 0 12.334 -1.16699 17.001 -3.5
s8.66699 -6.83301 12 -13.5c33.333 -56.667 58.833 -116.167 76.5 -178.5s26.5 -128.166 26.5 -197.499c0 -76 -9.16699 -149.5 -27.5 -220.5s-43.5 -135.833 -75.5 -194.5c-6.66699 -11.333 -16.667 -17 -30 -17h-11c-9.33301 0 -15.5 2.83301 -18.5 8.5
s-2.5 12.834 1.5 21.501z" />
    <glyph glyph-name="asterisk" unicode="*" horiz-adv-x="477" 
d="M112 360c-6.66699 4.66699 -10.3301 10 -10.9971 16s1.66602 12 6.99902 18l78 101v2l-123 36c-16 4 -21.333 14 -16 30l4 14c5.33301 16 15.666 21 30.999 15l121 -43l-4 129c-2 16.667 5.66699 25 23 25h18c17.333 0 25 -8.33301 23 -25l-4 -129l122 43
c15.333 6.66699 25.666 1.66699 30.999 -15l4 -14c6 -16 0.666992 -26 -16 -30l-123 -36v-2l78 -100c10 -14 8.33301 -25.667 -5 -35l-11 -8c-14 -10 -25.667 -8.33301 -35 5l-72 106h-2l-71 -105c-10 -13.333 -21.667 -15.333 -35 -6z" />
    <glyph glyph-name="plus" unicode="+" horiz-adv-x="606" 
d="M67 255c-16.667 0 -25 8 -25 24v9c0 16.667 8.33301 25 25 25h206v230c0 16.667 8 25 24 25h13c16 0 24 -8.33301 24 -25v-230h205c16.667 0 25 -8.33301 25 -25v-9c0 -16 -8.33301 -24 -25 -24h-205v-230c0 -16.667 -8 -25 -24 -25h-13c-16 -0 -24 8.33301 -24 25v230
h-206z" />
    <glyph glyph-name="comma" unicode="," horiz-adv-x="230" 
d="M80.6846 61c4 14 13.667 21 29 21h24c9.33301 0 15.833 -2.66699 19.5 -8s3.5 -12.333 -0.5 -21l-67 -163c-5.33301 -12.667 -15 -19 -29 -19h-9c-9.33301 0 -15.833 2.5 -19.5 7.5s-4.16699 11.5 -1.5 19.5z" />
    <glyph glyph-name="hyphen" unicode="-" horiz-adv-x="423" 
d="M94 253c-16 0 -24 8 -24 24v13c0 16.667 8 25 24 25h235c16 0 24 -8.33301 24 -25v-13c0 -16 -8 -24 -24 -24h-235z" />
    <glyph glyph-name="period" unicode="." horiz-adv-x="219" 
d="M69 59c0 16 8 24 24 24h33c16 0 24 -8 24 -24v-34c0 -16.667 -8 -25 -24 -25h-33c-16 -0 -24 8.33301 -24 25v34z" />
    <glyph glyph-name="slash" unicode="/" horiz-adv-x="385" 
d="M278.272 722c4.66699 13.333 14 20 28 20h14c8.66699 0 15 -2.5 19 -7.5s4.33301 -11.833 1 -20.5l-238 -736c-4.66699 -13.333 -14 -20 -28 -20h-14c-8.66699 0 -15 2.5 -19 7.5s-4.33301 11.833 -1 20.5z" />
    <glyph glyph-name="zero" unicode="0" horiz-adv-x="620" 
d="M310 53c33.333 0 61 7.66699 83 23s39.5 36.333 52.5 63s22.167 58.334 27.5 95.001s8 76 8 118s-2.66699 81 -8 117s-14.5 67.5 -27.5 94.5s-30.5 48.167 -52.5 63.5s-49.667 23 -83 23s-61 -7.66699 -83 -23s-39.5 -36.5 -52.5 -63.5s-22.167 -58.5 -27.5 -94.5
s-8 -75 -8 -117s2.66699 -81.333 8 -118s14.5 -68.334 27.5 -95.001s30.5 -47.667 52.5 -63s49.667 -23 83 -23zM310 -12c-46 0 -84.5 9.33301 -115.5 28s-56 44.5 -75 77.5s-32.5 71.5 -40.5 115.5s-12 91.667 -12 143c0 50.667 4 98 12 142s21.5 82.333 40.5 115
s44 58.5 75 77.5s69.5 28.5 115.5 28.5s84.5 -9.5 115.5 -28.5s56 -44.833 75 -77.5s32.5 -71 40.5 -115s12 -91.333 12 -142c0 -51.333 -4 -99 -12 -143s-21.5 -82.5 -40.5 -115.5s-44 -58.833 -75 -77.5s-69.5 -28 -115.5 -28z" />
    <glyph glyph-name="one" unicode="1" horiz-adv-x="447" 
d="M46 37c0 16.667 8.33301 25 25 25h133v516v27c0 4 0.333008 8 1 12h-2c-2 -3.33301 -4.33301 -7 -7 -11c-5.33301 -7.33301 -14.333 -17.333 -27 -30l-59 -58c-10.667 -12 -22 -12 -34 0l-9 10c-12.667 10.667 -13 22 -1 34l129 128c8.66699 8.66699 18.667 13 30 13h23
c16 0 24 -8.33301 24 -25v-616h130c16.667 0 25 -8.33301 25 -25v-12c0 -16.667 -8.33301 -25 -25 -25h-331c-16.667 -0 -25 8.33301 -25 25v12z" />
    <glyph glyph-name="two" unicode="2" horiz-adv-x="551" 
d="M52 45c0 41.333 8.83203 77.1719 26.499 107.505s39.834 57.5 66.501 81.5s55.667 46.167 87 66.5s60.333 41 87 62s48.834 43.667 66.501 68s26.5 52.166 26.5 83.499c0 38.667 -13.167 70.834 -39.5 96.501s-61.833 38.5 -106.5 38.5
c-18.667 0 -35.834 -2.66699 -51.501 -8s-29.5 -12 -41.5 -20s-22.167 -16.333 -30.5 -25s-14.833 -16.334 -19.5 -23.001c-5.33301 -6 -10.833 -9.83301 -16.5 -11.5s-11.834 0.166016 -18.501 5.49902l-11 9c-12.667 9.33301 -14.667 20.333 -6 33
c6 8.66699 14.5 19.167 25.5 31.5s24.833 24 41.5 35s35.834 20.333 57.501 28s46.5 11.5 74.5 11.5c33.333 0 63.333 -5.16699 90 -15.5s49.167 -24.333 67.5 -42s32.5 -38.5 42.5 -62.5s15 -49.667 15 -77c0 -39.333 -8.83301 -73.5 -26.5 -102.5s-39.667 -55.333 -66 -79
s-55 -45.334 -86 -65.001s-59.667 -39.834 -86 -60.501s-48.5 -42.834 -66.5 -66.501s-27 -51.167 -27 -82.5h344c16.667 0 25 -8.33301 25 -25v-12c0 -16.667 -8.33301 -25 -25 -25h-392c-8 0 -14.5 2.16699 -19.5 6.5s-7.5 10.5 -7.5 18.5v20z" />
    <glyph glyph-name="three" unicode="3" horiz-adv-x="552" 
d="M45.0312 68c-11.333 10.667 -12.002 22.3311 -2.00195 34.998l12 15c9.33301 11.333 20.666 12 33.999 2c6 -5.33301 14.167 -11.833 24.5 -19.5s22.333 -15 36 -22s29 -12.833 46 -17.5s35.167 -7 54.5 -7c20.667 0 40.834 3.66699 60.501 11
s36.834 17.666 51.501 30.999s26.5 29.333 35.5 48s13.5 39.334 13.5 62.001c0 24.667 -4.83301 46.334 -14.5 65.001s-22.834 34.334 -39.501 47.001s-35.667 22.167 -57 28.5s-43.333 9.5 -66 9.5h-28c-13.333 0 -22.333 6 -27 18l-3 5
c-4.66699 11.333 -2.66699 22.333 6 33l163 191c8.66699 10.667 17 20 25 28c4 4 8 7.66699 12 11v2c-4 -0.666992 -9 -1.33398 -15 -2.00098c-5.33301 -0.666992 -11.333 -1 -18 -1h-24h-239c-16.667 0 -25 8.33301 -25 25v12c0 16.667 8.33301 25 25 25h361
c16.667 0 25 -7.66699 25 -23v-5c0 -12.667 -3.66699 -23 -11 -31l-199 -229c22 -1.33301 45.833 -5.66602 71.5 -12.999s49.5 -19 71.5 -35s40.333 -37 55 -63s22 -58 22 -96c0 -30 -5.83301 -58.333 -17.5 -85s-27.667 -50 -48 -70s-44.666 -35.833 -72.999 -47.5
s-59.166 -17.5 -92.499 -17.5c-26 0 -49.833 3 -71.5 9s-41.167 13.167 -58.5 21.5s-32.333 17 -45 26s-23 16.833 -31 23.5z" />
    <glyph glyph-name="four" unicode="4" horiz-adv-x="588" 
d="M378 255v295c0 7.33301 0.166992 15 0.5 23s0.833008 15.333 1.5 22l2 22h-2c-4 -6 -7.66699 -12 -11 -18l-11 -17.5c-4 -6.33301 -8.33301 -12.5 -13 -18.5l-235 -306v-2h268zM51 195c-16 0 -23.999 8.00098 -23.999 24.001v4c0 12 3 22 9 30l326 435
c4 5.33301 8.16699 9.16602 12.5 11.499s10.166 3.5 17.499 3.5h31c16 0 24 -8.33301 24 -25v-423h76c16 0 24 -8 24 -24v-12c0 -16 -7.33301 -24 -22 -24h-78v-170c0 -16.667 -8 -25 -24 -25h-20c-16.667 -0 -25 8.33301 -25 25v170h-327z" />
    <glyph glyph-name="five" unicode="5" horiz-adv-x="547" 
d="M62 70c-5.33301 5.33301 -7.99414 11.002 -7.99414 17.002s2.66699 11.667 8 17l12 14c11.333 11.333 22.666 11.333 33.999 0c5.33301 -6 12.166 -12.667 20.499 -20s18.333 -14.166 30 -20.499s25 -11.833 40 -16.5s32.167 -7 51.5 -7c24 0 46.667 4.16699 68 12.5
s40 19.666 56 33.999s28.5 31.666 37.5 51.999s13.5 42.5 13.5 66.5s-4.66699 46.167 -14 66.5s-22 37.833 -38 52.5s-34.833 26.167 -56.5 34.5s-44.834 12.5 -69.501 12.5c-26 0 -48.667 -3.66699 -68 -11s-34 -13.666 -44 -18.999c-11.333 -6 -22.333 -7 -33 -3l-7 2
c-13.333 5.33301 -19.333 15 -18 29l33 297c2 15.333 10.667 23 26 23h292c16.667 0 25 -8.33301 25 -25v-12c0 -16.667 -8.33301 -25 -25 -25h-255l-20 -180c-1.33301 -6.66699 -2.33301 -12.334 -3 -17.001s-1.33398 -8.66699 -2.00098 -12
c-0.666992 -4 -1.33398 -7.66699 -2.00098 -11h2c8.66699 4.66699 18.667 9 30 13c9.33301 3.33301 20.5 6.5 33.5 9.5s27.5 4.5 43.5 4.5c35.333 0 67.833 -6 97.5 -18s55.167 -28.333 76.5 -49s38 -44.834 50 -72.501s18 -57.5 18 -89.5c0 -32.667 -6.33301 -63 -19 -91
s-30 -52.333 -52 -73s-47.833 -37 -77.5 -49s-61.5 -18 -95.5 -18c-26 0 -49.333 3 -70 9s-38.834 13.333 -54.501 22s-29 17.667 -40 27s-19.833 17.333 -26.5 24z" />
    <glyph glyph-name="six" unicode="6" horiz-adv-x="585" 
d="M135 266c0 -22 4.33301 -45.5 13 -70.5s20.667 -48 36 -69s34 -38.5 56 -52.5s46.333 -21 73 -21c24 0 45.333 4.16699 64 12.5s34.5 20 47.5 35s23 33 30 54s10.5 43.833 10.5 68.5c0 50 -14.5 90 -43.5 120s-68.167 45 -117.5 45c-23.333 0 -45.333 -3.66699 -66 -11
s-38.667 -16.666 -54 -27.999s-27.333 -24.333 -36 -39s-13 -29.334 -13 -44.001zM60 317c0 44.667 5.99902 90.501 17.999 137.501s30.5 89.833 55.5 128.5s57 70.334 96 95.001s85.5 37 139.5 37c23.333 0 44.333 -2.16699 63 -6.5s33 -8.5 43 -12.5
c15.333 -6 20 -16.667 14 -32l-7 -16c-3.33301 -8 -7.66602 -12.833 -12.999 -14.5s-11.666 -1.5 -18.999 0.5c-8.66699 3.33301 -19.834 6.83301 -33.501 10.5s-29.167 5.5 -46.5 5.5c-37.333 0 -69.833 -8.33301 -97.5 -25s-51.167 -38.5 -70.5 -65.5
s-34.5 -57.333 -45.5 -91s-18.167 -67.834 -21.5 -102.501h2c17.333 25.333 42 45.666 74 60.999s67.667 23 107 23c32 0 61.167 -5.5 87.5 -16.5s49.166 -26.333 68.499 -46s34.333 -43.334 45 -71.001s16 -58.167 16 -91.5c0 -36.667 -5.66699 -69.667 -17 -99
s-27 -54.166 -47 -74.499s-43.5 -36 -70.5 -47s-55.833 -16.5 -86.5 -16.5c-38 0 -72.667 8.33301 -104 25s-58.166 39.667 -80.499 69s-39.5 64 -51.5 104s-18 83.667 -18 131z" />
    <glyph glyph-name="seven" unicode="7" horiz-adv-x="503" 
d="M372 576c4.66699 9.33301 9.33105 18 13.998 26l12 21c4 6.66699 8 12.667 12 18v2c-3.33301 -0.666992 -7.66602 -1 -12.999 -1c-4.66699 -0.666992 -10.167 -1 -16.5 -1h-22.5h-304c-16.667 0 -25 8.33301 -25 25v12c0 16.667 8.33301 25 25 25h407
c16.667 0 25 -7.66699 25 -23v-9c0 -10.667 -2.33301 -21 -7 -31l-310 -622c-6 -12 -15.667 -18 -29 -18h-20c-9.33301 0 -15.666 2.66699 -18.999 8s-3 12.333 1 21z" />
    <glyph glyph-name="eight" unicode="8" horiz-adv-x="593" 
d="M130 203c0 -23.333 4.66895 -44.3379 14.002 -63.0049s21.833 -34.5 37.5 -47.5s33.5 -23.167 53.5 -30.5s40.667 -11 62 -11c20.667 0 40.667 3.5 60 10.5s36.666 16.5 51.999 28.5s27.666 26.333 36.999 43s14 35 14 55c0 24 -6.33301 44 -19 60s-29.667 30.333 -51 43
s-45.833 24.334 -73.5 35.001s-56.167 23 -85.5 37c-5.33301 -3.33301 -13.5 -9.16602 -24.5 -17.499s-22.167 -19.166 -33.5 -32.499s-21.333 -29.166 -30 -47.499s-13 -39.166 -13 -62.499zM371.002 368.995c2.66699 2.66699 8.16602 8.66797 16.499 18.001
s16.833 21 25.5 35s16.334 30 23.001 48s10 37 10 57c0 40 -13.5 70.833 -40.5 92.5s-62.167 32.5 -105.5 32.5c-22.667 0 -42.834 -3 -60.501 -9s-32.667 -14.333 -45 -25s-21.666 -22.834 -27.999 -36.501s-9.5 -28.5 -9.5 -44.5c0 -23.333 6.33301 -43 19 -59
s29.167 -30.333 49.5 -43s43.333 -24 69 -34s51.167 -20.667 76.5 -32zM59.001 197.996c0 30 5.33008 56.5 15.9971 79.5s22.667 42.667 36 59s26.5 29.333 39.5 39s21.5 15.834 25.5 18.501c-25.333 16.667 -46.5 36.167 -63.5 58.5s-25.5 50.5 -25.5 84.5
c0 22.667 4.33301 44.834 13 66.501s21.834 40.667 39.501 57s39.834 29.5 66.501 39.5s58 15 94 15c32.667 0 62.167 -4.33301 88.5 -13s48.833 -21 67.5 -37s33.167 -35.167 43.5 -57.5s15.5 -46.833 15.5 -73.5c0 -26 -4 -50 -12 -72s-17.167 -41.5 -27.5 -58.5
s-20.166 -30.833 -29.499 -41.5s-15.333 -17.334 -18 -20.001c30 -16.667 54.667 -36.834 74 -60.501s29 -54.167 29 -91.5c0 -27.333 -5.83301 -53.166 -17.5 -77.499s-27.667 -45.833 -48 -64.5s-44.833 -33.334 -73.5 -44.001s-60 -16 -94 -16c-32 0 -62.5 5 -91.5 15
s-54.333 24.167 -76 42.5s-39 40.333 -52 66s-19.5 54.5 -19.5 86.5z" />
    <glyph glyph-name="nine" unicode="9" horiz-adv-x="585" 
d="M282 315c23.333 0 45.333 3.66699 66 11s38.5 16.666 53.5 27.999s26.833 24.333 35.5 39s13 29.334 13 44.001c0 22 -4.33301 45.5 -13 70.5s-20.667 48 -36 69s-34 38.5 -56 52.5s-46.333 21 -73 21c-24 0 -45.333 -4.16699 -64 -12.5s-34.5 -20 -47.5 -35
s-22.833 -33 -29.5 -54s-10 -43.833 -10 -68.5c0 -50 14.333 -90 43 -120s68 -45 118 -45zM104 56c4.66699 13.333 15 17.6611 31 12.9941c9.33301 -3.33301 20.666 -6.83301 33.999 -10.5s28.666 -5.5 45.999 -5.5c37.333 0 70 8.33301 98 25s51.667 38.5 71 65.5
s34.333 57.333 45 91s17.667 67.834 21 102.501h-2c-17.333 -25.333 -42.5 -45.666 -75.5 -60.999s-68.5 -23 -106.5 -23c-31.333 0 -60.166 5.5 -86.499 16.5s-49.166 26.5 -68.499 46.5s-34.333 43.833 -45 71.5s-16 58.167 -16 91.5c0 36.667 5.66699 69.5 17 98.5
s27 53.667 47 74s43.5 36 70.5 47s55.833 16.5 86.5 16.5c38 0 72.667 -8.33301 104 -25s58.166 -39.667 80.499 -69s39.5 -64.166 51.5 -104.499s18 -83.833 18 -130.5c0 -29.333 -2.66699 -59.666 -8 -90.999s-13.333 -61.666 -24 -90.999
s-24.334 -57.166 -41.001 -83.499s-36.5 -49.333 -59.5 -69s-49.167 -35.167 -78.5 -46.5s-62 -17 -98 -17c-23.333 0 -44.166 2.16699 -62.499 6.5s-32.833 8.5 -43.5 12.5c-15.333 6 -19.666 16.333 -12.999 31z" />
    <glyph glyph-name="colon" unicode=":" horiz-adv-x="219" 
d="M71 55c0 16.667 8.33301 25 25 25h29c16 0 24 -8.33301 24 -25v-30c0 -16.667 -8 -25 -24 -25h-29c-16.667 -0 -25 8.33301 -25 25v30zM96 423c-16.667 0 -25 8.33301 -25 25v30c0 16.667 8.33301 25 25 25h29c16 0 24 -8.33301 24 -25v-30c0 -16.667 -8 -25 -24 -25h-29
z" />
    <glyph glyph-name="semicolon" unicode=";" horiz-adv-x="270" 
d="M103.125 61c2.66699 14 12.001 21 28.001 21h25c9.33301 0 15.666 -2.66699 18.999 -8s3.33301 -12.333 0 -21l-59 -163c-4.66699 -12.667 -14.334 -19 -29.001 -19h-9c-9.33301 0 -15.666 2.5 -18.999 7.5s-4 11.5 -2 19.5zM129.126 420c-16.667 0 -25 8 -25 24v34
c0 16.667 8.33301 25 25 25h31c16.667 0 25 -8.33301 25 -25v-34c0 -16 -8.33301 -24 -25 -24h-31z" />
    <glyph glyph-name="less" unicode="&#x3c;" horiz-adv-x="606" 
d="M80 250c-12.667 6 -19 15.665 -19 28.998v10c0 14 6.33301 23.333 19 28l405 181c8.66699 4 15.5 4.33301 20.5 1s7.5 -9.66602 7.5 -18.999v-16c0 -14 -6.33301 -23.333 -19 -28l-348 -151v-2l348 -151c12.667 -4.66699 19 -14 19 -28v-16
c0 -9.33301 -2.5 -15.666 -7.5 -18.999s-11.833 -3.33301 -20.5 0z" />
    <glyph glyph-name="equal" unicode="=" horiz-adv-x="606" 
d="M95 168c-16.667 0 -25 8 -25 24v9c0 16.667 8.33301 25 25 25h416c16.667 0 25 -8.33301 25 -25v-9c0 -16 -8.33301 -24 -25 -24h-416zM95 342c-16.667 0 -25 8 -25 24v9c0 16.667 8.33301 25 25 25h416c16.667 0 25 -8.33301 25 -25v-9c0 -16 -8.33301 -24 -25 -24h-416
z" />
    <glyph glyph-name="greater" unicode="&#x3e;" horiz-adv-x="606" 
d="M93 104c0 14 6.33301 23.335 19 28.002l348 151v2l-348 151c-12.667 4.66699 -19 14 -19 28v16c0 9.33301 2.5 15.666 7.5 18.999s11.833 3 20.5 -1l405 -181c12.667 -4.66699 19 -14 19 -28v-10c0 -13.333 -6.33301 -23 -19 -29l-405 -180
c-8.66699 -4 -15.5 -4.33301 -20.5 -1s-7.5 9.66602 -7.5 18.999v16z" />
    <glyph glyph-name="question" unicode="?" horiz-adv-x="444" 
d="M131.919 54c0 16.667 8 25 24 25h30c16 0 24 -8.33301 24 -25v-29c0 -16.667 -8 -25 -24 -25h-30c-16 -0 -24 8.33301 -24 25v29zM161.919 184c-16.667 0 -25 8.33496 -25 25.002v23c0 25.333 4.33301 47.5 13 66.5s19.5 36 32.5 51s27 29 42 42s29 26.667 42 41
s23.833 29.666 32.5 45.999s13 35.5 13 57.5c0 16 -3.16699 31 -9.5 45s-15.333 26.167 -27 36.5s-25.5 18.5 -41.5 24.5s-33.667 9 -53 9c-22 0 -41.833 -3.33301 -59.5 -10s-31.5 -13 -41.5 -19c-6.66699 -3.33301 -13 -4.83301 -19 -4.5s-11 3.83301 -15 10.5l-8 12
c-10.667 14 -9 25.333 5 34c12 8 30.167 17 54.5 27s53.166 15 86.499 15c28.667 0 55.167 -4.33301 79.5 -13s45.5 -20.834 63.5 -36.501s32 -34.334 42 -56.001s15 -45.5 15 -71.5c0 -27.333 -4.33301 -50.833 -13 -70.5s-19.5 -37.5 -32.5 -53.5
s-27.167 -30.5 -42.5 -43.5s-29.666 -26.5 -42.999 -40.5s-24.5 -29.167 -33.5 -45.5s-13.833 -35.166 -14.5 -56.499l-1 -24c-1.33301 -14 -9 -21 -23 -21h-19z" />
    <glyph glyph-name="at" unicode="@" horiz-adv-x="777" 
d="M330 242c0 -19.333 3.5 -37.165 10.5 -53.498s16.5 -30.833 28.5 -43.5s26.333 -22.5 43 -29.5s34.667 -10.5 54 -10.5h124v275h-122c-20 0 -38.333 -3.66699 -55 -11s-31.167 -17.333 -43.5 -30s-22 -27.334 -29 -44.001s-10.5 -34.334 -10.5 -53.001zM57 242.001
c0 50.667 9.33301 98.3359 28 143.003s44 83.667 76 117s69.667 59.5 113 78.5s89.666 28.5 138.999 28.5c45.333 0 83.5 -5.33301 114.5 -16s56.167 -24.667 75.5 -42s33.333 -37.5 42 -60.5s13 -46.5 13 -70.5v-315h46c16 0 24 -8.33301 24 -25v-6
c0 -16.667 -8 -25 -24 -25h-244c-29.333 0 -56.166 5.16699 -80.499 15.5s-45.333 24.166 -63 41.499s-31.5 37.666 -41.5 60.999s-15 48 -15 74s5 50.5 15 73.5s23.833 43.333 41.5 61s38.667 31.667 63 42s51.166 15.5 80.499 15.5h130
c-0.666992 15.333 -4.5 30.166 -11.5 44.499s-17.5 27 -31.5 38s-31.667 19.667 -53 26s-46.666 9.5 -75.999 9.5c-41.333 0 -79.666 -8.16699 -114.999 -24.5s-66 -38.666 -92 -66.999s-46.5 -61.166 -61.5 -98.499s-22.5 -77 -22.5 -119
c0 -40.667 6.83301 -78.834 20.5 -114.501s32.5 -67.167 56.5 -94.5s52.667 -49.5 86 -66.5s69.666 -26.833 108.999 -29.5c16 -2 24 -10.333 24 -25v-11c0 -17.333 -8.33301 -25.333 -25 -24c-48.667 2.66699 -93.834 14.167 -135.501 34.5s-77.667 46.666 -108 78.999
s-54.166 70 -71.499 113s-26 89.167 -26 138.5z" />
    <glyph glyph-name="A" unicode="A" 
d="M418.729 284l-92.999 255c-3.33301 8 -6.33301 17.333 -9 28s-5.33398 20.667 -8.00098 30c-2.66699 11.333 -5.66699 22.666 -9 33.999h-2c-3.33301 -11.333 -6.33301 -22.666 -9 -33.999l-9 -30l-9 -28l-94 -255h242zM254.73 683c4 13.333 13.001 20 27.001 20h33
c14 0 23 -6.66699 27 -20l242 -654c5.33301 -19.333 -1.33398 -29 -20.001 -29h-22c-14.667 0 -24 6.66699 -28 20l-75 204h-282l-74 -204c-4 -13.333 -13.333 -20 -28 -20h-21c-19.333 0 -26.333 9.66699 -21 29z" />
    <glyph glyph-name="B" unicode="B" horiz-adv-x="611" 
d="M347 62c42.667 0 76.333 12.333 101 37s37 58 37 100s-12.833 75.667 -38.5 101s-59.167 38 -100.5 38h-179v-276h180zM337.999 398c36 0 64.833 11.332 86.5 33.999s32.5 52.334 32.5 89.001c0 36 -10.5 65 -31.5 87s-50.5 33 -88.5 33h-170v-243h171zM97.999 677.999
c0 16.667 7.99902 25 23.999 25h216c28 0 53.667 -4 77 -12s43.5 -19.667 60.5 -35s30.167 -34 39.5 -56s14 -46.667 14 -74c0 -36.667 -8.16699 -68 -24.5 -94s-38.166 -45.667 -65.499 -59v-2c36 -10 64.667 -30.833 86 -62.5s32 -68.834 32 -111.501
c0 -31.333 -5.5 -59.166 -16.5 -83.499s-26 -45 -45 -62s-41.333 -29.833 -67 -38.5s-53.167 -13 -82.5 -13h-224c-16 0 -24 8.33301 -24 25v653z" />
    <glyph glyph-name="C" unicode="C" horiz-adv-x="710" 
d="M51 356c0 50.667 8.66602 98 25.999 142s41.666 82 72.999 114s68.5 57.167 111.5 75.5s90.5 27.5 142.5 27.5c31.333 0 59.666 -2.66699 84.999 -8s47.833 -12 67.5 -20s36.5 -16.333 50.5 -25s25 -16 33 -22c11.333 -9.33301 12.666 -21 3.99902 -35l-9 -13
c-9.33301 -12 -20.666 -13.333 -33.999 -4c-7.33301 5.33301 -17.166 11.5 -29.499 18.5s-26.666 13.833 -42.999 20.5s-34.833 12.167 -55.5 16.5s-43 6.5 -67 6.5c-42.667 0 -81.5 -7.5 -116.5 -22.5s-64.833 -35.667 -89.5 -62s-43.667 -57.333 -57 -93
s-20 -74.167 -20 -115.5c0 -42 6.66699 -81.333 20 -118s32.5 -68.834 57.5 -96.501s55.167 -49.5 90.5 -65.5s74.666 -24 117.999 -24c26 0 50.167 2.83301 72.5 8.5s42.333 12.5 60 20.5s32.834 16.333 45.501 25s23 16 31 22c12.667 10.667 24 9.66699 34 -3l9 -11
c10 -12 9.33301 -23.667 -2 -35c-8 -7.33301 -19.5 -16.166 -34.5 -26.499s-33.167 -20.333 -54.5 -30s-45.666 -18 -72.999 -25s-57.333 -10.5 -90 -10.5c-53.333 0 -102 9.5 -146 28.5s-81.5 45.167 -112.5 78.5s-55 72.333 -72 117s-25.5 92.667 -25.5 144z" />
    <glyph glyph-name="D" unicode="D" horiz-adv-x="731" 
d="M318 62c43.333 0 82.6689 6.16699 118.002 18.5s65.666 30.833 90.999 55.5s44.833 55 58.5 91s20.5 77.667 20.5 125c0 46.667 -7 88 -21 124s-33.5 66.167 -58.5 90.5s-55.333 42.833 -91 55.5s-74.834 19 -117.501 19h-151v-579h151zM98.0029 678c0 16.667 8 25 24 25
h203c52.667 0 100.667 -7.83301 144 -23.5s80.5 -38.5 111.5 -68.5s55 -66.833 72 -110.5s25.5 -93.167 25.5 -148.5c0 -56 -8.5 -105.833 -25.5 -149.5s-41 -80.5 -72 -110.5s-68.167 -52.833 -111.5 -68.5s-91.333 -23.5 -144 -23.5h-203c-16 -0 -24 8.33301 -24 25v653z
" />
    <glyph glyph-name="E" unicode="E" horiz-adv-x="553" 
d="M98 678c0 16.667 8 25 24 25h347c16.667 0 25 -8.33301 25 -25v-12c0 -16.667 -8.33301 -25 -25 -25h-302v-256h242c16.667 0 25 -8 25 -24v-13c0 -16.667 -8.33301 -25 -25 -25h-242v-261h320c16.667 0 25 -8.33301 25 -25v-12c0 -16.667 -8.33301 -25 -25 -25h-365
c-16 -0 -24 8.33301 -24 25v653z" />
    <glyph glyph-name="F" unicode="F" horiz-adv-x="498" 
d="M98 678c0 16.667 8 25 24 25h321c16.667 0 25 -8.33301 25 -25v-12c0 -16.667 -8.33301 -25 -25 -25h-276v-264h234c16 0 24 -8 24 -24v-13c0 -16.667 -8 -25 -24 -25h-234v-290c0 -16.667 -8 -25 -24 -25h-21c-16 -0 -24 8.33301 -24 25v653z" />
    <glyph glyph-name="G" unicode="G" horiz-adv-x="748" 
d="M51 351c0 51.333 9.00098 99.167 27.001 143.5s42.833 82.833 74.5 115.5s69.167 58.334 112.5 77.001s90.333 28 141 28c30 0 57.5 -2.5 82.5 -7.5s47.167 -11 66.5 -18s36 -14.333 50 -22s24.667 -14.167 32 -19.5c13.333 -10 14.666 -21.333 3.99902 -34l-9 -13
c-9.33301 -13.333 -20.666 -15.333 -33.999 -6c-7.33301 4.66699 -17 10.167 -29 16.5s-26 12.333 -42 18s-34 10.5 -54 14.5s-41.667 6 -65 6c-42.667 0 -81.5 -7.66699 -116.5 -23s-65 -36.333 -90 -63s-44.333 -58.167 -58 -94.5s-20.5 -75.166 -20.5 -116.499
c0 -43.333 7 -83.166 21 -119.499s33.5 -68 58.5 -95s54.5 -48 88.5 -63s71 -22.5 111 -22.5c35.333 0 66.666 5.16699 93.999 15.5s50.666 22.166 69.999 35.499c22 15.333 41.333 32.666 58 51.999v118h-96c-16 0 -24 8.33301 -24 25v12c0 16.667 8 25 24 25h137
c16 0 24 -8.33301 24 -25v-286c0 -16.667 -8 -25 -24 -25h-14c-16.667 0 -25 7.33301 -25 22v36v18c0 2.66699 0.333008 5.33398 1 8.00098h-2c-16.667 -18 -36.334 -34 -59.001 -48c-19.333 -12 -43.166 -23 -71.499 -33s-61.166 -15 -98.499 -15
c-48 0 -93 9.16699 -135 27.5s-78.5 43.666 -109.5 75.999s-55.5 70.666 -73.5 114.999s-27 92.5 -27 144.5z" />
    <glyph glyph-name="H" unicode="H" horiz-adv-x="742" 
d="M98 678c0 16.667 8 25 24 25h21c16 0 24 -8.33301 24 -25v-295h408v295c0 16.667 8 25 24 25h20c16.667 0 25 -8.33301 25 -25v-653c0 -16.667 -8.33301 -25 -25 -25h-20c-16 -0 -24 8.33301 -24 25v296h-408v-296c0 -16.667 -8 -25 -24 -25h-21
c-16 -0 -24 8.33301 -24 25v653z" />
    <glyph glyph-name="I" unicode="I" horiz-adv-x="265" 
d="M98 678c0 16.667 8 25 24 25h21c16 0 24 -8.33301 24 -25v-653c0 -16.667 -8 -25 -24 -25h-21c-16 -0 -24 8.33301 -24 25v653z" />
    <glyph glyph-name="J" unicode="J" horiz-adv-x="510" 
d="M26 201c0 16 8.00391 24.0029 24.0039 24.0029h22c8 0 13.5 -1.83301 16.5 -5.5s5.16699 -10.834 6.5 -21.501c0.666992 -20.667 3.66699 -39.834 9 -57.501s13.166 -33 23.499 -46s23.333 -23.167 39 -30.5s34.5 -11 56.5 -11c16 0 31.667 2.5 47 7.5s29 13 41 24
s21.667 25.667 29 44s11 41.166 11 68.499v444h-147c-16 0 -24 8.33301 -24 25v12c0 16.667 8 25 24 25h192c16.667 0 25 -8.33301 25 -25v-481c0 -38 -5.83301 -70.333 -17.5 -97s-26.834 -48.167 -45.501 -64.5s-39.834 -28.333 -63.501 -36s-47.5 -11.5 -71.5 -11.5
s-47.833 3.83301 -71.5 11.5s-44.834 20 -63.501 37s-33.667 39 -45 66s-17 59.833 -17 98.5z" />
    <glyph glyph-name="K" unicode="K" horiz-adv-x="583" 
d="M98 678c0 16.667 7.99902 25.001 23.999 25.001h21c16 0 24 -8.33301 24 -25v-280h119l179 288c6.66699 11.333 16.334 17 29.001 17h25c10 0 16.667 -2.83301 20 -8.5s2.33301 -12.834 -3 -21.501l-192 -302v-2l206 -340c5.33301 -8 6.33301 -14.833 3 -20.5
s-9.66602 -8.5 -18.999 -8.5h-28c-12.667 0 -22.334 5.66699 -29.001 17l-191 319h-119v-311c0 -16.667 -8 -25 -24 -25h-21c-16 -0 -24 8.33301 -24 25v653z" />
    <glyph glyph-name="L" unicode="L" horiz-adv-x="499" 
d="M98 678c0 16.667 8 25 24 25h21c16 0 24 -8.33301 24 -25v-616h301c16.667 0 25 -8.33301 25 -25v-12c0 -16.667 -8.33301 -25 -25 -25h-346c-16 -0 -24 8.33301 -24 25v653z" />
    <glyph glyph-name="M" unicode="M" horiz-adv-x="837" 
d="M124.143 680c1.33301 15.333 9.66406 23.001 24.9971 23.001h27c14.667 0 24.334 -6.33301 29.001 -19l176 -394l12 -29l11 -28l12 -29h2c3.33301 9.33301 7 19 11 29l11 28l12 29l176 394c6 12.667 15.667 19 29 19h27c15.333 0 23.666 -7.66699 24.999 -23l53 -654
c1.33301 -17.333 -6.66699 -26 -24 -26h-20c-15.333 0 -23.666 7.66699 -24.999 23l-37 469c-1.33301 9.33301 -2.16602 19.666 -2.49902 30.999s-0.5 22 -0.5 32v35h-2l-12 -36c-3.33301 -10 -7.16602 -20.5 -11.499 -31.5l-12.5 -30.5l-158 -342
c-4.66699 -12.667 -14 -19 -28 -19h-24c-14.667 0 -24.334 6.33301 -29.001 19l-157 342c-4 8.66699 -8.16699 18.667 -12.5 30s-8.16602 22.333 -11.499 33c-4 12 -8.33301 24.333 -13 37h-2v-36c0 -10 -0.333008 -20.833 -1 -32.5s-1.33398 -22.167 -2.00098 -31.5
l-37 -469c-1.33301 -15.333 -9.66602 -23 -24.999 -23h-20c-17.333 0 -25.333 8.66699 -24 26z" />
    <glyph glyph-name="N" unicode="N" horiz-adv-x="745" 
d="M98 678c0 16.667 7.99902 25.001 23.999 25.001h24c12 0 22 -5.33301 30 -16l348 -490l19 -30.5l19 -30.5l20 -34h2c-1.33301 11.333 -2.33301 22.666 -3 33.999c-1.33301 9.33301 -2.16602 19.5 -2.49902 30.5s-0.5 21.167 -0.5 30.5v481c0 16.667 8.33301 25 25 25h20
c16 0 24 -8.33301 24 -25v-653c0 -16.667 -8 -25 -24 -25h-24c-12.667 -0 -22.334 5.33301 -29.001 16l-349 490c-6 8.66699 -12.5 18.667 -19.5 30l-18.5 31c-7.33301 11.333 -14 22.666 -20 33.999h-2c0.666992 -11.333 1.66699 -22.666 3 -33.999
c0.666992 -9.33301 1.33398 -19.5 2.00098 -30.5s1 -21.167 1 -30.5v-481c0 -16.667 -8 -25 -24 -25h-21c-16 -0 -24 8.33301 -24 25v653z" />
    <glyph glyph-name="O" unicode="O" horiz-adv-x="817" 
d="M122 356c0 -42.667 7.16699 -82.5 21.5 -119.5s34.333 -69 60 -96s55.834 -48.333 90.501 -64s72.667 -23.5 114 -23.5s79.5 7.83301 114.5 23.5s65.167 37 90.5 64s45.166 59 59.499 96s21.5 76.833 21.5 119.5c0 42 -7.16699 80.833 -21.5 116.5
s-34.166 66.667 -59.499 93s-55.5 47 -90.5 62s-73.167 22.5 -114.5 22.5s-79.333 -7.5 -114 -22.5s-64.834 -35.667 -90.501 -62s-45.667 -57.333 -60 -93s-21.5 -74.5 -21.5 -116.5zM50 356c0 50.667 9 97.834 27 141.501s43 81.667 75 114s69.833 57.666 113.5 75.999
s91.167 27.5 142.5 27.5s98.833 -9.16699 142.5 -27.5s81.5 -43.666 113.5 -75.999s57 -70.333 75 -114s27 -90.834 27 -141.501c0 -51.333 -9 -99.5 -27 -144.5s-43 -84 -75 -117s-69.833 -59 -113.5 -78s-91.167 -28.5 -142.5 -28.5s-98.833 9.5 -142.5 28.5
s-81.5 45 -113.5 78s-57 72 -75 117s-27 93.167 -27 144.5z" />
    <glyph glyph-name="P" unicode="P" horiz-adv-x="589" 
d="M332 338c47.333 0 85 13.5 113 40.5s42 64.5 42 112.5s-14 85 -42 111s-65.333 39 -112 39h-166v-303h165zM98 678c0 16.667 8 25.002 24 25.002h219c31.333 0 60.333 -5 87 -15s49.667 -24.167 69 -42.5s34.333 -40.5 45 -66.5s16 -55.333 16 -88
s-5.33301 -62.334 -16 -89.001s-25.667 -49.334 -45 -68.001s-42.333 -33 -69 -43s-55.667 -15 -87 -15h-174v-251c0 -16.667 -8 -25 -24 -25h-21c-16 -0 -24 8.33301 -24 25v653z" />
    <glyph glyph-name="Q" unicode="Q" horiz-adv-x="817" 
d="M123 356c0 -42.667 7.33398 -82.334 22.001 -119.001s34.667 -68.667 60 -96s55.5 -48.833 90.5 -64.5s72.5 -23.5 112.5 -23.5c33.333 0 65.833 5.5 97.5 16.5s59.834 27.167 84.501 48.5l-69 71c-12 11.333 -12.333 22.666 -1 33.999l8 8
c11.333 12.667 22.666 13.334 33.999 2.00098l68 -71c20.667 25.333 36.667 54.833 48 88.5s17 68.834 17 105.501c0 42 -7.33301 81 -22 117s-34.834 67 -60.501 93s-56 46.5 -91 61.5s-72.833 22.5 -113.5 22.5c-40 0 -77.5 -7.5 -112.5 -22.5s-65.167 -35.5 -90.5 -61.5
s-45.333 -57 -60 -93s-22 -75 -22 -117zM51.001 356c0 50.667 9.00293 97.834 27.0029 141.501s43 81.667 75 114s69.667 57.666 113 75.999s90.666 27.5 141.999 27.5c52 0 100 -9.16699 144 -27.5s81.833 -43.666 113.5 -75.999s56.5 -70.333 74.5 -114
s27 -90.834 27 -141.501c0 -46.667 -7.66699 -90.667 -23 -132s-37 -78 -65 -110l69 -70c12.667 -11.333 13 -23 1 -35l-8 -8c-12 -12 -23 -12.333 -33 -1l-70 71c-31.333 -26.667 -66.333 -47.167 -105 -61.5s-80.334 -21.5 -125.001 -21.5
c-51.333 0 -98.833 9.5 -142.5 28.5s-81.334 45.167 -113.001 78.5s-56.5 72.333 -74.5 117s-27 92.667 -27 144z" />
    <glyph glyph-name="R" unicode="R" 
d="M334 358c42.667 0 76.5 13.499 101.5 40.499s37.5 62.5 37.5 106.5c0 28 -6.5 52.833 -19.5 74.5s-31.167 37.834 -54.5 48.501c-10 4.66699 -21.5 8 -34.5 10s-32.167 3 -57.5 3h-140v-283h167zM98 677.999c0 16.667 7.99805 25.001 23.998 25.001h190
c33.333 0 59.5 -1.66699 78.5 -5s35.5 -8.33301 49.5 -15c32 -15.333 57.333 -37.833 76 -67.5s28 -65.834 28 -108.501c0 -48 -12.167 -89.5 -36.5 -124.5s-56.5 -58.167 -96.5 -69.5v-2c1.33301 -2 3 -4.33301 5 -7c1.33301 -2.66699 3 -5.66699 5 -9
s4.66699 -7.33301 8 -12l137 -254c4.66699 -8.66699 5.33398 -15.667 2.00098 -21s-9.66602 -8 -18.999 -8h-26c-13.333 0 -23 5.66699 -29 17l-150 279h-177v-271c0 -16.667 -8 -25 -24 -25h-21c-16 0 -24 8.33301 -24 25v653z" />
    <glyph glyph-name="S" unicode="S" horiz-adv-x="526" 
d="M51.8271 62c-10.667 10.667 -11.667 22.332 -3 34.999l12 15c10 12 21.667 13 35 3c6 -5.33301 14.167 -11.333 24.5 -18s22.333 -13.334 36 -20.001s29 -12.167 46 -16.5s35.5 -6.5 55.5 -6.5c42 0 76.333 10.833 103 32.5s40 50.834 40 87.501
c0 29.333 -8.66699 53.5 -26 72.5s-39 35.5 -65 49.5s-54 27 -84 39s-58 26.167 -84 42.5s-47.667 36.166 -65 59.499s-26 53.333 -26 90c0 28.667 5.66699 54.667 17 78s27 43.166 47 59.499s43.333 28.833 70 37.5s55.334 13 86.001 13c20.667 0 40 -2 58 -6
s34.333 -8.66699 49 -14s27.334 -11.333 38.001 -18s19.334 -12.334 26.001 -17.001c12 -9.33301 14 -20.333 6 -33l-9 -16c-4.66699 -7.33301 -10 -11.333 -16 -12s-12.333 1 -19 5c-12.667 8.66699 -30.334 18.334 -53.001 29.001s-50 16 -82 16
c-20 0 -38.833 -2.66699 -56.5 -8s-33.334 -13 -47.001 -23s-24.334 -22.333 -32.001 -37s-11.5 -31.334 -11.5 -50.001c0 -28 8.66699 -51 26 -69s39 -33.667 65 -47s54 -26 84 -38s58 -26.167 84 -42.5s47.667 -36.666 65 -60.999s26 -55.166 26 -92.499
c0 -27.333 -4.83301 -52.666 -14.5 -75.999s-23.667 -43.666 -42 -60.999s-40.833 -31 -67.5 -41s-56.667 -15 -90 -15c-26 0 -50 2.66699 -72 8s-41.667 12 -59 20s-32.333 16.167 -45 24.5s-22.667 15.5 -30 21.5z" />
    <glyph glyph-name="T" unicode="T" horiz-adv-x="586" 
d="M258 641h-227c-16.667 0 -25 8.33301 -25 25v12c0 16.667 8.33301 25 25 25h524c16.667 0 25 -8.33301 25 -25v-12c0 -16.667 -8.33301 -25 -25 -25h-228v-616c0 -16.667 -8 -25 -24 -25h-20c-16.667 -0 -25 8.33301 -25 25v616z" />
    <glyph glyph-name="U" unicode="U" horiz-adv-x="715" 
d="M88 678c0 16.667 8.33398 25 25.001 25h20c16.667 0 25 -8.33301 25 -25v-432c0 -60.667 18 -108 54 -142s84.333 -51 145 -51s109.167 17 145.5 51s54.5 82 54.5 144v430c0 16.667 8.33301 25 25 25h20c16 0 24 -8.33301 24 -25v-433
c0 -39.333 -6.5 -74.666 -19.5 -105.999s-31.333 -58.333 -55 -81s-51.834 -40 -84.501 -52s-69 -18 -109 -18s-76.5 6 -109.5 18s-61.5 29.333 -85.5 52s-42.5 49.667 -55.5 81s-19.5 66.666 -19.5 105.999v433z" />
    <glyph glyph-name="V" unicode="V" horiz-adv-x="610" 
d="M10.5 674c-6.66699 19.333 -0.000976562 29 19.999 29h23c14.667 0 24 -6.66699 28 -20l187 -514c3.33301 -9.33301 6.5 -19.166 9.5 -29.499l8.5 -29.5c2.66699 -10.667 5.66699 -21.334 9 -32.001h2c3.33301 10.667 6.33301 21.334 9 32.001l8.5 29.5
c3 10.333 6.16699 20.166 9.5 29.499l189 514c4 13.333 13 20 27 20h24c18.667 0 25.334 -9.66699 20.001 -29l-243 -654c-4.66699 -13.333 -14 -20 -28 -20h-33c-14 0 -23 6.66699 -27 20z" />
    <glyph glyph-name="W" unicode="W" horiz-adv-x="930" 
d="M38.0586 676c-4 18 3.33496 27.001 22.002 27.001h22c14 0 23 -7.33301 27 -22l131 -524l6 -27c2 -8.66699 3.66699 -16.667 5 -24c2 -8 3.66699 -16 5 -24h2c1.33301 8 3 16 5 24c1.33301 7.33301 3 15.333 5 24s4.33301 17.667 7 27l145 525c4 14 13 21 27 21h23
c14 0 23 -7 27 -21l144 -525l7.5 -27c2.33301 -8.66699 4.16602 -16.667 5.49902 -24c2 -8 3.66699 -16 5 -24h2c0.666992 8 2 16 4 24l4.5 24c1.66699 8.66699 3.83398 17.667 6.50098 27l137 524c4 14.667 13 22 27 22h22c8.66699 0 15 -2.33301 19 -7
s4.66699 -11.334 2 -20.001l-174 -655c-4 -14 -13.333 -21 -28 -21h-38c-14.667 0 -24 7 -28 21l-130 474c-3.33301 11.333 -6.33301 23 -9 35s-5.33398 23.333 -8.00098 34l-8 36h-3l-8 -36c-2.66699 -10.667 -5.33398 -22 -8.00098 -34s-5.66699 -23.667 -9 -35l-131 -474
c-4 -14 -13 -21 -27 -21h-39c-14 -0 -23 7.33301 -27 22z" />
    <glyph glyph-name="X" unicode="X" horiz-adv-x="566" 
d="M234.923 367l-185.999 307.001c-5.33301 8 -6.33301 14.833 -3 20.5s10 8.5 20 8.5h27c12 0 21.667 -5.66699 29 -17l113 -191l16 -28l15 -26l15 -27h2l13 27c4 8 8.66699 16.667 14 26l16 28l114 191c6.66699 11.333 16.334 17 29.001 17h27
c10 0 16.667 -2.83301 20 -8.5s2.33301 -12.5 -3 -20.5l-188 -307l206 -338c6 -8 7.33301 -14.833 4 -20.5s-10 -8.5 -20 -8.5h-25c-12.667 0 -22.334 5.66699 -29.001 17l-137 226l-16 28l-14 25l-14 25h-2c-4 -8.66699 -8.33301 -17.334 -13 -26.001l-14 -25l-16 -28
l-135 -225c-6.66699 -11.333 -16.334 -17 -29.001 -17h-25c-10 -0 -16.667 2.83301 -20 8.5s-2.33301 12.5 3 20.5z" />
    <glyph glyph-name="Y" unicode="Y" horiz-adv-x="554" 
d="M239.923 302l-221.001 372c-5.33301 8 -6.33301 14.833 -3 20.5s10 8.5 20 8.5h25c13.333 0 23 -5.66699 29 -17l140 -238c5.33301 -9.33301 10.5 -19 15.5 -29l13.5 -27l14 -28h2l14 28l13.5 27c5 10 10.167 19.667 15.5 29l140 238c6 11.333 15.333 17 28 17h26
c9.33301 0 15.833 -2.83301 19.5 -8.5s2.83398 -12.5 -2.49902 -20.5l-220 -372v-277c0 -16.667 -8.33301 -25 -25 -25h-20c-16 -0 -24 8.33301 -24 25v277z" />
    <glyph glyph-name="Z" unicode="Z" horiz-adv-x="575" 
d="M33 32c0 11.333 3.33398 21.666 10.001 30.999l354 514c6 9.33301 12 18 18 26s11.333 14.667 16 20l15 18v2c-3.33301 -0.666992 -7.66602 -1 -12.999 -1c-4.66699 -0.666992 -10.167 -1 -16.5 -1h-22.5h-317c-16 0 -24 8.33301 -24 25v12c0 16.667 8 25 24 25h430
c16.667 0 25 -8 25 -24v-8c0 -11.333 -3.33301 -21.666 -10 -30.999l-354 -514l-18.5 -26c-5.66699 -8 -10.834 -14.667 -15.501 -20l-15 -18v-2c3.33301 0 7.66602 0.333008 12.999 1c4.66699 0 10 0.166992 16 0.5s13.667 0.5 23 0.5h340c16 0 24 -8.33301 24 -25v-12
c0 -16.667 -8 -25 -24 -25h-453c-16.667 -0 -25 8.33301 -25 25v7z" />
    <glyph glyph-name="bracketleft" unicode="[" horiz-adv-x="267" 
d="M87 705c0 16.667 8 25 24 25h87c16 0 24 -8.33301 24 -25v-6c0 -16.667 -8 -25 -24 -25h-48v-713h48c16 0 24 -8.33301 24 -25v-6c0 -16.667 -8 -25 -24 -25h-87c-16 0 -24 8.33301 -24 25v775z" />
    <glyph glyph-name="backslash" unicode="\" horiz-adv-x="385" 
d="M35.7295 714c-5.33301 18.667 1.66797 28 21.001 28h13c14 0 23.333 -6.66699 28 -20l238 -736c3.33301 -8.66699 3 -15.5 -1 -20.5s-10.333 -7.5 -19 -7.5h-13c-14.667 0 -24.334 6.66699 -29.001 20z" />
    <glyph glyph-name="bracketright" unicode="]" horiz-adv-x="267" 
d="M45 -64c0 16.667 8.33301 25 25 25h47v713h-47c-16.667 0 -25 8.33301 -25 25v6c0 16.667 8.33301 25 25 25h86c16 0 24 -8.33301 24 -25v-775c0 -16.667 -8 -25 -24 -25h-86c-16.667 0 -25 8.33301 -25 25v6z" />
    <glyph glyph-name="asciicircum" unicode="^" horiz-adv-x="606" 
d="M96.9512 250c-20 0 -26.333 9.66699 -19 29l177 405c6 12.667 15.667 19 29 19h6c13.333 0 23 -6.33301 29 -19l177 -405c7.33301 -19.333 1 -29 -19 -29h-14c-14 0 -23.333 6.33301 -28 19l-148 351l-148 -351c-6 -12.667 -15.667 -19 -29 -19h-13z" />
    <glyph glyph-name="underscore" unicode="_" horiz-adv-x="538" 
d="M11 -25c0 16.667 8 25 24 25h467c16.667 0 25 -8.33301 25 -25v-8c0 -16.667 -8.33301 -25 -25 -25h-467c-16 0 -24 8.33301 -24 25v8z" />
    <glyph glyph-name="grave" unicode="`" horiz-adv-x="504" 
d="M280.48 752c-12 0 -22.001 5.33203 -30.001 15.999l-53 73c-6 8.66699 -7.83301 15.834 -5.5 21.501s8.83301 8.5 19.5 8.5h23c12.667 0 22.334 -5.66699 29.001 -17l44 -74c4.66699 -7.33301 6 -13.833 4 -19.5s-7.66699 -8.5 -17 -8.5h-14z" />
    <glyph glyph-name="a" unicode="a" horiz-adv-x="508" 
d="M104 141c0 -12 2.33301 -23.666 7 -34.999s11.667 -21.5 21 -30.5s21 -16.333 35 -22s30.333 -8.5 49 -8.5c24 0 45.667 5.66699 65 17s35.5 26 48.5 44s23 38.167 30 60.5s10.5 44.5 10.5 66.5v24h-28c-20 0 -43.5 -0.666992 -70.5 -2s-53 -5.83301 -78 -13.5
s-46.167 -19.334 -63.5 -35.001s-26 -37.5 -26 -65.5zM34 135.001c0 27.333 5.33105 50.6689 15.998 70.002s24.667 35.333 42 48s37 22.667 59 30s44.333 12.833 67 16.5s44.834 6 66.501 7s40.5 1.5 56.5 1.5h29v16c0 24 -3.16699 44.333 -9.5 61s-15 30.167 -26 40.5
s-24 17.666 -39 21.999s-31.5 6.5 -49.5 6.5c-28 0 -52.5 -4 -73.5 -12s-37.167 -15.667 -48.5 -23c-14 -7.33301 -25.333 -4.66602 -34 8.00098l-6 10c-8.66699 14.667 -6.33398 26 6.99902 34s33.5 17.333 60.5 28s60.167 16 99.5 16c60.667 0 107 -16.333 139 -49
s48 -80.667 48 -144v-297c0 -16.667 -8 -25 -24 -25h-16c-16.667 0 -25 8.33301 -25 25v40v15.5c0 5 0.333008 9.16699 1 12.5c0.666992 4 1.33398 7.33301 2.00098 10h-2l-9 -18c-6 -12 -15.667 -25.167 -29 -39.5s-30.833 -27.5 -52.5 -39.5s-48.167 -18 -79.5 -18
c-21.333 0 -42.166 3.16699 -62.499 9.5s-38.5 15.666 -54.5 27.999s-28.833 27.666 -38.5 45.999s-14.5 39.5 -14.5 63.5z" />
    <glyph glyph-name="b" unicode="b" horiz-adv-x="581" 
d="M144 251c0 -26 3.32715 -51 9.99414 -75s16.5 -45.5 29.5 -64.5s29.5 -34.167 49.5 -45.5s43.333 -17 70 -17c22.667 0 43.834 4.5 63.501 13.5s36.834 22.167 51.501 39.5s26.334 38.5 35.001 63.5s13 53.5 13 85.5c0 30.667 -4 58.5 -12 83.5s-19 46.167 -33 63.5
s-30.667 30.833 -50 40.5s-40.666 14.5 -63.999 14.5c-21.333 0 -41.666 -3.83301 -60.999 -11.5s-36.666 -19.667 -51.999 -36s-27.5 -37.333 -36.5 -63s-13.5 -56.167 -13.5 -91.5zM77.9941 678c0 16.667 7.99902 25 23.999 25h19c16.667 0 25 -8.33301 25 -25v-225
c0 -6 -0.166992 -11.5 -0.5 -16.5s-0.833008 -9.16699 -1.5 -12.5l-2 -12h2c9.33301 18.667 22 35.667 38 51c13.333 13.333 31 25.333 53 36s49.333 16 82 16c34 0 64.5 -6.5 91.5 -19.5s50 -31 69 -54s33.5 -50.667 43.5 -83s15 -67.833 15 -106.5
c0 -40 -5.66699 -76.333 -17 -109s-27 -60.5 -47 -83.5s-44 -40.667 -72 -53s-58.333 -18.5 -91 -18.5c-30.667 0 -56.667 5.33301 -78 16s-38.666 22.667 -51.999 36c-16 15.333 -28.667 33 -38 53h-2l2 -10c0.666992 -3.33301 1.16699 -7.33301 1.5 -12
s0.5 -9.66699 0.5 -15v-33c0 -15.333 -8.33301 -23 -25 -23h-16c-16 -0 -24 8.33301 -24 25v653z" />
    <glyph glyph-name="c" unicode="c" horiz-adv-x="532" 
d="M43 251c0 38.667 6.83105 74.1699 20.498 106.503s32.334 60.166 56.001 83.499s51.5 41.5 83.5 54.5s66.667 19.5 104 19.5c21.333 0 40.833 -2 58.5 -6s33.5 -9 47.5 -15s26.167 -12.333 36.5 -19s18.5 -12.334 24.5 -17.001c12 -9.33301 13 -20.666 3 -33.999l-7 -11
c-8 -12.667 -19.333 -14.334 -34 -5.00098c-11.333 8.66699 -27.666 18.5 -48.999 29.5s-47.333 16.5 -78 16.5c-27.333 0 -53 -5 -77 -15s-44.833 -23.833 -62.5 -41.5s-31.5 -39 -41.5 -64s-15 -52.5 -15 -82.5s5 -57.333 15 -82s23.833 -45.834 41.5 -63.501
s38.5 -31.5 62.5 -41.5s50 -15 78 -15c17.333 0 33.333 1.83301 48 5.5s28 8.16699 40 13.5s22.5 11 31.5 17s16.5 11.667 22.5 17c12.667 10 23.667 8 33 -6l7 -10c7.33301 -12 5.33301 -23.333 -6 -34c-6.66699 -5.33301 -15.334 -11.666 -26.001 -18.999
s-23.5 -14.333 -38.5 -21s-32 -12.334 -51 -17.001s-40.167 -7 -63.5 -7c-37.333 0 -72.166 6.33301 -104.499 19s-60.333 30.667 -84 54s-42.167 51 -55.5 83s-20 67.667 -20 107z" />
    <glyph glyph-name="d" unicode="d" horiz-adv-x="581" 
d="M115 252c0 -31.333 3.83398 -59.5 11.501 -84.5s18.5 -46.167 32.5 -63.5s30.833 -30.833 50.5 -40.5s41.167 -14.5 64.5 -14.5c20.667 0 40.834 3.83301 60.501 11.5s37.167 19.834 52.5 36.501s27.5 37.667 36.5 63s13.5 56 13.5 92
c0 25.333 -3.33301 50.166 -10 74.499s-16.5 45.833 -29.5 64.5s-29.667 33.667 -50 45s-43.833 17 -70.5 17c-22 0 -42.833 -4.5 -62.5 -13.5s-36.834 -22.167 -51.501 -39.5s-26.334 -38.333 -35.001 -63s-13 -53 -13 -85zM45.001 252
c0 40 5.49805 76.1709 16.498 108.504s26.5 60 46.5 83s43.833 40.667 71.5 53s58.167 18.5 91.5 18.5c30.667 0 56.334 -5.33301 77.001 -16s37.667 -22.334 51 -35.001c15.333 -14.667 27.666 -31.334 36.999 -50.001h2c-0.666992 3.33301 -1.33398 7 -2.00098 11
c-0.666992 3.33301 -1 7.33301 -1 12v15v226c0 16.667 8.33301 25 25 25h19c16 0 24 -8.33301 24 -25v-653c0 -16.667 -8 -25 -24 -25h-17c-16.667 0 -25 8 -25 24v38c0 4.66699 0.166992 8.66699 0.5 12s0.833008 6.66602 1.5 9.99902
c0.666992 2.66699 1.33398 5.66699 2.00098 9h-2c-9.33301 -20 -22 -37.667 -38 -53c-13.333 -13.333 -31.166 -25.333 -53.499 -36s-50.166 -16 -83.499 -16c-34 0 -64.5 6.5 -91.5 19.5s-50 31 -69 54s-33.5 50.667 -43.5 83s-15 68.166 -15 107.499z" />
    <glyph glyph-name="e" unicode="e" horiz-adv-x="544" 
d="M433 301c-1.33301 26.667 -5.83301 49.833 -13.5 69.5s-18 36 -31 49s-28 22.833 -45 29.5s-34.833 10 -53.5 10c-21.333 0 -41.5 -3.5 -60.5 -10.5s-36.167 -17.167 -51.5 -30.5s-28.333 -29.833 -39 -49.5s-18 -42.167 -22 -67.5h316zM44 250.999
c0 41.333 6.49707 78.3311 19.4971 110.998s30.833 60.334 53.5 83.001s49 40 79 52s62 18 96 18c33.333 0 63 -5.83301 89 -17.5s48 -28 66 -49s31.667 -46.167 41 -75.5s14 -62 14 -98c0 -7.33301 -2.5 -13.333 -7.5 -18s-11.167 -7 -18.5 -7h-362
c0.666992 -32 6.33398 -60.5 17.001 -85.5s24.834 -46 42.501 -63s38.167 -30 61.5 -39s48 -13.5 74 -13.5c32 0 59.167 5.33301 81.5 16s39.166 20.667 50.499 30c14 8.66699 25 6.66699 33 -6l8 -12c7.33301 -12.667 5 -23.667 -7 -33
c-6.66699 -5.33301 -15.334 -11.166 -26.001 -17.499s-23.167 -12.333 -37.5 -18s-30.333 -10.5 -48 -14.5s-36.5 -6 -56.5 -6c-37.333 0 -72.166 6.5 -104.499 19.5s-60.166 31 -83.499 54s-41.666 50.667 -54.999 83s-20 67.833 -20 106.5z" />
    <glyph glyph-name="f" unicode="f" horiz-adv-x="305" 
d="M95 442l-39.999 0.00390625c-16 0 -24 8 -24 24v8c0 16.667 8 25 24 25h40v23c0 40 6.5 72.167 19.5 96.5s28.5 43.166 46.5 56.499s36.5 22.166 55.5 26.499s34.833 6.5 47.5 6.5h11c16 0 24 -8.33301 24 -25v-12c0 -15.333 -9 -23.333 -27 -24
c-10.667 -0.666992 -22.334 -2.33398 -35.001 -5.00098s-24.5 -8.33398 -35.5 -17.001s-20.167 -21.167 -27.5 -37.5s-11 -38.5 -11 -66.5v-22h104c16 0 24 -8.33301 24 -25v-8c0 -16 -8 -24 -24 -24h-104v-417c0 -16.667 -8.33301 -25 -25 -25h-19
c-16 -0 -24 8.33301 -24 25v417z" />
    <glyph glyph-name="g" unicode="g" horiz-adv-x="574" 
d="M280 64c20 0 38.999 3.33203 56.999 9.99902s34 17.667 48 33s25 35.333 33 60s12 55.334 12 92.001c0 37.333 -4.16699 68.5 -12.5 93.5s-19.666 45 -33.999 60s-31 25.667 -50 32s-38.833 9.5 -59.5 9.5c-51.333 0 -90.5 -16.667 -117.5 -50s-40.5 -79.333 -40.5 -138
c0 -63.333 14.833 -112.833 44.5 -148.5s69.5 -53.5 119.5 -53.5zM106.999 -134.001c6.66699 12.667 17.335 16.333 32.002 11c11.333 -5.33301 26.666 -11 45.999 -17s43 -9 71 -9c23.333 0 45.5 3 66.5 9s39.333 15.333 55 28s28.167 29 37.5 49s14 44 14 72v52v13.5
c0 4.33301 0.333008 8.16602 1 11.499c0.666992 4 1.33398 7.66699 2.00098 11h-2c-15.333 -28.667 -35.833 -51.5 -61.5 -68.5s-58.5 -25.5 -98.5 -25.5c-34 0 -64.667 6.33301 -92 19s-50.833 30.5 -70.5 53.5s-34.834 50.5 -45.501 82.5s-16 67.333 -16 106
c0 36.667 5 70.5 15 101.5s24.5 57.5 43.5 79.5s42.167 39.167 69.5 51.5s58.666 18.5 93.999 18.5c32.667 0 59.5 -4.83301 80.5 -14.5s37.833 -20.167 50.5 -31.5c14.667 -13.333 25.667 -28.666 33 -45.999h2c-0.666992 1.33301 -1 3 -1 5c-0.666992 2 -1 6 -1 12v41
c0 14.667 8 22 24 22h16c16.667 0 25 -8.33301 25 -25v-466c0 -40 -6.83301 -74 -20.5 -102s-31.667 -51 -54 -69s-47.833 -31 -76.5 -39s-58 -12 -88 -12c-26 0 -51.333 2.66699 -76 8s-47.667 12.666 -69 21.999c-14.667 6.66699 -18.667 17.334 -12 32.001z" />
    <glyph glyph-name="h" unicode="h" horiz-adv-x="585" 
d="M78 678c0 16.667 8 25 24 25h19c16.667 0 25 -8.33301 25 -25v-251c0 -6 -0.166992 -11.5 -0.5 -16.5s-0.833008 -9.16699 -1.5 -12.5l-2 -12h2c4.66699 12 12.5 25.333 23.5 40s24.833 28.667 41.5 42s36.334 24.5 59.001 33.5s48.334 13.5 77.001 13.5
c31.333 0 57.666 -4.33301 78.999 -13s38.666 -21.334 51.999 -38.001s23 -37.167 29 -61.5s9 -51.833 9 -82.5v-295c0 -16.667 -8 -25 -24 -25h-19c-16.667 0 -25 8.33301 -25 25v277c0 20 -1.16699 39 -3.5 57s-7.33301 33.833 -15 47.5s-18.667 24.5 -33 32.5
s-33.833 12 -58.5 12c-26.667 0 -51.5 -5.16699 -74.5 -15.5s-43 -24.666 -60 -42.999s-30.5 -40.333 -40.5 -66s-15 -53.5 -15 -83.5v-218c0 -16.667 -8.33301 -25 -25 -25h-19c-16 -0 -24 8.33301 -24 25v653z" />
    <glyph glyph-name="i" unicode="i" horiz-adv-x="223" 
d="M77 478c0 16.667 8.33301 25 25 25h19c16 0 24 -8.33301 24 -25v-453c0 -16.667 -8 -25 -24 -25h-19c-16.667 -0 -25 8.33301 -25 25v453zM99 618c-16 0 -24 8 -24 24v36c0 16.667 8 25 24 25h25c16 0 24 -8.33301 24 -25v-36c0 -16 -8 -24 -24 -24h-25z" />
    <glyph glyph-name="j" unicode="j" horiz-adv-x="223" 
d="M78 478c0 16.667 8 25 24 25h19c16.667 0 25 -8.33301 25 -25v-496c0 -41.333 -6.66699 -74.333 -20 -99s-29 -43.5 -47 -56.5s-36.667 -21.667 -56 -26s-35 -6.5 -47 -6.5h-10c-16.667 0 -25 8.33301 -25 25v11c0 8.66699 2.33301 14.667 7 18s10.667 5.33301 18 6
c10.667 0.666992 22.5 2.5 35.5 5.5s25.167 9 36.5 18s20.833 22 28.5 39s11.5 39.5 11.5 67.5v494zM99 618c-16 0 -24 8 -24 24v36c0 16.667 8 25 24 25h25c16 0 24 -8.33301 24 -25v-36c0 -16 -8 -24 -24 -24h-25z" />
    <glyph glyph-name="k" unicode="k" horiz-adv-x="486" 
d="M78 678c0 16.667 8.00098 25.001 24.001 25.001h19c16.667 0 25 -8.33301 25 -25v-367h81l139 177c8 10 18 15 30 15h25c10 0 16.5 -3 19.5 -9s1.16699 -13 -5.5 -21l-152 -189v-2l174 -252c5.33301 -8.66699 6.5 -15.834 3.5 -21.501s-9.83301 -8.5 -20.5 -8.5h-26
c-12.667 0 -22.334 5.66699 -29.001 17l-157 234h-82v-226c0 -16.667 -8.33301 -25 -25 -25h-19c-16 -0 -24 8.33301 -24 25v653z" />
    <glyph glyph-name="l" unicode="l" horiz-adv-x="244" 
d="M78 678c0 16.667 8.00098 25.001 24.001 25.001h19c16.667 0 25 -8.33301 25 -25v-547c0 -16 1.66699 -28.667 5 -38s7.5 -16.5 12.5 -21.5s10.667 -8.33301 17 -10s12.166 -2.83398 17.499 -3.50098c6 -0.666992 11 -2.66699 15 -6s6 -8.66602 6 -15.999v-15
c0 -16.667 -8.66699 -25 -26 -25c-10 0 -21.667 1.16699 -35 3.5s-26 7.83301 -38 16.5s-22 21.167 -30 37.5s-12 38.166 -12 65.499v559z" />
    <glyph glyph-name="m" unicode="m" horiz-adv-x="906" 
d="M77 478c0 16.667 8.33203 24.998 24.999 24.998h18c16 0 24 -8.33301 24 -25v-58c0 -5.33301 -0.166992 -10.166 -0.5 -14.499s-0.833008 -8.16602 -1.5 -11.499c-0.666992 -4 -1.33398 -7.33301 -2.00098 -10h2c6 16.667 15.333 33 28 49s27.334 30 44.001 42
s34.667 21.667 54 29s39 11 59 11c46.667 0 82.334 -10.5 107.001 -31.5s40.667 -52.5 48 -94.5h2c6.66699 16 16.167 31.5 28.5 46.5s26.666 28.5 42.999 40.5s34 21.5 53 28.5s39.167 10.5 60.5 10.5c60.667 0 103.667 -17 129 -51s38 -82 38 -144v-295
c0 -16.667 -8.33301 -25 -25 -25h-18c-16.667 -0 -25 8.33301 -25 25v278c0 20.667 -1.33301 40 -4 58s-8 33.833 -16 47.5s-19 24.5 -33 32.5s-32.333 12 -55 12c-25.333 0 -48.333 -6 -69 -18s-38.5 -28 -53.5 -48s-26.5 -42.5 -34.5 -67.5s-12 -50.5 -12 -76.5v-218
c0 -16.667 -8 -25 -24 -25h-19c-16.667 -0 -25 8.33301 -25 25v278c0 18.667 -1 37 -3 55s-6.66699 34 -14 48s-18 25.333 -32 34s-33 13 -57 13c-25.333 0 -48.666 -6.16699 -69.999 -18.5s-39.5 -28.5 -54.5 -48.5s-26.667 -42.5 -35 -67.5s-12.5 -50.167 -12.5 -75.5
v-218c0 -16.667 -8 -25 -24 -25h-19c-16.667 -0 -25 8.33301 -25 25v453z" />
    <glyph glyph-name="n" unicode="n" horiz-adv-x="584" 
d="M77 478c0 16.667 8.33594 24.998 25.0029 24.998h18c16 0 24 -8.33301 24 -25v-58c0 -5.33301 -0.166992 -10.166 -0.5 -14.499s-0.833008 -8.16602 -1.5 -11.499c-0.666992 -4 -1.33398 -7.33301 -2.00098 -10h2c4.66699 11.333 12.334 24.5 23.001 39.5
s24.5 29.333 41.5 43s37 25.167 60 34.5s49.167 14 78.5 14c31.333 0 57.666 -4.33301 78.999 -13s38.666 -21.334 51.999 -38.001s23 -37.167 29 -61.5s9 -51.833 9 -82.5v-295c0 -16.667 -8.33301 -25 -25 -25h-19c-16 0 -24 8.33301 -24 25v277c0 20 -1.16699 39 -3.5 57
s-7.33301 33.833 -15 47.5s-18.834 24.5 -33.501 32.5s-34 12 -58 12c-26.667 0 -51.667 -5.16699 -75 -15.5s-43.5 -24.666 -60.5 -42.999s-30.5 -40 -40.5 -65s-15 -52.167 -15 -81.5v-221c0 -16.667 -8 -25 -24 -25h-19c-16.667 -0 -25 8.33301 -25 25v453z" />
    <glyph glyph-name="o" unicode="o" horiz-adv-x="615" 
d="M112 254c0 -29.333 5.16699 -56.5 15.5 -81.5s24.333 -46.667 42 -65s38.334 -32.666 62.001 -42.999s49.167 -15.5 76.5 -15.5c26.667 0 51.834 5.16699 75.501 15.5s44.334 24.666 62.001 42.999s31.667 40 42 65s15.5 52.167 15.5 81.5
c0 28.667 -5.16699 55.167 -15.5 79.5s-24.333 45.5 -42 63.5s-38.334 32 -62.001 42s-48.834 15 -75.501 15c-27.333 0 -52.833 -5 -76.5 -15s-44.334 -24 -62.001 -42s-31.667 -39.167 -42 -63.5s-15.5 -50.833 -15.5 -79.5zM42 254c0 37.333 7 71.833 21 103.5
s33 59.167 57 82.5s52 41.666 84 54.999s66.333 20 103 20s71.167 -6.66699 103.5 -20s60.5 -31.666 84.5 -54.999s43 -50.833 57 -82.5s21 -66.167 21 -103.5c0 -38 -7 -73.167 -21 -105.5s-33 -60.5 -57 -84.5s-52 -42.667 -84 -56s-66.333 -20 -103 -20
s-71.167 6.66699 -103.5 20s-60.5 32 -84.5 56s-43 52.167 -57 84.5s-21 67.5 -21 105.5z" />
    <glyph glyph-name="p" unicode="p" horiz-adv-x="581" 
d="M144 250c0 -25.333 3.49414 -49.999 10.4941 -73.999s17.167 -45.5 30.5 -64.5s29.833 -34.167 49.5 -45.5s42.5 -17 68.5 -17c22.667 0 43.834 4.5 63.501 13.5s36.834 22.167 51.501 39.5s26.334 38.5 35.001 63.5s13 53.5 13 85.5c0 30.667 -4 58.5 -12 83.5
s-19 46.167 -33 63.5s-30.667 30.833 -50 40.5s-40.666 14.5 -63.999 14.5c-21.333 0 -41.666 -3.83301 -60.999 -11.5s-36.666 -19.834 -51.999 -36.501s-27.5 -37.667 -36.5 -63s-13.5 -56 -13.5 -92zM77.9941 478.001c0 16.667 8 25.0029 24 25.0029h16
c16 0 24 -7.66699 24 -23v-36c0 -5.33301 -0.166992 -10 -0.5 -14s-0.833008 -7.66699 -1.5 -11s-1 -6.33301 -1 -9h2c9.33301 19.333 22 36.666 38 51.999c13.333 13.333 31.166 25.5 53.499 36.5s50.5 16.5 84.5 16.5s64.5 -6.5 91.5 -19.5s50 -31 69 -54
s33.5 -50.833 43.5 -83.5s15 -68.334 15 -107.001c0 -40 -5.66699 -76.167 -17 -108.5s-27 -60 -47 -83s-43.833 -40.667 -71.5 -53s-57.834 -18.5 -90.501 -18.5c-30.667 0 -56.5 5.16699 -77.5 15.5s-38.167 22.166 -51.5 35.499
c-15.333 14.667 -27.666 31.667 -36.999 51h-2c0.666992 -3.33301 1.33398 -7.33301 2.00098 -12c0.666992 -4 1.16699 -8.66699 1.5 -14s0.5 -11.333 0.5 -18v-221c0 -16.667 -8.33301 -25 -25 -25h-19c-16 0 -24 8.33301 -24 25v653z" />
    <glyph glyph-name="q" unicode="q" horiz-adv-x="581" 
d="M115 252c0 -31.333 3.83398 -59.5 11.501 -84.5s18.5 -46.167 32.5 -63.5s30.833 -30.833 50.5 -40.5s41.167 -14.5 64.5 -14.5c20.667 0 40.834 3.83301 60.501 11.5s37.167 19.834 52.5 36.501s27.5 37.667 36.5 63s13.5 56 13.5 92
c0 25.333 -3.33301 50.166 -10 74.499s-16.5 45.833 -29.5 64.5s-29.667 33.667 -50 45s-43.833 17 -70.5 17c-22 0 -42.833 -4.5 -62.5 -13.5s-36.834 -22.167 -51.501 -39.5s-26.334 -38.333 -35.001 -63s-13 -53 -13 -85zM45.001 252c0 40 5.66895 76.167 17.002 108.5
s27 60 47 83s43.833 40.667 71.5 53s58.167 18.5 91.5 18.5c30.667 0 56.667 -5.33301 78 -16s38.666 -22.667 51.999 -36c15.333 -15.333 27.666 -32.333 36.999 -51h2c-0.666992 2.66699 -1.33398 5.66699 -2.00098 9s-1 7 -1 11v14v35c0 14.667 8.33301 22 25 22h16
c16 0 24 -8.33301 24 -25v-653c0 -16.667 -8 -25 -24 -25h-19c-16.667 0 -25 8.33301 -25 25v223c0 6.66699 0.166992 12.667 0.5 18s0.833008 10 1.5 14c0.666992 4.66699 1.33398 8.66699 2.00098 12h-2c-9.33301 -19.333 -22 -36.666 -38 -51.999
c-13.333 -13.333 -31 -25.333 -53 -36s-49.667 -16 -83 -16s-63.5 6.5 -90.5 19.5s-50 31 -69 54s-33.5 50.667 -43.5 83s-15 68.166 -15 107.499z" />
    <glyph glyph-name="r" unicode="r" horiz-adv-x="338" 
d="M77 478c0 16.667 8.33398 25.002 25.001 25.002h18c16 0 24 -8.33301 24 -25v-68c0 -5.33301 -0.166992 -10.5 -0.5 -15.5s-0.833008 -9.16699 -1.5 -12.5l-2 -12h2c6 18 14 35.333 24 52s22 31.167 36 43.5s29.5 22.166 46.5 29.499s35.5 11 55.5 11
c17.333 0 26 -8 26 -24v-18c0 -16.667 -9.33301 -25 -28 -25c-26.667 0 -49.834 -6.83301 -69.501 -20.5s-36 -31.334 -49 -53.001s-22.667 -46 -29 -73s-9.5 -53.5 -9.5 -79.5v-188c0 -16.667 -8 -25 -24 -25h-19c-16.667 -0 -25 8.33301 -25 25v453z" />
    <glyph glyph-name="s" unicode="s" horiz-adv-x="431" 
d="M42.125 46c-12 9.33301 -13.332 20.6631 -3.99902 33.9961l8 10c8.66699 11.333 20 12.666 34 3.99902c11.333 -8.66699 28.166 -18.5 50.499 -29.5s49.833 -16.5 82.5 -16.5c28 0 52 6.83301 72 20.5s30 33.834 30 60.501c0 18.667 -6.66699 33.834 -20 45.501
s-30 22 -50 31s-41.5 17.667 -64.5 26s-44.5 18.5 -64.5 30.5s-36.667 26.833 -50 44.5s-20 40.167 -20 67.5c0 23.333 4.66699 43.833 14 61.5s21.666 32.334 36.999 44.001s33.333 20.5 54 26.5s42.667 9 66 9c36 0 65.333 -5 88 -15s39.334 -18.667 50.001 -26
c13.333 -8 15.666 -19 6.99902 -33l-7 -11c-7.33301 -13.333 -18.666 -15.666 -33.999 -6.99902c-9.33301 6.66699 -23 13.667 -41 21s-40.333 11 -67 11s-49.834 -6.16699 -69.501 -18.5s-29.5 -32.166 -29.5 -59.499c0 -19.333 6.66699 -35 20 -47
s29.833 -22.5 49.5 -31.5s41.167 -17.5 64.5 -25.5s44.833 -18 64.5 -30s36.167 -26.833 49.5 -44.5s20 -40.5 20 -68.5c0 -20.667 -4.16699 -39.667 -12.5 -57s-20 -32.333 -35 -45s-33 -22.5 -54 -29.5s-43.833 -10.5 -68.5 -10.5c-22 0 -42 2 -60 6s-34.167 9 -48.5 15
s-26.666 12.333 -36.999 19s-18.5 12.667 -24.5 18z" />
    <glyph glyph-name="t" unicode="t" horiz-adv-x="320" 
d="M97 442l-42.001 -0.000976562c-16 0 -24 8 -24 24v8c0 16.667 8 25 24 25h43v118c0 16.667 8.33301 25 25 25h18c16 0 24 -8.33301 24 -25v-118h102c16.667 0 25 -8.33301 25 -25v-8c0 -16 -8.33301 -24 -25 -24h-102v-252c0 -29.333 3.83301 -52.5 11.5 -69.5
s17.167 -30 28.5 -39s23.333 -15 36 -18s24 -4.83301 34 -5.5c10 -1.33301 17 -3.66602 21 -6.99902s6 -9.33301 6 -18v-13c0 -16 -9.33301 -24 -28 -24c-55.333 0 -98.666 16 -129.999 48s-47 77.667 -47 137v261z" />
    <glyph glyph-name="u" unicode="u" horiz-adv-x="580" 
d="M71 478c0 16.667 7.99902 25.001 23.999 25.001h19c16.667 0 25 -8.33301 25 -25v-277c0 -20 1.16699 -39 3.5 -57s7.16602 -33.833 14.499 -47.5s18.333 -24.5 33 -32.5s34 -12 58 -12c28.667 0 54.5 5.83301 77.5 17.5s42.5 27.167 58.5 46.5s28.333 41.666 37 66.999
s13 51.666 13 78.999v216c0 16.667 8.33301 25 25 25h19c16 0 24 -8.33301 24 -25v-453c0 -16.667 -8 -25 -24 -25h-18c-16 0 -24 8.33301 -24 25v58v14c0 4 0.333008 7.66699 1 11s1.33398 7 2.00098 11h-2c-4.66699 -12 -12.5 -25.667 -23.5 -41
s-24.667 -29.666 -41 -42.999s-35.666 -24.5 -57.999 -33.5s-47.5 -13.5 -75.5 -13.5c-60 0 -103 16 -129 48s-39 81 -39 147v295z" />
    <glyph glyph-name="v" unicode="v" horiz-adv-x="478" 
d="M17.5 474c-3.33301 9.33301 -3.33008 16.5 0.00292969 21.5s9.66602 7.5 18.999 7.5h22c14 0 23 -6.66699 27 -20l133 -349c2 -6.66699 4.16699 -13.5 6.5 -20.5s4.16602 -13.5 5.49902 -19.5c2 -7.33301 3.66699 -14.333 5 -21h2c1.33301 6.66699 3 13.667 5 21
c1.33301 6 3.16602 12.5 5.49902 19.5s4.83301 13.833 7.5 20.5l132 349c4 13.333 13 20 27 20h21c20 0 26.667 -9.66699 20 -29l-175 -455c-4 -12.667 -13 -19 -27 -19h-33c-14 -0 -23.333 6.33301 -28 19z" />
    <glyph glyph-name="w" unicode="w" horiz-adv-x="796" 
d="M16.7295 475c-5.33301 18.667 1.66602 28 20.999 28h21c14.667 0 24 -7 28 -21l115 -354c2 -6 3.83301 -12.167 5.5 -18.5l4.5 -17.5c2 -6.66699 3.66699 -12.667 5 -18h2c1.33301 5.33301 3 11.333 5 18c1.33301 5.33301 3 11.166 5 17.499l6 18.5l117 353
c4 13.333 13.333 20 28 20h24c14.667 0 24 -6.66699 28 -20l117 -353l6 -18.5c2 -6.33301 3.66699 -12.166 5 -17.499c2 -6.66699 3.66699 -12.667 5 -18h2c0.666992 6 2 12 4 18c1.33301 5.33301 2.83301 11 4.5 17s3.83398 12.333 6.50098 19l115 354
c4 14 13.333 21 28 21h21c18.667 0 25.334 -9.33301 20.001 -28l-154 -454c-4 -14 -13.333 -21 -28 -21h-31c-14.667 0 -24 7 -28 21l-117 337l-6 18.5c-2 6.33301 -3.66699 12.166 -5 17.499c-2 6 -3.33301 12 -4 18h-2c-1.33301 -6 -3 -12 -5 -18
c-1.33301 -5.33301 -3 -11.166 -5 -17.499l-6 -18.5l-116 -337c-4 -14 -13.333 -21 -28 -21h-31c-14.667 0 -24.334 7 -29.001 21z" />
    <glyph glyph-name="x" unicode="x" horiz-adv-x="468" 
d="M187.12 262l-141.999 211c-5.33301 8.66699 -6.5 15.834 -3.5 21.501s9.5 8.5 19.5 8.5h25c12.667 0 22 -5.66699 28 -17l99 -152c2 -3.33301 4 -6.5 6 -9.5s3.66699 -6.16699 5 -9.5l6 -10h2l5 10c1.33301 3.33301 3.16602 6.5 5.49902 9.5s4.5 6.16699 6.5 9.5l98 152
c6.66699 11.333 16.334 17 29.001 17h25c10 0 16.5 -2.83301 19.5 -8.5s1.83301 -12.834 -3.5 -21.501l-143 -211l157 -232c5.33301 -8.66699 6.5 -15.834 3.5 -21.501s-9.5 -8.5 -19.5 -8.5h-24c-12.667 0 -22.334 5.66699 -29.001 17l-113 172
c-2.66699 3.33301 -5 6.66602 -7 9.99902s-3.66699 6.33301 -5 9c-2 2.66699 -3.66699 5.66699 -5 9h-2c-1.33301 -3.33301 -3 -6.33301 -5 -9c-1.33301 -2.66699 -3.16602 -5.66699 -5.49902 -9s-4.5 -6.66602 -6.5 -9.99902l-113 -172
c-6.66699 -11.333 -16.334 -17 -29.001 -17h-24c-10.667 0 -17.5 2.83301 -20.5 8.5s-1.83301 12.834 3.5 21.501z" />
    <glyph glyph-name="y" unicode="y" horiz-adv-x="491" 
d="M15.125 -149c6.66699 12.667 16.6719 16.668 30.0049 12.001c5.33301 -2.66699 11.666 -5.5 18.999 -8.5s15.666 -4.5 24.999 -4.5c22.667 0 41.667 8.33301 57 25s27.666 36 36.999 58l30 71l-198 470c-3.33301 8.66699 -3.33301 15.667 0 21s9.66602 8 18.999 8h23
c14 0 23.333 -6.33301 28 -19l141 -348c2 -6.66699 4.16699 -13 6.5 -19s4.16602 -11.667 5.49902 -17c2 -6 4 -11.667 6 -17h2c1.33301 5.33301 3 11 5 17c1.33301 5.33301 3 11 5 17s4.33301 12.333 7 19l138 347c4.66699 13.333 14 20 28 20h22
c9.33301 0 15.833 -2.5 19.5 -7.5s3.83398 -12.167 0.500977 -21.5l-237 -576c-13.333 -32.667 -32.333 -58.834 -57 -78.501s-54 -29.5 -88 -29.5c-14.667 0 -27.834 2 -39.501 6s-21.5 8 -29.5 12c-6.66699 3.33301 -11 8 -13 14s-1.33301 12 2 18z" />
    <glyph glyph-name="z" unicode="z" horiz-adv-x="491" 
d="M34 29c0 10.667 3.33496 20.334 10.002 29.001l270 339c5.33301 6 10.166 11.833 14.499 17.5s8.5 10.5 12.5 14.5c4 4.66699 8.33301 9.33398 13 14.001v2c-4 -0.666992 -8.33301 -1 -13 -1c-4 -0.666992 -9.16699 -1 -15.5 -1h-21.5h-234c-16 0 -24 8 -24 24v11
c0 16.667 8 25 24 25h352c16 0 24 -7.33301 24 -22v-7c0 -10.667 -3.33301 -20.334 -10 -29.001l-271 -339l-15 -18c-4.66699 -5.33301 -9 -10 -13 -14c-4.66699 -4.66699 -9 -9.33398 -13 -14.001v-2c3.33301 0 7.66602 0.333008 12.999 1c4.66699 0 10 0.166992 16 0.5
s13.333 0.5 22 0.5h257c16 0 24 -8 24 -24v-11c0 -16.667 -8 -25 -24 -25h-374c-16 -0 -24 7.33301 -24 22v7z" />
    <glyph glyph-name="braceleft" unicode="{" horiz-adv-x="307" 
d="M115 178c0 18 -2.33301 33.3281 -7 45.9951s-10.167 23.167 -16.5 31.5s-13.333 14.833 -21 19.5s-14.5 8.33398 -20.5 11.001c-6 3.33301 -10.833 6.83301 -14.5 10.5s-5.5 9.16699 -5.5 16.5v20c0 7.33301 1.83301 12.833 5.5 16.5s8.5 7.16699 14.5 10.5
c6 2 12.833 5.5 20.5 10.5s14.667 11.667 21 20s11.833 19 16.5 32s7 28.5 7 46.5v82c0 40 5.33301 71.667 16 95s23.167 41.333 37.5 54s29 20.834 44 24.501s26.5 5.5 34.5 5.5h8c16 0 24 -8 24 -24v-9c0 -16.667 -8 -25 -24 -25c-5.33301 0 -12.333 -1 -21 -3
s-17.167 -7.33301 -25.5 -16s-15.5 -21.334 -21.5 -38.001s-9 -39.334 -9 -68.001v-96c0 -24.667 -4.16699 -45.167 -12.5 -61.5s-17.5 -29.166 -27.5 -38.499c-12 -12 -25.333 -21 -40 -27v-2c14.667 -5.33301 28 -13.666 40 -24.999c10 -9.33301 19.167 -22.333 27.5 -39
s12.5 -37.667 12.5 -63v-109c0 -29.333 3 -52.166 9 -68.499s13.167 -28.833 21.5 -37.5s16.833 -14 25.5 -16s15.667 -3 21 -3c16 0 24 -8 24 -24v-9c0 -16.667 -8 -25 -24 -25h-8c-8 0 -19.5 1.83301 -34.5 5.5s-29.667 11.834 -44 24.501s-26.833 30.834 -37.5 54.501
s-16 55.5 -16 95.5v95z" />
    <glyph glyph-name="bar" unicode="|" horiz-adv-x="234" 
d="M86 764c0 16 8 24 24 24h14c16.667 0 25 -8 25 -24v-896c0 -16.667 -8.33301 -25 -25 -25h-14c-16 0 -24 8.33301 -24 25v896z" />
    <glyph glyph-name="braceright" unicode="}" horiz-adv-x="308" 
d="M28 -63c0 16 8.33105 24.0049 24.998 24.0049c4.66699 0 11.334 1 20.001 3s17.167 7.33301 25.5 16s15.5 21.167 21.5 37.5s9 39.166 9 68.499v109c0 25.333 4.16699 46.333 12.5 63s17.5 29.667 27.5 39c12 11.333 25.333 19.666 40 24.999v2c-14.667 6 -28 15 -40 27
c-10 9.33301 -19.167 22.166 -27.5 38.499s-12.5 36.833 -12.5 61.5v96c0 28.667 -3 51.334 -9 68.001s-13.167 29.334 -21.5 38.001s-16.833 14 -25.5 16s-15.334 3 -20.001 3c-16.667 0 -25 8.33301 -25 25v9c0 16 8.33301 24 25 24h7
c8.66699 0 20.334 -1.83301 35.001 -5.5s29.167 -11.834 43.5 -24.501s26.833 -30.667 37.5 -54s16 -55 16 -95v-82c0 -18 2.33301 -33.5 7 -46.5s10.334 -23.667 17.001 -32s13.834 -15 21.501 -20s14.5 -8.5 20.5 -10.5c6 -3.33301 10.667 -6.83301 14 -10.5
s5 -9.16699 5 -16.5v-20c0 -7.33301 -1.66699 -12.833 -5 -16.5s-8.33301 -7.16699 -15 -10.5c-6 -2.66699 -12.833 -6.33398 -20.5 -11.001s-14.667 -11.167 -21 -19.5s-11.833 -18.833 -16.5 -31.5s-7 -28 -7 -46v-95c0 -40 -5.33301 -71.833 -16 -95.5
s-23.167 -41.834 -37.5 -54.501s-28.833 -20.834 -43.5 -24.501s-26.334 -5.5 -35.001 -5.5h-7c-16.667 0 -25 8.33301 -25 25v9z" />
    <glyph glyph-name="asciitilde" unicode="~" horiz-adv-x="585" 
d="M87.3105 209c-17.333 0 -24.9961 11.333 -22.9961 34c5.33301 43.333 19.166 74.333 41.499 93s50.166 28 83.499 28c27.333 0 49.166 -5.5 65.499 -16.5s30.833 -23 43.5 -36s25.5 -24.833 38.5 -35.5s30.167 -16 51.5 -16c12 0 22.167 2.5 30.5 7.5
s15.166 11.333 20.499 19s9.33301 16 12 25s4.33398 17.5 5.00098 25.5c4 15.333 12.667 23 26 23h11c17.333 0 25 -8.66699 23 -26c-3.33301 -46 -16.5 -79 -39.5 -99s-51.5 -30 -85.5 -30c-18.667 0 -34.5 2.5 -47.5 7.5s-24.5 11.5 -34.5 19.5s-19 16.333 -27 25
s-16.333 17 -25 25s-18.167 14.5 -28.5 19.5s-22.5 7.5 -36.5 7.5c-12.667 0 -23.167 -2.5 -31.5 -7.5s-15 -11.333 -20 -19s-8.83301 -16 -11.5 -25s-4.33398 -17.5 -5.00098 -25.5c-2 -7.33301 -5 -13 -9 -17s-10 -6 -18 -6h-10z" />
    <glyph glyph-name="uni00A0" unicode="&#xa0;" horiz-adv-x="250" 
 />
    <glyph glyph-name="exclamdown" unicode="&#xa1;" horiz-adv-x="245" 
d="M160 448c0 -16.667 -8 -25 -24 -25h-30c-16 0 -24 8.33301 -24 25v29c0 16.667 8 25 24 25h30c16 0 24 -8.33301 24 -25v-29zM129 318c16.667 0 25 -8 25 -24l3 -470c0 -16.667 -8.33301 -25 -25 -25h-21c-16 0 -24 8.33301 -24 25l3 470c0 16 8 24 24 24h15z" />
    <glyph glyph-name="cent" unicode="&#xa2;" horiz-adv-x="555" 
d="M263 72c-34 4 -64.167 13.8311 -90.5 29.498s-48.333 36 -66 61s-31 53.667 -40 86s-13.5 66.833 -13.5 103.5c0 36 4.5 70.167 13.5 102.5s22.333 61 40 86s39.667 45.333 66 61s56.5 25.5 90.5 29.5v59c0 16.667 8 25 24 25h8c16 0 24 -7.33301 24 -22v-62
c40 -4 75 -17.5 105 -40.5s53.667 -51.167 71 -84.5c7.33301 -14.667 3 -25.334 -13 -32.001l-18 -7c-8 -3.33301 -14.333 -3.66602 -19 -0.999023s-9 7 -13 13c-15.333 26.667 -34.166 48 -56.499 64s-49.5 24 -81.5 24c-29.333 0 -54.666 -5.5 -75.999 -16.5
s-39 -26.333 -53 -46s-24.333 -42.667 -31 -69s-10 -54.5 -10 -84.5s3.33301 -58 10 -84s17 -48.667 31 -68s31.667 -34.5 53 -45.5s46.666 -16.5 75.999 -16.5c32 0 59.167 7.83301 81.5 23.5s41.166 37.167 56.499 64.5c3.33301 5.33301 7.5 9.33301 12.5 12
s11.5 2.33398 19.5 -0.999023l18 -7c16 -6.66699 20.333 -17.334 13 -32.001c-17.333 -33.333 -41 -61.666 -71 -84.999s-65 -36.666 -105 -39.999v-60c0 -16.667 -8 -25 -24 -25h-8c-16 0 -24 8.33301 -24 25v60z" />
    <glyph glyph-name="sterling" unicode="&#xa3;" horiz-adv-x="565" 
d="M54 37c0 16.667 8.33008 24.999 24.9971 24.999h39v264h-24c-16 0 -24 8 -24 24v6c0 16.667 8 25 24 25h24v149c0 26 5.16699 50.333 15.5 73s24.5 42.334 42.5 59.001s39.667 29.667 65 39s53 14 83 14c32 0 59.667 -4.83301 83 -14.5s41.333 -18.834 54 -27.501
c14 -9.33301 15 -20.666 3 -33.999l-10 -13c-9.33301 -10.667 -20.666 -12 -33.999 -4c-9.33301 5.33301 -22.166 11.333 -38.499 18s-35.166 10 -56.499 10c-22 0 -41.5 -3.33301 -58.5 -10s-31.333 -15.667 -43 -27s-20.5 -24.5 -26.5 -39.5s-9 -30.833 -9 -47.5v-145h167
c16 0 24 -8.33301 24 -25v-6c0 -16 -8 -24 -24 -24h-167v-264h314c16.667 0 25 -8.33301 25 -25v-12c0 -16.667 -8.33301 -25 -25 -25h-423c-16.667 -0 -25 8.33301 -25 25v12z" />
    <glyph glyph-name="currency" unicode="&#xa4;" horiz-adv-x="506" 
d="M253 222c38 0 67.333 13.5 88 40.5s31 61.167 31 102.5c0 20 -2.66699 38.833 -8 56.5s-13 33 -23 46s-22.5 23.167 -37.5 30.5s-31.833 11 -50.5 11c-19.333 0 -36.333 -3.66699 -51 -11s-27.167 -17.5 -37.5 -30.5s-18.166 -28.333 -23.499 -46s-8 -36.5 -8 -56.5
c0 -20.667 2.66699 -39.667 8 -57s13.166 -32.333 23.499 -45s22.833 -22.667 37.5 -30s31.667 -11 51 -11zM19 168l69 70.999c-25.333 36.667 -38 78.667 -38 126s12.667 88.666 38 123.999l-69 71l45 43l67 -69c16 12 34.167 21.667 54.5 29s42.833 11 67.5 11
c24 0 46.333 -3.66699 67 -11s39 -17 55 -29l67 69l45 -43l-69 -71c24.667 -36 37 -77.333 37 -124c0 -23.333 -3.33301 -45.666 -10 -66.999s-16 -40.666 -28 -57.999l70 -72l-45 -43l-68 69c-32.667 -24.667 -73 -37 -121 -37s-88.333 12.333 -121 37l-68 -69z" />
    <glyph glyph-name="yen" unicode="&#xa5;" horiz-adv-x="579" 
d="M114.083 211c-16.667 0 -24.998 7.66699 -24.998 23v6c0 14.667 8.33301 22 25 22h138v39l-28 49h-110c-16.667 0 -25 7.33301 -25 22v6c0 15.333 7.66699 23 23 23h83l-159 273c-4.66699 8 -5.33398 14.833 -2.00098 20.5s10 8.5 20 8.5h25c13.333 0 23 -6 29 -18
l135 -232c5.33301 -10 10.5 -20.333 15.5 -31l13.5 -29l14 -29h2l13 29l14 29l16 31l135 232c6 12 15.333 18 28 18h26c10 0 16.667 -2.83301 20 -8.5s2.66602 -12.5 -2.00098 -20.5l-160 -273h80c16.667 0 25 -7.66699 25 -23v-6c0 -14.667 -8.33301 -22 -25 -22h-109
l-27 -49v-39h136c16.667 0 25 -7.33301 25 -22v-6c0 -15.333 -8.33301 -23 -25 -23h-136v-186c0 -16.667 -8 -25 -24 -25h-21c-16.667 -0 -25 8.33301 -25 25v186h-138z" />
    <glyph glyph-name="section" unicode="&#xa7;" horiz-adv-x="412" 
d="M68.9189 8c4.66699 7.33301 9.66406 11.167 14.9971 11.5s11.333 -1.16699 18 -4.5c8 -4 17.167 -7.83301 27.5 -11.5s21.833 -5.5 34.5 -5.5c31.333 0 57.5 9.5 78.5 28.5s31.5 45.833 31.5 80.5c0 11.333 -1.33301 22 -4 32l-60 402
c-1.33301 8 -0.166016 14.5 3.50098 19.5s9.83398 7.5 18.501 7.5h10c15.333 0 24.333 -7.33301 27 -22l64 -412c2 -13.333 3 -25 3 -35c0 -23.333 -4.16699 -44.833 -12.5 -64.5s-20 -36.667 -35 -51s-33 -25.5 -54 -33.5s-44.5 -12 -70.5 -12
c-21.333 0 -40.166 3 -56.499 9s-29.5 12.333 -39.5 19c-14 8.66699 -15.667 20 -5 34zM63.916 519.001c-2 12 -2.99805 23.665 -2.99805 34.998c0 22.667 4 43.834 12 63.501s19.5 36.834 34.5 51.501s33.167 26 54.5 34s45 12 71 12c21.333 0 40.166 -3 56.499 -9
s29.5 -12 39.5 -18c14 -9.33301 15.667 -21 5 -35l-7 -8c-4.66699 -6.66699 -9.5 -10.167 -14.5 -10.5s-11.167 1.16699 -18.5 4.5c-7.33301 4 -16.166 7.66699 -26.499 11s-21.833 5 -34.5 5c-30.667 0 -56.667 -9.33301 -78 -28s-32 -45 -32 -79c0 -10 1 -20 3 -30
l62 -406c1.33301 -8 0.166016 -14.5 -3.50098 -19.5s-9.83398 -7.5 -18.501 -7.5h-10c-15.333 0 -24.333 7.33301 -27 22z" />
    <glyph glyph-name="dieresis" unicode="&#xa8;" horiz-adv-x="504" 
d="M170 785c-16 0 -24 8 -24 24v37c0 16.667 8 25 24 25h13c16 0 24 -8.33301 24 -25v-37c0 -16 -8 -24 -24 -24h-13zM321 785c-16 0 -24 8 -24 24v37c0 16.667 8 25 24 25h13c16.667 0 25 -8.33301 25 -25v-37c0 -16 -8.33301 -24 -25 -24h-13z" />
    <glyph glyph-name="copyright" unicode="&#xa9;" horiz-adv-x="823" 
d="M213 350c0 26 4.49805 51.5 13.498 76.5s22.333 47 40 66s39.334 34.333 65.001 46s55.167 17.5 88.5 17.5c18.667 0 36 -2.5 52 -7.5s30.333 -11.333 43 -19s23.5 -15.667 32.5 -24s16.167 -15.5 21.5 -21.5c4.66699 -6 6.5 -11.667 5.5 -17s-3.83301 -10 -8.5 -14
l-10 -9c-10.667 -8.66699 -21 -7 -31 5c-4 4.66699 -9.16699 10 -15.5 16s-13.833 11.667 -22.5 17s-18.5 9.83301 -29.5 13.5s-22.833 5.5 -35.5 5.5c-24.667 0 -46.334 -4.16699 -65.001 -12.5s-34.334 -19.5 -47.001 -33.5s-22.167 -30 -28.5 -48s-9.5 -37 -9.5 -57
c0 -19.333 3.16699 -37.833 9.5 -55.5s15.833 -33.5 28.5 -47.5s28.334 -25.167 47.001 -33.5s40.334 -12.5 65.001 -12.5c13.333 0 25.5 1.83301 36.5 5.5s20.833 8.16699 29.5 13.5s16.167 11 22.5 17s11.5 11.333 15.5 16c10 11.333 20 12.666 30 3.99902l9 -8
c11.333 -9.33301 12.666 -19.666 3.99902 -30.999c-5.33301 -6 -12.666 -13.167 -21.999 -21.5s-20.166 -16.333 -32.499 -24s-26.5 -14 -42.5 -19s-33.333 -7.5 -52 -7.5c-33.333 0 -63 5.66699 -89 17s-47.667 26.5 -65 45.5s-30.5 40.833 -39.5 65.5s-13.5 50 -13.5 76z
M114.998 352c0 -44 7.5 -84.833 22.5 -122.5s35.833 -70.334 62.5 -98.001s57.834 -49.5 93.501 -65.5s74.5 -24 116.5 -24s81.333 8 118 24s68.334 37.833 95.001 65.5s47.667 60.334 63 98.001s23 78.5 23 122.5c0 43.333 -7.66699 83.833 -23 121.5
s-36.333 70.334 -63 98.001s-58.334 49.5 -95.001 65.5s-76 24 -118 24s-80.833 -8 -116.5 -24s-66.834 -37.833 -93.501 -65.5s-47.5 -60.334 -62.5 -98.001s-22.5 -78.167 -22.5 -121.5zM55.998 352c0 50.667 9.16699 98 27.5 142s43.5 82.333 75.5 115
s69.5 58.5 112.5 77.5s89.167 28.5 138.5 28.5s95.666 -9.5 138.999 -28.5s81.166 -44.833 113.499 -77.5s57.833 -71 76.5 -115s28 -91.333 28 -142c0 -51.333 -9.33301 -99 -28 -143s-44.167 -82.5 -76.5 -115.5s-70.166 -58.833 -113.499 -77.5s-89.666 -28 -138.999 -28
s-95.5 9.33301 -138.5 28s-80.5 44.5 -112.5 77.5s-57.167 71.5 -75.5 115.5s-27.5 91.667 -27.5 143z" />
    <glyph glyph-name="ordfeminine" unicode="&#xaa;" horiz-adv-x="402" 
d="M93 264c-16 0 -24 7.33301 -24 22v3c0 14.667 8 22 24 22h215c16 0 24 -7.33301 24 -22v-3c0 -14.667 -8 -22 -24 -22h-215zM188 430c13.333 0 25.332 3.16699 35.999 9.5s19.667 14.5 27 24.5s13 21.333 17 34s6 25 6 37v9h-12c-10.667 0 -23.667 -0.5 -39 -1.5
s-30.166 -3.5 -44.499 -7.5s-26.5 -10.167 -36.5 -18.5s-15 -19.833 -15 -34.5c0 -14 5 -26.167 15 -36.5s25.333 -15.5 46 -15.5zM180.999 382c-14 0 -27.498 2.00098 -40.498 6.00098s-24.667 9.83301 -35 17.5s-18.666 17.5 -24.999 29.5s-9.5 26 -9.5 42
c0 26.667 7.33301 47.5 22 62.5s32.334 26 53.001 33s41.667 11.333 63 13s39 2.5 53 2.5h12v4c0 28 -6.66699 47.333 -20 58s-30 16 -50 16c-13.333 0 -25.833 -2 -37.5 -6s-21.167 -8 -28.5 -12c-13.333 -6 -23.333 -3.66699 -30 7l-3 4
c-3.33301 5.33301 -4.33301 10.833 -3 16.5s5.66602 10.167 12.999 13.5c9.33301 5.33301 22 10.666 38 15.999s34.667 8 56 8c39.333 0 69.166 -10.5 89.499 -31.5s30.5 -51.5 30.5 -91.5v-177c0 -16.667 -7.66699 -25 -23 -25h-5c-15.333 0 -23 8 -23 24v28h-2
c-6.66699 -11.333 -14.334 -21 -23.001 -29c-8 -7.33301 -17.833 -14 -29.5 -20s-25.834 -9 -42.501 -9z" />
    <glyph glyph-name="guillemotleft" unicode="&#xab;" horiz-adv-x="493" 
d="M42.5 265c-10 11.333 -10.002 22.6689 -0.00195312 34.002l138 175c7.33301 9.33301 17.333 14 30 14h17c10.667 0 17.334 -2.83301 20.001 -8.5s0.666992 -12.834 -6 -21.501l-140 -176l140 -175c6.66699 -8.66699 8.83398 -15.834 6.50098 -21.501
s-8.5 -8.5 -18.5 -8.5h-19c-12.667 0 -22.667 4.66699 -30 14zM222.498 265.003c-10 11.333 -10.002 22.6689 -0.00195312 34.002l138 175c7.33301 9.33301 17.333 14 30 14h17c10.667 0 17.334 -2.83301 20.001 -8.5s0.666992 -12.834 -6 -21.501l-140 -176l140 -175
c6.66699 -8.66699 8.83398 -15.834 6.50098 -21.501s-8.5 -8.5 -18.5 -8.5h-19c-12.667 0 -22.667 4.66699 -30 14z" />
    <glyph glyph-name="logicalnot" unicode="&#xac;" horiz-adv-x="623" 
d="M102 342c-16.667 0 -25 8 -25 24v9c0 16.667 8.33301 25 25 25h417c16 0 24 -8.33301 24 -25v-193c0 -16 -8 -24 -24 -24h-12c-16 0 -24 8 -24 24v160h-381z" />
    <glyph glyph-name="uni00AD" unicode="&#xad;" horiz-adv-x="423" 
d="M94 253c-16 0 -24 8 -24 24v13c0 16.667 8 25 24 25h235c16 0 24 -8.33301 24 -25v-13c0 -16 -8 -24 -24 -24h-235z" />
    <glyph glyph-name="registered" unicode="&#xae;" horiz-adv-x="823" 
d="M420 359c21.333 0 38.167 6.33203 50.5 18.999s18.5 30.334 18.5 53.001c0 22 -6.16699 39 -18.5 51s-28.833 18 -49.5 18h-73v-141h72zM291.001 521.999c0 16.667 8 24.999 24 24.999h115c34.667 0 62.834 -10.5 84.501 -31.5s32.5 -49.167 32.5 -84.5
c0 -29.333 -7.66699 -52.666 -23 -69.999s-32 -28.333 -50 -33v-2c0.666992 -1.33301 1.66699 -3 3 -5c1.33301 -1.33301 2.66602 -3.5 3.99902 -6.5s3.33301 -6.5 6 -10.5l61 -118c4.66699 -8.66699 5.5 -15.667 2.5 -21s-9.16699 -8 -18.5 -8h-12c-14 0 -23.333 6 -28 18
l-70 140h-74v-133c0 -16.667 -8 -25 -24 -25h-9c-16 0 -24 8.33301 -24 25v340zM115.001 351.998c0 -44 7.5 -84.833 22.5 -122.5s35.833 -70.334 62.5 -98.001s57.834 -49.5 93.501 -65.5s74.5 -24 116.5 -24s81.333 8 118 24s68.334 37.833 95.001 65.5
s47.667 60.334 63 98.001s23 78.5 23 122.5c0 43.333 -7.66699 83.833 -23 121.5s-36.333 70.334 -63 98.001s-58.334 49.5 -95.001 65.5s-76 24 -118 24s-80.833 -8 -116.5 -24s-66.834 -37.833 -93.501 -65.5s-47.5 -60.334 -62.5 -98.001s-22.5 -78.167 -22.5 -121.5z
M56.001 351.998c0 50.667 9.16699 98 27.5 142s43.5 82.333 75.5 115s69.5 58.5 112.5 77.5s89.167 28.5 138.5 28.5s95.666 -9.5 138.999 -28.5s81.166 -44.833 113.499 -77.5s57.833 -71 76.5 -115s28 -91.333 28 -142c0 -51.333 -9.33301 -99 -28 -143
s-44.167 -82.5 -76.5 -115.5s-70.166 -58.833 -113.499 -77.5s-89.666 -28 -138.999 -28s-95.5 9.33301 -138.5 28s-80.5 44.5 -112.5 77.5s-57.167 71.5 -75.5 115.5s-27.5 91.667 -27.5 143z" />
    <glyph glyph-name="macron" unicode="&#xaf;" horiz-adv-x="504" 
d="M154 785c-16.667 0 -25 8 -25 24v7c0 16 8.33301 24 25 24h197c16 0 24 -8 24 -24v-7c0 -16 -8 -24 -24 -24h-197z" />
    <glyph glyph-name="degree" unicode="&#xb0;" horiz-adv-x="372" 
d="M186 492c23.333 0 42.666 8 57.999 24s23 35.667 23 59c0 22.667 -7.66699 42.167 -23 58.5s-34.666 24.5 -57.999 24.5s-42.666 -8.16699 -57.999 -24.5s-23 -35.833 -23 -58.5c0 -23.333 7.66699 -43 23 -59s34.666 -24 57.999 -24zM186 436
c-19.333 0 -37.666 3.66699 -54.999 11s-32.333 17.166 -45 29.499s-22.667 27 -30 44s-11 35.167 -11 54.5c0 18.667 3.66699 36.5 11 53.5s17.333 31.833 30 44.5s27.667 22.667 45 30s35.666 11 54.999 11s37.5 -3.66699 54.5 -11s31.833 -17.333 44.5 -30
s22.667 -27.5 30 -44.5s11 -34.833 11 -53.5c0 -19.333 -3.66699 -37.5 -11 -54.5s-17.333 -31.667 -30 -44s-27.5 -22.166 -44.5 -29.499s-35.167 -11 -54.5 -11z" />
    <glyph glyph-name="plusminus" unicode="&#xb1;" horiz-adv-x="606" 
d="M521 -104c16.667 0 25 -8.33301 25 -25v-9c0 -16 -8.33301 -24 -25 -24h-436c-16.667 0 -25 8 -25 24v9c0 16.667 8.33301 25 25 25h436zM67 255c-16.667 0 -25 8 -25 24v9c0 16.667 8.33301 25 25 25h206v230c0 16.667 8 25 24 25h13c16 0 24 -8.33301 24 -25v-230h205
c16.667 0 25 -8.33301 25 -25v-9c0 -16 -8.33301 -24 -25 -24h-205v-230c0 -16.667 -8 -25 -24 -25h-13c-16 -0 -24 8.33301 -24 25v230h-206z" />
    <glyph glyph-name="uni00B2" unicode="&#xb2;" horiz-adv-x="348" 
d="M57 423c-7.33301 0 -13.333 2.16504 -18 6.49805s-7 12.166 -7 23.499c0 28 5.33301 52 16 72s24 37.5 40 52.5s33.333 28.333 52 40s36 23.5 52 35.5s29.333 24.833 40 38.5s16 29.834 16 48.501c0 21.333 -7.5 39.5 -22.5 54.5s-34.833 22.5 -59.5 22.5
c-16 0 -30.167 -3.66699 -42.5 -11s-22.166 -14.333 -29.499 -21c-12 -10 -23.333 -10.333 -34 -1l-2 2c-5.33301 5.33301 -8.33301 11 -9 17s1.66602 11.667 6.99902 17c4.66699 4.66699 10.5 9.83398 17.5 15.501s15.333 10.834 25 15.501s20.167 8.66699 31.5 12
s24 5 38 5c42 0 75.333 -12.167 100 -36.5s37 -54.5 37 -90.5c0 -24.667 -5.16699 -45.667 -15.5 -63s-23.333 -32.833 -39 -46.5s-32.667 -26 -51 -37s-35.333 -22.333 -51 -34s-29 -24.5 -40 -38.5s-16.833 -30.333 -17.5 -49h197c16 0 24 -7.66699 24 -23v-3
c0 -16 -8 -24 -24 -24h-231z" />
    <glyph glyph-name="uni00B3" unicode="&#xb3;" horiz-adv-x="353" 
d="M155.529 413c-16.667 0 -31.667 1.66699 -45 5s-25.166 7.5 -35.499 12.5s-19.333 10.333 -27 16s-13.834 10.834 -18.501 15.501c-12 10 -12.667 21 -2 33l4 4c5.33301 6 10.5 9 15.5 9s10.833 -2.33301 17.5 -7c8 -7.33301 19.167 -15.166 33.5 -23.499
s33.166 -12.5 56.499 -12.5c11.333 0 22.666 2.16699 33.999 6.5s21.333 10.5 30 18.5s15.667 17.333 21 28s8 22.667 8 36s-2.83301 25.166 -8.5 35.499s-13 19.166 -22 26.499s-19.167 12.833 -30.5 16.5s-23 5.5 -35 5.5h-16c-12.667 0 -21 5 -25 15
c-4.66699 10 -2.66699 20.333 6 31l86 100c2.66699 3.33301 5.33398 6.33301 8.00098 9l8 8l8 8v2c-3.33301 -0.666992 -7 -1.33398 -11 -2.00098c-3.33301 -0.666992 -7.33301 -1 -12 -1h-14h-129c-16 0 -24 8 -24 24v3c0 15.333 8 23 24 23h214c16.667 0 25 -6 25 -18v-4
c0 -9.33301 -4 -18.333 -12 -27l-107 -125c14 -2 28.333 -5.66699 43 -11s28 -13.166 40 -23.499s21.833 -23.333 29.5 -39s11.5 -34.5 11.5 -56.5c0 -19.333 -3.83301 -37.5 -11.5 -54.5s-18.167 -32 -31.5 -45s-29.166 -23.167 -47.499 -30.5s-37.833 -11 -58.5 -11z" />
    <glyph glyph-name="acute" unicode="&#xb4;" horiz-adv-x="504" 
d="M206.923 752c-9.33301 0 -15.668 2.83398 -19.001 8.50098s-2.33301 12.167 3 19.5l44 74c6.66699 11.333 16.334 17 29.001 17h23c10.667 0 17.167 -2.83301 19.5 -8.5s0.5 -12.834 -5.5 -21.501l-53 -73c-8 -10.667 -18 -16 -30 -16h-11z" />
    <glyph glyph-name="uni00B5" unicode="&#xb5;" horiz-adv-x="623" 
d="M92 478c0 16.667 8.00488 25.0039 24.0049 25.0039h19c16.667 0 25 -8.33301 25 -25v-277c0 -19.333 1.16699 -38 3.5 -56s7.16602 -33.833 14.499 -47.5s18.166 -24.667 32.499 -33s33.5 -12.5 57.5 -12.5c29.333 0 55.5 5.83301 78.5 17.5s42.5 27.167 58.5 46.5
s28.333 41.666 37 66.999s13 51.666 13 78.999v216c0 16.667 8.33301 25 25 25h19c16 0 24 -8.33301 24 -25v-453c0 -16.667 -8 -25 -24 -25h-18c-16 0 -24 8.33301 -24 25v54v25c0 3.33301 0.333008 7 1 11h-2c-1.33301 -2.66699 -5.83301 -10.834 -13.5 -24.501
s-19.334 -28 -35.001 -43s-35.667 -28.667 -60 -41s-53.833 -18.5 -88.5 -18.5c-20.667 0 -37.834 2.16699 -51.501 6.5s-24.834 9.16602 -33.501 14.499c-10 6 -18 13 -24 21h-2c0.666992 -10 1.66699 -19.667 3 -29l2 -25c0.666992 -8.66699 1 -16 1 -22v-129
c0 -16.667 -8 -25 -24 -25h-14c-16 0 -24 8.33301 -24 25v653z" />
    <glyph glyph-name="paragraph" unicode="&#xb6;" horiz-adv-x="564" 
d="M396 556c0 16.667 8.33301 25 25 25h8c16.667 0 25 -8.33301 25 -25v-581c0 -16.667 -8.33301 -25 -25 -25h-8c-16.667 0 -25 8.33301 -25 25v581zM277 241c-32 0 -62.501 5.99902 -91.501 17.999s-54.5 28.5 -76.5 49.5s-39.333 45.5 -52 73.5s-19 58.333 -19 91
s6.33301 63 19 91s29.834 52.333 51.501 73s47 36.834 76 48.501s59.5 17.5 91.5 17.5h215c16 0 24 -8.33301 24 -25v-12c0 -16.667 -8 -25 -24 -25h-157v-666c0 -16.667 -8 -25 -24 -25h-9c-16 0 -24 8.33301 -24 25v266z" />
    <glyph glyph-name="periodcentered" unicode="&#xb7;" horiz-adv-x="220" 
d="M95 247c-16.667 0 -25 8 -25 24v34c0 16.667 8.33301 25 25 25h31c16 0 24 -8.33301 24 -25v-34c0 -16 -8 -24 -24 -24h-31z" />
    <glyph glyph-name="cedilla" unicode="&#xb8;" horiz-adv-x="504" 
d="M225 17l43.001 0.00195312l-13 -72c20 -3.33301 36.667 -11 50 -23s20 -28 20 -48c0 -14.667 -2.66699 -27 -8 -37s-12.5 -18.167 -21.5 -24.5s-19.333 -10.833 -31 -13.5s-23.5 -4 -35.5 -4c-4 0 -8.83301 0.166992 -14.5 0.5s-11 1.33301 -16 3s-9.16699 4 -12.5 7
s-5 7.5 -5 13.5c0 6.66699 1.33301 12.5 4 17.5s6.66699 7.5 12 7.5c4 0 7.66699 -0.5 11 -1.5s8.33301 -1.5 15 -1.5c12.667 0 24 2.33301 34 7s15 13.667 15 27c0 11.333 -4.66699 19.666 -14 24.999s-21 8.66602 -35 9.99902
c-5.33301 0.666992 -9.83301 3.16699 -13.5 7.5s-4.83398 10.5 -3.50098 18.5z" />
    <glyph glyph-name="uni00B9" unicode="&#xb9;" horiz-adv-x="289" 
d="M55 423c-16.667 0 -25.001 8.00195 -25.001 24.002v3c0 15.333 7.66699 23 23 23h72v289v17c0 2.66699 0.333008 5 1 7h-1c-0.666992 -1.33301 -2 -3.33301 -4 -6c-1.33301 -2 -3.33301 -4.5 -6 -7.5s-6 -6.5 -10 -10.5l-27 -26
c-9.33301 -8.66699 -18.666 -8.33398 -27.999 0.999023l-6 6c-10 11.333 -9 22.666 3 33.999l68 69c8.66699 8 19 12 31 12h10c16 0 24 -8 24 -24v-361h68c16 0 24 -7.66699 24 -23v-3c0 -16 -8 -24 -24 -24h-193z" />
    <glyph glyph-name="ordmasculine" unicode="&#xba;" horiz-adv-x="459" 
d="M103 264c-16 0 -24 7.33301 -24 22v3c0 14.667 8 22 24 22h254c16.667 0 25 -7.33301 25 -22v-3c0 -14.667 -8.33301 -22 -25 -22h-254zM229 434c31.333 0 57.833 10.833 79.5 32.5s32.5 49.5 32.5 83.5c0 16.667 -3 32 -9 46s-14 26 -24 36s-21.833 17.833 -35.5 23.5
s-28.167 8.5 -43.5 8.5s-29.833 -2.83301 -43.5 -8.5s-25.5 -13.5 -35.5 -23.5s-18 -22 -24 -36s-9 -29.333 -9 -46c0 -34 10.833 -61.833 32.5 -83.5s48.167 -32.5 79.5 -32.5zM229 383c-23.333 0 -44.999 4.16699 -64.999 12.5s-37.667 20 -53 35s-27.333 32.667 -36 53
s-13 42.5 -13 66.5c0 23.333 4.33301 45 13 65s20.5 37.333 35.5 52s32.667 26.167 53 34.5s41.833 12.5 64.5 12.5c23.333 0 45.166 -4.16699 65.499 -12.5s38.166 -19.833 53.499 -34.5s27.333 -32 36 -52s13 -41.667 13 -65c0 -24 -4.33301 -46.167 -13 -66.5
s-20.667 -38 -36 -53s-33.166 -26.667 -53.499 -35s-41.833 -12.5 -64.5 -12.5z" />
    <glyph glyph-name="guillemotright" unicode="&#xbb;" horiz-adv-x="493" 
d="M76.0664 77c-10.667 0 -17.335 2.83008 -20.002 8.49707s-0.666992 12.834 6 21.501l139 175l-139 176c-7.33301 8.66699 -9.66602 15.834 -6.99902 21.501s9.33398 8.5 20.001 8.5h18c11.333 0 21.333 -4.66699 30 -14l138 -175c10 -11.333 10 -22.666 0 -33.999
l-138 -174c-8.66699 -9.33301 -18.667 -14 -30 -14h-17zM381.065 281.997l-140.001 175.997c-6.66699 8.66699 -8.66699 15.834 -6 21.501s9 8.5 19 8.5h18c12 0 22.333 -4.66699 31 -14l138 -175c10 -11.333 10 -22.666 0 -33.999l-138 -174
c-8.66699 -9.33301 -19 -14 -31 -14h-16c-11.333 0 -18.166 2.83301 -20.499 8.5s-0.5 12.834 5.5 21.501z" />
    <glyph glyph-name="onequarter" unicode="&#xbc;" horiz-adv-x="918" 
d="M77 268c-16.667 0 -25.001 8.00195 -25.001 24.002v3c0 15.333 7.66699 23 23 23h72v289v17c0 2.66699 0.333008 5 1 7h-1c-0.666992 -1.33301 -2 -3.33301 -4 -6c-1.33301 -2 -3.33301 -4.5 -6 -7.5s-6 -6.5 -10 -10.5l-27 -26
c-9.33301 -8.66699 -18.666 -8.33398 -27.999 0.999023l-6 6c-10 11.333 -9 22.666 3 33.999l68 69c8.66699 8 19 12 31 12h10c16 0 24 -8 24 -24v-361h68c16 0 24 -7.66699 24 -23v-3c0 -16 -8 -24 -24 -24h-193zM312.999 19.002c-4.66699 -12.667 -13.999 -19 -27.999 -19
h-10c-8.66699 0 -14.334 2.66699 -17.001 8s-2 12.333 2 21l313 655c6 12.667 15.667 19 29 19h9c9.33301 0 15.333 -2.66699 18 -8s1.66699 -12.333 -3 -21zM760 164.002v136v21c0 7.33301 0.333008 14 1 20l2 21h-2l-10 -16c-6 -10.667 -13.333 -21.667 -22 -33l-113 -147
v-2h144zM784 0.00195312c-16 0 -24 8.33398 -24 25.001v89h-187c-16.667 0 -25 6.33301 -25 19v7c0 5.33301 0.833008 9.66602 2.5 12.999s4.16699 7.33301 7.5 12l191 255c7.33301 10 17.333 15 30 15h11c16.667 0 25 -8 25 -24v-247h43c15.333 0 23 -7.66699 23 -23v-3
c0 -16 -7.66699 -24 -23 -24h-43v-89c0 -16.667 -8.33301 -25 -25 -25h-6z" />
    <glyph glyph-name="onehalf" unicode="&#xbd;" horiz-adv-x="904" 
d="M75 268c-16.667 0 -25.001 8.00195 -25.001 24.002v3c0 15.333 7.66699 23 23 23h72v289v17c0 2.66699 0.333008 5 1 7h-1c-0.666992 -1.33301 -2 -3.33301 -4 -6c-1.33301 -2 -3.33301 -4.5 -6 -7.5s-6 -6.5 -10 -10.5l-27 -26
c-9.33301 -8.66699 -18.666 -8.33398 -27.999 0.999023l-6 6c-10 11.333 -9 22.666 3 33.999l68 69c8.66699 8 19 12 31 12h10c16 0 24 -8 24 -24v-361h68c16 0 24 -7.66699 24 -23v-3c0 -16 -8 -24 -24 -24h-193zM311.999 19.002c-4.66699 -12.667 -13.999 -19 -27.999 -19
h-10c-8.66699 0 -14.334 2.66699 -17.001 8s-2 12.333 2 21l313 655c6 12.667 15.667 19 29 19h9c9.33301 0 15.333 -2.66699 18 -8s1.66699 -12.333 -3 -21zM601 0.00195312c-7.33301 0 -13.333 2.16504 -18 6.49805s-7 12.166 -7 23.499c0 28 5.33301 52 16 72
s24 37.5 40 52.5s33.333 28.333 52 40s36 23.5 52 35.5s29.333 24.833 40 38.5s16 29.834 16 48.501c0 21.333 -7.5 39.5 -22.5 54.5s-34.833 22.5 -59.5 22.5c-16 0 -30.167 -3.66699 -42.5 -11s-22.166 -14.333 -29.499 -21c-12 -10 -23.333 -10.333 -34 -1l-2 2
c-5.33301 5.33301 -8.33301 11 -9 17s1.66602 11.667 6.99902 17c4.66699 4.66699 10.5 9.83398 17.5 15.501s15.333 10.834 25 15.501s20.167 8.66699 31.5 12s24 5 38 5c42 0 75.333 -12.167 100 -36.5s37 -54.5 37 -90.5c0 -24.667 -5.16699 -45.667 -15.5 -63
s-23.333 -32.833 -39 -46.5s-32.667 -26 -51 -37s-35.333 -22.333 -51 -34s-29 -24.5 -40 -38.5s-16.833 -30.333 -17.5 -49h197c16 0 24 -7.66699 24 -23v-3c0 -16 -8 -24 -24 -24h-231z" />
    <glyph glyph-name="threequarters" unicode="&#xbe;" horiz-adv-x="937" 
d="M324.529 19c-4.66699 -12.667 -13.999 -19 -27.999 -19h-10c-8.66699 0 -14.334 2.66699 -17.001 8s-2 12.333 2 21l313 655c6 12.667 15.667 19 29 19h9c9.33301 0 15.333 -2.66699 18 -8s1.66699 -12.333 -3 -21zM172.53 258c-16.667 0 -31.667 1.66699 -45 5
s-25.166 7.5 -35.499 12.5s-19.333 10.333 -27 16s-13.834 10.834 -18.501 15.501c-12 10 -12.667 21 -2 33l4 4c5.33301 6 10.5 9 15.5 9s10.833 -2.33301 17.5 -7c8 -7.33301 19.167 -15.166 33.5 -23.499s33.166 -12.5 56.499 -12.5c11.333 0 22.666 2.16699 33.999 6.5
s21.333 10.5 30 18.5s15.667 17.333 21 28s8 22.667 8 36s-2.83301 25.166 -8.5 35.499s-13 19.166 -22 26.499s-19.167 12.833 -30.5 16.5s-23 5.5 -35 5.5h-16c-12.667 0 -21 5 -25 15c-4.66699 10 -2.66699 20.333 6 31l86 100
c2.66699 3.33301 5.33398 6.33301 8.00098 9l8 8l8 8v2c-3.33301 -0.666992 -7 -1.33398 -11 -2.00098c-3.33301 -0.666992 -7.33301 -1 -12 -1h-14h-129c-16 0 -24 8 -24 24v3c0 15.333 8 23 24 23h214c16.667 0 25 -6 25 -18v-4c0 -9.33301 -4 -18.333 -12 -27l-107 -125
c14 -2 28.333 -5.66699 43 -11s28 -13.166 40 -23.499s21.833 -23.333 29.5 -39s11.5 -34.5 11.5 -56.5c0 -19.333 -3.83301 -37.5 -11.5 -54.5s-18.167 -32 -31.5 -45s-29.166 -23.167 -47.499 -30.5s-37.833 -11 -58.5 -11zM771.53 164v136v21c0 7.33301 0.333008 14 1 20
l2 21h-2l-10 -16c-6 -10.667 -13.333 -21.667 -22 -33l-113 -147v-2h144zM795.53 0c-16 0 -24 8.33398 -24 25.001v89h-187c-16.667 0 -25 6.33301 -25 19v7c0 5.33301 0.833008 9.66602 2.5 12.999s4.16699 7.33301 7.5 12l191 255c7.33301 10 17.333 15 30 15h11
c16.667 0 25 -8 25 -24v-247h43c15.333 0 23 -7.66699 23 -23v-3c0 -16 -7.66699 -24 -23 -24h-43v-89c0 -16.667 -8.33301 -25 -25 -25h-6z" />
    <glyph glyph-name="questiondown" unicode="&#xbf;" horiz-adv-x="453" 
d="M323 448c0 -16.667 -8 -25 -24 -25h-30c-16 0 -24 8.33301 -24 25v29c0 16.667 8 25 24 25h30c16 0 24 -8.33301 24 -25v-29zM293 318c16.667 0 24.999 -8.33594 24.999 -25.0029v-23c0 -25.333 -4.33301 -47.5 -13 -66.5s-19.5 -36 -32.5 -51s-27 -29 -42 -42
s-29 -26.667 -42 -41s-23.833 -29.666 -32.5 -45.999s-13 -35.5 -13 -57.5c0 -16 3.16699 -31 9.5 -45s15.333 -26.167 27 -36.5s25.5 -18.5 41.5 -24.5s33.667 -9 53 -9c22 0 41.833 3.33301 59.5 10s31.5 13 41.5 19c6.66699 3.33301 13 4.83301 19 4.5
s11 -3.83301 15 -10.5l8 -12c10.667 -14 9 -25.333 -5 -34c-12 -8 -30.167 -17 -54.5 -27s-53.166 -15 -86.499 -15c-28.667 0 -55.167 4.33301 -79.5 13s-45.5 20.834 -63.5 36.501s-32 34.334 -42 56.001s-15 45.5 -15 71.5c0 27.333 4.33301 50.833 13 70.5
s19.5 37.5 32.5 53.5s27.167 30.5 42.5 43.5s29.666 26.5 42.999 40.5s24.5 29 33.5 45s13.833 35 14.5 57l1 24c0.666992 14 8.33398 21 23.001 21h19z" />
    <glyph glyph-name="Agrave" unicode="&#xc0;" 
d="M286.729 752c-12 0 -22.001 5.33203 -30.001 15.999l-53 73c-6 8.66699 -7.83301 15.834 -5.5 21.501s8.83301 8.5 19.5 8.5h23c12.667 0 22.334 -5.66699 29.001 -17l44 -74c4.66699 -7.33301 6 -13.833 4 -19.5s-7.66699 -8.5 -17 -8.5h-14zM418.729 283.999
l-92.999 255c-3.33301 8 -6.33301 17.333 -9 28s-5.33398 20.667 -8.00098 30c-2.66699 11.333 -5.66699 22.666 -9 33.999h-2c-3.33301 -11.333 -6.33301 -22.666 -9 -33.999l-9 -30l-9 -28l-94 -255h242zM254.729 682.999c4 13.333 13.001 20 27.001 20h33
c14 0 23 -6.66699 27 -20l242 -654c5.33301 -19.333 -1.33398 -29 -20.001 -29h-22c-14.667 0 -24 6.66699 -28 20l-75 204h-282l-74 -204c-4 -13.333 -13.333 -20 -28 -20h-21c-19.333 0 -26.333 9.66699 -21 29z" />
    <glyph glyph-name="Aacute" unicode="&#xc1;" 
d="M297.729 752c-9.33301 0 -15.668 2.83398 -19.001 8.50098s-2.33301 12.167 3 19.5l44 74c6.66699 11.333 16.334 17 29.001 17h23c10.667 0 17.167 -2.83301 19.5 -8.5s0.5 -12.834 -5.5 -21.501l-53 -73c-8 -10.667 -18 -16 -30 -16h-11zM418.728 284.001l-92.999 255
c-3.33301 8 -6.33301 17.333 -9 28s-5.33398 20.667 -8.00098 30c-2.66699 11.333 -5.66699 22.666 -9 33.999h-2c-3.33301 -11.333 -6.33301 -22.666 -9 -33.999l-9 -30l-9 -28l-94 -255h242zM254.729 683.001c4 13.333 13.001 20 27.001 20h33c14 0 23 -6.66699 27 -20
l242 -654c5.33301 -19.333 -1.33398 -29 -20.001 -29h-22c-14.667 0 -24 6.66699 -28 20l-75 204h-282l-74 -204c-4 -13.333 -13.333 -20 -28 -20h-21c-19.333 0 -26.333 9.66699 -21 29z" />
    <glyph glyph-name="Acircumflex" unicode="&#xc2;" 
d="M209.729 752c-9.33301 0 -15.166 2.83301 -17.499 8.5s-0.833008 12.834 4.5 21.501l52 73c8 10.667 18 16 30 16h37c7.33301 0 13.166 -1.33301 17.499 -4s8.83301 -6.66699 13.5 -12l51 -73c6 -8.66699 8 -15.834 6 -21.501s-7.66699 -8.5 -17 -8.5h-17
c-11.333 0 -20.333 5.66699 -27 17l-44 64h-2l-44 -64c-3.33301 -6 -7 -10.333 -11 -13s-9.66699 -4 -17 -4h-15zM418.729 284l-92.999 255c-3.33301 8 -6.33301 17.333 -9 28s-5.33398 20.667 -8.00098 30c-2.66699 11.333 -5.66699 22.666 -9 33.999h-2
c-3.33301 -11.333 -6.33301 -22.666 -9 -33.999l-9 -30l-9 -28l-94 -255h242zM254.73 683c4 13.333 13.001 20 27.001 20h33c14 0 23 -6.66699 27 -20l242 -654c5.33301 -19.333 -1.33398 -29 -20.001 -29h-22c-14.667 0 -24 6.66699 -28 20l-75 204h-282l-74 -204
c-4 -13.333 -13.333 -20 -28 -20h-21c-19.333 0 -26.333 9.66699 -21 29z" />
    <glyph glyph-name="Atilde" unicode="&#xc3;" 
d="M165.729 755c-14.667 0 -22.001 8.66602 -22.001 25.999c0 26.667 8.16699 48.5 24.5 65.5s37.5 25.5 63.5 25.5c17.333 0 31.666 -3.83301 42.999 -11.5s21.5 -16 30.5 -25s17.667 -17.167 26 -24.5s18.166 -11 29.499 -11c13.333 0 23 5.16699 29 15.5
s9.33301 21.833 10 34.5c0 12.667 7.66699 19 23 19h8c14 0 21 -7.66699 21 -23c0 -29.333 -7.83301 -52.333 -23.5 -69s-37.167 -25 -64.5 -25c-17.333 0 -31.666 3.66699 -42.999 11s-21.5 15.5 -30.5 24.5s-17.667 17.167 -26 24.5s-18.166 11 -29.499 11
c-13.333 0 -23.166 -5.16699 -29.499 -15.5s-9.5 -22.166 -9.5 -35.499c-1.33301 -11.333 -9 -17 -23 -17h-7zM418.729 283.999l-92.999 255c-3.33301 8 -6.33301 17.333 -9 28s-5.33398 20.667 -8.00098 30c-2.66699 11.333 -5.66699 22.666 -9 33.999h-2
c-3.33301 -11.333 -6.33301 -22.666 -9 -33.999l-9 -30l-9 -28l-94 -255h242zM254.729 682.999c4 13.333 13.001 20 27.001 20h33c14 0 23 -6.66699 27 -20l242 -654c5.33301 -19.333 -1.33398 -29 -20.001 -29h-22c-14.667 0 -24 6.66699 -28 20l-75 204h-282l-74 -204
c-4 -13.333 -13.333 -20 -28 -20h-21c-19.333 0 -26.333 9.66699 -21 29z" />
    <glyph glyph-name="Adieresis" unicode="&#xc4;" 
d="M215.729 785c-16 0 -24 8 -24 24v37c0 16.667 8 25 24 25h13c16 0 24 -8.33301 24 -25v-37c0 -16 -8 -24 -24 -24h-13zM366.729 785c-16 0 -24 8 -24 24v37c0 16.667 8 25 24 25h13c16.667 0 25 -8.33301 25 -25v-37c0 -16 -8.33301 -24 -25 -24h-13zM418.729 284
l-92.999 255c-3.33301 8 -6.33301 17.333 -9 28s-5.33398 20.667 -8.00098 30c-2.66699 11.333 -5.66699 22.666 -9 33.999h-2c-3.33301 -11.333 -6.33301 -22.666 -9 -33.999l-9 -30l-9 -28l-94 -255h242zM254.73 683c4 13.333 13.001 20 27.001 20h33
c14 0 23 -6.66699 27 -20l242 -654c5.33301 -19.333 -1.33398 -29 -20.001 -29h-22c-14.667 0 -24 6.66699 -28 20l-75 204h-282l-74 -204c-4 -13.333 -13.333 -20 -28 -20h-21c-19.333 0 -26.333 9.66699 -21 29z" />
    <glyph glyph-name="Aring" unicode="&#xc5;" 
d="M297.729 779c10 0 18 3.16699 24 9.5s9 14.166 9 23.499c0 10 -3 18.167 -9 24.5s-14 9.5 -24 9.5c-9.33301 0 -17 -3.16699 -23 -9.5s-9 -14.5 -9 -24.5c0 -9.33301 3 -17.166 9 -23.499s13.667 -9.5 23 -9.5zM297.729 741c-20.667 0 -38.334 6.5 -53.001 19.5
s-22 30.167 -22 51.5s7.33301 38.5 22 51.5s32.334 19.5 53.001 19.5s38.5 -6.5 53.5 -19.5s22.5 -30.167 22.5 -51.5s-7.5 -38.5 -22.5 -51.5s-32.833 -19.5 -53.5 -19.5zM418.729 284l-92.999 255c-3.33301 8 -6.33301 17.333 -9 28s-5.33398 20.667 -8.00098 30
c-2.66699 11.333 -5.66699 22.666 -9 33.999h-2c-3.33301 -11.333 -6.33301 -22.666 -9 -33.999l-9 -30l-9 -28l-94 -255h242zM254.73 683c4 13.333 13.001 20 27.001 20h33c14 0 23 -6.66699 27 -20l242 -654c5.33301 -19.333 -1.33398 -29 -20.001 -29h-22
c-14.667 0 -24 6.66699 -28 20l-75 204h-282l-74 -204c-4 -13.333 -13.333 -20 -28 -20h-21c-19.333 0 -26.333 9.66699 -21 29z" />
    <glyph glyph-name="AE" unicode="&#xc6;" horiz-adv-x="833" 
d="M375.5 384v257h-41l-105 -257h146zM282.5 684c4.66699 12.667 13.999 19 27.999 19h436c16.667 0 25 -8.33301 25 -25v-12c0 -16.667 -8.33301 -25 -25 -25h-302v-256h243c16 0 24 -8 24 -24v-13c0 -16.667 -8 -25 -24 -25h-243v-261h320c16.667 0 25 -8.33301 25 -25
v-12c0 -16.667 -8.33301 -25 -25 -25h-364c-16.667 -0 -25 8.33301 -25 25v299h-170l-124 -305c-4.66699 -12.667 -14 -19 -28 -19h-22c-9.33301 0 -15.666 2.66699 -18.999 8s-3.33301 12.333 0 21z" />
    <glyph glyph-name="Ccedilla" unicode="&#xc7;" horiz-adv-x="712" 
d="M373 -10c-48.667 4 -92.6689 16.168 -132.002 36.501s-73 46.833 -101 79.5s-49.667 70.334 -65 113.001s-23 88.334 -23 137.001c0 50.667 8.66699 98 26 142s41.666 82 72.999 114s68.5 57.167 111.5 75.5s90.5 27.5 142.5 27.5c31.333 0 59.666 -2.66699 84.999 -8
s47.833 -12 67.5 -20s36.5 -16.333 50.5 -25s25 -16 33 -22c11.333 -9.33301 12.666 -21 3.99902 -35l-9 -13c-9.33301 -12 -20.666 -13.333 -33.999 -4c-7.33301 5.33301 -17.166 11.5 -29.499 18.5s-26.666 13.833 -42.999 20.5s-34.833 12.167 -55.5 16.5
s-43 6.5 -67 6.5c-42.667 0 -81.5 -7.5 -116.5 -22.5s-64.833 -35.667 -89.5 -62s-43.667 -57.333 -57 -93s-20 -74.167 -20 -115.5c0 -42 6.66699 -81.333 20 -118s32.5 -68.834 57.5 -96.501s55.167 -49.5 90.5 -65.5s74.666 -24 117.999 -24
c26 0 50.167 2.83301 72.5 8.5s42.333 12.5 60 20.5s32.834 16.333 45.501 25s23 16 31 22c12.667 10.667 24 9.66699 34 -3l9 -11c10 -12 9.33301 -23.667 -2 -35c-8 -7.33301 -19.167 -16 -33.5 -26s-31.666 -19.833 -51.999 -29.5s-43.666 -18 -69.999 -25
s-55.166 -10.833 -86.499 -11.5l-8 -43c20 -3.33301 36.667 -11 50 -23s20 -28 20 -48c0 -14.667 -2.66699 -27 -8 -37s-12.5 -18.167 -21.5 -24.5s-19.333 -10.833 -31 -13.5s-23.5 -4 -35.5 -4c-4 0 -8.83301 0.166992 -14.5 0.5s-11 1.33301 -16 3s-9.16699 4 -12.5 7
s-5 7.5 -5 13.5c0 6.66699 1.33301 12.5 4 17.5s6.66699 7.5 12 7.5c4 0 7.66699 -0.5 11 -1.5s8.33301 -1.5 15 -1.5c12.667 0 24 2.33301 34 7s15 13.667 15 27c0 11.333 -4.66699 19.666 -14 24.999s-21 8.66602 -35 9.99902
c-5.33301 0.666992 -9.83301 3.16699 -13.5 7.5s-4.83398 10.5 -3.50098 18.5z" />
    <glyph glyph-name="Egrave" unicode="&#xc8;" horiz-adv-x="553" 
d="M296 752c-12 0 -22.001 5.33203 -30.001 15.999l-53 73c-6 8.66699 -7.83301 15.834 -5.5 21.501s8.83301 8.5 19.5 8.5h23c12.667 0 22.334 -5.66699 29.001 -17l44 -74c4.66699 -7.33301 6 -13.833 4 -19.5s-7.66699 -8.5 -17 -8.5h-14zM97.999 677.999
c0 16.667 8 25 24 25h347c16.667 0 25 -8.33301 25 -25v-12c0 -16.667 -8.33301 -25 -25 -25h-302v-256h242c16.667 0 25 -8 25 -24v-13c0 -16.667 -8.33301 -25 -25 -25h-242v-261h320c16.667 0 25 -8.33301 25 -25v-12c0 -16.667 -8.33301 -25 -25 -25h-365
c-16 0 -24 8.33301 -24 25v653z" />
    <glyph glyph-name="Eacute" unicode="&#xc9;" horiz-adv-x="553" 
d="M98 678c0 16.667 8 25 24 25h347c16.667 0 25 -8.33301 25 -25v-12c0 -16.667 -8.33301 -25 -25 -25h-302v-256h242c16.667 0 25 -8 25 -24v-13c0 -16.667 -8.33301 -25 -25 -25h-242v-261h320c16.667 0 25 -8.33301 25 -25v-12c0 -16.667 -8.33301 -25 -25 -25h-365
c-16 -0 -24 8.33301 -24 25v653zM306 752c-9.33301 0 -15.668 2.83398 -19.001 8.50098s-2.33301 12.167 3 19.5l44 74c6.66699 11.333 16.334 17 29.001 17h23c10.667 0 17.167 -2.83301 19.5 -8.5s0.5 -12.834 -5.5 -21.501l-53 -73c-8 -10.667 -18 -16 -30 -16h-11z" />
    <glyph glyph-name="Ecircumflex" unicode="&#xca;" horiz-adv-x="553" 
d="M98 678c0 16.667 8 25 24 25h347c16.667 0 25 -8.33301 25 -25v-12c0 -16.667 -8.33301 -25 -25 -25h-302v-256h242c16.667 0 25 -8 25 -24v-13c0 -16.667 -8.33301 -25 -25 -25h-242v-261h320c16.667 0 25 -8.33301 25 -25v-12c0 -16.667 -8.33301 -25 -25 -25h-365
c-16 -0 -24 8.33301 -24 25v653zM219 752c-9.33301 0 -15.166 2.83301 -17.499 8.5s-0.833008 12.834 4.5 21.501l52 73c8 10.667 18 16 30 16h37c7.33301 0 13.166 -1.33301 17.499 -4s8.83301 -6.66699 13.5 -12l51 -73c6 -8.66699 8 -15.834 6 -21.501
s-7.66699 -8.5 -17 -8.5h-17c-11.333 0 -20.333 5.66699 -27 17l-44 64h-2l-44 -64c-3.33301 -6 -7 -10.333 -11 -13s-9.66699 -4 -17 -4h-15z" />
    <glyph glyph-name="Edieresis" unicode="&#xcb;" horiz-adv-x="553" 
d="M98 678c0 16.667 8 25 24 25h347c16.667 0 25 -8.33301 25 -25v-12c0 -16.667 -8.33301 -25 -25 -25h-302v-256h242c16.667 0 25 -8 25 -24v-13c0 -16.667 -8.33301 -25 -25 -25h-242v-261h320c16.667 0 25 -8.33301 25 -25v-12c0 -16.667 -8.33301 -25 -25 -25h-365
c-16 -0 -24 8.33301 -24 25v653zM225 785c-16 0 -24 8 -24 24v37c0 16.667 8 25 24 25h13c16 0 24 -8.33301 24 -25v-37c0 -16 -8 -24 -24 -24h-13zM376 785c-16 0 -24 8 -24 24v37c0 16.667 8 25 24 25h13c16.667 0 25 -8.33301 25 -25v-37c0 -16 -8.33301 -24 -25 -24h-13
z" />
    <glyph glyph-name="Igrave" unicode="&#xcc;" horiz-adv-x="265" 
d="M119.48 752c-12 0 -22.001 5.33203 -30.001 15.999l-53 73c-6 8.66699 -7.83301 15.834 -5.5 21.501s8.83301 8.5 19.5 8.5h23c12.667 0 22.334 -5.66699 29.001 -17l44 -74c4.66699 -7.33301 6 -13.833 4 -19.5s-7.66699 -8.5 -17 -8.5h-14zM95.4795 677.999
c0 16.667 8 25 24 25h21c16 0 24 -8.33301 24 -25v-653c0 -16.667 -8 -25 -24 -25h-21c-16 0 -24 8.33301 -24 25v653z" />
    <glyph glyph-name="Iacute" unicode="&#xcd;" horiz-adv-x="265" 
d="M133 752c-9.33301 0 -15.668 2.83398 -19.001 8.50098s-2.33301 12.167 3 19.5l44 74c6.66699 11.333 16.334 17 29.001 17h23c10.667 0 17.167 -2.83301 19.5 -8.5s0.5 -12.834 -5.5 -21.501l-53 -73c-8 -10.667 -18 -16 -30 -16h-11zM97.998 678.001
c0 16.667 8 25 24 25h21c16 0 24 -8.33301 24 -25v-653c0 -16.667 -8 -25 -24 -25h-21c-16 0 -24 8.33301 -24 25v653z" />
    <glyph glyph-name="Icircumflex" unicode="&#xce;" horiz-adv-x="265" 
d="M43.5654 752c-9.33301 0 -15.166 2.83301 -17.499 8.5s-0.833008 12.834 4.5 21.501l52 73c8 10.667 18 16 30 16h37c7.33301 0 13.166 -1.33301 17.499 -4s8.83301 -6.66699 13.5 -12l51 -73c6 -8.66699 8 -15.834 6 -21.501s-7.66699 -8.5 -17 -8.5h-17
c-11.333 0 -20.333 5.66699 -27 17l-44 64h-2l-44 -64c-3.33301 -6 -7 -10.333 -11 -13s-9.66699 -4 -17 -4h-15zM95.5654 678c0 16.667 8 25 24 25h21c16 0 24 -8.33301 24 -25v-653c0 -16.667 -8 -25 -24 -25h-21c-16 -0 -24 8.33301 -24 25v653z" />
    <glyph glyph-name="Idieresis" unicode="&#xcf;" horiz-adv-x="265" 
d="M52 785c-16 0 -24 8 -24 24v37c0 16.667 8 25 24 25h13c16 0 24 -8.33301 24 -25v-37c0 -16 -8 -24 -24 -24h-13zM203 785c-16 0 -24 8 -24 24v37c0 16.667 8 25 24 25h13c16.667 0 25 -8.33301 25 -25v-37c0 -16 -8.33301 -24 -25 -24h-13zM98 678c0 16.667 8 25 24 25
h21c16 0 24 -8.33301 24 -25v-653c0 -16.667 -8 -25 -24 -25h-21c-16 -0 -24 8.33301 -24 25v653z" />
    <glyph glyph-name="Eth" unicode="&#xd0;" horiz-adv-x="731" 
d="M318 62c43.333 0 82.666 6.16699 117.999 18.5s65.666 30.833 90.999 55.5s44.833 55 58.5 91s20.5 77.667 20.5 125c0 46.667 -6.83301 88 -20.5 124s-33.167 66.167 -58.5 90.5s-55.666 42.833 -90.999 55.5s-74.666 19 -117.999 19h-151v-258h143
c16.667 0 25 -8 25 -24v-11c0 -16.667 -8 -25 -24 -25h-144v-261h151zM98 323h-35c-16 0 -24 8.33301 -24 25v11c0 16 6.33301 24 19 24h40v295c0 16.667 8.33301 25 25 25h202c52.667 0 100.667 -7.83301 144 -23.5s80.5 -38.5 111.5 -68.5s55 -66.833 72 -110.5
s25.5 -93.167 25.5 -148.5c0 -56 -8.5 -105.833 -25.5 -149.5s-41 -80.5 -72 -110.5s-68.167 -52.833 -111.5 -68.5s-91.333 -23.5 -144 -23.5h-202c-16.667 -0 -25 8.33301 -25 25v298z" />
    <glyph glyph-name="Ntilde" unicode="&#xd1;" horiz-adv-x="745" 
d="M240 755c-14.667 0 -22.001 8.66602 -22.001 25.999c0 26.667 8.16699 48.5 24.5 65.5s37.5 25.5 63.5 25.5c17.333 0 31.666 -3.83301 42.999 -11.5s21.5 -16 30.5 -25s17.667 -17.167 26 -24.5s18.166 -11 29.499 -11c13.333 0 23 5.16699 29 15.5
s9.33301 21.833 10 34.5c0 12.667 7.66699 19 23 19h8c14 0 21 -7.66699 21 -23c0 -29.333 -7.83301 -52.333 -23.5 -69s-37.167 -25 -64.5 -25c-17.333 0 -31.666 3.66699 -42.999 11s-21.5 15.5 -30.5 24.5s-17.667 17.167 -26 24.5s-18.166 11 -29.499 11
c-13.333 0 -23.166 -5.16699 -29.499 -15.5s-9.5 -22.166 -9.5 -35.499c-1.33301 -11.333 -9 -17 -23 -17h-7zM97.999 677.999c0 16.667 7.99902 25.001 23.999 25.001h24c12 0 22 -5.33301 30 -16l348 -490l19 -30.5l19 -30.5l20 -34h2
c-1.33301 11.333 -2.33301 22.666 -3 33.999c-1.33301 9.33301 -2.16602 19.5 -2.49902 30.5s-0.5 21.167 -0.5 30.5v481c0 16.667 8.33301 25 25 25h20c16 0 24 -8.33301 24 -25v-653c0 -16.667 -8 -25 -24 -25h-24c-12.667 0 -22.334 5.33301 -29.001 16l-349 490
c-6 8.66699 -12.5 18.667 -19.5 30l-18.5 31c-7.33301 11.333 -14 22.666 -20 33.999h-2c0.666992 -11.333 1.66699 -22.666 3 -33.999c0.666992 -9.33301 1.33398 -19.5 2.00098 -30.5s1 -21.167 1 -30.5v-481c0 -16.667 -8 -25 -24 -25h-21c-16 0 -24 8.33301 -24 25v653z
" />
    <glyph glyph-name="Ograve" unicode="&#xd2;" horiz-adv-x="817" 
d="M397 752c-12 0 -22.001 5.33203 -30.001 15.999l-53 73c-6 8.66699 -7.83301 15.834 -5.5 21.501s8.83301 8.5 19.5 8.5h23c12.667 0 22.334 -5.66699 29.001 -17l44 -74c4.66699 -7.33301 6 -13.833 4 -19.5s-7.66699 -8.5 -17 -8.5h-14zM121.999 355.999
c0 -42.667 7.16699 -82.5 21.5 -119.5s34.333 -69 60 -96s55.834 -48.333 90.501 -64s72.667 -23.5 114 -23.5s79.5 7.83301 114.5 23.5s65.167 37 90.5 64s45.166 59 59.499 96s21.5 76.833 21.5 119.5c0 42 -7.16699 80.833 -21.5 116.5s-34.166 66.667 -59.499 93
s-55.5 47 -90.5 62s-73.167 22.5 -114.5 22.5s-79.333 -7.5 -114 -22.5s-64.834 -35.667 -90.501 -62s-45.667 -57.333 -60 -93s-21.5 -74.5 -21.5 -116.5zM49.999 355.999c0 50.667 9 97.834 27 141.501s43 81.667 75 114s69.833 57.666 113.5 75.999
s91.167 27.5 142.5 27.5s98.833 -9.16699 142.5 -27.5s81.5 -43.666 113.5 -75.999s57 -70.333 75 -114s27 -90.834 27 -141.501c0 -51.333 -9 -99.5 -27 -144.5s-43 -84 -75 -117s-69.833 -59 -113.5 -78s-91.167 -28.5 -142.5 -28.5s-98.833 9.5 -142.5 28.5
s-81.5 45 -113.5 78s-57 72 -75 117s-27 93.167 -27 144.5z" />
    <glyph glyph-name="Oacute" unicode="&#xd3;" horiz-adv-x="817" 
d="M122 356c0 -42.667 7.16699 -82.5 21.5 -119.5s34.333 -69 60 -96s55.834 -48.333 90.501 -64s72.667 -23.5 114 -23.5s79.5 7.83301 114.5 23.5s65.167 37 90.5 64s45.166 59 59.499 96s21.5 76.833 21.5 119.5c0 42 -7.16699 80.833 -21.5 116.5
s-34.166 66.667 -59.499 93s-55.5 47 -90.5 62s-73.167 22.5 -114.5 22.5s-79.333 -7.5 -114 -22.5s-64.834 -35.667 -90.501 -62s-45.667 -57.333 -60 -93s-21.5 -74.5 -21.5 -116.5zM50 356c0 50.667 9 97.834 27 141.501s43 81.667 75 114s69.833 57.666 113.5 75.999
s91.167 27.5 142.5 27.5s98.833 -9.16699 142.5 -27.5s81.5 -43.666 113.5 -75.999s57 -70.333 75 -114s27 -90.834 27 -141.501c0 -51.333 -9 -99.5 -27 -144.5s-43 -84 -75 -117s-69.833 -59 -113.5 -78s-91.167 -28.5 -142.5 -28.5s-98.833 9.5 -142.5 28.5
s-81.5 45 -113.5 78s-57 72 -75 117s-27 93.167 -27 144.5zM407 752c-9.33301 0 -15.668 2.83398 -19.001 8.50098s-2.33301 12.167 3 19.5l44 74c6.66699 11.333 16.334 17 29.001 17h23c10.667 0 17.167 -2.83301 19.5 -8.5s0.5 -12.834 -5.5 -21.501l-53 -73
c-8 -10.667 -18 -16 -30 -16h-11z" />
    <glyph glyph-name="Ocircumflex" unicode="&#xd4;" horiz-adv-x="817" 
d="M122 356c0 -42.667 7.16699 -82.5 21.5 -119.5s34.333 -69 60 -96s55.834 -48.333 90.501 -64s72.667 -23.5 114 -23.5s79.5 7.83301 114.5 23.5s65.167 37 90.5 64s45.166 59 59.499 96s21.5 76.833 21.5 119.5c0 42 -7.16699 80.833 -21.5 116.5
s-34.166 66.667 -59.499 93s-55.5 47 -90.5 62s-73.167 22.5 -114.5 22.5s-79.333 -7.5 -114 -22.5s-64.834 -35.667 -90.501 -62s-45.667 -57.333 -60 -93s-21.5 -74.5 -21.5 -116.5zM50 356c0 50.667 9 97.834 27 141.501s43 81.667 75 114s69.833 57.666 113.5 75.999
s91.167 27.5 142.5 27.5s98.833 -9.16699 142.5 -27.5s81.5 -43.666 113.5 -75.999s57 -70.333 75 -114s27 -90.834 27 -141.501c0 -51.333 -9 -99.5 -27 -144.5s-43 -84 -75 -117s-69.833 -59 -113.5 -78s-91.167 -28.5 -142.5 -28.5s-98.833 9.5 -142.5 28.5
s-81.5 45 -113.5 78s-57 72 -75 117s-27 93.167 -27 144.5zM320 752c-9.33301 0 -15.166 2.83301 -17.499 8.5s-0.833008 12.834 4.5 21.501l52 73c8 10.667 18 16 30 16h37c7.33301 0 13.166 -1.33301 17.499 -4s8.83301 -6.66699 13.5 -12l51 -73
c6 -8.66699 8 -15.834 6 -21.501s-7.66699 -8.5 -17 -8.5h-17c-11.333 0 -20.333 5.66699 -27 17l-44 64h-2l-44 -64c-3.33301 -6 -7 -10.333 -11 -13s-9.66699 -4 -17 -4h-15z" />
    <glyph glyph-name="Otilde" unicode="&#xd5;" horiz-adv-x="817" 
d="M276 755c-14.667 0 -22.001 8.66602 -22.001 25.999c0 26.667 8.16699 48.5 24.5 65.5s37.5 25.5 63.5 25.5c17.333 0 31.666 -3.83301 42.999 -11.5s21.5 -16 30.5 -25s17.667 -17.167 26 -24.5s18.166 -11 29.499 -11c13.333 0 23 5.16699 29 15.5
s9.33301 21.833 10 34.5c0 12.667 7.66699 19 23 19h8c14 0 21 -7.66699 21 -23c0 -29.333 -7.83301 -52.333 -23.5 -69s-37.167 -25 -64.5 -25c-17.333 0 -31.666 3.66699 -42.999 11s-21.5 15.5 -30.5 24.5s-17.667 17.167 -26 24.5s-18.166 11 -29.499 11
c-13.333 0 -23.166 -5.16699 -29.499 -15.5s-9.5 -22.166 -9.5 -35.499c-1.33301 -11.333 -9 -17 -23 -17h-7zM121.999 355.999c0 -42.667 7.16699 -82.5 21.5 -119.5s34.333 -69 60 -96s55.834 -48.333 90.501 -64s72.667 -23.5 114 -23.5s79.5 7.83301 114.5 23.5
s65.167 37 90.5 64s45.166 59 59.499 96s21.5 76.833 21.5 119.5c0 42 -7.16699 80.833 -21.5 116.5s-34.166 66.667 -59.499 93s-55.5 47 -90.5 62s-73.167 22.5 -114.5 22.5s-79.333 -7.5 -114 -22.5s-64.834 -35.667 -90.501 -62s-45.667 -57.333 -60 -93
s-21.5 -74.5 -21.5 -116.5zM49.999 355.999c0 50.667 9 97.834 27 141.501s43 81.667 75 114s69.833 57.666 113.5 75.999s91.167 27.5 142.5 27.5s98.833 -9.16699 142.5 -27.5s81.5 -43.666 113.5 -75.999s57 -70.333 75 -114s27 -90.834 27 -141.501
c0 -51.333 -9 -99.5 -27 -144.5s-43 -84 -75 -117s-69.833 -59 -113.5 -78s-91.167 -28.5 -142.5 -28.5s-98.833 9.5 -142.5 28.5s-81.5 45 -113.5 78s-57 72 -75 117s-27 93.167 -27 144.5z" />
    <glyph glyph-name="Odieresis" unicode="&#xd6;" horiz-adv-x="817" 
d="M122 356c0 -42.667 7.16699 -82.5 21.5 -119.5s34.333 -69 60 -96s55.834 -48.333 90.501 -64s72.667 -23.5 114 -23.5s79.5 7.83301 114.5 23.5s65.167 37 90.5 64s45.166 59 59.499 96s21.5 76.833 21.5 119.5c0 42 -7.16699 80.833 -21.5 116.5
s-34.166 66.667 -59.499 93s-55.5 47 -90.5 62s-73.167 22.5 -114.5 22.5s-79.333 -7.5 -114 -22.5s-64.834 -35.667 -90.501 -62s-45.667 -57.333 -60 -93s-21.5 -74.5 -21.5 -116.5zM50 356c0 50.667 9 97.834 27 141.501s43 81.667 75 114s69.833 57.666 113.5 75.999
s91.167 27.5 142.5 27.5s98.833 -9.16699 142.5 -27.5s81.5 -43.666 113.5 -75.999s57 -70.333 75 -114s27 -90.834 27 -141.501c0 -51.333 -9 -99.5 -27 -144.5s-43 -84 -75 -117s-69.833 -59 -113.5 -78s-91.167 -28.5 -142.5 -28.5s-98.833 9.5 -142.5 28.5
s-81.5 45 -113.5 78s-57 72 -75 117s-27 93.167 -27 144.5zM326 785c-16 0 -24 8 -24 24v37c0 16.667 8 25 24 25h13c16 0 24 -8.33301 24 -25v-37c0 -16 -8 -24 -24 -24h-13zM477 785c-16 0 -24 8 -24 24v37c0 16.667 8 25 24 25h13c16.667 0 25 -8.33301 25 -25v-37
c0 -16 -8.33301 -24 -25 -24h-13z" />
    <glyph glyph-name="multiply" unicode="&#xd7;" horiz-adv-x="606" 
d="M55.7578 24c-10.667 10.667 -10.998 22.334 -0.998047 35.001l200 225l-200 225c-10.667 12.667 -10.334 24 0.999023 34l7 7c12 12 23.667 11.667 35 -1l197 -221l197 221c10.667 12.667 22.334 13 35.001 1l7 -7c11.333 -10 11.666 -21.333 0.999023 -34l-201 -225
l201 -225c10 -12.667 9.66699 -24.334 -1 -35.001l-7 -6c-12.667 -12 -24.334 -11.667 -35.001 1l-197 221l-197 -221c-11.333 -12.667 -23 -13 -35 -1z" />
    <glyph glyph-name="Oslash" unicode="&#xd8;" horiz-adv-x="816" 
d="M255 98c45.333 -30 96.332 -45.001 152.999 -45.001c40 0 77.333 7.66699 112 23s64.834 36.5 90.501 63.5s46 59 61 96s22.5 76.833 22.5 119.5c0 46 -8.5 87.833 -25.5 125.5s-40.5 69.834 -70.5 96.501zM557.999 606.999c-44 28.667 -94 43 -150 43
c-39.333 0 -76.333 -7.5 -111 -22.5s-65 -35.667 -91 -62s-46.5 -57.333 -61.5 -93s-22.5 -74.5 -22.5 -116.5c0 -46 8.66699 -88.5 26 -127.5s40.333 -71.5 69 -97.5zM175.999 73.999c-38.667 34 -69.3311 75.166 -91.998 123.499s-34 101.166 -34 158.499
c0 50.667 9.33301 97.834 28 141.501s44.167 81.667 76.5 114s70.166 57.666 113.499 75.999s90 27.5 140 27.5c35.333 0 68.666 -4.66699 99.999 -14s61 -22.666 89 -39.999l33 47c10 13.333 22 15 36 5c13.333 -11.333 16 -21.666 8 -30.999l-35 -50
c39.333 -32.667 70.333 -72.667 93 -120s34 -99.333 34 -156c0 -51.333 -9.33301 -99.5 -28 -144.5s-44 -84 -76 -117s-69.833 -59 -113.5 -78s-90.5 -28.5 -140.5 -28.5c-36 0 -69.833 4.83301 -101.5 14.5s-61.5 23.5 -89.5 41.5l-34 -48c-10 -13.333 -22 -15.333 -36 -6
c-13.333 10 -16 21 -8 33z" />
    <glyph glyph-name="Ugrave" unicode="&#xd9;" horiz-adv-x="715" 
d="M345 752c-12 0 -22.001 5.33203 -30.001 15.999l-53 73c-6 8.66699 -7.83301 15.834 -5.5 21.501s8.83301 8.5 19.5 8.5h23c12.667 0 22.334 -5.66699 29.001 -17l44 -74c4.66699 -7.33301 6 -13.833 4 -19.5s-7.66699 -8.5 -17 -8.5h-14zM87.999 677.999
c0 16.667 8.33398 25 25.001 25h20c16.667 0 25 -8.33301 25 -25v-432c0 -60.667 18 -108 54 -142s84.333 -51 145 -51s109.167 17 145.5 51s54.5 82 54.5 144v430c0 16.667 8.33301 25 25 25h20c16 0 24 -8.33301 24 -25v-433c0 -39.333 -6.5 -74.666 -19.5 -105.999
s-31.333 -58.333 -55 -81s-51.834 -40 -84.501 -52s-69 -18 -109 -18s-76.5 6 -109.5 18s-61.5 29.333 -85.5 52s-42.5 49.667 -55.5 81s-19.5 66.666 -19.5 105.999v433z" />
    <glyph glyph-name="Uacute" unicode="&#xda;" horiz-adv-x="715" 
d="M88 678c0 16.667 8.33398 25 25.001 25h20c16.667 0 25 -8.33301 25 -25v-432c0 -60.667 18 -108 54 -142s84.333 -51 145 -51s109.167 17 145.5 51s54.5 82 54.5 144v430c0 16.667 8.33301 25 25 25h20c16 0 24 -8.33301 24 -25v-433
c0 -39.333 -6.5 -74.666 -19.5 -105.999s-31.333 -58.333 -55 -81s-51.834 -40 -84.501 -52s-69 -18 -109 -18s-76.5 6 -109.5 18s-61.5 29.333 -85.5 52s-42.5 49.667 -55.5 81s-19.5 66.666 -19.5 105.999v433zM356.001 752c-9.33301 0 -15.668 2.83398 -19.001 8.50098
s-2.33301 12.167 3 19.5l44 74c6.66699 11.333 16.334 17 29.001 17h23c10.667 0 17.167 -2.83301 19.5 -8.5s0.5 -12.834 -5.5 -21.501l-53 -73c-8 -10.667 -18 -16 -30 -16h-11z" />
    <glyph glyph-name="Ucircumflex" unicode="&#xdb;" horiz-adv-x="715" 
d="M88 678c0 16.667 8.33398 25 25.001 25h20c16.667 0 25 -8.33301 25 -25v-432c0 -60.667 18 -108 54 -142s84.333 -51 145 -51s109.167 17 145.5 51s54.5 82 54.5 144v430c0 16.667 8.33301 25 25 25h20c16 0 24 -8.33301 24 -25v-433
c0 -39.333 -6.5 -74.666 -19.5 -105.999s-31.333 -58.333 -55 -81s-51.834 -40 -84.501 -52s-69 -18 -109 -18s-76.5 6 -109.5 18s-61.5 29.333 -85.5 52s-42.5 49.667 -55.5 81s-19.5 66.666 -19.5 105.999v433zM269.001 752c-9.33301 0 -15.166 2.83301 -17.499 8.5
s-0.833008 12.834 4.5 21.501l52 73c8 10.667 18 16 30 16h37c7.33301 0 13.166 -1.33301 17.499 -4s8.83301 -6.66699 13.5 -12l51 -73c6 -8.66699 8 -15.834 6 -21.501s-7.66699 -8.5 -17 -8.5h-17c-11.333 0 -20.333 5.66699 -27 17l-44 64h-2l-44 -64
c-3.33301 -6 -7 -10.333 -11 -13s-9.66699 -4 -17 -4h-15z" />
    <glyph glyph-name="Udieresis" unicode="&#xdc;" horiz-adv-x="715" 
d="M88 678c0 16.667 8.33398 25 25.001 25h20c16.667 0 25 -8.33301 25 -25v-432c0 -60.667 18 -108 54 -142s84.333 -51 145 -51s109.167 17 145.5 51s54.5 82 54.5 144v430c0 16.667 8.33301 25 25 25h20c16 0 24 -8.33301 24 -25v-433
c0 -39.333 -6.5 -74.666 -19.5 -105.999s-31.333 -58.333 -55 -81s-51.834 -40 -84.501 -52s-69 -18 -109 -18s-76.5 6 -109.5 18s-61.5 29.333 -85.5 52s-42.5 49.667 -55.5 81s-19.5 66.666 -19.5 105.999v433zM275.001 785c-16 0 -24 8 -24 24v37c0 16.667 8 25 24 25h13
c16 0 24 -8.33301 24 -25v-37c0 -16 -8 -24 -24 -24h-13zM426.001 785c-16 0 -24 8 -24 24v37c0 16.667 8 25 24 25h13c16.667 0 25 -8.33301 25 -25v-37c0 -16 -8.33301 -24 -25 -24h-13z" />
    <glyph glyph-name="Yacute" unicode="&#xdd;" horiz-adv-x="554" 
d="M272.923 752c-9.33301 0 -15.668 2.83398 -19.001 8.50098s-2.33301 12.167 3 19.5l44 74c6.66699 11.333 16.334 17 29.001 17h23c10.667 0 17.167 -2.83301 19.5 -8.5s0.5 -12.834 -5.5 -21.501l-53 -73c-8 -10.667 -18 -16 -30 -16h-11zM239.921 302.001l-221.001 372
c-5.33301 8 -6.33301 14.833 -3 20.5s10 8.5 20 8.5h25c13.333 0 23 -5.66699 29 -17l140 -238c5.33301 -9.33301 10.5 -19 15.5 -29l13.5 -27l14 -28h2l14 28l13.5 27c5 10 10.167 19.667 15.5 29l140 238c6 11.333 15.333 17 28 17h26
c9.33301 0 15.833 -2.83301 19.5 -8.5s2.83398 -12.5 -2.49902 -20.5l-220 -372v-277c0 -16.667 -8.33301 -25 -25 -25h-20c-16 0 -24 8.33301 -24 25v277z" />
    <glyph glyph-name="Thorn" unicode="&#xde;" horiz-adv-x="591" 
d="M332 213c47.333 0 85 13.333 113 40s42 64 42 112s-14 85.167 -42 111.5s-65.333 39.5 -112 39.5h-166v-303h165zM98 678c0 16.667 8 24.999 24 24.999h21c16 0 24 -8 24 -24v-101h174c31.333 0 60.333 -5 87 -15s49.667 -24.167 69 -42.5s34.333 -40.666 45 -66.999
s16 -55.833 16 -88.5s-5.33301 -62.167 -16 -88.5s-25.667 -48.833 -45 -67.5s-42.333 -33 -69 -43s-56 -15 -88 -15h-173v-126c0 -16.667 -8 -25 -24 -25h-21c-16 -0 -24 8.33301 -24 25v653z" />
    <glyph glyph-name="germandbls" unicode="&#xdf;" horiz-adv-x="567" 
d="M78 531c0 30 5.83594 56.499 17.5029 79.499s26.834 42.167 45.501 57.5s40 27 64 35s48.667 12 74 12c26.667 0 50.834 -4.16699 72.501 -12.5s40 -19.333 55 -33s26.667 -29.5 35 -47.5s12.5 -36.667 12.5 -56c0 -26 -5.83301 -47.833 -17.5 -65.5
s-24.334 -33.667 -38.001 -48l-38 -40.5c-11.667 -12.667 -17.5 -27 -17.5 -43c0 -11.333 4.83301 -22 14.5 -32s21.667 -20.167 36 -30.5s30 -21 47 -32s32.667 -23.167 47 -36.5s26.333 -28.333 36 -45s14.5 -35.667 14.5 -57c0 -24 -4.5 -45 -13.5 -63
s-21 -32.833 -36 -44.5s-32.333 -20.5 -52 -26.5s-39.834 -9 -60.501 -9c-32 0 -58.833 3 -80.5 9s-37.834 11.333 -48.501 16c-12.667 4 -19 13.333 -19 28v14c0 19.333 8.66699 25.666 26 18.999c11.333 -5.33301 27.166 -10.833 47.499 -16.5s43.5 -8.5 69.5 -8.5
c12.667 0 25 1.66699 37 5s22.5 8.33301 31.5 15s16.167 15.334 21.5 26.001s8 23.334 8 38.001c0 15.333 -4.83301 29.333 -14.5 42s-21.834 24.5 -36.501 35.5s-30.334 21.833 -47.001 32.5s-32.334 21.834 -47.001 33.501s-26.834 24.5 -36.501 38.5
s-14.5 29.667 -14.5 47c0 22 5.83301 40.833 17.5 56.5s24.334 30.667 38.001 45s26.334 29 38.001 44s17.5 32.5 17.5 52.5c0 10.667 -2.33301 21.167 -7 31.5s-11.5 19.833 -20.5 28.5s-20.167 15.667 -33.5 21s-29 8 -47 8c-16 0 -31.833 -2.83301 -47.5 -8.5
s-29.667 -13.834 -42 -24.501s-22.166 -24 -29.499 -40s-11 -34.333 -11 -55v-501c0 -16.667 -8.33301 -25 -25 -25h-19c-16 -0 -24 8.33301 -24 25v506z" />
    <glyph glyph-name="agrave" unicode="&#xe0;" horiz-adv-x="508" 
d="M241 585c-12 0 -22.001 5.33203 -30.001 15.999l-53 73c-6 8.66699 -7.83301 15.834 -5.5 21.501s8.83301 8.5 19.5 8.5h23c12.667 0 22.334 -5.66699 29.001 -17l44 -74c4.66699 -7.33301 6 -13.833 4 -19.5s-7.66699 -8.5 -17 -8.5h-14zM103.999 140.999
c0 -12 2.33301 -23.666 7 -34.999s11.667 -21.5 21 -30.5s21 -16.333 35 -22s30.333 -8.5 49 -8.5c24 0 45.667 5.66699 65 17s35.5 26 48.5 44s23 38.167 30 60.5s10.5 44.5 10.5 66.5v24h-28c-20 0 -43.5 -0.666992 -70.5 -2s-53 -5.83301 -78 -13.5
s-46.167 -19.334 -63.5 -35.001s-26 -37.5 -26 -65.5zM33.999 135c0 27.333 5.33105 50.6689 15.998 70.002s24.667 35.333 42 48s37 22.667 59 30s44.333 12.833 67 16.5s44.834 6 66.501 7s40.5 1.5 56.5 1.5h29v16c0 24 -3.16699 44.333 -9.5 61s-15 30.167 -26 40.5
s-24 17.666 -39 21.999s-31.5 6.5 -49.5 6.5c-28 0 -52.5 -4 -73.5 -12s-37.167 -15.667 -48.5 -23c-14 -7.33301 -25.333 -4.66602 -34 8.00098l-6 10c-8.66699 14.667 -6.33398 26 6.99902 34s33.5 17.333 60.5 28s60.167 16 99.5 16c60.667 0 107 -16.333 139 -49
s48 -80.667 48 -144v-297c0 -16.667 -8 -25 -24 -25h-16c-16.667 0 -25 8.33301 -25 25v40v15.5c0 5 0.333008 9.16699 1 12.5c0.666992 4 1.33398 7.33301 2.00098 10h-2l-9 -18c-6 -12 -15.667 -25.167 -29 -39.5s-30.833 -27.5 -52.5 -39.5s-48.167 -18 -79.5 -18
c-21.333 0 -42.166 3.16699 -62.499 9.5s-38.5 15.666 -54.5 27.999s-28.833 27.666 -38.5 45.999s-14.5 39.5 -14.5 63.5z" />
    <glyph glyph-name="aacute" unicode="&#xe1;" horiz-adv-x="508" 
d="M250 585c-9.33301 0 -15.668 2.83398 -19.001 8.50098s-2.33301 12.167 3 19.5l44 74c6.66699 11.333 16.334 17 29.001 17h23c10.667 0 17.167 -2.83301 19.5 -8.5s0.5 -12.834 -5.5 -21.501l-53 -73c-8 -10.667 -18 -16 -30 -16h-11zM103.998 141.001
c0 -12 2.33301 -23.666 7 -34.999s11.667 -21.5 21 -30.5s21 -16.333 35 -22s30.333 -8.5 49 -8.5c24 0 45.667 5.66699 65 17s35.5 26 48.5 44s23 38.167 30 60.5s10.5 44.5 10.5 66.5v24h-28c-20 0 -43.5 -0.666992 -70.5 -2s-53 -5.83301 -78 -13.5
s-46.167 -19.334 -63.5 -35.001s-26 -37.5 -26 -65.5zM33.998 135.002c0 27.333 5.33105 50.6689 15.998 70.002s24.667 35.333 42 48s37 22.667 59 30s44.333 12.833 67 16.5s44.834 6 66.501 7s40.5 1.5 56.5 1.5h29v16c0 24 -3.16699 44.333 -9.5 61s-15 30.167 -26 40.5
s-24 17.666 -39 21.999s-31.5 6.5 -49.5 6.5c-28 0 -52.5 -4 -73.5 -12s-37.167 -15.667 -48.5 -23c-14 -7.33301 -25.333 -4.66602 -34 8.00098l-6 10c-8.66699 14.667 -6.33398 26 6.99902 34s33.5 17.333 60.5 28s60.167 16 99.5 16c60.667 0 107 -16.333 139 -49
s48 -80.667 48 -144v-297c0 -16.667 -8 -25 -24 -25h-16c-16.667 0 -25 8.33301 -25 25v40v15.5c0 5 0.333008 9.16699 1 12.5c0.666992 4 1.33398 7.33301 2.00098 10h-2l-9 -18c-6 -12 -15.667 -25.167 -29 -39.5s-30.833 -27.5 -52.5 -39.5s-48.167 -18 -79.5 -18
c-21.333 0 -42.166 3.16699 -62.499 9.5s-38.5 15.666 -54.5 27.999s-28.833 27.666 -38.5 45.999s-14.5 39.5 -14.5 63.5z" />
    <glyph glyph-name="acircumflex" unicode="&#xe2;" horiz-adv-x="508" 
d="M164 585c-9.33301 0 -15.166 2.83301 -17.499 8.5s-0.833008 12.834 4.5 21.501l52 73c8 10.667 18 16 30 16h37c7.33301 0 13.166 -1.33301 17.499 -4s8.83301 -6.66699 13.5 -12l51 -73c6 -8.66699 8 -15.834 6 -21.501s-7.66699 -8.5 -17 -8.5h-17
c-11.333 0 -20.333 5.66699 -27 17l-44 64h-2l-44 -64c-3.33301 -6 -7 -10.333 -11 -13s-9.66699 -4 -17 -4h-15zM104 141c0 -12 2.33301 -23.666 7 -34.999s11.667 -21.5 21 -30.5s21 -16.333 35 -22s30.333 -8.5 49 -8.5c24 0 45.667 5.66699 65 17s35.5 26 48.5 44
s23 38.167 30 60.5s10.5 44.5 10.5 66.5v24h-28c-20 0 -43.5 -0.666992 -70.5 -2s-53 -5.83301 -78 -13.5s-46.167 -19.334 -63.5 -35.001s-26 -37.5 -26 -65.5zM34 135.001c0 27.333 5.33105 50.6689 15.998 70.002s24.667 35.333 42 48s37 22.667 59 30
s44.333 12.833 67 16.5s44.834 6 66.501 7s40.5 1.5 56.5 1.5h29v16c0 24 -3.16699 44.333 -9.5 61s-15 30.167 -26 40.5s-24 17.666 -39 21.999s-31.5 6.5 -49.5 6.5c-28 0 -52.5 -4 -73.5 -12s-37.167 -15.667 -48.5 -23c-14 -7.33301 -25.333 -4.66602 -34 8.00098l-6 10
c-8.66699 14.667 -6.33398 26 6.99902 34s33.5 17.333 60.5 28s60.167 16 99.5 16c60.667 0 107 -16.333 139 -49s48 -80.667 48 -144v-297c0 -16.667 -8 -25 -24 -25h-16c-16.667 0 -25 8.33301 -25 25v40v15.5c0 5 0.333008 9.16699 1 12.5
c0.666992 4 1.33398 7.33301 2.00098 10h-2l-9 -18c-6 -12 -15.667 -25.167 -29 -39.5s-30.833 -27.5 -52.5 -39.5s-48.167 -18 -79.5 -18c-21.333 0 -42.166 3.16699 -62.499 9.5s-38.5 15.666 -54.5 27.999s-28.833 27.666 -38.5 45.999s-14.5 39.5 -14.5 63.5z" />
    <glyph glyph-name="atilde" unicode="&#xe3;" horiz-adv-x="508" 
d="M120 588c-14.667 0 -22.001 8.66602 -22.001 25.999c0 26.667 8.16699 48.5 24.5 65.5s37.5 25.5 63.5 25.5c17.333 0 31.666 -3.83301 42.999 -11.5s21.5 -16 30.5 -25s17.667 -17.167 26 -24.5s18.166 -11 29.499 -11c13.333 0 23 5.16699 29 15.5
s9.33301 21.833 10 34.5c0 12.667 7.66699 19 23 19h8c14 0 21 -7.66699 21 -23c0 -29.333 -7.83301 -52.333 -23.5 -69s-37.167 -25 -64.5 -25c-17.333 0 -31.666 3.66699 -42.999 11s-21.5 15.5 -30.5 24.5s-17.667 17.167 -26 24.5s-18.166 11 -29.499 11
c-13.333 0 -23.166 -5.16699 -29.499 -15.5s-9.5 -22.166 -9.5 -35.499c-1.33301 -11.333 -9 -17 -23 -17h-7zM103.999 140.999c0 -12 2.33301 -23.666 7 -34.999s11.667 -21.5 21 -30.5s21 -16.333 35 -22s30.333 -8.5 49 -8.5c24 0 45.667 5.66699 65 17s35.5 26 48.5 44
s23 38.167 30 60.5s10.5 44.5 10.5 66.5v24h-28c-20 0 -43.5 -0.666992 -70.5 -2s-53 -5.83301 -78 -13.5s-46.167 -19.334 -63.5 -35.001s-26 -37.5 -26 -65.5zM33.999 135c0 27.333 5.33105 50.6689 15.998 70.002s24.667 35.333 42 48s37 22.667 59 30
s44.333 12.833 67 16.5s44.834 6 66.501 7s40.5 1.5 56.5 1.5h29v16c0 24 -3.16699 44.333 -9.5 61s-15 30.167 -26 40.5s-24 17.666 -39 21.999s-31.5 6.5 -49.5 6.5c-28 0 -52.5 -4 -73.5 -12s-37.167 -15.667 -48.5 -23c-14 -7.33301 -25.333 -4.66602 -34 8.00098l-6 10
c-8.66699 14.667 -6.33398 26 6.99902 34s33.5 17.333 60.5 28s60.167 16 99.5 16c60.667 0 107 -16.333 139 -49s48 -80.667 48 -144v-297c0 -16.667 -8 -25 -24 -25h-16c-16.667 0 -25 8.33301 -25 25v40v15.5c0 5 0.333008 9.16699 1 12.5
c0.666992 4 1.33398 7.33301 2.00098 10h-2l-9 -18c-6 -12 -15.667 -25.167 -29 -39.5s-30.833 -27.5 -52.5 -39.5s-48.167 -18 -79.5 -18c-21.333 0 -42.166 3.16699 -62.499 9.5s-38.5 15.666 -54.5 27.999s-28.833 27.666 -38.5 45.999s-14.5 39.5 -14.5 63.5z" />
    <glyph glyph-name="adieresis" unicode="&#xe4;" horiz-adv-x="508" 
d="M170 618c-16 0 -24 8 -24 24v37c0 16.667 8 25 24 25h13c16 0 24 -8.33301 24 -25v-37c0 -16 -8 -24 -24 -24h-13zM321 618c-16 0 -24 8 -24 24v37c0 16.667 8 25 24 25h13c16.667 0 25 -8.33301 25 -25v-37c0 -16 -8.33301 -24 -25 -24h-13zM104 141
c0 -12 2.33301 -23.666 7 -34.999s11.667 -21.5 21 -30.5s21 -16.333 35 -22s30.333 -8.5 49 -8.5c24 0 45.667 5.66699 65 17s35.5 26 48.5 44s23 38.167 30 60.5s10.5 44.5 10.5 66.5v24h-28c-20 0 -43.5 -0.666992 -70.5 -2s-53 -5.83301 -78 -13.5
s-46.167 -19.334 -63.5 -35.001s-26 -37.5 -26 -65.5zM34 135.001c0 27.333 5.33105 50.6689 15.998 70.002s24.667 35.333 42 48s37 22.667 59 30s44.333 12.833 67 16.5s44.834 6 66.501 7s40.5 1.5 56.5 1.5h29v16c0 24 -3.16699 44.333 -9.5 61s-15 30.167 -26 40.5
s-24 17.666 -39 21.999s-31.5 6.5 -49.5 6.5c-28 0 -52.5 -4 -73.5 -12s-37.167 -15.667 -48.5 -23c-14 -7.33301 -25.333 -4.66602 -34 8.00098l-6 10c-8.66699 14.667 -6.33398 26 6.99902 34s33.5 17.333 60.5 28s60.167 16 99.5 16c60.667 0 107 -16.333 139 -49
s48 -80.667 48 -144v-297c0 -16.667 -8 -25 -24 -25h-16c-16.667 0 -25 8.33301 -25 25v40v15.5c0 5 0.333008 9.16699 1 12.5c0.666992 4 1.33398 7.33301 2.00098 10h-2l-9 -18c-6 -12 -15.667 -25.167 -29 -39.5s-30.833 -27.5 -52.5 -39.5s-48.167 -18 -79.5 -18
c-21.333 0 -42.166 3.16699 -62.499 9.5s-38.5 15.666 -54.5 27.999s-28.833 27.666 -38.5 45.999s-14.5 39.5 -14.5 63.5z" />
    <glyph glyph-name="aring" unicode="&#xe5;" horiz-adv-x="508" 
d="M252 612c10 0 18 3.16699 24 9.5s9 14.166 9 23.499c0 10 -3 18.167 -9 24.5s-14 9.5 -24 9.5c-9.33301 0 -17 -3.16699 -23 -9.5s-9 -14.5 -9 -24.5c0 -9.33301 3 -17.166 9 -23.499s13.667 -9.5 23 -9.5zM252 574c-20.667 0 -38.334 6.5 -53.001 19.5
s-22 30.167 -22 51.5s7.33301 38.5 22 51.5s32.334 19.5 53.001 19.5s38.5 -6.5 53.5 -19.5s22.5 -30.167 22.5 -51.5s-7.5 -38.5 -22.5 -51.5s-32.833 -19.5 -53.5 -19.5zM104 141c0 -12 2.33301 -23.666 7 -34.999s11.667 -21.5 21 -30.5s21 -16.333 35 -22
s30.333 -8.5 49 -8.5c24 0 45.667 5.66699 65 17s35.5 26 48.5 44s23 38.167 30 60.5s10.5 44.5 10.5 66.5v24h-28c-20 0 -43.5 -0.666992 -70.5 -2s-53 -5.83301 -78 -13.5s-46.167 -19.334 -63.5 -35.001s-26 -37.5 -26 -65.5zM34 135.001
c0 27.333 5.33105 50.6689 15.998 70.002s24.667 35.333 42 48s37 22.667 59 30s44.333 12.833 67 16.5s44.834 6 66.501 7s40.5 1.5 56.5 1.5h29v16c0 24 -3.16699 44.333 -9.5 61s-15 30.167 -26 40.5s-24 17.666 -39 21.999s-31.5 6.5 -49.5 6.5
c-28 0 -52.5 -4 -73.5 -12s-37.167 -15.667 -48.5 -23c-14 -7.33301 -25.333 -4.66602 -34 8.00098l-6 10c-8.66699 14.667 -6.33398 26 6.99902 34s33.5 17.333 60.5 28s60.167 16 99.5 16c60.667 0 107 -16.333 139 -49s48 -80.667 48 -144v-297c0 -16.667 -8 -25 -24 -25
h-16c-16.667 0 -25 8.33301 -25 25v40v15.5c0 5 0.333008 9.16699 1 12.5c0.666992 4 1.33398 7.33301 2.00098 10h-2l-9 -18c-6 -12 -15.667 -25.167 -29 -39.5s-30.833 -27.5 -52.5 -39.5s-48.167 -18 -79.5 -18c-21.333 0 -42.166 3.16699 -62.499 9.5
s-38.5 15.666 -54.5 27.999s-28.833 27.666 -38.5 45.999s-14.5 39.5 -14.5 63.5z" />
    <glyph glyph-name="ae" unicode="&#xe6;" horiz-adv-x="859" 
d="M105 141c0 -12 2.33301 -23.8311 7 -35.498s11.834 -22 21.501 -31s21.5 -16.167 35.5 -21.5s30.333 -8 49 -8c24 0 45.5 5.66699 64.5 17s35 26.166 48 44.499s23 38.666 30 60.999s10.5 44.5 10.5 66.5v20h-59c-21.333 0 -44 -1 -68 -3s-46.333 -6.83301 -67 -14.5
s-37.834 -19 -51.501 -34s-20.5 -35.5 -20.5 -61.5zM747 305.002c-1.33301 26 -6 48.668 -14 68.001s-18.5 35.166 -31.5 47.499s-27.667 21.5 -44 27.5s-33.5 9 -51.5 9c-42 0 -78 -12.833 -108 -38.5s-49 -63.5 -57 -113.5h306zM36 137.003
c0 26.667 4.83398 49.4951 14.501 68.4951s22.667 34.667 39 47s34.833 22 55.5 29s42.167 12.333 64.5 16s44.666 5.83398 66.999 6.50098s42.833 1 61.5 1h32v19c0 24 -3.16699 44.333 -9.5 61s-15 30.167 -26 40.5s-24.5 17.666 -40.5 21.999s-33.333 6.5 -52 6.5
c-26.667 0 -50.167 -4 -70.5 -12s-36.166 -15.667 -47.499 -23c-14 -7.33301 -25.333 -4.66602 -34 8.00098l-6 10c-8.66699 14.667 -6.33398 26 6.99902 34s33.166 17.333 59.499 28s58.5 16 96.5 16c50 0 88.167 -9.33301 114.5 -28s44.833 -44 55.5 -76h2
c20 34.667 46.333 60.667 79 78s69.334 26 110.001 26c33.333 0 63 -5.83301 89 -17.5s47.833 -27.834 65.5 -48.501s31.167 -45.5 40.5 -74.5s14 -60.833 14 -95.5c0 -7.33301 -2.5 -13.333 -7.5 -18s-11.167 -7 -18.5 -7h-354
c0.666992 -33.333 5.83398 -62.666 15.501 -87.999s22.834 -46.666 39.501 -63.999s36.334 -30.5 59.001 -39.5s47 -13.5 73 -13.5c31.333 0 58.333 5.33301 81 16s39.667 20.667 51 30c15.333 8.66699 26.666 6.33398 33.999 -6.99902l6 -10c8 -14 6 -25.333 -6 -34
c-6.66699 -5.33301 -15.334 -11.166 -26.001 -17.499s-23.167 -12.333 -37.5 -18s-30.333 -10.5 -48 -14.5s-36.834 -6 -57.501 -6c-52 0 -97 12.333 -135 37s-66.667 59 -86 103h-2c-2 -6.66699 -6.66699 -17.667 -14 -33s-18.5 -31 -33.5 -47s-34.167 -30 -57.5 -42
s-51.666 -18 -84.999 -18c-23.333 0 -45.333 3.16699 -66 9.5s-38.834 15.833 -54.501 28.5s-28.167 28.334 -37.5 47.001s-14 40 -14 64z" />
    <glyph glyph-name="ccedilla" unicode="&#xe7;" horiz-adv-x="534" 
d="M271 -9c-33.333 4 -63.8359 13.0068 -91.5029 27.0068s-51.5 32.333 -71.5 55s-35.667 49 -47 79s-17 63 -17 99c0 38.667 6.83301 74.167 20.5 106.5s32.334 60.166 56.001 83.499s51.5 41.5 83.5 54.5s66.667 19.5 104 19.5c21.333 0 40.833 -2 58.5 -6
s33.5 -9 47.5 -15s26.167 -12.333 36.5 -19s18.5 -12.334 24.5 -17.001c12 -9.33301 13 -20.666 3 -33.999l-7 -11c-8 -12.667 -19.333 -14.334 -34 -5.00098c-11.333 8.66699 -27.666 18.5 -48.999 29.5s-47.333 16.5 -78 16.5c-27.333 0 -53 -5 -77 -15
s-44.833 -23.833 -62.5 -41.5s-31.5 -39 -41.5 -64s-15 -52.5 -15 -82.5s5 -57.333 15 -82s23.833 -45.834 41.5 -63.501s38.5 -31.5 62.5 -41.5s50 -15 78 -15c17.333 0 33.333 1.83301 48 5.5s28 8.16699 40 13.5s22.5 11 31.5 17s16.5 11.667 22.5 17
c12.667 10 23.667 8 33 -6l7 -10c7.33301 -12 5.33301 -23.333 -6 -34c-6.66699 -5.33301 -15.167 -11.5 -25.5 -18.5s-22.666 -13.833 -36.999 -20.5s-30.666 -12.334 -48.999 -17.001s-38.5 -7.33398 -60.5 -8.00098l-8 -43c20 -3.33301 36.667 -11 50 -23s20 -28 20 -48
c0 -14.667 -2.66699 -27 -8 -37s-12.5 -18.167 -21.5 -24.5s-19.333 -10.833 -31 -13.5s-23.5 -4 -35.5 -4c-4 0 -8.83301 0.166992 -14.5 0.5s-11 1.33301 -16 3s-9.16699 4 -12.5 7s-5 7.5 -5 13.5c0 6.66699 1.33301 12.5 4 17.5s6.66699 7.5 12 7.5
c4 0 7.66699 -0.5 11 -1.5s8.33301 -1.5 15 -1.5c12.667 0 24 2.33301 34 7s15 13.667 15 27c0 11.333 -4.66699 19.666 -14 24.999s-21 8.66602 -35 9.99902c-5.33301 0.666992 -9.83301 3.16699 -13.5 7.5s-4.83398 10.5 -3.50098 18.5z" />
    <glyph glyph-name="egrave" unicode="&#xe8;" horiz-adv-x="544" 
d="M283 585c-12 0 -22.001 5.33203 -30.001 15.999l-53 73c-6 8.66699 -7.83301 15.834 -5.5 21.501s8.83301 8.5 19.5 8.5h23c12.667 0 22.334 -5.66699 29.001 -17l44 -74c4.66699 -7.33301 6 -13.833 4 -19.5s-7.66699 -8.5 -17 -8.5h-14zM432.999 300.999
c-1.33301 26.667 -5.83301 49.833 -13.5 69.5s-18 36 -31 49s-28 22.833 -45 29.5s-34.833 10 -53.5 10c-21.333 0 -41.5 -3.5 -60.5 -10.5s-36.167 -17.167 -51.5 -30.5s-28.333 -29.833 -39 -49.5s-18 -42.167 -22 -67.5h316zM43.999 250.998
c0 41.333 6.49707 78.3311 19.4971 110.998s30.833 60.334 53.5 83.001s49 40 79 52s62 18 96 18c33.333 0 63 -5.83301 89 -17.5s48 -28 66 -49s31.667 -46.167 41 -75.5s14 -62 14 -98c0 -7.33301 -2.5 -13.333 -7.5 -18s-11.167 -7 -18.5 -7h-362
c0.666992 -32 6.33398 -60.5 17.001 -85.5s24.834 -46 42.501 -63s38.167 -30 61.5 -39s48 -13.5 74 -13.5c32 0 59.167 5.33301 81.5 16s39.166 20.667 50.499 30c14 8.66699 25 6.66699 33 -6l8 -12c7.33301 -12.667 5 -23.667 -7 -33
c-6.66699 -5.33301 -15.334 -11.166 -26.001 -17.499s-23.167 -12.333 -37.5 -18s-30.333 -10.5 -48 -14.5s-36.5 -6 -56.5 -6c-37.333 0 -72.166 6.5 -104.499 19.5s-60.166 31 -83.499 54s-41.666 50.667 -54.999 83s-20 67.833 -20 106.5z" />
    <glyph glyph-name="eacute" unicode="&#xe9;" horiz-adv-x="544" 
d="M433 301c-1.33301 26.667 -5.83301 49.833 -13.5 69.5s-18 36 -31 49s-28 22.833 -45 29.5s-34.833 10 -53.5 10c-21.333 0 -41.5 -3.5 -60.5 -10.5s-36.167 -17.167 -51.5 -30.5s-28.333 -29.833 -39 -49.5s-18 -42.167 -22 -67.5h316zM44 250.999
c0 41.333 6.49707 78.3311 19.4971 110.998s30.833 60.334 53.5 83.001s49 40 79 52s62 18 96 18c33.333 0 63 -5.83301 89 -17.5s48 -28 66 -49s31.667 -46.167 41 -75.5s14 -62 14 -98c0 -7.33301 -2.5 -13.333 -7.5 -18s-11.167 -7 -18.5 -7h-362
c0.666992 -32 6.33398 -60.5 17.001 -85.5s24.834 -46 42.501 -63s38.167 -30 61.5 -39s48 -13.5 74 -13.5c32 0 59.167 5.33301 81.5 16s39.166 20.667 50.499 30c14 8.66699 25 6.66699 33 -6l8 -12c7.33301 -12.667 5 -23.667 -7 -33
c-6.66699 -5.33301 -15.334 -11.166 -26.001 -17.499s-23.167 -12.333 -37.5 -18s-30.333 -10.5 -48 -14.5s-36.5 -6 -56.5 -6c-37.333 0 -72.166 6.5 -104.499 19.5s-60.166 31 -83.499 54s-41.666 50.667 -54.999 83s-20 67.833 -20 106.5zM290.997 584.997
c-9.33301 0 -15.668 2.83398 -19.001 8.50098s-2.33301 12.167 3 19.5l44 74c6.66699 11.333 16.334 17 29.001 17h23c10.667 0 17.167 -2.83301 19.5 -8.5s0.5 -12.834 -5.5 -21.501l-53 -73c-8 -10.667 -18 -16 -30 -16h-11z" />
    <glyph glyph-name="ecircumflex" unicode="&#xea;" horiz-adv-x="544" 
d="M433 301c-1.33301 26.667 -5.83301 49.833 -13.5 69.5s-18 36 -31 49s-28 22.833 -45 29.5s-34.833 10 -53.5 10c-21.333 0 -41.5 -3.5 -60.5 -10.5s-36.167 -17.167 -51.5 -30.5s-28.333 -29.833 -39 -49.5s-18 -42.167 -22 -67.5h316zM44 250.999
c0 41.333 6.49707 78.3311 19.4971 110.998s30.833 60.334 53.5 83.001s49 40 79 52s62 18 96 18c33.333 0 63 -5.83301 89 -17.5s48 -28 66 -49s31.667 -46.167 41 -75.5s14 -62 14 -98c0 -7.33301 -2.5 -13.333 -7.5 -18s-11.167 -7 -18.5 -7h-362
c0.666992 -32 6.33398 -60.5 17.001 -85.5s24.834 -46 42.501 -63s38.167 -30 61.5 -39s48 -13.5 74 -13.5c32 0 59.167 5.33301 81.5 16s39.166 20.667 50.499 30c14 8.66699 25 6.66699 33 -6l8 -12c7.33301 -12.667 5 -23.667 -7 -33
c-6.66699 -5.33301 -15.334 -11.166 -26.001 -17.499s-23.167 -12.333 -37.5 -18s-30.333 -10.5 -48 -14.5s-36.5 -6 -56.5 -6c-37.333 0 -72.166 6.5 -104.499 19.5s-60.166 31 -83.499 54s-41.666 50.667 -54.999 83s-20 67.833 -20 106.5zM203.997 584.997
c-9.33301 0 -15.166 2.83301 -17.499 8.5s-0.833008 12.834 4.5 21.501l52 73c8 10.667 18 16 30 16h37c7.33301 0 13.166 -1.33301 17.499 -4s8.83301 -6.66699 13.5 -12l51 -73c6 -8.66699 8 -15.834 6 -21.501s-7.66699 -8.5 -17 -8.5h-17
c-11.333 0 -20.333 5.66699 -27 17l-44 64h-2l-44 -64c-3.33301 -6 -7 -10.333 -11 -13s-9.66699 -4 -17 -4h-15z" />
    <glyph glyph-name="edieresis" unicode="&#xeb;" horiz-adv-x="544" 
d="M433 301c-1.33301 26.667 -5.83301 49.833 -13.5 69.5s-18 36 -31 49s-28 22.833 -45 29.5s-34.833 10 -53.5 10c-21.333 0 -41.5 -3.5 -60.5 -10.5s-36.167 -17.167 -51.5 -30.5s-28.333 -29.833 -39 -49.5s-18 -42.167 -22 -67.5h316zM44 250.999
c0 41.333 6.49707 78.3311 19.4971 110.998s30.833 60.334 53.5 83.001s49 40 79 52s62 18 96 18c33.333 0 63 -5.83301 89 -17.5s48 -28 66 -49s31.667 -46.167 41 -75.5s14 -62 14 -98c0 -7.33301 -2.5 -13.333 -7.5 -18s-11.167 -7 -18.5 -7h-362
c0.666992 -32 6.33398 -60.5 17.001 -85.5s24.834 -46 42.501 -63s38.167 -30 61.5 -39s48 -13.5 74 -13.5c32 0 59.167 5.33301 81.5 16s39.166 20.667 50.499 30c14 8.66699 25 6.66699 33 -6l8 -12c7.33301 -12.667 5 -23.667 -7 -33
c-6.66699 -5.33301 -15.334 -11.166 -26.001 -17.499s-23.167 -12.333 -37.5 -18s-30.333 -10.5 -48 -14.5s-36.5 -6 -56.5 -6c-37.333 0 -72.166 6.5 -104.499 19.5s-60.166 31 -83.499 54s-41.666 50.667 -54.999 83s-20 67.833 -20 106.5zM209.997 617.997
c-16 0 -24 8 -24 24v37c0 16.667 8 25 24 25h13c16 0 24 -8.33301 24 -25v-37c0 -16 -8 -24 -24 -24h-13zM360.997 617.997c-16 0 -24 8 -24 24v37c0 16.667 8 25 24 25h13c16.667 0 25 -8.33301 25 -25v-37c0 -16 -8.33301 -24 -25 -24h-13z" />
    <glyph glyph-name="igrave" unicode="&#xec;" horiz-adv-x="223" 
d="M98.4805 585c-12 0 -22.001 5.33203 -30.001 15.999l-53 73c-6 8.66699 -7.83301 15.834 -5.5 21.501s8.83301 8.5 19.5 8.5h23c12.667 0 22.334 -5.66699 29.001 -17l44 -74c4.66699 -7.33301 6 -13.833 4 -19.5s-7.66699 -8.5 -17 -8.5h-14zM74.4795 477.999
c0 16.667 8.33301 25 25 25h19c16 0 24 -8.33301 24 -25v-453c0 -16.667 -8 -25 -24 -25h-19c-16.667 0 -25 8.33301 -25 25v453z" />
    <glyph glyph-name="iacute" unicode="&#xed;" horiz-adv-x="223" 
d="M77 478c0 16.667 8.33301 25 25 25h19c16 0 24 -8.33301 24 -25v-453c0 -16.667 -8 -25 -24 -25h-19c-16.667 -0 -25 8.33301 -25 25v453zM112 585c-9.33301 0 -15.668 2.83398 -19.001 8.50098s-2.33301 12.167 3 19.5l44 74c6.66699 11.333 16.334 17 29.001 17h23
c10.667 0 17.167 -2.83301 19.5 -8.5s0.5 -12.834 -5.5 -21.501l-53 -73c-8 -10.667 -18 -16 -30 -16h-11z" />
    <glyph glyph-name="icircumflex" unicode="&#xee;" horiz-adv-x="223" 
d="M74.5654 478c0 16.667 8.33301 25 25 25h19c16 0 24 -8.33301 24 -25v-453c0 -16.667 -8 -25 -24 -25h-19c-16.667 -0 -25 8.33301 -25 25v453zM22.5654 585c-9.33301 0 -15.166 2.83301 -17.499 8.5s-0.833008 12.834 4.5 21.501l52 73c8 10.667 18 16 30 16h37
c7.33301 0 13.166 -1.33301 17.499 -4s8.83301 -6.66699 13.5 -12l51 -73c6 -8.66699 8 -15.834 6 -21.501s-7.66699 -8.5 -17 -8.5h-17c-11.333 0 -20.333 5.66699 -27 17l-44 64h-2l-44 -64c-3.33301 -6 -7 -10.333 -11 -13s-9.66699 -4 -17 -4h-15z" />
    <glyph glyph-name="idieresis" unicode="&#xef;" horiz-adv-x="223" 
d="M77 478c0 16.667 8.33301 25 25 25h19c16 0 24 -8.33301 24 -25v-453c0 -16.667 -8 -25 -24 -25h-19c-16.667 -0 -25 8.33301 -25 25v453zM31 618c-16 0 -24 8 -24 24v37c0 16.667 8 25 24 25h13c16 0 24 -8.33301 24 -25v-37c0 -16 -8 -24 -24 -24h-13zM182 618
c-16 0 -24 8 -24 24v37c0 16.667 8 25 24 25h13c16.667 0 25 -8.33301 25 -25v-37c0 -16 -8.33301 -24 -25 -24h-13z" />
    <glyph glyph-name="eth" unicode="&#xf0;" horiz-adv-x="578" 
d="M115 231c0 -23.333 3.5 -45.8301 10.5 -67.4971s17.5 -41 31.5 -58s31.167 -30.667 51.5 -41s43.5 -15.5 69.5 -15.5c30.667 0 57 6.5 79 19.5s40.167 29.667 54.5 50s24.833 43 31.5 68s10 49.5 10 73.5c0 21.333 -3.83301 41.166 -11.5 59.499
s-18.667 34.166 -33 47.499s-31.5 23.666 -51.5 30.999s-42.333 11 -67 11c-30 0 -56 -5.16699 -78 -15.5s-40.167 -23.833 -54.5 -40.5s-25 -35.667 -32 -57s-10.5 -43 -10.5 -65zM45 232.003c0 30 4.99609 59.0029 14.9961 87.0029s25 53 45 75s45 39.667 75 53
s64.667 20 104 20c24.667 0 46 -2.83301 64 -8.5s33 -12.167 45 -19.5c14 -8 26 -17.333 36 -28h2c-12 34.667 -28.667 65.334 -50 92.001s-46.333 49.667 -75 69l-152 -69c-13.333 -6.66699 -23 -3.66699 -29 9l-4 8c-3.33301 7.33301 -3.66602 13.166 -0.999023 17.499
s7.33398 8.16602 14.001 11.499l117 54c-17.333 9.33301 -35.833 17.666 -55.5 24.999s-40.167 14 -61.5 20c-15.333 5.33301 -20.666 15.666 -15.999 30.999l3 10c5.33301 15.333 15.666 21 30.999 17c28.667 -8 57.834 -17.667 87.501 -29s58.5 -25.333 86.5 -42l106 48
c14.667 6.66699 24.334 3.66699 29.001 -9l4 -9c5.33301 -12.667 1 -21.667 -13 -27l-79 -37c21.333 -17.333 41.166 -37 59.499 -59s34.166 -46.5 47.499 -73.5s23.833 -56.833 31.5 -89.5s11.5 -68 11.5 -106c0 -33.333 -4.66699 -67 -14 -101s-24 -64.667 -44 -92
s-45.667 -49.5 -77 -66.5s-68.666 -25.5 -111.999 -25.5c-37.333 0 -70.333 7 -99 21s-52.667 32.333 -72 55s-34.166 48.667 -44.499 78s-15.5 59.333 -15.5 90z" />
    <glyph glyph-name="ntilde" unicode="&#xf1;" horiz-adv-x="584" 
d="M173 588c-14.667 0 -22.001 8.66602 -22.001 25.999c0 26.667 8.16699 48.5 24.5 65.5s37.5 25.5 63.5 25.5c17.333 0 31.666 -3.83301 42.999 -11.5s21.5 -16 30.5 -25s17.667 -17.167 26 -24.5s18.166 -11 29.499 -11c13.333 0 23 5.16699 29 15.5
s9.33301 21.833 10 34.5c0 12.667 7.66699 19 23 19h8c14 0 21 -7.66699 21 -23c0 -29.333 -7.83301 -52.333 -23.5 -69s-37.167 -25 -64.5 -25c-17.333 0 -31.666 3.66699 -42.999 11s-21.5 15.5 -30.5 24.5s-17.667 17.167 -26 24.5s-18.166 11 -29.499 11
c-13.333 0 -23.166 -5.16699 -29.499 -15.5s-9.5 -22.166 -9.5 -35.499c-1.33301 -11.333 -9 -17 -23 -17h-7zM76.999 477.999c0 16.667 8.33594 24.998 25.0029 24.998h18c16 0 24 -8.33301 24 -25v-58c0 -5.33301 -0.166992 -10.166 -0.5 -14.499
s-0.833008 -8.16602 -1.5 -11.499c-0.666992 -4 -1.33398 -7.33301 -2.00098 -10h2c4.66699 11.333 12.334 24.5 23.001 39.5s24.5 29.333 41.5 43s37 25.167 60 34.5s49.167 14 78.5 14c31.333 0 57.666 -4.33301 78.999 -13s38.666 -21.334 51.999 -38.001
s23 -37.167 29 -61.5s9 -51.833 9 -82.5v-295c0 -16.667 -8.33301 -25 -25 -25h-19c-16 0 -24 8.33301 -24 25v277c0 20 -1.16699 39 -3.5 57s-7.33301 33.833 -15 47.5s-18.834 24.5 -33.501 32.5s-34 12 -58 12c-26.667 0 -51.667 -5.16699 -75 -15.5
s-43.5 -24.666 -60.5 -42.999s-30.5 -40 -40.5 -65s-15 -52.167 -15 -81.5v-221c0 -16.667 -8 -25 -24 -25h-19c-16.667 0 -25 8.33301 -25 25v453z" />
    <glyph glyph-name="ograve" unicode="&#xf2;" horiz-adv-x="615" 
d="M296 585c-12 0 -22.001 5.33203 -30.001 15.999l-53 73c-6 8.66699 -7.83301 15.834 -5.5 21.501s8.83301 8.5 19.5 8.5h23c12.667 0 22.334 -5.66699 29.001 -17l44 -74c4.66699 -7.33301 6 -13.833 4 -19.5s-7.66699 -8.5 -17 -8.5h-14zM111.999 253.999
c0 -29.333 5.16699 -56.5 15.5 -81.5s24.333 -46.667 42 -65s38.334 -32.666 62.001 -42.999s49.167 -15.5 76.5 -15.5c26.667 0 51.834 5.16699 75.501 15.5s44.334 24.666 62.001 42.999s31.667 40 42 65s15.5 52.167 15.5 81.5c0 28.667 -5.16699 55.167 -15.5 79.5
s-24.333 45.5 -42 63.5s-38.334 32 -62.001 42s-48.834 15 -75.501 15c-27.333 0 -52.833 -5 -76.5 -15s-44.334 -24 -62.001 -42s-31.667 -39.167 -42 -63.5s-15.5 -50.833 -15.5 -79.5zM41.999 253.999c0 37.333 7 71.833 21 103.5s33 59.167 57 82.5s52 41.666 84 54.999
s66.333 20 103 20s71.167 -6.66699 103.5 -20s60.5 -31.666 84.5 -54.999s43 -50.833 57 -82.5s21 -66.167 21 -103.5c0 -38 -7 -73.167 -21 -105.5s-33 -60.5 -57 -84.5s-52 -42.667 -84 -56s-66.333 -20 -103 -20s-71.167 6.66699 -103.5 20s-60.5 32 -84.5 56
s-43 52.167 -57 84.5s-21 67.5 -21 105.5z" />
    <glyph glyph-name="oacute" unicode="&#xf3;" horiz-adv-x="615" 
d="M112 254c0 -29.333 5.16699 -56.5 15.5 -81.5s24.333 -46.667 42 -65s38.334 -32.666 62.001 -42.999s49.167 -15.5 76.5 -15.5c26.667 0 51.834 5.16699 75.501 15.5s44.334 24.666 62.001 42.999s31.667 40 42 65s15.5 52.167 15.5 81.5
c0 28.667 -5.16699 55.167 -15.5 79.5s-24.333 45.5 -42 63.5s-38.334 32 -62.001 42s-48.834 15 -75.501 15c-27.333 0 -52.833 -5 -76.5 -15s-44.334 -24 -62.001 -42s-31.667 -39.167 -42 -63.5s-15.5 -50.833 -15.5 -79.5zM42 254c0 37.333 7 71.833 21 103.5
s33 59.167 57 82.5s52 41.666 84 54.999s66.333 20 103 20s71.167 -6.66699 103.5 -20s60.5 -31.666 84.5 -54.999s43 -50.833 57 -82.5s21 -66.167 21 -103.5c0 -38 -7 -73.167 -21 -105.5s-33 -60.5 -57 -84.5s-52 -42.667 -84 -56s-66.333 -20 -103 -20
s-71.167 6.66699 -103.5 20s-60.5 32 -84.5 56s-43 52.167 -57 84.5s-21 67.5 -21 105.5zM307 585c-9.33301 0 -15.668 2.83398 -19.001 8.50098s-2.33301 12.167 3 19.5l44 74c6.66699 11.333 16.334 17 29.001 17h23c10.667 0 17.167 -2.83301 19.5 -8.5
s0.5 -12.834 -5.5 -21.501l-53 -73c-8 -10.667 -18 -16 -30 -16h-11z" />
    <glyph glyph-name="ocircumflex" unicode="&#xf4;" horiz-adv-x="615" 
d="M112 254c0 -29.333 5.16699 -56.5 15.5 -81.5s24.333 -46.667 42 -65s38.334 -32.666 62.001 -42.999s49.167 -15.5 76.5 -15.5c26.667 0 51.834 5.16699 75.501 15.5s44.334 24.666 62.001 42.999s31.667 40 42 65s15.5 52.167 15.5 81.5
c0 28.667 -5.16699 55.167 -15.5 79.5s-24.333 45.5 -42 63.5s-38.334 32 -62.001 42s-48.834 15 -75.501 15c-27.333 0 -52.833 -5 -76.5 -15s-44.334 -24 -62.001 -42s-31.667 -39.167 -42 -63.5s-15.5 -50.833 -15.5 -79.5zM42 254c0 37.333 7 71.833 21 103.5
s33 59.167 57 82.5s52 41.666 84 54.999s66.333 20 103 20s71.167 -6.66699 103.5 -20s60.5 -31.666 84.5 -54.999s43 -50.833 57 -82.5s21 -66.167 21 -103.5c0 -38 -7 -73.167 -21 -105.5s-33 -60.5 -57 -84.5s-52 -42.667 -84 -56s-66.333 -20 -103 -20
s-71.167 6.66699 -103.5 20s-60.5 32 -84.5 56s-43 52.167 -57 84.5s-21 67.5 -21 105.5zM219 585c-9.33301 0 -15.166 2.83301 -17.499 8.5s-0.833008 12.834 4.5 21.501l52 73c8 10.667 18 16 30 16h37c7.33301 0 13.166 -1.33301 17.499 -4s8.83301 -6.66699 13.5 -12
l51 -73c6 -8.66699 8 -15.834 6 -21.501s-7.66699 -8.5 -17 -8.5h-17c-11.333 0 -20.333 5.66699 -27 17l-44 64h-2l-44 -64c-3.33301 -6 -7 -10.333 -11 -13s-9.66699 -4 -17 -4h-15z" />
    <glyph glyph-name="otilde" unicode="&#xf5;" horiz-adv-x="615" 
d="M175 588c-14.667 0 -22.001 8.66602 -22.001 25.999c0 26.667 8.16699 48.5 24.5 65.5s37.5 25.5 63.5 25.5c17.333 0 31.666 -3.83301 42.999 -11.5s21.5 -16 30.5 -25s17.667 -17.167 26 -24.5s18.166 -11 29.499 -11c13.333 0 23 5.16699 29 15.5
s9.33301 21.833 10 34.5c0 12.667 7.66699 19 23 19h8c14 0 21 -7.66699 21 -23c0 -29.333 -7.83301 -52.333 -23.5 -69s-37.167 -25 -64.5 -25c-17.333 0 -31.666 3.66699 -42.999 11s-21.5 15.5 -30.5 24.5s-17.667 17.167 -26 24.5s-18.166 11 -29.499 11
c-13.333 0 -23.166 -5.16699 -29.499 -15.5s-9.5 -22.166 -9.5 -35.499c-1.33301 -11.333 -9 -17 -23 -17h-7zM111.999 253.999c0 -29.333 5.16699 -56.5 15.5 -81.5s24.333 -46.667 42 -65s38.334 -32.666 62.001 -42.999s49.167 -15.5 76.5 -15.5
c26.667 0 51.834 5.16699 75.501 15.5s44.334 24.666 62.001 42.999s31.667 40 42 65s15.5 52.167 15.5 81.5c0 28.667 -5.16699 55.167 -15.5 79.5s-24.333 45.5 -42 63.5s-38.334 32 -62.001 42s-48.834 15 -75.501 15c-27.333 0 -52.833 -5 -76.5 -15
s-44.334 -24 -62.001 -42s-31.667 -39.167 -42 -63.5s-15.5 -50.833 -15.5 -79.5zM41.999 253.999c0 37.333 7 71.833 21 103.5s33 59.167 57 82.5s52 41.666 84 54.999s66.333 20 103 20s71.167 -6.66699 103.5 -20s60.5 -31.666 84.5 -54.999s43 -50.833 57 -82.5
s21 -66.167 21 -103.5c0 -38 -7 -73.167 -21 -105.5s-33 -60.5 -57 -84.5s-52 -42.667 -84 -56s-66.333 -20 -103 -20s-71.167 6.66699 -103.5 20s-60.5 32 -84.5 56s-43 52.167 -57 84.5s-21 67.5 -21 105.5z" />
    <glyph glyph-name="odieresis" unicode="&#xf6;" horiz-adv-x="615" 
d="M112 254c0 -29.333 5.16699 -56.5 15.5 -81.5s24.333 -46.667 42 -65s38.334 -32.666 62.001 -42.999s49.167 -15.5 76.5 -15.5c26.667 0 51.834 5.16699 75.501 15.5s44.334 24.666 62.001 42.999s31.667 40 42 65s15.5 52.167 15.5 81.5
c0 28.667 -5.16699 55.167 -15.5 79.5s-24.333 45.5 -42 63.5s-38.334 32 -62.001 42s-48.834 15 -75.501 15c-27.333 0 -52.833 -5 -76.5 -15s-44.334 -24 -62.001 -42s-31.667 -39.167 -42 -63.5s-15.5 -50.833 -15.5 -79.5zM42 254c0 37.333 7 71.833 21 103.5
s33 59.167 57 82.5s52 41.666 84 54.999s66.333 20 103 20s71.167 -6.66699 103.5 -20s60.5 -31.666 84.5 -54.999s43 -50.833 57 -82.5s21 -66.167 21 -103.5c0 -38 -7 -73.167 -21 -105.5s-33 -60.5 -57 -84.5s-52 -42.667 -84 -56s-66.333 -20 -103 -20
s-71.167 6.66699 -103.5 20s-60.5 32 -84.5 56s-43 52.167 -57 84.5s-21 67.5 -21 105.5zM225 618c-16 0 -24 8 -24 24v37c0 16.667 8 25 24 25h13c16 0 24 -8.33301 24 -25v-37c0 -16 -8 -24 -24 -24h-13zM376 618c-16 0 -24 8 -24 24v37c0 16.667 8 25 24 25h13
c16.667 0 25 -8.33301 25 -25v-37c0 -16 -8.33301 -24 -25 -24h-13z" />
    <glyph glyph-name="divide" unicode="&#xf7;" horiz-adv-x="606" 
d="M265 110c0 16.667 8.33301 25 25 25h25c16.667 0 25 -8.33301 25 -25v-25c0 -16 -8.33301 -24 -25 -24h-25c-16.667 0 -25 8 -25 24v25zM83 255c-16.667 0 -25 8 -25 24v9c0 16.667 8.33301 25 25 25h440c16.667 0 25 -8.33301 25 -25v-9c0 -16 -8.33301 -24 -25 -24
h-440zM290 433c-16.667 0 -25 8 -25 24v25c0 16.667 8.33301 25 25 25h25c16.667 0 25 -8.33301 25 -25v-25c0 -16 -8.33301 -24 -25 -24h-25z" />
    <glyph glyph-name="oslash" unicode="&#xf8;" horiz-adv-x="616" 
d="M217 73c13.333 -7.33301 27.666 -13.166 42.999 -17.499s31.666 -6.5 48.999 -6.5c26.667 0 51.834 5.16699 75.501 15.5s44.334 24.666 62.001 42.999s31.667 40 42 65s15.5 52.167 15.5 81.5c0 28 -5.16699 54 -15.5 78s-24.5 44.667 -42.5 62zM408 426
c-14.667 8.66699 -30.3311 15.501 -46.998 20.501s-34 7.5 -52 7.5c-27.333 0 -52.833 -5 -76.5 -15s-44.334 -24 -62.001 -42s-31.667 -39.167 -42 -63.5s-15.5 -50.833 -15.5 -79.5c0 -31.333 5.66699 -59.833 17 -85.5s26.666 -47.834 45.999 -66.501zM138.003 49.001
c-30 23.333 -53.332 52.6641 -69.999 87.9971s-25 74.333 -25 117c0 37.333 7 71.833 21 103.5s33 59.167 57 82.5s52 41.666 84 54.999s66.333 20 103 20c25.333 0 49.5 -3.16699 72.5 -9.5s44.5 -15.166 64.5 -26.499l24 34c9.33301 13.333 21.333 15 36 5
c13.333 -9.33301 15.666 -19.666 6.99902 -30.999l-26 -38c27.333 -23.333 48.833 -51.666 64.5 -84.999s23.5 -70 23.5 -110c0 -38 -7 -73.167 -21 -105.5s-33 -60.5 -57 -84.5s-52 -42.667 -84 -56s-66.333 -20 -103 -20c-48 0 -91 11 -129 33l-24 -34
c-9.33301 -13.333 -21 -15 -35 -5c-13.333 10.667 -16 21.334 -8 32.001z" />
    <glyph glyph-name="ugrave" unicode="&#xf9;" horiz-adv-x="580" 
d="M276 585c-12 0 -22.001 5.33203 -30.001 15.999l-53 73c-6 8.66699 -7.83301 15.834 -5.5 21.501s8.83301 8.5 19.5 8.5h23c12.667 0 22.334 -5.66699 29.001 -17l44 -74c4.66699 -7.33301 6 -13.833 4 -19.5s-7.66699 -8.5 -17 -8.5h-14zM70.999 477.999
c0 16.667 7.99902 25.001 23.999 25.001h19c16.667 0 25 -8.33301 25 -25v-277c0 -20 1.16699 -39 3.5 -57s7.16602 -33.833 14.499 -47.5s18.333 -24.5 33 -32.5s34 -12 58 -12c28.667 0 54.5 5.83301 77.5 17.5s42.5 27.167 58.5 46.5s28.333 41.666 37 66.999
s13 51.666 13 78.999v216c0 16.667 8.33301 25 25 25h19c16 0 24 -8.33301 24 -25v-453c0 -16.667 -8 -25 -24 -25h-18c-16 0 -24 8.33301 -24 25v58v14c0 4 0.333008 7.66699 1 11s1.33398 7 2.00098 11h-2c-4.66699 -12 -12.5 -25.667 -23.5 -41
s-24.667 -29.666 -41 -42.999s-35.666 -24.5 -57.999 -33.5s-47.5 -13.5 -75.5 -13.5c-60 0 -103 16 -129 48s-39 81 -39 147v295z" />
    <glyph glyph-name="uacute" unicode="&#xfa;" horiz-adv-x="580" 
d="M71 478c0 16.667 7.99902 25.001 23.999 25.001h19c16.667 0 25 -8.33301 25 -25v-277c0 -20 1.16699 -39 3.5 -57s7.16602 -33.833 14.499 -47.5s18.333 -24.5 33 -32.5s34 -12 58 -12c28.667 0 54.5 5.83301 77.5 17.5s42.5 27.167 58.5 46.5s28.333 41.666 37 66.999
s13 51.666 13 78.999v216c0 16.667 8.33301 25 25 25h19c16 0 24 -8.33301 24 -25v-453c0 -16.667 -8 -25 -24 -25h-18c-16 0 -24 8.33301 -24 25v58v14c0 4 0.333008 7.66699 1 11s1.33398 7 2.00098 11h-2c-4.66699 -12 -12.5 -25.667 -23.5 -41
s-24.667 -29.666 -41 -42.999s-35.666 -24.5 -57.999 -33.5s-47.5 -13.5 -75.5 -13.5c-60 0 -103 16 -129 48s-39 81 -39 147v295zM284.999 585.001c-9.33301 0 -15.668 2.83398 -19.001 8.50098s-2.33301 12.167 3 19.5l44 74c6.66699 11.333 16.334 17 29.001 17h23
c10.667 0 17.167 -2.83301 19.5 -8.5s0.5 -12.834 -5.5 -21.501l-53 -73c-8 -10.667 -18 -16 -30 -16h-11z" />
    <glyph glyph-name="ucircumflex" unicode="&#xfb;" horiz-adv-x="580" 
d="M71 478c0 16.667 7.99902 25.001 23.999 25.001h19c16.667 0 25 -8.33301 25 -25v-277c0 -20 1.16699 -39 3.5 -57s7.16602 -33.833 14.499 -47.5s18.333 -24.5 33 -32.5s34 -12 58 -12c28.667 0 54.5 5.83301 77.5 17.5s42.5 27.167 58.5 46.5s28.333 41.666 37 66.999
s13 51.666 13 78.999v216c0 16.667 8.33301 25 25 25h19c16 0 24 -8.33301 24 -25v-453c0 -16.667 -8 -25 -24 -25h-18c-16 0 -24 8.33301 -24 25v58v14c0 4 0.333008 7.66699 1 11s1.33398 7 2.00098 11h-2c-4.66699 -12 -12.5 -25.667 -23.5 -41
s-24.667 -29.666 -41 -42.999s-35.666 -24.5 -57.999 -33.5s-47.5 -13.5 -75.5 -13.5c-60 0 -103 16 -129 48s-39 81 -39 147v295zM197.999 585.001c-9.33301 0 -15.166 2.83301 -17.499 8.5s-0.833008 12.834 4.5 21.501l52 73c8 10.667 18 16 30 16h37
c7.33301 0 13.166 -1.33301 17.499 -4s8.83301 -6.66699 13.5 -12l51 -73c6 -8.66699 8 -15.834 6 -21.501s-7.66699 -8.5 -17 -8.5h-17c-11.333 0 -20.333 5.66699 -27 17l-44 64h-2l-44 -64c-3.33301 -6 -7 -10.333 -11 -13s-9.66699 -4 -17 -4h-15z" />
    <glyph glyph-name="udieresis" unicode="&#xfc;" horiz-adv-x="580" 
d="M71 478c0 16.667 7.99902 25.001 23.999 25.001h19c16.667 0 25 -8.33301 25 -25v-277c0 -20 1.16699 -39 3.5 -57s7.16602 -33.833 14.499 -47.5s18.333 -24.5 33 -32.5s34 -12 58 -12c28.667 0 54.5 5.83301 77.5 17.5s42.5 27.167 58.5 46.5s28.333 41.666 37 66.999
s13 51.666 13 78.999v216c0 16.667 8.33301 25 25 25h19c16 0 24 -8.33301 24 -25v-453c0 -16.667 -8 -25 -24 -25h-18c-16 0 -24 8.33301 -24 25v58v14c0 4 0.333008 7.66699 1 11s1.33398 7 2.00098 11h-2c-4.66699 -12 -12.5 -25.667 -23.5 -41
s-24.667 -29.666 -41 -42.999s-35.666 -24.5 -57.999 -33.5s-47.5 -13.5 -75.5 -13.5c-60 0 -103 16 -129 48s-39 81 -39 147v295zM203.999 618.001c-16 0 -24 8 -24 24v37c0 16.667 8 25 24 25h13c16 0 24 -8.33301 24 -25v-37c0 -16 -8 -24 -24 -24h-13zM354.999 618.001
c-16 0 -24 8 -24 24v37c0 16.667 8 25 24 25h13c16.667 0 25 -8.33301 25 -25v-37c0 -16 -8.33301 -24 -25 -24h-13z" />
    <glyph glyph-name="yacute" unicode="&#xfd;" horiz-adv-x="491" 
d="M244.125 584c-9.33301 0 -15.668 2.83398 -19.001 8.50098s-2.33301 12.167 3 19.5l44 74c6.66699 11.333 16.334 17 29.001 17h23c10.667 0 17.167 -2.83301 19.5 -8.5s0.5 -12.834 -5.5 -21.501l-53 -73c-8 -10.667 -18 -16 -30 -16h-11zM15.123 -148.999
c6.66699 12.667 16.6719 16.668 30.0049 12.001c5.33301 -2.66699 11.666 -5.5 18.999 -8.5s15.666 -4.5 24.999 -4.5c22.667 0 41.667 8.33301 57 25s27.666 36 36.999 58l30 71l-198 470c-3.33301 8.66699 -3.33301 15.667 0 21s9.66602 8 18.999 8h23
c14 0 23.333 -6.33301 28 -19l141 -348c2 -6.66699 4.16699 -13 6.5 -19s4.16602 -11.667 5.49902 -17c2 -6 4 -11.667 6 -17h2c1.33301 5.33301 3 11 5 17c1.33301 5.33301 3 11 5 17s4.33301 12.333 7 19l138 347c4.66699 13.333 14 20 28 20h22
c9.33301 0 15.833 -2.5 19.5 -7.5s3.83398 -12.167 0.500977 -21.5l-237 -576c-13.333 -32.667 -32.333 -58.834 -57 -78.501s-54 -29.5 -88 -29.5c-14.667 0 -27.834 2 -39.501 6s-21.5 8 -29.5 12c-6.66699 3.33301 -11 8 -13 14s-1.33301 12 2 18z" />
    <glyph glyph-name="thorn" unicode="&#xfe;" horiz-adv-x="582" 
d="M145 251c0 -27.333 3.66406 -53.166 10.9971 -77.499s17.833 -45.666 31.5 -63.999s30.334 -33 50.001 -44s42.167 -16.5 67.5 -16.5c22.667 0 43.834 4.66699 63.501 14s36.834 22.666 51.501 39.999s26.167 38.666 34.5 63.999s12.5 53.666 12.5 84.999
c0 30 -3.83301 57.5 -11.5 82.5s-18.5 46.333 -32.5 64s-30.833 31.334 -50.5 41.001s-41.167 14.5 -64.5 14.5c-21.333 0 -41.833 -3.83301 -61.5 -11.5s-37 -19.667 -52 -36s-27 -37.333 -36 -63s-13.5 -56.5 -13.5 -92.5zM78.9971 678
c0 16.667 8.00098 25.001 24.001 25.001h19c16.667 0 25 -8.33301 25 -25v-219c0 -6 -0.166992 -11.5 -0.5 -16.5s-0.5 -9.16699 -0.5 -12.5c-0.666992 -4 -1 -7.66699 -1 -11h2c2 1.33301 6.16699 7.16602 12.5 17.499s16 21.333 29 33s29.833 22.167 50.5 31.5
s46.667 14 78 14c34 0 64.5 -6.5 91.5 -19.5s50 -31.167 69 -54.5s33.667 -51 44 -83s15.5 -67.333 15.5 -106c0 -39.333 -5.5 -75.333 -16.5 -108s-26.5 -60.5 -46.5 -83.5s-43.833 -40.833 -71.5 -53.5s-57.834 -19 -90.501 -19c-31.333 0 -57.333 5 -78 15
s-37.667 21 -51 33c-15.333 14 -27.333 30 -36 48h-2c0 -3.33301 0.333008 -7.33301 1 -12c0 -4 0.166992 -8.66699 0.5 -14s0.5 -11.333 0.5 -18v-215c0 -16.667 -8.33301 -25 -25 -25h-19c-16 0 -24 8.33301 -24 25v853z" />
    <glyph glyph-name="ydieresis" unicode="&#xff;" horiz-adv-x="491" 
d="M164.125 617c-16 0 -24 8 -24 24v37c0 16.667 8 25 24 25h13c16 0 24 -8.33301 24 -25v-37c0 -16 -8 -24 -24 -24h-13zM315.125 617c-16 0 -24 8 -24 24v37c0 16.667 8 25 24 25h13c16.667 0 25 -8.33301 25 -25v-37c0 -16 -8.33301 -24 -25 -24h-13zM15.125 -149
c6.66699 12.667 16.6719 16.668 30.0049 12.001c5.33301 -2.66699 11.666 -5.5 18.999 -8.5s15.666 -4.5 24.999 -4.5c22.667 0 41.667 8.33301 57 25s27.666 36 36.999 58l30 71l-198 470c-3.33301 8.66699 -3.33301 15.667 0 21s9.66602 8 18.999 8h23
c14 0 23.333 -6.33301 28 -19l141 -348c2 -6.66699 4.16699 -13 6.5 -19s4.16602 -11.667 5.49902 -17c2 -6 4 -11.667 6 -17h2c1.33301 5.33301 3 11 5 17c1.33301 5.33301 3 11 5 17s4.33301 12.333 7 19l138 347c4.66699 13.333 14 20 28 20h22
c9.33301 0 15.833 -2.5 19.5 -7.5s3.83398 -12.167 0.500977 -21.5l-237 -576c-13.333 -32.667 -32.333 -58.834 -57 -78.501s-54 -29.5 -88 -29.5c-14.667 0 -27.834 2 -39.501 6s-21.5 8 -29.5 12c-6.66699 3.33301 -11 8 -13 14s-1.33301 12 2 18z" />
    <glyph glyph-name="OE" unicode="&#x152;" horiz-adv-x="934" 
d="M122 352c0 -42 7 -81.332 21 -117.999s33.5 -68.334 58.5 -95.001s55.167 -47.667 90.5 -63s74.333 -23 117 -23c9.33301 0 18.166 0.333008 26.499 1s15.833 1.66699 22.5 3l21 4v581l-21 4c-6.66699 1.33301 -14.167 2.33301 -22.5 3s-17.166 1 -26.499 1
c-42.667 0 -81.667 -7.66699 -117 -23s-65.5 -36.333 -90.5 -63s-44.5 -58.167 -58.5 -94.5s-21 -75.5 -21 -117.5zM50 352.001c0 50.667 9 97.8311 27 141.498s42.833 81.834 74.5 114.501s69.5 58.334 113.5 77.001s92 28 144 28c20.667 0 41.667 -1.66699 63 -5
s40 -5 56 -5h323c16 0 24 -8.33301 24 -25v-12c0 -16.667 -8 -25 -24 -25h-303v-256h243c16 0 24 -8 24 -24v-13c0 -16.667 -8 -25 -24 -25h-243v-261h321c16 0 24 -8.33301 24 -25v-12c0 -16.667 -8 -25 -24 -25h-340c-15.333 0 -34 -1.66699 -56 -5s-43.333 -5 -64 -5
c-52 0 -100 9.33301 -144 28s-81.833 44.167 -113.5 76.5s-56.5 70.5 -74.5 114.5s-27 91.667 -27 143z" />
    <glyph glyph-name="oe" unicode="&#x153;" horiz-adv-x="1003" 
d="M113 250c0 -30 5.16602 -57.5 15.499 -82.5s24.333 -46.167 42 -63.5s38.167 -30.833 61.5 -40.5s48.333 -14.5 75 -14.5s51.834 4.83301 75.501 14.5s44.5 23.334 62.5 41.001s32.167 39.167 42.5 64.5s15.5 53.666 15.5 84.999c0 30.667 -5.33301 58.334 -16 83.001
s-25 45.667 -43 63s-38.833 30.666 -62.5 39.999s-48.5 14 -74.5 14c-26.667 0 -51.667 -4.83301 -75 -14.5s-43.833 -23.5 -61.5 -41.5s-31.667 -39.5 -42 -64.5s-15.5 -52.833 -15.5 -83.5zM891.999 301c-1.33301 26 -5.83203 48.833 -13.499 68.5s-18 36 -31 49
s-27.833 22.833 -44.5 29.5s-34.334 10 -53.001 10c-21.333 0 -41.5 -3.33301 -60.5 -10s-36.167 -16.667 -51.5 -30s-28.333 -29.833 -39 -49.5s-18 -42.167 -22 -67.5h315zM43 250c0 40 7.00195 76.334 21.002 109.001s33 60.5 57 83.5s51.833 40.833 83.5 53.5
s65.5 19 101.5 19c50.667 0 95.834 -12 135.501 -36s70.167 -57 91.5 -99h2c20 43.333 48.833 76.666 86.5 99.999s80.834 35 129.501 35c33.333 0 63.166 -5.83301 89.499 -17.5s48.5 -28 66.5 -49s31.667 -46.167 41 -75.5s14 -62 14 -98
c0 -7.33301 -2.5 -13.333 -7.5 -18s-11.167 -7 -18.5 -7h-362c1.33301 -33.333 7.5 -62.5 18.5 -87.5s25.333 -45.833 43 -62.5s38 -29.334 61 -38.001s47.167 -13 72.5 -13c31.333 0 58.166 5.33301 80.499 16s39.166 20.667 50.499 30c14.667 9.33301 26 7.33301 34 -6
l6 -11c8 -14 6 -25.333 -6 -34c-6.66699 -5.33301 -15.334 -11.166 -26.001 -17.499s-23.167 -12.333 -37.5 -18s-30.333 -10.5 -48 -14.5s-36.5 -6 -56.5 -6c-52.667 0 -99 12.333 -139 37s-70 58 -90 100h-2c-21.333 -42.667 -51.833 -76.167 -91.5 -100.5
s-85.5 -36.5 -137.5 -36.5c-36 0 -69.833 6.16699 -101.5 18.5s-59.5 30 -83.5 53s-43 50.5 -57 82.5s-21 68 -21 108z" />
    <glyph glyph-name="Scaron" unicode="&#x160;" horiz-adv-x="526" 
d="M51.8271 62c-10.667 10.667 -11.667 22.332 -3 34.999l12 15c10 12 21.667 13 35 3c6 -5.33301 14.167 -11.333 24.5 -18s22.333 -13.334 36 -20.001s29 -12.167 46 -16.5s35.5 -6.5 55.5 -6.5c42 0 76.333 10.833 103 32.5s40 50.834 40 87.501
c0 29.333 -8.66699 53.5 -26 72.5s-39 35.5 -65 49.5s-54 27 -84 39s-58 26.167 -84 42.5s-47.667 36.166 -65 59.499s-26 53.333 -26 90c0 28.667 5.66699 54.667 17 78s27 43.166 47 59.499s43.333 28.833 70 37.5s55.334 13 86.001 13c20.667 0 40 -2 58 -6
s34.333 -8.66699 49 -14s27.334 -11.333 38.001 -18s19.334 -12.334 26.001 -17.001c12 -9.33301 14 -20.333 6 -33l-9 -16c-4.66699 -7.33301 -10 -11.333 -16 -12s-12.333 1 -19 5c-12.667 8.66699 -30.334 18.334 -53.001 29.001s-50 16 -82 16
c-20 0 -38.833 -2.66699 -56.5 -8s-33.334 -13 -47.001 -23s-24.334 -22.333 -32.001 -37s-11.5 -31.334 -11.5 -50.001c0 -28 8.66699 -51 26 -69s39 -33.667 65 -47s54 -26 84 -38s58 -26.167 84 -42.5s47.667 -36.666 65 -60.999s26 -55.166 26 -92.499
c0 -27.333 -4.83301 -52.666 -14.5 -75.999s-23.667 -43.666 -42 -60.999s-40.833 -31 -67.5 -41s-56.667 -15 -90 -15c-26 0 -50 2.66699 -72 8s-41.667 12 -59 20s-32.333 16.167 -45 24.5s-22.667 15.5 -30 21.5zM238.827 751.998c-12 0 -21.999 5.33301 -29.999 16
l-52 73c-5.33301 8.66699 -6.83301 15.834 -4.5 21.501s8.16602 8.5 17.499 8.5h15c7.33301 0 13 -1.33301 17 -4s7.66699 -6.66699 11 -12l44 -64h2l44 64c6.66699 10.667 15.667 16 27 16h16c9.33301 0 15.166 -2.83301 17.499 -8.5s0.5 -12.834 -5.5 -21.501l-51 -73
c-4.66699 -5.33301 -9.16699 -9.33301 -13.5 -12s-10.166 -4 -17.499 -4h-37z" />
    <glyph glyph-name="scaron" unicode="&#x161;" horiz-adv-x="431" 
d="M42.125 46c-12 9.33301 -13.332 20.6631 -3.99902 33.9961l8 10c8.66699 11.333 20 12.666 34 3.99902c11.333 -8.66699 28.166 -18.5 50.499 -29.5s49.833 -16.5 82.5 -16.5c28 0 52 6.83301 72 20.5s30 33.834 30 60.501c0 18.667 -6.66699 33.834 -20 45.501
s-30 22 -50 31s-41.5 17.667 -64.5 26s-44.5 18.5 -64.5 30.5s-36.667 26.833 -50 44.5s-20 40.167 -20 67.5c0 23.333 4.66699 43.833 14 61.5s21.666 32.334 36.999 44.001s33.333 20.5 54 26.5s42.667 9 66 9c36 0 65.333 -5 88 -15s39.334 -18.667 50.001 -26
c13.333 -8 15.666 -19 6.99902 -33l-7 -11c-7.33301 -13.333 -18.666 -15.666 -33.999 -6.99902c-9.33301 6.66699 -23 13.667 -41 21s-40.333 11 -67 11s-49.834 -6.16699 -69.501 -18.5s-29.5 -32.166 -29.5 -59.499c0 -19.333 6.66699 -35 20 -47
s29.833 -22.5 49.5 -31.5s41.167 -17.5 64.5 -25.5s44.833 -18 64.5 -30s36.167 -26.833 49.5 -44.5s20 -40.5 20 -68.5c0 -20.667 -4.16699 -39.667 -12.5 -57s-20 -32.333 -35 -45s-33 -22.5 -54 -29.5s-43.833 -10.5 -68.5 -10.5c-22 0 -42 2 -60 6s-34.167 9 -48.5 15
s-26.666 12.333 -36.999 19s-18.5 12.667 -24.5 18zM193.126 584.997c-12 0 -21.999 5.33301 -29.999 16l-52 73c-5.33301 8.66699 -6.83301 15.834 -4.5 21.501s8.16602 8.5 17.499 8.5h15c7.33301 0 13 -1.33301 17 -4s7.66699 -6.66699 11 -12l44 -64h2l44 64
c6.66699 10.667 15.667 16 27 16h16c9.33301 0 15.166 -2.83301 17.499 -8.5s0.5 -12.834 -5.5 -21.501l-51 -73c-4.66699 -5.33301 -9.16699 -9.33301 -13.5 -12s-10.166 -4 -17.499 -4h-37z" />
    <glyph glyph-name="Ydieresis" unicode="&#x178;" horiz-adv-x="554" 
d="M186.923 785c-16 0 -24 8 -24 24v37c0 16.667 8 25 24 25h13c16 0 24 -8.33301 24 -25v-37c0 -16 -8 -24 -24 -24h-13zM337.923 785c-16 0 -24 8 -24 24v37c0 16.667 8 25 24 25h13c16.667 0 25 -8.33301 25 -25v-37c0 -16 -8.33301 -24 -25 -24h-13zM239.923 302
l-221.001 372c-5.33301 8 -6.33301 14.833 -3 20.5s10 8.5 20 8.5h25c13.333 0 23 -5.66699 29 -17l140 -238c5.33301 -9.33301 10.5 -19 15.5 -29l13.5 -27l14 -28h2l14 28l13.5 27c5 10 10.167 19.667 15.5 29l140 238c6 11.333 15.333 17 28 17h26
c9.33301 0 15.833 -2.83301 19.5 -8.5s2.83398 -12.5 -2.49902 -20.5l-220 -372v-277c0 -16.667 -8.33301 -25 -25 -25h-20c-16 -0 -24 8.33301 -24 25v277z" />
    <glyph glyph-name="Zcaron" unicode="&#x17d;" horiz-adv-x="575" 
d="M33 32c0 11.333 3.33398 21.666 10.001 30.999l354 514c6 9.33301 12 18 18 26s11.333 14.667 16 20l15 18v2c-3.33301 -0.666992 -7.66602 -1 -12.999 -1c-4.66699 -0.666992 -10.167 -1 -16.5 -1h-22.5h-317c-16 0 -24 8.33301 -24 25v12c0 16.667 8 25 24 25h430
c16.667 0 25 -8 25 -24v-8c0 -11.333 -3.33301 -21.666 -10 -30.999l-354 -514l-18.5 -26c-5.66699 -8 -10.834 -14.667 -15.501 -20l-15 -18v-2c3.33301 0 7.66602 0.333008 12.999 1c4.66699 0 10 0.166992 16 0.5s13.667 0.5 23 0.5h340c16 0 24 -8.33301 24 -25v-12
c0 -16.667 -8 -25 -24 -25h-453c-16.667 -0 -25 8.33301 -25 25v7zM279.001 752c-12 0 -21.999 5.33301 -29.999 16l-52 73c-5.33301 8.66699 -6.83301 15.834 -4.5 21.501s8.16602 8.5 17.499 8.5h15c7.33301 0 13 -1.33301 17 -4s7.66699 -6.66699 11 -12l44 -64h2l44 64
c6.66699 10.667 15.667 16 27 16h16c9.33301 0 15.166 -2.83301 17.499 -8.5s0.5 -12.834 -5.5 -21.501l-51 -73c-4.66699 -5.33301 -9.16699 -9.33301 -13.5 -12s-10.166 -4 -17.499 -4h-37z" />
    <glyph glyph-name="zcaron" unicode="&#x17e;" horiz-adv-x="491" 
d="M34 29c0 10.667 3.33496 20.334 10.002 29.001l270 339c5.33301 6 10.166 11.833 14.499 17.5s8.5 10.5 12.5 14.5c4 4.66699 8.33301 9.33398 13 14.001v2c-4 -0.666992 -8.33301 -1 -13 -1c-4 -0.666992 -9.16699 -1 -15.5 -1h-21.5h-234c-16 0 -24 8 -24 24v11
c0 16.667 8 25 24 25h352c16 0 24 -7.33301 24 -22v-7c0 -10.667 -3.33301 -20.334 -10 -29.001l-271 -339l-15 -18c-4.66699 -5.33301 -9 -10 -13 -14c-4.66699 -4.66699 -9 -9.33398 -13 -14.001v-2c3.33301 0 7.66602 0.333008 12.999 1c4.66699 0 10 0.166992 16 0.5
s13.333 0.5 22 0.5h257c16 0 24 -8 24 -24v-11c0 -16.667 -8 -25 -24 -25h-374c-16 -0 -24 7.33301 -24 22v7zM226.002 585c-12 0 -21.999 5.33301 -29.999 16l-52 73c-5.33301 8.66699 -6.83301 15.834 -4.5 21.501s8.16602 8.5 17.499 8.5h15c7.33301 0 13 -1.33301 17 -4
s7.66699 -6.66699 11 -12l44 -64h2l44 64c6.66699 10.667 15.667 16 27 16h16c9.33301 0 15.166 -2.83301 17.499 -8.5s0.5 -12.834 -5.5 -21.501l-51 -73c-4.66699 -5.33301 -9.16699 -9.33301 -13.5 -12s-10.166 -4 -17.499 -4h-37z" />
    <glyph glyph-name="florin" unicode="&#x192;" horiz-adv-x="350" 
d="M-52 -43c4.66699 -0.666992 10.0029 -1.33203 16.0029 -1.99902s13.667 -1 23 -1c10 0 21.5 1.33301 34.5 4s25.667 8.5 38 17.5s23.166 22 32.499 39s15.333 39.833 18 68.5l24 282h-65c-16 0 -24 8 -24 24v8c0 16.667 8 25 24 25h70l10 107
c3.33301 41.333 12.5 74.166 27.5 98.499s32.333 43 52 56s39.667 21.5 60 25.5s37.5 6 51.5 6c11.333 0 22.166 -0.5 32.499 -1.5l26.5 -2.5c15.333 -2 23 -10.667 23 -26v-12c0 -16.667 -7.33301 -24 -22 -22c-8 1.33301 -17.167 2.33301 -27.5 3s-20.833 1 -31.5 1
c-10 0 -21.5 -1.33301 -34.5 -4s-25.5 -8.5 -37.5 -17.5s-22.833 -22 -32.5 -39s-15.834 -39.833 -18.501 -68.5l-10 -104h101c16 0 24 -8.33301 24 -25v-8c0 -16 -8 -24 -24 -24h-106l-25 -285c-4 -41.333 -13.333 -74.333 -28 -99s-31.667 -43.5 -51 -56.5
s-39 -21.333 -59 -25s-37 -5.5 -51 -5.5c-18 0 -32.333 1 -43 3c-15.333 1.33301 -23 10 -23 26v11c0 17.333 8.33301 25 25 23z" />
    <glyph glyph-name="circumflex" unicode="&#x2c6;" horiz-adv-x="504" 
d="M161.565 752c-9.33301 0 -15.166 2.83301 -17.499 8.5s-0.833008 12.834 4.5 21.501l52 73c8 10.667 18 16 30 16h37c7.33301 0 13.166 -1.33301 17.499 -4s8.83301 -6.66699 13.5 -12l51 -73c6 -8.66699 8 -15.834 6 -21.501s-7.66699 -8.5 -17 -8.5h-17
c-11.333 0 -20.333 5.66699 -27 17l-44 64h-2l-44 -64c-3.33301 -6 -7 -10.333 -11 -13s-9.66699 -4 -17 -4h-15z" />
    <glyph glyph-name="tilde" unicode="&#x2dc;" horiz-adv-x="504" 
d="M120 755c-14.667 0 -22.001 8.66602 -22.001 25.999c0 26.667 8.16699 48.5 24.5 65.5s37.5 25.5 63.5 25.5c17.333 0 31.666 -3.83301 42.999 -11.5s21.5 -16 30.5 -25s17.667 -17.167 26 -24.5s18.166 -11 29.499 -11c13.333 0 23 5.16699 29 15.5
s9.33301 21.833 10 34.5c0 12.667 7.66699 19 23 19h8c14 0 21 -7.66699 21 -23c0 -29.333 -7.83301 -52.333 -23.5 -69s-37.167 -25 -64.5 -25c-17.333 0 -31.666 3.66699 -42.999 11s-21.5 15.5 -30.5 24.5s-17.667 17.167 -26 24.5s-18.166 11 -29.499 11
c-13.333 0 -23.166 -5.16699 -29.499 -15.5s-9.5 -22.166 -9.5 -35.499c-1.33301 -11.333 -9 -17 -23 -17h-7z" />
    <glyph glyph-name="endash" unicode="&#x2013;" horiz-adv-x="640" 
d="M95 255c-16.667 0 -25 8 -25 24v9c0 16.667 8.33301 25 25 25h450c16.667 0 25 -8.33301 25 -25v-9c0 -16 -8.33301 -24 -25 -24h-450z" />
    <glyph glyph-name="emdash" unicode="&#x2014;" horiz-adv-x="840" 
d="M95 255c-16.667 0 -25 8 -25 24v9c0 16.667 8.33301 25 25 25h650c16.667 0 25 -8.33301 25 -25v-9c0 -16 -8.33301 -24 -25 -24h-650z" />
    <glyph glyph-name="quoteleft" unicode="&#x2018;" horiz-adv-x="201" 
d="M69.3809 509c-9.33301 0 -15.832 2.33203 -19.499 6.99902s-3.83398 11.334 -0.500977 20.001l49 156c4.66699 13.333 14 20 28 20h7c17.333 0 24 -9 20 -27l-37 -155c-3.33301 -14 -12 -21 -26 -21h-21z" />
    <glyph glyph-name="quoteright" unicode="&#x2019;" horiz-adv-x="199" 
d="M69.0908 509c-18 0 -25 9 -21 27l37 155c2.66699 14 11.667 21 27 21h20c19.333 0 26.333 -9 21 -27l-50 -156c-4 -13.333 -13.333 -20 -28 -20h-6z" />
    <glyph glyph-name="quotesinglbase" unicode="&#x201a;" horiz-adv-x="221" 
d="M76.8066 60c2.66699 14.667 11.3311 22 25.998 22h21c9.33301 0 15.833 -2.5 19.5 -7.5s3.83398 -11.833 0.500977 -20.5l-49 -156c-5.33301 -13.333 -14.666 -20 -27.999 -20h-7c-17.333 0 -24.333 9 -21 27z" />
    <glyph glyph-name="quotedblleft" unicode="&#x201c;" horiz-adv-x="329" 
d="M69.3809 509c-9.33301 0 -15.832 2.33203 -19.499 6.99902s-3.83398 11.334 -0.500977 20.001l49 156c4.66699 13.333 14 20 28 20h7c17.333 0 24.333 -9 21 -27l-38 -155c-3.33301 -14 -12 -21 -26 -21h-21zM196.382 508.999c-18.667 0 -25.333 9 -20 27l50 156
c4 13.333 13 20 27 20h7c17.333 0 24.333 -9 21 -27l-37 -155c-3.33301 -14 -12.333 -21 -27 -21h-21z" />
    <glyph glyph-name="quotedblright" unicode="&#x201d;" horiz-adv-x="327" 
d="M69.0908 509c-18 0 -25 9.00098 -21 27.001l37 155c2.66699 14 11.667 21 27 21h21c8.66699 0 15 -2.33301 19 -7s4.33301 -11.334 1 -20.001l-50 -156c-4 -13.333 -13 -20 -27 -20h-7zM196.091 509.001c-17.333 0 -24.002 9.00098 -20.002 27.001l37 155
c2.66699 14 11.334 21 26.001 21h21c9.33301 0 15.833 -2.33301 19.5 -7s3.83398 -11.334 0.500977 -20.001l-49 -156c-4.66699 -13.333 -14 -20 -28 -20h-7z" />
    <glyph glyph-name="quotedblbase" unicode="&#x201e;" horiz-adv-x="348" 
d="M76.0908 60c2.66699 14.667 11.3311 22 25.998 22h21c9.33301 0 15.833 -2.5 19.5 -7.5s3.83398 -11.833 0.500977 -20.5l-49 -156c-5.33301 -13.333 -14.666 -20 -27.999 -20h-7c-18 0 -25 9 -21 27zM203.088 60c2.66699 14.667 11.667 22 27 22h20
c19.333 0 26.333 -9.33301 21 -28l-50 -156c-4 -13.333 -13.333 -20 -28 -20h-6c-18 0 -25 9 -21 27z" />
    <glyph glyph-name="dagger" unicode="&#x2020;" horiz-adv-x="400" 
d="M165 445h-92c-16.667 0 -25 8.33301 -25 25v8c0 16.667 8.33301 25 25 25h92v175c0 16.667 8.33301 25 25 25h17c16.667 0 25 -8.33301 25 -25v-175h97c16 0 24 -8.33301 24 -25v-8c0 -16.667 -8 -25 -24 -25h-97v-470c0 -16.667 -8.33301 -25 -25 -25h-17
c-16.667 0 -25 8.33301 -25 25v470z" />
    <glyph glyph-name="daggerdbl" unicode="&#x2021;" horiz-adv-x="412" 
d="M171 179h-93c-16 0 -24 8 -24 24v9c0 16.667 8 25 24 25h93v208h-93c-16 0 -24 8.33301 -24 25v8c0 16.667 8 25 24 25h93v175c0 16.667 8 25 24 25h18c16 0 24 -8.33301 24 -25v-175h97c16.667 0 25 -8.33301 25 -25v-8c0 -16.667 -8.33301 -25 -25 -25h-97v-208h97
c16.667 0 25 -8.33301 25 -25v-9c0 -16 -8.33301 -24 -25 -24h-97v-204c0 -16.667 -8 -25 -24 -25h-18c-16 0 -24 8.33301 -24 25v204z" />
    <glyph glyph-name="bullet" unicode="&#x2022;" horiz-adv-x="396" 
d="M198 148c-20 0 -38.667 3.66699 -56 11s-32.5 17.5 -45.5 30.5s-23.167 28.167 -30.5 45.5s-11 36 -11 56s3.66699 38.667 11 56s17.5 32.5 30.5 45.5s28.167 23.167 45.5 30.5s36 11 56 11s38.5 -3.66699 55.5 -11s32 -17.5 45 -30.5s23.167 -28.167 30.5 -45.5
s11 -36 11 -56s-3.66699 -38.667 -11 -56s-17.5 -32.5 -30.5 -45.5s-28 -23.167 -45 -30.5s-35.5 -11 -55.5 -11z" />
    <glyph glyph-name="ellipsis" unicode="&#x2026;" horiz-adv-x="688" 
d="M69 59c0 16 8 24 24 24h32c16 0 24 -8 24 -24v-34c0 -16.667 -8 -25 -24 -25h-32c-16 -0 -24 8.33301 -24 25v34zM304 59c0 16 8 24 24 24h32c16 0 24 -8 24 -24v-34c0 -16.667 -8 -25 -24 -25h-32c-16 -0 -24 8.33301 -24 25v34zM539 59c0 16 8 24 24 24h32
c16 0 24 -8 24 -24v-34c0 -16.667 -8 -25 -24 -25h-32c-16 -0 -24 8.33301 -24 25v34z" />
    <glyph glyph-name="perthousand" unicode="&#x2030;" horiz-adv-x="1042" 
d="M450 127c0 -23.333 7.66699 -43 23 -59s34.666 -24 57.999 -24s42.666 8 57.999 24s23 35.667 23 59c0 22.667 -7.66699 42.167 -23 58.5s-34.666 24.5 -57.999 24.5s-42.666 -8.16699 -57.999 -24.5s-23 -35.833 -23 -58.5zM786 127c0 -23.333 7.66699 -43 23 -59
s34.666 -24 57.999 -24s42.666 8 57.999 24s23 35.667 23 59c0 22.667 -7.66699 42.167 -23 58.5s-34.666 24.5 -57.999 24.5s-42.666 -8.16699 -57.999 -24.5s-23 -35.833 -23 -58.5zM390 126c0 19.333 3.66699 37.5 11 54.5s17.333 31.833 30 44.5s27.667 22.667 45 30
s35.666 11 54.999 11s37.5 -3.66699 54.5 -11s32 -17.333 45 -30s23.167 -27.5 30.5 -44.5s11 -35.167 11 -54.5s-3.66699 -37.333 -11 -54s-17.5 -31.167 -30.5 -43.5s-28 -22.166 -45 -29.499s-35.167 -11 -54.5 -11s-37.666 3.66699 -54.999 11
s-32.333 17.166 -45 29.499s-22.667 26.833 -30 43.5s-11 34.667 -11 54zM727 126c0 19.333 3.66699 37.5 11 54.5s17.333 31.833 30 44.5s27.5 22.667 44.5 30s35.167 11 54.5 11s37.5 -3.66699 54.5 -11s32 -17.333 45 -30s23.167 -27.5 30.5 -44.5s11 -35.167 11 -54.5
s-3.66699 -37.333 -11 -54s-17.5 -31.167 -30.5 -43.5s-28 -22.166 -45 -29.499s-35.167 -11 -54.5 -11s-37.5 3.66699 -54.5 11s-31.833 17.166 -44.5 29.499s-22.667 26.833 -30 43.5s-11 34.667 -11 54zM193 493c23.333 0 42.666 8 57.999 24s23 35.667 23 59
c0 22.667 -7.66699 42.167 -23 58.5s-34.666 24.5 -57.999 24.5s-42.666 -8.16699 -57.999 -24.5s-23 -35.833 -23 -58.5c0 -23.333 7.66699 -43 23 -59s34.666 -24 57.999 -24zM583 688c7.33301 10 17.333 15 30 15h15c10.667 0 17.5 -2.83301 20.5 -8.5
s1.16699 -12.834 -5.5 -21.501l-501 -658c-7.33301 -10 -17.333 -15 -30 -15h-16c-10 0 -16.5 2.83301 -19.5 8.5s-1.16699 12.834 5.5 21.501zM193 437c-19.333 0 -37.666 3.66699 -54.999 11s-32.333 17.166 -45 29.499s-22.667 27 -30 44s-11 35.167 -11 54.5
c0 18.667 3.66699 36.5 11 53.5s17.333 31.833 30 44.5s27.667 22.667 45 30s35.666 11 54.999 11s37.5 -3.66699 54.5 -11s31.833 -17.333 44.5 -30s22.667 -27.5 30 -44.5s11 -34.833 11 -53.5c0 -19.333 -3.66699 -37.5 -11 -54.5s-17.333 -31.667 -30 -44
s-27.5 -22.166 -44.5 -29.499s-35.167 -11 -54.5 -11z" />
    <glyph glyph-name="guilsinglleft" unicode="&#x2039;" horiz-adv-x="313" 
d="M42.5 265c-10 11.333 -10.002 22.6689 -0.00195312 34.002l138 175c7.33301 9.33301 17.333 14 30 14h17c10.667 0 17.334 -2.83301 20.001 -8.5s0.666992 -12.834 -6 -21.501l-140 -176l140 -175c6.66699 -8.66699 8.83398 -15.834 6.50098 -21.501
s-8.5 -8.5 -18.5 -8.5h-19c-12.667 0 -22.667 4.66699 -30 14z" />
    <glyph glyph-name="guilsinglright" unicode="&#x203a;" horiz-adv-x="313" 
d="M76.0664 77c-10.667 0 -17.335 2.83008 -20.002 8.49707s-0.666992 12.834 6 21.501l139 175l-139 176c-7.33301 8.66699 -9.66602 15.834 -6.99902 21.501s9.33398 8.5 20.001 8.5h18c11.333 0 21.333 -4.66699 30 -14l138 -175c10 -11.333 10 -22.666 0 -33.999
l-138 -174c-8.66699 -9.33301 -18.667 -14 -30 -14h-17z" />
    <glyph glyph-name="Euro" unicode="&#x20ac;" horiz-adv-x="595" 
d="M66 266c-9.33301 0 -15.6631 2.00098 -18.9961 6.00098s-5 10.333 -5 19c0 9.33301 1.66699 16 5 20s9.66602 6 18.999 6h31c-1.33301 9.33301 -2 22.166 -2 38.499s1 30.5 3 42.5h-32c-16 0 -24 8.33301 -24 25c0 9.33301 1.66699 16 5 20s9.66602 6 18.999 6h41
c9.33301 38.667 24.333 74.334 45 107.001s45.667 60.667 75 84s62.166 41.666 98.499 54.999s75.166 20 116.499 20c14.667 0 28 -0.666992 40 -2s22 -2.66602 30 -3.99902c16.667 -3.33301 23 -13.333 19 -30l-5 -17c-4 -14.667 -13 -21 -27 -19
c-7.33301 1.33301 -16 2.66602 -26 3.99902s-20.667 2 -32 2c-32 0 -62 -4.83301 -90 -14.5s-53.167 -23.334 -75.5 -41.001s-41.5 -38.667 -57.5 -63s-28.333 -51.5 -37 -81.5h278c18.667 0 26 -9 22 -27c-2.66699 -16 -12 -24 -28 -24h-283
c-2.66699 -12.667 -3.83398 -26 -3.50098 -40s1.16602 -27.667 2.49902 -41h266c18.667 0 26 -9 22 -27c-2 -9.33301 -5 -15.666 -9 -18.999s-10.333 -5 -19 -5h-249c7.33301 -31.333 19 -60 35 -86s35.5 -48.333 58.5 -67s48.833 -33.167 77.5 -43.5
s59.334 -15.5 92.001 -15.5c14 0 26.5 0.833008 37.5 2.5s20.5 3.16699 28.5 4.5c16.667 3.33301 26.334 -2.33398 29.001 -17.001l4 -18c4.66699 -15.333 -1.33301 -25 -18 -29c-9.33301 -2 -21 -4 -35 -6s-29.667 -3 -47 -3c-42.667 0 -82.5 6.83301 -119.5 20.5
s-70.333 32.834 -100 57.501s-54.5 54 -74.5 88s-34.333 71.333 -43 112h-39z" />
    <glyph glyph-name="trademark" unicode="&#x2122;" horiz-adv-x="953" 
d="M222 265c-16.667 0 -25 8 -25 24v362h-131c-16.667 0 -25 8 -25 24v4c0 16 8.33301 24 25 24h320c16.667 0 25 -8 25 -24v-4c0 -16 -8.33301 -24 -25 -24h-132v-362c0 -16 -8.33301 -24 -25 -24h-7zM481 680c1.33301 15.333 9.66895 22.999 25.002 22.999h7
c13.333 0 23 -6.33301 29 -19l107 -232l5.5 -15l4.5 -13c1.33301 -4.66699 2.66602 -9 3.99902 -13h2c1.33301 4 2.66602 8.33301 3.99902 13c1.33301 4 2.66602 8.33301 3.99902 13s3.33301 9.66699 6 15l107 232c4.66699 12.667 14.334 19 29.001 19h7
c15.333 0 23.666 -7.66699 24.999 -23l32 -389c0 -17.333 -8 -26 -24 -26h-7c-15.333 0 -23.666 7.66699 -24.999 23l-23 274c-0.666992 3.33301 -0.833984 6.83301 -0.500977 10.5s0.5 6.83398 0.5 9.50098s0.333008 5.66699 1 9h-2l-104 -225
c-4.66699 -12.667 -14 -19 -28 -19h-6c-14 0 -23.667 6.33301 -29 19l-103 225h-2c0.666992 -3.33301 1 -6.33301 1 -9v-20l-24 -274c-1.33301 -15.333 -9.66602 -23 -24.999 -23h-6c-17.333 0 -25.333 8.66699 -24 26z" />
    <glyph glyph-name="glyph217" horiz-adv-x="0" 
 />
    </font>
</defs>
</svg>
