<?xml version="1.0" standalone="no"?>
<!DOCTYPE svg PUBLIC "-//W3C//DTD SVG 1.1//EN" "http://www.w3.org/Graphics/SVG/1.1/DTD/svg11.dtd" >
<svg>
<metadata>
Created by FontForge 20090914 at Fri Oct 19 04:34:34 2012
 By www-data
&#194;&#169; 1998 The Happy One
</metadata>
<defs>
<font id="MovementBold" horiz-adv-x="561" >
  <font-face 
    font-family="N.O.- Movement"
    font-weight="700"
    font-stretch="normal"
    units-per-em="1000"
    panose-1="0 0 7 0 0 0 0 0 0 0"
    ascent="800"
    descent="-200"
    x-height="460"
    cap-height="739"
    bbox="-75 -263.002 1100 1000"
    underline-thickness="10"
    underline-position="-60"
    unicode-range="U+0020-U+2122"
  />
<missing-glyph horiz-adv-x="500" 
d="M63 0v1000h375v-1000h-375zM124 312l251 -249l-3 629l-247 246z" />
    <glyph glyph-name=".notdef" horiz-adv-x="500" 
d="M63 0v1000h375v-1000h-375zM124 312l251 -249l-3 629l-247 246z" />
    <glyph glyph-name="space" unicode=" " horiz-adv-x="280" 
 />
    <glyph glyph-name="exclam" unicode="!" horiz-adv-x="311" 
d="M220 188h-128v551h129zM228 124v-144h-144v144h144z" />
    <glyph glyph-name="quotedbl" unicode="&#x22;" horiz-adv-x="426" 
d="M360 739l-19 -321h-98l-18 321h135zM203 739l-19 -321h-99l-19 321h137z" />
    <glyph glyph-name="numbersign" unicode="#" 
d="M557 412h-106l-20 -104h93v-112h-115l-38 -196h-115l36 196h-78l-40 -196h-113l36 196h-93v112h116l19 104h-98v112h119l34 181h117l-36 -181h80l33 181h117l-34 -181h86v-112zM334 412h-78l-19 -104h78z" />
    <glyph glyph-name="dollar" unicode="$" 
d="M532 219c0 -52.667 -18.334 -102.667 -55.001 -150c-38 -49.333 -82.333 -77.666 -133 -84.999v-93h-89v90c-59.333 7.33301 -111.333 32.666 -156 75.999c-46.667 45.333 -70 97.333 -70 156l125 25c7.33301 -39.333 16.666 -68 27.999 -86
c15.333 -24 39.666 -39.667 72.999 -47v249c-57.333 26 -97.666 50.333 -120.999 73c-35.333 33.333 -53 76 -53 128c0 49.333 16.833 93.333 50.5 132s74.834 61.667 123.501 69v88h89v-88c68 -7.33301 125.667 -51.666 173 -132.999l-109 -60
c-17.333 24 -26.666 36.667 -27.999 38c-9.33301 11.333 -21.333 21.333 -36 30v-182c125.333 -50.667 188 -127.334 188 -230.001zM254.999 489v144c-34.667 -12 -52 -37 -52 -75c0 -24.667 17.333 -47.667 52 -69zM404.999 213c0 38 -20.333 70 -61 96v-193
c17.333 8 31.833 21.333 43.5 40s17.5 37.667 17.5 57z" />
    <glyph glyph-name="percent" unicode="%" horiz-adv-x="686" 
d="M378 575c0 -50 -19 -92.167 -57 -126.5s-82.333 -51.5 -133 -51.5s-95 17 -133 51s-57 76 -57 126c0 50.667 19.333 92.667 58 126c37.333 31.333 81.333 47 132 47c50 0 94.167 -16.333 132.5 -49s57.5 -73.667 57.5 -123zM607 713l-449 -729l-76 45l448 725zM690 168
c0 -50 -19 -92.001 -57 -126.001s-82.333 -51 -133 -51c-49.333 0 -93.333 17.333 -132 52s-58 76.334 -58 125.001s19.333 90.667 58 126c37.333 33.333 81 50 131 50c51.333 0 96 -16.5 134 -49.5s57 -75.167 57 -126.5zM280 573.999c0 24 -9.16699 43.833 -27.5 59.5
s-39.833 23.5 -64.5 23.5s-46.5 -7.66699 -65.5 -23s-28.5 -35.333 -28.5 -60s9.5 -44.667 28.5 -60s40.833 -23 65.5 -23c24 0 45.333 8 64 24s28 35.667 28 59zM594 167.999c0 25.333 -9.33301 45.668 -28 61.001s-40.667 23 -66 23s-47 -7.83301 -65 -23.5
s-27 -35.834 -27 -60.501c0 -24 9.16699 -43.833 27.5 -59.5s39.833 -23.5 64.5 -23.5c24 0 45.667 7.83301 65 23.5s29 35.5 29 59.5z" />
    <glyph glyph-name="ampersand" unicode="&#x26;" horiz-adv-x="670" 
d="M729 -1h-163.998l-69 85c-38.667 -33.333 -72.334 -57.333 -101.001 -72c-37.333 -18.667 -77 -28 -119 -28c-60.667 0 -115.667 19.333 -165 58c-52.667 42 -79 92.333 -79 151c0 55.333 15.667 102.333 47 141c20 24.667 58.667 57 116 97
c-46 49.333 -69 99.333 -69 150c0 54.667 17.667 97.667 53 129c34 29.333 78.667 44 134 44c51.333 0 94.666 -14.333 129.999 -43c38.667 -30.667 58 -71 58 -121c0 -62.667 -41.333 -121.667 -124 -177l126 -147l45 10h125l-90 -101zM376.002 592
c0 37.333 -21.333 56 -64 56c-16 0 -30.5 -4.83301 -43.5 -14.5s-19.5 -22.5 -19.5 -38.5c0 -24 17.333 -55.667 52 -95c50 36 75 66.667 75 92zM414.002 176l-141.001 164.001c-45.333 -32 -70.666 -50.333 -75.999 -55c-26.667 -24.667 -40 -51.334 -40 -80.001
c0 -28 13 -52.667 39 -74c24 -20 50.333 -30 79 -30c38 0 84.333 25 139 75z" />
    <glyph glyph-name="quotesingle" unicode="'" horiz-adv-x="269" 
d="M239 718l-147 -254l-93 31l125 260z" />
    <glyph glyph-name="parenleft" unicode="(" horiz-adv-x="284" 
d="M253 719c-59.333 -111.333 -89 -249.999 -89 -415.999c0 -154.667 29.333 -294.667 88 -420l-102 -72c-77.333 141.333 -116 304.666 -116 489.999c0 179.333 38.667 343.333 116 492z" />
    <glyph glyph-name="parenright" unicode=")" horiz-adv-x="284" 
d="M247 299c0 -178.667 -37.333 -341.333 -112 -488l-105 72c58 114 87 253.333 87 418c0 159.333 -28.667 299.666 -86 420.999l102 73c76 -149.333 114 -314.666 114 -495.999z" />
    <glyph glyph-name="asterisk" unicode="*" horiz-adv-x="419" 
d="M386 551l-55 -82l-65 35v-69h-107v72l-70 -36l-55 79l71 36l-69 37l50 80l73 -36v72h107v-68l65 34l54 -81l-71 -38z" />
    <glyph glyph-name="plus" unicode="+" 
d="M549 193h-207v-193h-123v193h-207v115h207v194h123v-194h207v-115z" />
    <glyph glyph-name="comma" unicode="," horiz-adv-x="280" 
d="M264 120l-136 -260l-99 -3l119 260z" />
    <glyph glyph-name="hyphen" unicode="-" horiz-adv-x="322" 
d="M287 277h-252v73h252v-73z" />
    <glyph glyph-name="hyphen" unicode="&#x2010;" horiz-adv-x="322" 
d="M287 277h-252v73h252v-73z" />
    <glyph glyph-name="period" unicode="." horiz-adv-x="280" 
d="M204 100v-116h-140v114z" />
    <glyph glyph-name="slash" unicode="/" horiz-adv-x="535" 
d="M530 804l-402 -880l-123 -2l399 882h126z" />
    <glyph glyph-name="zero" unicode="0" horiz-adv-x="545" 
d="M513 540v-344c0 -58.667 -22.667 -110 -68 -154s-101.333 -63.333 -168 -58c-66.667 -2.66699 -122 17.333 -166 60s-70 96 -78 160v340c5.33301 66.667 33.333 118 84 154s104 55 160 57c61.333 0 114 -16.5 158 -49.5s70 -88.167 78 -165.5zM393 200l-1 344
c-24.667 66 -62.667 99 -114 99c-50.667 0 -90 -34.333 -118 -103v-336c27.333 -68.667 66.333 -103 117 -103c52 0 90.667 33 116 99z" />
    <glyph glyph-name="one" unicode="1" horiz-adv-x="345" 
d="M305 0h-142l-2 536l-80 -64l-40 88l264 184v-744z" />
    <glyph glyph-name="two" unicode="2" horiz-adv-x="577" 
d="M557 0l-537.001 0.000976562l358 421c33.333 39.333 50 73.666 50 102.999s-12.167 55.333 -36.5 78s-51.166 34 -80.499 34c-38 0 -68.833 -11.5 -92.5 -34.5s-35.5 -53.5 -35.5 -91.5h-131c16 162.667 99.333 244 250 244c20 0 37 -1 51 -3
c54.667 -8 102 -34.167 142 -78.5s60 -93.833 60 -148.5c0 -58.667 -18.667 -110 -56 -154l-214 -252h272v-118z" />
    <glyph glyph-name="three" unicode="3" horiz-adv-x="569" 
d="M534 225c0 -36.667 -3.66602 -65.001 -10.999 -85.001c-18.667 -50.667 -50.667 -89.667 -96 -117c-42 -26 -91 -39 -147 -39c-68 0 -125 20.667 -171 62c-48.667 42.667 -73 97.334 -73 164.001h129c0 -34.667 12 -62 36 -82s53.667 -30 89 -30
c32.667 0 60.167 11.5 82.5 34.5s33.5 50.833 33.5 83.5c0 23.333 -4 42.666 -12 57.999c-14.667 28 -34.334 46 -59.001 54c-14 4 -41.667 6 -83 6v111c96.667 0 145 30 145 90c0 31.333 -10.333 56.833 -31 76.5s-47 29.5 -79 29.5c-59.333 0 -93 -34 -101 -102h-133
c24.667 144 105 216 241 216c62 0 115.333 -18.333 160 -55c46.667 -39.333 70 -89.666 70 -150.999c0 -68 -25.333 -121.333 -76 -160c57.333 -36 86 -90.667 86 -164z" />
    <glyph glyph-name="four" unicode="4" horiz-adv-x="625" 
d="M607 96h-84v-96h-127v96h-378l505 675v-567h84v-108zM396 204v201l-151 -201h151z" />
    <glyph glyph-name="five" unicode="5" horiz-adv-x="617" 
d="M584 261c0 -77.333 -25.1699 -142.168 -75.5029 -194.501s-114.166 -80.166 -191.499 -83.499c-16 -0.666992 -27.333 -1 -34 -1c-48.667 0 -94.667 14 -138 42c-40.667 26 -68.167 51.167 -82.5 75.5s-24.166 52.5 -29.499 84.5l131 -3
c11.333 -21.333 30 -39.666 56 -54.999s51.333 -23 76 -23c44.667 0 82.667 14.5 114 43.5s47 65.5 47 109.5c0 39.333 -15.167 73.666 -45.5 102.999s-65.166 44 -104.499 44c-53.333 0 -97 -20.667 -131 -62l-67 39l137 359h328v-117l-237 2l-32 -108h-13
c9.33301 1.33301 24 2 44 2c66.667 0 124.667 -26.167 174 -78.5s74 -111.833 74 -178.5z" />
    <glyph glyph-name="six" unicode="6" horiz-adv-x="577" 
d="M551 230c0 -66 -25.833 -123.501 -77.5 -172.501s-110.5 -73.5 -176.5 -73.5c-44.667 0 -88.5 11 -131.5 33s-77.167 51 -102.5 87c-6.66699 12.667 -18 29.667 -34 51l-3 -18v95c0 57.333 27.667 121 83 191l261 331l99 -62l-174 -223c5.33301 0.666992 13 1 23 1
c65.333 0 120.5 -23.667 165.5 -71s67.5 -103.666 67.5 -168.999zM424 228.999c0 34 -14.832 63.333 -44.499 88s-62.167 37 -97.5 37c-30 0 -59.333 -12.667 -88 -38s-43 -53 -43 -83c0 -32.667 13.5 -63.5 40.5 -92.5s56.833 -43.5 89.5 -43.5
c-0.666992 0 4.66602 1 15.999 3c84.667 14.667 127 57.667 127 129z" />
    <glyph glyph-name="seven" unicode="7" horiz-adv-x="649" 
d="M619 739l-485 -755l-104 64l371 575h-364v116h582z" />
    <glyph glyph-name="eight" unicode="8" 
d="M529 213c0 -69.333 -24.5 -124.835 -73.5 -166.502s-108.833 -62.5 -179.5 -62.5c-68 0 -125.667 21.667 -173 65s-71 99 -71 167c0 76.667 31.667 133.334 95 170.001c-51.333 41.333 -77 97.333 -77 168c0 60 23.667 109 71 147c44 36 96.333 54 157 54
c66 0 121.333 -19.667 166 -59s67 -91.666 67 -156.999c0 -66 -25 -117 -75 -153c30 -14.667 53.333 -39 70 -73c15.333 -30.667 23 -64 23 -100zM385 539.998c0 28.667 -10.333 52.667 -31 72s-45.334 29 -74.001 29c-27.333 0 -51.666 -9.5 -72.999 -28.5
s-32 -42.167 -32 -69.5c0 -24.667 11.5 -48.167 34.5 -70.5s46.833 -33.5 71.5 -33.5c22 0 44.833 11.333 68.5 34s35.5 45 35.5 67zM403 211.998c0 32.667 -12.168 59.998 -36.501 81.998s-53.166 33 -86.499 33c-35.333 0 -64.333 -9.66699 -87 -29
s-34 -46.666 -34 -81.999c0 -31.333 12.5 -58.333 37.5 -81s53.5 -34 85.5 -34c28.667 0 56 11.333 82 34s39 48.334 39 77.001z" />
    <glyph glyph-name="nine" unicode="9" horiz-adv-x="577" 
d="M551 520c0 -42 -12.667 -85.334 -38 -130.001c-12.667 -21.333 -39.334 -58.333 -80.001 -111l-225 -291h-152l227 291c-9.33301 -1.33301 -16.666 -2 -21.999 -2c-64 0 -119.167 24 -165.5 72s-69.5 104 -69.5 168c0 66.667 26 124 78 172c50 46.667 108.667 70 176 70
c69.333 0 131 -22.333 185 -67c57.333 -47.333 86 -104.666 86 -171.999zM423 516.999c0 36.667 -13.3301 67 -39.9971 91s-58.334 36 -95.001 36c-34.667 0 -65.834 -12.667 -93.501 -38s-41.5 -55 -41.5 -89c0 -35.333 13.667 -65.166 41 -89.499
s58.666 -36.5 93.999 -36.5c36 0 67.5 12.167 94.5 36.5s40.5 54.166 40.5 89.499z" />
    <glyph glyph-name="colon" unicode=":" horiz-adv-x="280" 
d="M216 472v-140h-156v140h156zM216 128v-144h-156v144h156z" />
    <glyph glyph-name="semicolon" unicode=";" horiz-adv-x="280" 
d="M260 472v-140h-152v140h152zM260 148l-144 -288l-95 -1l87 289h152z" />
    <glyph glyph-name="less" unicode="&#x3c;" 
d="M549 14l-537 194v86l537 194v-121l-338 -116l338 -117v-120z" />
    <glyph glyph-name="equal" unicode="=" 
d="M549 286h-537v107h537v-107zM549 109h-537v106h537v-106z" />
    <glyph glyph-name="greater" unicode="&#x3e;" 
d="M549 210l-537 -194v118l338 117l-338 116v121l537 -194v-84z" />
    <glyph glyph-name="question" unicode="?" horiz-adv-x="439" 
d="M418 588l-2 -196.001c-16 -93.333 -53.333 -160 -112 -200h-168c77.333 50.667 127.333 117.334 150 200.001l1 172c2 61.333 -22 92 -72 92c-34.667 -2.66699 -55.667 -23 -63 -61c0 2 -0.666992 -13.667 -2 -47l-128 -128l1 177c0 49.333 20.333 91 61 125
c38.667 32 83 48 133 48c54 4 101 -10.667 141 -44s60 -79.333 60 -138zM296 123.999v-140h-152v140h152z" />
    <glyph glyph-name="at" unicode="@" horiz-adv-x="777" 
d="M613 531l-51 -244c-4 -19.333 -5.66699 -32 -5 -38l5 -2c2.66699 0 7 2.33301 13 7c21.333 16 38.5 37.5 51.5 64.5s19.5 54.5 19.5 82.5c0 48.667 -11 92 -33 130zM763 417c0 -64 -20.333 -124.333 -61 -181c-44 -62 -96.667 -93 -158 -93
c-34.667 0 -59.334 14.333 -74.001 43c-36 -28.667 -77 -43 -123 -43c-48.667 0 -91.334 19.5 -128.001 58.5s-55 83.167 -55 132.5c0 62.667 20.5 118.5 61.5 167.5s92.5 73.5 154.5 73.5c49.333 0 90.333 -15 123 -45l9 37h74c-45.333 50.667 -106.666 76 -183.999 76
c-73.333 0 -136.333 -25.667 -189 -77s-79 -113.333 -79 -186c0 -85.333 27.5 -154 82.5 -206s125.5 -78 211.5 -78c76.667 0 134 17.333 172 52l108 -82c-58 -32.667 -106.333 -54.334 -145 -65.001c-41.333 -11.333 -94 -17 -158 -17c-40.667 0 -84 8 -130 24
c-81.333 28 -145.166 75.167 -191.499 141.5s-69.5 142.833 -69.5 229.5c2 2.66699 3 8 3 16c0 34.667 4.66699 66.334 14 95.001c26 79.333 73.667 143.333 143 192s146.333 73 231 73c96.667 0 180.5 -32.333 251.5 -97s106.5 -145 106.5 -241zM470 394
c0 21.333 -7 38.499 -21 51.499s-32 19.5 -54 19.5c-31.333 0 -58 -11.833 -80 -35.5s-33 -51.167 -33 -82.5c0 -21.333 6 -41.666 18 -60.999c14 -22.667 31 -34 51 -34c79.333 0 119 47.333 119 142z" />
    <glyph glyph-name="A" unicode="A" horiz-adv-x="754" 
d="M757 0h-141l-49 96h-384l-44 -96h-143l380 771zM511 212l-135 283l-145 -283h280z" />
    <glyph glyph-name="B" unicode="B" horiz-adv-x="535" 
d="M500 206c0 -70 -29.667 -124.001 -89 -162.001c-50 -32 -112.333 -48 -187 -48h-189v739l186 1c69.333 0 129.333 -12 180 -36c64 -45.333 92 -98.666 84 -159.999c-8 -50.667 -20 -86 -36 -106s-42.667 -39.333 -80 -58c40 -13.333 71.833 -35 95.5 -65
s35.5 -65 35.5 -105zM353 531.999c0 32 -11.333 55.334 -34 70.001s-58 22 -106 22l-47 -1v-194l51 3c82.667 -2.66699 128 30.666 136 99.999zM369 212c0 39.333 -16.666 68.333 -49.999 87c-26.667 15.333 -61.334 23 -104.001 23h-49v-205h54c40.667 2 73 9.66699 97 23
c32 13.333 49.333 37.333 52 72z" />
    <glyph glyph-name="C" unicode="C" horiz-adv-x="664" 
d="M639 42c-71.333 -39.333 -141.668 -58.999 -211.001 -58.999c-110 0 -204.833 38.667 -284.5 116s-119.5 170.666 -119.5 279.999c0 104.667 42 194 126 268c80.667 71.333 174 107 280 107c42.667 0 78.667 -3.66699 108 -11c26.667 -6.66699 60.334 -20 101.001 -40
l-75 -87c-24 14.667 -71 22 -141 22s-132.167 -25.833 -186.5 -77.5s-81.5 -112.5 -81.5 -182.5c0 -75.333 26 -140 78 -194s115.333 -81 190 -81c64 0 111 13.667 141 41z" />
    <glyph glyph-name="D" unicode="D" horiz-adv-x="676" 
d="M639 379c0 -120.667 -40.667 -215.333 -122 -284c-76.667 -63.333 -176.667 -95 -300 -95h-181v739h172c120 0 219.667 -29.333 299 -88c88 -65.333 132 -156 132 -272zM507 371.001c0 166.667 -113.333 250 -340 250v-503h36c88 0 159 19.667 213 59
c60.667 44 91 108.667 91 194z" />
    <glyph glyph-name="E" unicode="E" horiz-adv-x="425" 
d="M392 0h-353v739l353 1l3 -132h-224v-152h208v-128h-208v-192h224z" />
    <glyph glyph-name="F" unicode="F" horiz-adv-x="429" 
d="M392 624l-221 -3v-158l211 1l-2 -116l-209 -3v-345h-133v739l354 1v-116z" />
    <glyph glyph-name="G" unicode="G" horiz-adv-x="828" 
d="M793 342c0 -74.667 -19.8311 -141.669 -59.498 -201.002s-94.5 -102.666 -164.5 -129.999c-48 -18.667 -92.333 -28 -133 -28c-52 0 -91.333 4.33301 -118 13c-82 26.667 -149.5 75 -202.5 145s-79.5 148 -79.5 234c0 101.333 39.667 189.833 119 265.5
s169.666 113.5 270.999 113.5c74.667 0 137.667 -12.333 189 -37l37 -17l-87 -95c-37.333 20.667 -82 31 -134 31c-68.667 0 -130 -25.333 -184 -76s-81 -110 -81 -178l2 -3c0 -70.667 24 -133.667 72 -189c50 -58 110 -87 180 -87c54 0 103 15 147 45
c47.333 32.667 75.666 74.334 84.999 125.001h-189v120h330v-51z" />
    <glyph glyph-name="H" unicode="H" horiz-adv-x="648" 
d="M610 0h-131v337h-309v-337h-131v739h131v-282h309v282h131v-739z" />
    <glyph glyph-name="I" unicode="I" horiz-adv-x="225" 
d="M177 0h-131v739h131v-739z" />
    <glyph glyph-name="J" unicode="J" horiz-adv-x="391" 
d="M354 266c0 -188 -74.667 -282 -224 -282h-90v120c50 -0.666992 83.667 -1 101 -1c54.667 0 82 54.333 82 163l-3 358h-188l4 116l318 -1v-473z" />
    <glyph glyph-name="K" unicode="K" horiz-adv-x="670" 
d="M629 0h-175l-269 318l-14 -14v-304h-131v739h131v-276l283 276h175l-350 -334z" />
    <glyph glyph-name="L" unicode="L" horiz-adv-x="446" 
d="M400 0h-353v739h131v-621h222v-118z" />
    <glyph glyph-name="M" unicode="M" horiz-adv-x="827" 
d="M779 -4h-132l-3 400l-228 -240l-228 240v-400h-140v772l364 -412l367 408v-768z" />
    <glyph glyph-name="N" unicode="N" horiz-adv-x="658" 
d="M615 -12l-428 428v-424h-144v772l424 -424v408h148v-760z" />
    <glyph glyph-name="O" unicode="O" horiz-adv-x="859" 
d="M832 370c0 -108 -40.002 -199.499 -120.002 -274.499s-174.333 -112.5 -283 -112.5c-109.333 0 -203.666 37.167 -282.999 111.5s-119 166.166 -119 275.499c0 108 40.333 199.667 121 275c78.667 72.667 172.334 109 281.001 109s202.667 -36.333 282 -109
c80.667 -75.333 121 -167 121 -275zM700.998 370.001c0 74.667 -26.5 137.667 -79.5 189s-117.167 77 -192.5 77s-139.5 -25.5 -192.5 -76.5s-79.5 -114.167 -79.5 -189.5c0 -74 26.833 -136.667 80.5 -188s117.5 -77 191.5 -77s137.833 25.833 191.5 77.5
s80.5 114.167 80.5 187.5z" />
    <glyph glyph-name="P" unicode="P" horiz-adv-x="519" 
d="M480 496c4 -69.333 -4 -120 -24 -152s-58 -62.667 -114 -92c-53.333 -16 -109.333 -24 -168 -24l1 -228h-133l2 739h135c60.667 6 115 1 163 -15c58.667 -26.667 96.667 -56.667 114 -90s25.333 -79.333 24 -138zM362 480c-5.33301 85.333 -53.333 133.333 -144 144h-44
v-268h48c93.333 8 140 49.333 140 124z" />
    <glyph glyph-name="Q" unicode="Q" horiz-adv-x="907" 
d="M870 -17l-166.999 -0.000976562l-58 58c-66 -40 -133.667 -60 -203 -60c-108.667 0 -202.667 36 -282 108c-82 74 -123 165 -123 273c0 109.333 38.667 202 116 278s170.666 114 279.999 114c108 0 202.667 -36.667 284 -110c83.333 -75.333 125 -166.666 125 -273.999
c0 -102.667 -35.667 -189 -107 -259zM711.001 384.999c0 73.333 -29 134.333 -87 183c-54.667 45.333 -119.334 68 -194.001 68s-137.167 -26.833 -187.5 -80.5s-75.5 -118.167 -75.5 -193.5c0 -68.667 27 -129 81 -181s115.333 -78 184 -78c38.667 0 78.334 9 119.001 27
l-184 170h173l106 -101c43.333 52 65 114 65 186z" />
    <glyph glyph-name="R" unicode="R" horiz-adv-x="599" 
d="M353 512c-21.333 69.333 -81.332 102.667 -179.999 100v-316l1 -296h-131v739h151c91.333 0 161.666 -19.667 210.999 -59c58.667 -50.667 89.334 -122.667 92.001 -216c-2.66699 -69.333 -25.334 -125.333 -68.001 -168l-48 -48l176 -248h-158l-206 296
c80 10.667 132 46.667 156 108c16 37.333 17.333 73.333 4 108z" />
    <glyph glyph-name="S" unicode="S" horiz-adv-x="569" 
d="M542 221c0 -64.667 -25.501 -120.499 -76.501 -167.499s-109.167 -70.5 -174.5 -70.5c-70 0 -128.667 20.333 -176 61l-88 84l84 84c50.667 -61.333 112.334 -97 185.001 -107c34 0 61.667 11.5 83 34.5s32 51.5 32 85.5c0 40.667 -29 74.667 -87 102l-162 75
c-58 38 -87 90.667 -87 158c0 59.333 25.333 107.666 76 144.999c46 33.333 99.333 50 160 50c90.667 0 158.667 -26.333 204 -79l-76 -88c-42 32 -86 48 -132 48c-24.667 0 -47 -6.66699 -67 -20c-22.667 -14.667 -34 -34 -34 -58c0 -29.333 17.667 -53.333 53 -72
c4 -2 33.667 -13 89 -33c35.333 -12.667 68.333 -30 99 -52c37.333 -26.667 62 -54 74 -82c4.66699 -10 9.66699 -26.667 15 -50c4 -16.667 6 -32.667 6 -48z" />
    <glyph glyph-name="T" unicode="T" horiz-adv-x="505" 
d="M464 624l-149 -3v-621h-130v621l-153 3l4 116h428v-116z" />
    <glyph glyph-name="U" unicode="U" horiz-adv-x="658" 
d="M617 275c0 -84.667 -27 -154.5 -81 -209.5s-123.333 -82.5 -208 -82.5c-82.667 0 -151.167 27.167 -205.5 81.5s-81.5 122.833 -81.5 205.5v469h131v-448c0 -55.333 12 -99.333 36 -132c26.667 -36 66.667 -54 120 -54c105.333 0 158 64.333 158 193v441h131v-464z" />
    <glyph glyph-name="V" unicode="V" horiz-adv-x="694" 
d="M696 739l-346 -777l-351 777h146l204 -466l204 466h143z" />
    <glyph glyph-name="W" unicode="W" horiz-adv-x="1005" 
d="M1001 740l-289 -769l-208 473l-206 -475l-293 771h144l152 -408l203 423l197 -423l160 408h140z" />
    <glyph glyph-name="X" unicode="X" horiz-adv-x="653" 
d="M639 0h-149l-160 270l-169 -270h-148l242 387l-213 352h150l139 -236l147 236h152l-225 -353z" />
    <glyph glyph-name="Y" unicode="Y" horiz-adv-x="699" 
d="M668 739l-253 -419v-320h-131v320l-253 419h150l168 -281l170 281h149z" />
    <glyph glyph-name="Z" unicode="Z" horiz-adv-x="673" 
d="M630 739l-372 -621h358v-118h-573l369 621l-356 3v116z" />
    <glyph glyph-name="bracketleft" unicode="[" horiz-adv-x="302" 
d="M265 -189h-226v984h226v-120h-97v-747h97v-117z" />
    <glyph glyph-name="backslash" unicode="\" horiz-adv-x="535" 
d="M535 0h-124l-412 852h125z" />
    <glyph glyph-name="bracketright" unicode="]" horiz-adv-x="302" 
d="M265 -189h-226v117h94v749h-94v118h226v-984z" />
    <glyph glyph-name="asciicircum" unicode="^" 
d="M559 303h-134l-145 300l-144 -300h-134l210 436h137z" />
    <glyph glyph-name="underscore" unicode="_" horiz-adv-x="485" 
d="M505 -184h-525v73h525v-73z" />
    <glyph glyph-name="grave" unicode="`" horiz-adv-x="348" 
d="M320 532l-89 -2l-215 190l143 -1z" />
    <glyph glyph-name="a" unicode="a" horiz-adv-x="581" 
d="M542 -1h-126.999v37c-37.333 -34.667 -83 -52 -137 -52c-69.333 0 -126.5 23.667 -171.5 71s-67.5 106 -67.5 176c0 68.667 22.667 126 68 172s102.333 69 171 69c83.333 2.66699 143.666 -17.333 180.999 -60l83 49v-462zM418.001 233
c0 38 -11.499 69.332 -34.499 93.999s-53.167 37 -90.5 37c-36.667 0 -66.834 -13 -90.501 -39s-35.5 -57.333 -35.5 -94c0 -35.333 11 -66.666 33 -93.999c23.333 -29.333 52.333 -44 87 -44c40 0 71.833 13.167 95.5 39.5s35.5 59.833 35.5 100.5z" />
    <glyph glyph-name="b" unicode="b" horiz-adv-x="581" 
d="M542 245c0 -70.667 -20.334 -131.001 -61.001 -181.001c-43.333 -53.333 -99.666 -80 -168.999 -80c-94 -5.33301 -159.667 17.334 -197 68.001l-74 -53l-1 745h128v-308c38.667 35.333 84 53 136 53c68.667 0 125.5 -23.333 170.5 -70s67.5 -104.667 67.5 -174z
M414.999 240.999c0 38.667 -11.834 70.999 -35.501 96.999s-54.834 39 -93.501 39c-36.667 0 -66.167 -13.667 -88.5 -41s-33.5 -59.666 -33.5 -96.999c0 -40 11 -73 33 -99c22.667 -28 53.334 -42 92.001 -42c40.667 0 72.334 14 95.001 42c20.667 26 31 59.667 31 101z
" />
    <glyph glyph-name="c" unicode="c" horiz-adv-x="500" 
d="M452 18c-48 -21.333 -95.667 -31.999 -143 -31.999c-71.333 0 -132.666 21.667 -183.999 65c-55.333 46 -83 104 -83 174c0 71.333 27 130.666 81 177.999c51.333 44.667 113.333 67 186 67c51.333 0 101 -14 149 -42l-64 -92c-14.667 15.333 -46.334 23 -95.001 23
c-34.667 0 -64.834 -12.5 -90.501 -37.5s-38.5 -54.833 -38.5 -89.5c0 -38 12.5 -69.833 37.5 -95.5s56.5 -38.5 94.5 -38.5c30.667 0 58.334 7.66699 83.001 23l15 9z" />
    <glyph glyph-name="d" unicode="d" horiz-adv-x="581" 
d="M540 -8l-67.998 56c-40 -48 -103.667 -69.333 -191 -64c-68.667 0 -126 24.333 -172 73s-69 107.667 -69 177c0 72 21.667 132.5 65 181.5s100.666 73.5 171.999 73.5c22.667 0 44.167 -1.5 64.5 -4.5s45.166 -13.833 74.499 -32.5v284h124v-744zM419.002 235
c0 41.333 -11.333 75.333 -34 102s-54.334 40 -95.001 40c-37.333 0 -67.666 -14.667 -90.999 -44c-20.667 -27.333 -31 -60.333 -31 -99c0 -38 10.667 -69.667 32 -95c22 -27.333 51.333 -41 88 -41c40.667 0 72.667 12.5 96 37.5s35 58.167 35 99.5z" />
    <glyph glyph-name="e" unicode="e" horiz-adv-x="634" 
d="M569 96c-24 -32 -52.666 -58.6699 -85.999 -80.0029s-84.666 -30.666 -153.999 -27.999c-99.333 -2.66699 -172 21.333 -218 72c-46.667 42.667 -68 101.334 -64 176.001c-6.66699 53.333 16.666 106.666 69.999 159.999s120 80 200 80
c82.667 2.66699 150 -24.666 202 -81.999s78 -123.333 78 -198h-432c16 -69.333 70.667 -106.666 164 -111.999c61.333 0 106.666 20 135.999 60zM469.001 275.997c-26.667 58.667 -76.001 90.667 -148.001 96c-77.333 -5.33301 -130.666 -37.333 -159.999 -96h308z" />
    <glyph glyph-name="f" unicode="f" horiz-adv-x="363" 
d="M322 364h-87l-1 -624h-126v624h-66l66 118l-2 70c-2.66699 48 21.333 92 72 132s98.667 58.667 144 56v-112c-58.667 -8 -88 -44 -88 -108l1 -38l87 2v-120z" />
    <glyph glyph-name="g" unicode="g" horiz-adv-x="571" 
d="M536 5c0 -178.667 -79.3359 -268.001 -238.003 -268.001c-66 7.33301 -111.667 16.333 -137 27s-56.666 28 -93.999 52l60 84c32 -21.333 58.833 -35 80.5 -41s54.5 -9 98.5 -9c40.667 9.33301 71 28 91 56c10.667 24.667 15 63.334 13 116.001
c-31.333 -34 -78.666 -51 -141.999 -51c-70.667 0 -128 26 -172 78c-40.667 49.333 -61 110.333 -61 183c0 66 22.333 122.5 67 169.5s99.334 70.5 164.001 70.5c72.667 5.33301 141 -16 205 -64l65 53v-456zM413.997 225.999c0 36.667 -11.001 68 -33.001 94
c-24 27.333 -54.333 41 -91 41c-37.333 0 -67.833 -12.833 -91.5 -38.5s-35.5 -57.5 -35.5 -95.5c0 -40 10 -73 30 -99c22.667 -29.333 53.334 -44 92.001 -44c41.333 0 73.333 13.667 96 41c22 25.333 33 59 33 101z" />
    <glyph glyph-name="h" unicode="h" horiz-adv-x="507" 
d="M467 0h-126.998v293c0 32 -6.33301 54 -19 66s-35.334 18 -68.001 18c-56.667 0 -85 -39.333 -85 -118v-259h-127l-1 740h128v-287c29.333 24 69.666 36 120.999 36c118.667 0 178 -65.333 178 -196v-293z" />
    <glyph glyph-name="i" unicode="i" horiz-adv-x="246" 
d="M184 716v-132h-128v132h128zM187 0h-127v474h127v-474z" />
    <glyph glyph-name="j" unicode="j" horiz-adv-x="246" 
d="M184 584h-128v132h128v-132zM184 -260h-124v734h127z" />
    <glyph glyph-name="k" unicode="k" horiz-adv-x="545" 
d="M502 0h-167l-155 189l-8 -7v-182h-127l-2 736h128l1 -398l143 140h171l-214 -204z" />
    <glyph glyph-name="l" unicode="l" horiz-adv-x="216" 
d="M171 0h-127v736h124z" />
    <glyph glyph-name="m" unicode="m" horiz-adv-x="745" 
d="M708 0h-127v261c0 32 -3.66699 55.667 -11 71c-10.667 21.333 -30 32 -58 32c-50 0 -75 -38.667 -75 -116v-248h-127v244c0 36 -3.33301 62.333 -10 79c-10.667 27.333 -30.667 41 -60 41c-50.667 0 -76 -41 -76 -123v-241h-127v462l71 -58c29.333 42.667 72 64 128 64
c74 2.66699 128.333 -16.333 163 -57c34.667 40.667 80.667 61 138 61c114 0 171 -65 171 -195v-277z" />
    <glyph glyph-name="n" unicode="n" horiz-adv-x="507" 
d="M467 0l-126.999 -0.000976562v274c0 33.333 -4.66699 56.333 -14 69c-11.333 14 -33.333 21 -66 21c-61.333 0 -92 -38 -92 -114v-250h-127v462l67 -58c37.333 42.667 86.666 65.334 147.999 68.001c140.667 0 211 -66.667 211 -200v-272z" />
    <glyph glyph-name="o" unicode="o" horiz-adv-x="579" 
d="M551 227c0 -69.333 -26.167 -127.167 -78.5 -173.5s-113.5 -69.5 -183.5 -69.5c-68.667 0 -129 23 -181 69c-54 48 -81 106 -81 174c0 70.667 26.333 129.667 79 177c50.667 45.333 111.667 68 183 68s132.333 -22.667 183 -68c52.667 -47.333 79 -106.333 79 -177z
M424 226.999c0 36.667 -13.168 67.5 -39.501 92.5s-58.166 37.5 -95.499 37.5s-69.5 -12.5 -96.5 -37.5s-40.5 -56.167 -40.5 -93.5c0 -35.333 14.333 -65.333 43 -90c26.667 -24 58 -36 94 -36s67.5 12.167 94.5 36.5s40.5 54.5 40.5 90.5z" />
    <glyph glyph-name="p" unicode="p" horiz-adv-x="581" 
d="M540 224c0 -68.667 -20.333 -127.333 -61 -176c-44 -51.333 -99.667 -77 -167 -77c-57.333 0 -105.333 17.333 -144 52v-286h-127v724l70 -61c32 42.667 88 66.667 168 72c88 0 154 -24.333 198 -73c42 -46.667 63 -105 63 -175zM415 224.001
c0 39.333 -11.833 72 -35.5 98s-55.167 39 -94.5 39c-36.667 0 -66 -13.5 -88 -40.5s-33 -59.167 -33 -96.5c0 -38.667 10.333 -71 31 -97c21.333 -28 50.666 -42.667 87.999 -44c2.66699 0.666992 13.334 2 32.001 4c14 0.666992 28 6 42 16c38.667 26.667 58 67 58 121z
" />
    <glyph glyph-name="q" unicode="q" horiz-adv-x="589" 
d="M546 -263l-127 -0.00195312v287c-48.667 -35.333 -93.667 -53 -135 -53c-69.333 0 -126.833 24.167 -172.5 72.5s-68.5 107.5 -68.5 177.5c0 64.667 20.667 122 62 172c43.333 52.667 102.666 80.334 177.999 83.001c82.667 2.66699 149.334 -18.666 200.001 -63.999
l63 49v-724zM422 220.998c0 41.333 -11.667 75.001 -35 101.001s-55.666 39 -96.999 39c-34 0 -62.333 -14.333 -85 -43s-34 -60 -34 -94c0 -40 11.167 -73.333 33.5 -100s53.166 -40 92.499 -40c38.667 0 69.667 13.333 93 40c21.333 25.333 32 57.666 32 96.999z" />
    <glyph glyph-name="r" unicode="r" horiz-adv-x="341" 
d="M302 496l-2 -136c-94.667 -16 -139 -58.333 -133 -127v-233h-127v462l58 -58c53.333 45.333 121.333 76 204 92z" />
    <glyph glyph-name="s" unicode="s" horiz-adv-x="430" 
d="M391 140c0 -42.667 -17.333 -79.332 -52 -109.999s-80 -44.667 -136 -42c-69.333 5.33301 -124 24 -164 56l56 84c40 -16 80 -27.667 120 -35c24 4.66699 40 15.667 48 33c-2.66699 25.333 -20.334 44.333 -53.001 57c-59.333 31.333 -92.333 49.666 -99 54.999
c-35.333 26.667 -53 58.334 -53 95.001c0 39.333 15.667 72.333 47 99s67 40 107 40c36 0 66.333 -8.66699 91 -26c21.333 -6.66699 41.333 -19.334 60 -38.001l-60 -68c-29.333 16 -61.666 24 -96.999 24c-6 0 -11.833 -2.5 -17.5 -7.5s-8.5 -10.833 -8.5 -17.5
c0 -12 18.333 -25.667 55 -41c49.333 -20.667 83 -38 101 -52c36.667 -28 55 -63.333 55 -106z" />
    <glyph glyph-name="t" unicode="t" horiz-adv-x="353" 
d="M316 355h-87v-355h-127v355l-64 1l64 114v165h127v-165h87v-115z" />
    <glyph glyph-name="u" unicode="u" horiz-adv-x="513" 
d="M467 -20l-55.999 52c-36 -36 -86.667 -54 -152 -54c-62.667 0 -114.167 19.667 -154.5 59s-60.5 90 -60.5 152v271h127v-259c0 -30 7 -55 21 -75c15.333 -22.667 37.666 -34 66.999 -34c54.667 0 82 36.333 82 109v259h127z" />
    <glyph glyph-name="v" unicode="v" horiz-adv-x="520" 
d="M522 460l-260 -476l-263 476h144l118 -227l117 227h144z" />
    <glyph glyph-name="w" unicode="w" horiz-adv-x="810" 
d="M802 438l-263 -454l-135 255l-131 -255l-265 454h144l119 -220l133 266l135 -266l118 220h145z" />
    <glyph glyph-name="x" unicode="x" horiz-adv-x="658" 
d="M622 0h-154l-139 158l-134 -158h-160l221 248l-179 212h154l99 -126l106 126h158l-183 -213z" />
    <glyph glyph-name="y" unicode="y" horiz-adv-x="645" 
d="M604 460l-332 -716h-152l120 256l-200 460h149l131 -308l139 308h145z" />
    <glyph glyph-name="z" unicode="z" horiz-adv-x="631" 
d="M597 460l-306 -347h270v-113h-527l307 347h-231v113h487z" />
    <glyph glyph-name="braceleft" unicode="{" horiz-adv-x="324" 
d="M296 -189h-92.999c-16.667 0 -33.334 7.33301 -50.001 22c-36 31.333 -54 69.333 -54 114v183c0 64 -23.667 105.667 -71 125v95c47.333 15.333 71 56.333 71 123v187c0 40.667 17 77.667 51 111c16.667 16 33.667 24 51 24h95v-118h-59c-5.33301 0 -8 -8 -8 -24v-197
c0 -61.333 -21 -112.666 -63 -153.999c19.333 -17.333 35 -42 47 -74c10.667 -28.667 16 -57.334 16 -86.001c0 -138 1.16699 -208.167 3.5 -210.5s23.5 -3.5 63.5 -3.5v-117z" />
    <glyph glyph-name="bar" unicode="|" horiz-adv-x="553" 
d="M338 0h-123v852h123v-852z" />
    <glyph glyph-name="braceright" unicode="}" horiz-adv-x="324" 
d="M296 254c-48.667 -16.667 -73 -65.333 -73 -146c0 -12.667 0.666992 -32.667 2 -60s2 -47.666 2 -60.999c0 -72.667 -16.667 -123.334 -50 -152.001c-18.667 -16 -39 -24 -61 -24h-88v117h59c6 0 9 8 9 24v196c0 63.333 21 114.666 63 153.999c-42 40 -63 93.667 -63 161
v188c0 12 -0.333008 18.667 -1 20c-2 4.66699 -7.66699 6.66699 -17 6l-50 -3v121h88c22 0 41.333 -7 58 -21c35.333 -30 53 -81 53 -153c0 -13.333 -0.666992 -33.833 -2 -61.5s-2 -48.167 -2 -61.5c0 -77.333 24.333 -126.666 73 -147.999v-96z" />
    <glyph glyph-name="asciitilde" unicode="~" 
d="M558 276c-53.333 -78 -114.668 -117 -184.001 -117c-26 0 -62.667 13.333 -110 40s-77.666 40 -90.999 40s-38 -23.667 -74 -71l-97 60l83 80c29.333 23.333 67 35 113 35c24.667 0 60.167 -13.667 106.5 -41s72.5 -41 78.5 -41c13.333 0 39 25.667 77 77z" />
    <glyph glyph-name="nonbreakingspace" unicode="&#xa0;" horiz-adv-x="119" 
 />
    <glyph glyph-name="exclamdown" unicode="&#xa1;" horiz-adv-x="311" 
d="M231 425c0 -22.667 -7.50098 -40.667 -22.501 -54s-33.833 -20 -56.5 -20c-48.667 0 -73 24.667 -73 74c0 20 7.33301 37.5 22 52.5s32 22.5 52 22.5c22.667 0 41.334 -7 56.001 -21s22 -32 22 -54zM220.999 -253h-127v578h127v-578z" />
    <glyph glyph-name="cent" unicode="&#xa2;" 
d="M485 161c-26 -14 -66.335 -25.333 -121.002 -34v-79h-84v84c-60.667 12.667 -109.667 41.5 -147 86.5s-56 98.5 -56 160.5c0 56 20.333 107 61 153c38.667 44 86 72 142 84v75h86v-72c32.667 0 72.334 -11.667 119.001 -35v-178c-21.333 30 -38 50.333 -50 61
c-20.667 20 -43.667 32.333 -69 37v-258c32.667 6.66699 72.334 34 119.001 82v-167zM279.998 250v244c-22 -7.33301 -40.5 -24.5 -55.5 -51.5s-22.5 -52.833 -22.5 -77.5c0 -46.667 26 -85 78 -115z" />
    <glyph glyph-name="sterling" unicode="&#xa3;" 
d="M589 129c-41.333 -91.333 -101 -136.998 -179 -136.998c-27.333 0 -66.666 9.83301 -117.999 29.5s-91 29.5 -119 29.5c-33.333 0 -58 -22.333 -74 -67l-116 55c26 43.333 47.333 72.666 64 87.999c25.333 24 57.666 38.333 96.999 43c6 27.333 9 46.666 9 57.999
c0 23.333 -4.33301 42.333 -13 57h-134v91h84c-28 56 -42 103.667 -42 143c0 68 26.333 124.667 79 170c50.667 43.333 110.667 65 180 65c57.333 0 112.166 -17 164.499 -51s82.833 -98.667 91.5 -194l-139 -51c7.33301 24.667 11 41.667 11 51c0 36 -11.5 66.333 -34.5 91
s-52.167 37 -87.5 37c-31.333 0 -61.666 -12 -90.999 -36c-31.333 -25.333 -47 -53.333 -47 -84c0 -28.667 20.333 -75.667 61 -141h152v-91h-115c4.66699 -19.333 7 -44 7 -74c0 -10 -3 -27.667 -9 -53l70 -26c34.667 -12 58.334 -18 71.001 -18
c13.333 0 27.666 10 42.999 30l31 44z" />
    <glyph glyph-name="currency" unicode="&#xa4;" 
d="M556 126l-88 -75.999l-45 40c-40.667 -24 -89.667 -36 -147 -36c-52 0 -97.667 12 -137 36l-46 -39l-86 76l43 43c-25.333 43.333 -38 83 -38 119c0 44.667 12.667 87.667 38 129l-43 42l87 80l45 -43c39.333 25.333 86.333 38 141 38s102 -12.333 142 -37l44 42l89 -80
l-43 -41c24.667 -36 37 -78.667 37 -128c0 -42.667 -12.333 -83.334 -37 -122.001zM429 300.001c0 38.667 -15.334 70 -46.001 94c-28 22 -62 33 -102 33c-41.333 0 -76.333 -11.667 -105 -35c-30.667 -25.333 -46 -58 -46 -98c0 -36 15.667 -67.333 47 -94
c29.333 -25.333 62.333 -38 99 -38c42.667 0 78.834 12.5 108.501 37.5s44.5 58.5 44.5 100.5z" />
    <glyph glyph-name="yen" unicode="&#xa5;" 
d="M598 739l-152 -254.999h129v-91h-185l-47 -78c3.33301 5.33301 4.33301 11.666 3 18.999h229v-92h-229v-242h-131v242h-229v92h229v-14l-44 73h-185v91h130l-154 255h150l168 -281l170 281h148z" />
    <glyph glyph-name="brokenbar" unicode="&#xa6;" horiz-adv-x="328" 
d="M333 0h-124v848h124v-848z" />
    <glyph glyph-name="section" unicode="&#xa7;" 
d="M543 355c0 -53.333 -26 -103.666 -78 -150.999c28 -34 42 -72.333 42 -115c0 -59.333 -25.667 -108 -77 -146c-46.667 -34.667 -101 -52 -163 -52c-75.333 0 -132.333 23.667 -171 71c-36.667 43.333 -55 104 -55 182h127c0 -92 37.333 -138 112 -138
c24.667 0 47.5 8.5 68.5 25.5s31.5 37.5 31.5 61.5c0 15.333 -5 29 -15 41c-6 6.66699 -17.667 15 -35 25c-11.333 6.66699 -28.666 16.334 -51.999 29.001l-116 51c-50 22.667 -86 45.667 -108 69c-24 25.333 -36 58.666 -36 99.999c0 60.667 28.667 112.334 86 155.001
c-24.667 32.667 -37 66 -37 100c0 53.333 21.667 98.666 65 135.999c41.333 35.333 89 53 143 53c61.333 0 112.166 -17.667 152.499 -53s60.5 -83.333 60.5 -144h-124c0 54 -28.667 81 -86 81c-22 0 -41 -6.83301 -57 -20.5s-24 -31.5 -24 -53.5c0 -30 30 -59 90 -87
c104.667 -49.333 160 -76 166 -80c60 -38.667 90 -85.334 90 -140.001zM416 340c0 19.333 -6.66699 35.333 -20 48c-8 6.66699 -23.667 15.667 -47 27l-164 80c-26.667 -18.667 -40 -44.667 -40 -78c0 -19.333 11.667 -36.333 35 -51c19.333 -12.667 51.333 -28.667 96 -48
c50 -22 83.333 -37.667 100 -47c26.667 21.333 40 44.333 40 69z" />
    <glyph glyph-name="dieresis" unicode="&#xa8;" horiz-adv-x="457" 
d="M408 623c0 -19.333 -7.83105 -34.167 -23.498 -44.5s-33.834 -15.5 -54.501 -15.5c-20 0 -37.667 5 -53 15c-17.333 11.333 -26 26.333 -26 45s8.66699 33.667 26 45c15.333 9.33301 32.666 14 51.999 14c20 0 37.667 -4.66699 53 -14c17.333 -11.333 26 -26.333 26 -45z
M203.002 622.999c0 -20 -7.83203 -35 -23.499 -45s-33.834 -15 -54.501 -15c-20 0 -37.667 5 -53 15c-17.333 11.333 -26 26.333 -26 45c0 16.667 9 31 27 43c16 10.667 33 16 51 16c21.333 0 39 -4.33301 53 -13c17.333 -10.667 26 -26 26 -46z" />
    <glyph glyph-name="copyright" unicode="&#xa9;" horiz-adv-x="777" 
d="M791 370c0 -108.667 -39.834 -200.166 -119.501 -274.499s-174.167 -111.5 -283.5 -111.5c-108 0 -202 37.5 -282 112.5s-120 166.167 -120 273.5c0 108 40.333 199.333 121 274c78.667 73.333 172.334 110 281.001 110c109.333 0 203.333 -36.333 282 -109
c80.667 -74.667 121 -166.334 121 -275.001zM687.999 370.001c0 81.333 -29.5 149.667 -88.5 205s-129.5 83 -211.5 83c-80.667 0 -150.334 -27.667 -209.001 -83c-60.667 -56.667 -91 -125 -91 -205s29.833 -147.833 89.5 -203.5s129.834 -83.5 210.501 -83.5
c82 0 152.5 27.5 211.5 82.5s88.5 123.167 88.5 204.5zM583.999 504.002l-64.0029 -60c-16.667 19.333 -33 34.333 -49 45s-40.333 16 -73 16c-39.333 0 -69.833 -12.833 -91.5 -38.5s-32.5 -58.834 -32.5 -99.501c0 -38 12.333 -68.333 37 -91s56 -34 94 -34
c29.333 0 51.833 6.33301 67.5 19s31.5 32.334 47.5 59.001l84 -56c-34.667 -45.333 -66.667 -76.833 -96 -94.5s-63.666 -26.5 -102.999 -26.5c-64 0 -119 21 -165 63s-69 94.667 -69 158c0 70.667 21.333 128.167 64 172.5s99.334 66.5 170.001 66.5
c92.667 -10 152.334 -43 179.001 -99z" />
    <glyph glyph-name="ordfeminine" unicode="&#xaa;" horiz-adv-x="365" 
d="M333 460l-97 0.000976562c3.33301 4.66699 7.66602 11.667 12.999 21l-8 -1c-29.333 -18 -58 -27 -86 -27c-46 0 -84.667 14 -116 42s-47 64.667 -47 110s15 81.666 45 108.999s67.667 41 113 41c32.667 0 61.334 -8.33301 86.001 -25v18h97v-288zM333 362.001h-341v78
h341v-78zM238 603.001c0 22.667 -7 40.5 -21 53.5s-32.667 19.5 -56 19.5c-20 0 -37.167 -6.66699 -51.5 -20s-21.5 -30 -21.5 -50c0 -22 6.83301 -39.667 20.5 -53s31.5 -20 53.5 -20c22.667 0 41 6.16699 55 18.5s21 29.5 21 51.5z" />
    <glyph glyph-name="guillemotleft" unicode="&#xab;" horiz-adv-x="507" 
d="M476 142l-87 -56l-198 228l197 236l88 -56l-149 -180zM289 143l-85 -57l-201 226l200 238l85 -56l-147 -180z" />
    <glyph glyph-name="logicalnot" unicode="&#xac;" 
d="M549 113h-124v156h-413v108h537v-264z" />
    <glyph glyph-name="minus" unicode="&#xad;" horiz-adv-x="333" 
d="M322 215h-310v88h310v-88z" />
    <glyph glyph-name="minus" unicode="&#x2212;" horiz-adv-x="333" 
d="M322 215h-310v88h310v-88z" />
    <glyph glyph-name="registered" unicode="&#xae;" horiz-adv-x="777" 
d="M791 370c0 -108.667 -39.834 -200.166 -119.501 -274.499s-174.167 -111.5 -283.5 -111.5c-108 0 -202 37.5 -282 112.5s-120 166.167 -120 273.5c0 108 40.333 199.333 121 274c78.667 73.333 172.334 110 281.001 110c109.333 0 203.333 -36.333 282 -109
c80.667 -74.667 121 -166.334 121 -275.001zM569.999 141.001l-90 0.00195312l-110 191h-46v-191h-103v451h205c108 0 162 -42 162 -126c0 -72.667 -33.667 -116.334 -101 -131.001l102 -179c66 56 99 127.333 99 214c0 81.333 -29.5 149.666 -88.5 204.999
s-129.5 83 -211.5 83c-80.667 0 -150.334 -27.667 -209.001 -83c-60.667 -56.667 -91 -125 -91 -205s29.833 -147.833 89.5 -203.5s129.834 -83.5 210.501 -83.5c68 0 128.667 19.333 182 58zM486.999 459.003c0 23.333 -21.333 35 -64 35h-99v-63h108
c36.667 0 55 9.33301 55 28z" />
    <glyph glyph-name="macron" unicode="&#xaf;" horiz-adv-x="552" 
d="M587 765h-622v63h622v-63z" />
    <glyph glyph-name="macron" unicode="&#x2c9;" horiz-adv-x="552" 
d="M587 765h-622v63h622v-63z" />
    <glyph glyph-name="degree" unicode="&#xb0;" horiz-adv-x="400" 
d="M353 593c0 -40 -15.667 -72.667 -47 -98s-67.333 -38 -108 -38c-40 0 -75.333 12.333 -106 37c-32.667 26.667 -49 59.667 -49 99c0 40 16 73 48 99c30 24 65.667 36 107 36s77 -12 107 -36c32 -26 48 -59 48 -99zM260 593c0 16 -6.33203 29.001 -18.999 39.001
s-27 15 -43 15c-17.333 0 -32 -4.83301 -44 -14.5s-18 -22.834 -18 -39.501c0 -15.333 6.66699 -28.333 20 -39s27.666 -16 42.999 -16c16.667 0 31 5 43 15s18 23.333 18 40z" />
    <glyph glyph-name="plusminus" unicode="&#xb1;" 
d="M549 277h-207v-157h-123v157h-207v116h207v159h123v-159h207v-116zM549 0h-537v116h537v-116z" />
    <glyph glyph-name="twosuperior" unicode="&#xb2;" horiz-adv-x="336" 
d="M342 297l-370 0.000976562l240 254c17.333 18.667 26 36 26 52c0 15.333 -6.5 28.833 -19.5 40.5s-27.5 17.5 -43.5 17.5c-47.333 0 -71 -22.667 -71 -68h-105c10.667 105.333 67.667 158 171 158c44 0 83 -13 117 -39c36.667 -28.667 55 -64.334 55 -107.001
c0 -36 -12.667 -67.667 -38 -95l-118 -126h156v-87z" />
    <glyph glyph-name="threesuperior" unicode="&#xb3;" horiz-adv-x="336" 
d="M338 422c0 -34.667 -17 -65.668 -51 -93.001c-30 -24 -70.667 -36 -122 -36c-48 0 -87 12 -117 36c-32.667 26.667 -49 63.334 -49 110.001h99c4.66699 -39.333 28.667 -59 72 -59c16 0 31 5.16699 45 15.5s21 23.5 21 39.5c0 38.667 -33 58 -99 58v86c62 0 93 14 93 42
c0 14.667 -6.5 25.667 -19.5 33s-27.5 11 -43.5 11c-20 0 -33 -3.16699 -39 -9.5s-10.333 -19.833 -13 -40.5h-110c19.333 93.333 76 140 170 140c42 0 77.667 -10.667 107 -32c32.667 -23.333 49 -55.333 49 -96c0 -38 -15 -68 -45 -90c34.667 -26 52 -64.333 52 -115z" />
    <glyph glyph-name="acute" unicode="&#xb4;" horiz-adv-x="348" 
d="M312 669l-193 -139l-74 37l145 152z" />
    <glyph glyph-name="mu" unicode="&#xb5;" horiz-adv-x="497" 
d="M461 190c0 -67.333 -17.332 -120.667 -51.999 -160s-85.667 -59 -153 -59c-28.667 0 -59.334 8.66699 -92.001 26v-260h-127v723h127v-266c0 -70.667 28.667 -106 86 -106c56 0 84 35.333 84 106v266h127v-270z" />
    <glyph glyph-name="mu" unicode="&#x3bc;" horiz-adv-x="497" 
d="M461 190c0 -67.333 -17.332 -120.667 -51.999 -160s-85.667 -59 -153 -59c-28.667 0 -59.334 8.66699 -92.001 26v-260h-127v723h127v-266c0 -70.667 28.667 -106 86 -106c56 0 84 35.333 84 106v266h127v-270z" />
    <glyph glyph-name="paragraph" unicode="&#xb6;" 
d="M543 623l-59.999 -1v-771h-122v771h-19v-771h-123v409c-24 0 -50.667 7.66699 -80 23c-79.333 42 -119 114.667 -119 218c0 58 22.167 112.167 66.5 162.5s95.166 75.5 152.499 75.5h304v-116z" />
    <glyph glyph-name="periodcentered" unicode="&#xb7;" 
d="M485 371c0 -54 -20.5 -98.499 -61.5 -133.499s-88.833 -52.5 -143.5 -52.5c-52 0 -98.333 17.667 -139 53c-42.667 37.333 -64 81.666 -64 132.999c0 52 21 96.333 63 133c40 34 86.667 51 140 51c54 0 101.667 -17.333 143 -52s62 -78.667 62 -132z" />
    <glyph glyph-name="periodcentered" unicode="&#x2219;" 
d="M485 371c0 -54 -20.5 -98.499 -61.5 -133.499s-88.833 -52.5 -143.5 -52.5c-52 0 -98.333 17.667 -139 53c-42.667 37.333 -64 81.666 -64 132.999c0 52 21 96.333 63 133c40 34 86.667 51 140 51c54 0 101.667 -17.333 143 -52s62 -78.667 62 -132z" />
    <glyph glyph-name="cedilla" unicode="&#xb8;" horiz-adv-x="320" 
d="M269 -52l-128 -127l-86 35l106 126z" />
    <glyph glyph-name="onesuperior" unicode="&#xb9;" horiz-adv-x="336" 
d="M229 297h-103v354h-101l61 88h143v-442z" />
    <glyph glyph-name="ordmasculine" unicode="&#xba;" horiz-adv-x="354" 
d="M354 604c0 -48 -20.332 -86 -60.999 -114c-35.333 -24.667 -78 -37 -128 -37c-42.667 0 -80.834 14.667 -114.501 44s-50.5 65 -50.5 107c0 46 19 83.333 57 112c34.667 26 75.334 39 122.001 39c47.333 0 87.666 -13 120.999 -39c36 -28.667 54 -66 54 -112z
M354.001 362h-354v78h354v-78zM258.001 604c0 20.667 -7.83301 37.335 -23.5 50.002s-34.167 19 -55.5 19c-22 0 -40.667 -6 -56 -18c-17.333 -12.667 -26 -29.667 -26 -51c0 -20.667 8 -37.334 24 -50.001s34.667 -19 56 -19c20 0 38.5 6.66699 55.5 20
s25.5 29.666 25.5 48.999z" />
    <glyph glyph-name="guillemotright" unicode="&#xbb;" horiz-adv-x="507" 
d="M507 318l-198 -236l-88 56l148 180l-148 169l87 57zM320 317l-198 -236l-88 60l151 175l-151 171l88 59z" />
    <glyph glyph-name="onequarter" unicode="&#xbc;" horiz-adv-x="841" 
d="M823 65h-47v-60h-102v60h-255l357 449v-358h47v-91zM692 714l-449 -730l-85 45l447 725zM205 283h-102v361h-95l55 89h142v-450zM674 156v80l-64 -80h64z" />
    <glyph glyph-name="onehalf" unicode="&#xbd;" horiz-adv-x="841" 
d="M823 6h-369l239 260c17.333 18.667 26 36 26 52c0 15.333 -6.5 28.833 -19.5 40.5s-27.5 17.5 -43.5 17.5c-47.333 0 -71 -23 -71 -69h-105c12.667 106.667 69.667 160 171 160c44.667 0 83.667 -12.667 117 -38c36.667 -28 55 -63.667 55 -107
c0 -37.333 -13 -70 -39 -98l-118 -126h157v-92zM640 714l-447 -730l-82 46l445 724zM205 284h-102v360h-95l55 89h142v-449z" />
    <glyph glyph-name="threequarters" unicode="&#xbe;" horiz-adv-x="841" 
d="M823 65h-47v-59h-102v59h-255l357 450v-359h47v-91zM746 715l-447 -731l-85 45l446 726zM359 412c0 -41.333 -19.3311 -74.667 -57.998 -100c-33.333 -21.333 -72 -32 -116 -32c-47.333 0 -86.333 12.667 -117 38c-32.667 27.333 -49 64 -49 110h102
c0 -39.333 23 -59 69 -59c17.333 0 32.666 5 45.999 15s20 23.333 20 40c0 39.333 -31.667 59 -95 59v88c60 0 90 14 90 42c0 14 -6.5 25 -19.5 33s-27.167 12 -42.5 12c-20 0 -33.5 -3.5 -40.5 -10.5s-10.5 -20.5 -10.5 -40.5h-107c8 49.333 25 85.333 51 108
s63.667 34 113 34c43.333 0 79.666 -10.667 108.999 -32c32 -24.667 48 -57.667 48 -99c0 -36 -15 -66 -45 -90c34.667 -25.333 52 -64 52 -116zM674.002 155.999v81l-64 -81h64z" />
    <glyph glyph-name="questiondown" unicode="&#xbf;" horiz-adv-x="439" 
d="M293 429c0 -20 -7.66504 -37.667 -22.998 -53s-33.333 -23 -54 -23s-38.334 7 -53.001 21s-22 31.333 -22 52c0 20 7.83301 37.333 23.5 52s33.5 22 53.5 22c19.333 0 36.666 -7 51.999 -21s23 -30.667 23 -50zM408.002 -97c0 -46.667 -19.5 -86.001 -58.5 -118.001
s-82.167 -48 -129.5 -48c-54 0 -100 17.667 -138 53c-40 36 -60 80.667 -60 134c0 58.667 21 103 63 133c18.667 13.333 57.334 29.666 116.001 48.999c42 13.333 63 29.666 63 48.999c0 12.667 -4.16699 24 -12.5 34s-18.833 15 -31.5 15c-34.667 0 -52 -24 -52 -72h-127
c0 54.667 16.167 99.834 48.5 135.501s75.5 53.5 129.5 53.5c48.667 0 90.167 -17 124.5 -51s51.5 -75.333 51.5 -124c0 -42 -14 -75 -42 -99c-16.667 -14 -47.334 -29.167 -92.001 -45.5s-74.5 -30.666 -89.5 -42.999s-22.5 -22.166 -22.5 -29.499c0 -50 21.667 -75 65 -75
c18 0 33.833 5.83301 47.5 17.5s20.5 26.167 20.5 43.5c0 6 -4 22.667 -12 50h134c2.66699 -28 4 -48.667 4 -62z" />
    <glyph glyph-name="Agrave" unicode="&#xc0;" horiz-adv-x="682" 
d="M476 815l-75 -44l-191 170l120 59zM722 0h-141l-85 177h-308l-84 -177h-143l380 802zM442 296l-101 219l-98 -219h199z" />
    <glyph glyph-name="Aacute" unicode="&#xc1;" horiz-adv-x="682" 
d="M479 941l-195 -170l-72 44l145 185zM722 0h-141l-85 177h-308l-84 -177h-143l380 802zM442 296l-101 219l-98 -219h199z" />
    <glyph glyph-name="Acircumflex" unicode="&#xc2;" horiz-adv-x="682" 
d="M528 839l-90 -68l-97 89l-96 -89l-90 68l186 161zM722 0h-141l-85 177h-308l-84 -177h-143l380 801zM442 296l-101 219l-98 -219h199z" />
    <glyph glyph-name="Atilde" unicode="&#xc3;" horiz-adv-x="682" 
d="M554 898c-13.333 -29.333 -32 -53 -56 -71c-26 -20 -54.333 -30 -85 -30c-17.333 0 -42.5 7.83301 -75.5 23.5s-58.167 23.5 -75.5 23.5c-16.667 0 -34 -17.333 -52 -52l-78 62c36.667 64 81 96 133 96c22.667 0 50.667 -7.83301 84 -23.5s57 -23.5 71 -23.5
c17.333 0 36.333 19 57 57zM722 0h-141l-85 176h-308l-84 -176h-143l380 797zM442 295l-101 217l-98 -217h199z" />
    <glyph glyph-name="Adieresis" unicode="&#xc4;" horiz-adv-x="682" 
d="M522 887c0 -22 -7.66699 -40.3311 -23 -54.998s-34 -22 -56 -22c-20.667 0 -39 7.66699 -55 23s-24 33.333 -24 54c0 21.333 7.83301 39.166 23.5 53.499s34.167 21.5 55.5 21.5c22.667 0 41.5 -6.83301 56.5 -20.5s22.5 -31.834 22.5 -54.501zM318 888.002
c0 -21.333 -7.83301 -39.667 -23.5 -55s-34.167 -23 -55.5 -23c-22 0 -40.5 7.33301 -55.5 22s-22.5 33 -22.5 55s7.5 40 22.5 54s33.5 21 55.5 21c21.333 0 39.833 -7 55.5 -21s23.5 -31.667 23.5 -53zM722 0.000976562h-142l-84 178h-308l-84 -178h-143l380 805z
M442 298.001l-101 219l-98 -219h199z" />
    <glyph glyph-name="Aring" unicode="&#xc5;" horiz-adv-x="682" 
d="M450 898c0 -29.333 -10.5 -54.335 -31.5 -75.002s-46.167 -31 -75.5 -31c-30 0 -55.667 10.167 -77 30.5s-32 45.5 -32 75.5c0 28.667 11 52.834 33 72.501s47.333 29.5 76 29.5c29.333 0 54.5 -9.66699 75.5 -29s31.5 -43.666 31.5 -72.999zM722 -0.00195312h-141
l-85 178h-308l-84 -178h-143l380 807zM366 897.998c0 15.333 -7.66699 23 -23 23c-16.667 0 -25 -7.66699 -25 -23c0 -16.667 8.33301 -25 25 -25c15.333 0 23 8.33301 23 25zM442 297.998l-101 220l-98 -220h199z" />
    <glyph glyph-name="AE" unicode="&#xc6;" horiz-adv-x="966" 
d="M1020 0h-436l-80 175h-308l-82 -175h-146l372 739h345l53 -118h-298l70 -158h292l58 -118h-295l100 -227h303zM453 294l-97 206l-102 -206h199z" />
    <glyph glyph-name="Ccedilla" unicode="&#xc7;" horiz-adv-x="640" 
d="M430 -20l-126.002 -159.001l-86 44l86 131c-85.333 24 -156 71.333 -212 142s-84 151 -84 241c0 104.667 42 194 126 268c80.667 71.333 174 107 280 107c42.667 0 78.667 -3.66699 108 -11c26.667 -6.66699 60.334 -20 101.001 -40v-158c-73.333 62 -145.333 93 -216 93
c-69.333 0 -131.333 -26.167 -186 -78.5s-82 -113.166 -82 -182.499c0 -75.333 26 -140.166 78 -194.499s115.333 -81.5 190 -81.5c65.333 0 137.333 31.333 216 94v-155c-65.333 -36.667 -130.666 -56.334 -195.999 -59.001z" />
    <glyph glyph-name="Egrave" unicode="&#xc8;" horiz-adv-x="505" 
d="M384 815l-73 -44l-193 170l121 59zM483 0h-433v745h433v-120h-302v-158h294v-119h-294v-229h302v-119z" />
    <glyph glyph-name="Eacute" unicode="&#xc9;" horiz-adv-x="505" 
d="M401 942l-194 -171l-73 44l145 185zM483 0h-433v745h433v-120h-302v-158h294v-119h-294v-229h302v-119z" />
    <glyph glyph-name="Ecircumflex" unicode="&#xca;" horiz-adv-x="505" 
d="M438 840l-88 -69l-98 90l-98 -90l-87 69l185 160zM483 0h-433v744h433v-118h-302v-160h294v-118h-294v-230h302v-118z" />
    <glyph glyph-name="Edieresis" unicode="&#xcb;" horiz-adv-x="505" 
d="M446 887c0 -22 -7.50098 -40.334 -22.501 -55.001s-33.5 -22 -55.5 -22s-40.667 7.33301 -56 22s-23 33 -23 55c0 22.667 7.5 40.834 22.5 54.501s33.833 20.5 56.5 20.5s41.334 -7 56.001 -21s22 -32 22 -54zM241.999 886.999c0 -21.333 -7.83301 -39.5 -23.5 -54.5
s-34.167 -22.5 -55.5 -22.5c-22 0 -40.667 7.33301 -56 22s-23 33 -23 55s7.5 40 22.5 54s33.833 21 56.5 21c22 0 40.667 -7 56 -21s23 -32 23 -54zM482.999 -0.000976562h-433v748h433v-120h-302v-159h294v-120h-294v-230h302v-119z" />
    <glyph glyph-name="Igrave" unicode="&#xcc;" horiz-adv-x="225" 
d="M243 815l-74 -44l-193 170l121 59zM179 0h-131v745h131v-745z" />
    <glyph glyph-name="Iacute" unicode="&#xcd;" horiz-adv-x="225" 
d="M250 941l-193 -170l-75 44l146 185zM177 0h-131v745h131v-745z" />
    <glyph glyph-name="Icircumflex" unicode="&#xce;" horiz-adv-x="225" 
d="M298 840l-88 -69l-98 90l-97 -90l-90 68l187 161zM177 0h-131v744h131v-744z" />
    <glyph glyph-name="Idieresis" unicode="&#xcf;" horiz-adv-x="225" 
d="M293 887c0 -21.333 -7.83301 -39.499 -23.5 -54.499s-34.167 -22.5 -55.5 -22.5s-39.833 7.66699 -55.5 23s-23.5 33.333 -23.5 54c0 22 7.66699 40 23 54s34 21 56 21c22.667 0 41.5 -6.83301 56.5 -20.5s22.5 -31.834 22.5 -54.501zM88 887.001
c0 -21.333 -7.66895 -39.501 -23.002 -54.501s-33.666 -22.5 -54.999 -22.5c-22 0 -40.833 7.33301 -56.5 22s-23.5 33 -23.5 55c0 22.667 7.66699 40.834 23 54.501s34.333 20.5 57 20.5s41.334 -7 56.001 -21s22 -32 22 -54zM178.998 0h-131v748h131v-748z" />
    <glyph glyph-name="Eth" unicode="&#xd0;" horiz-adv-x="644" 
d="M645 379c0 -120.667 -40.667 -215.333 -122 -284c-76.667 -63.333 -176.667 -95 -300 -95h-181v337h-62v120h62v282h172c120 0 219.667 -29.333 299 -88c88 -65.333 132 -156 132 -272zM513 371.001c0 166.667 -113.333 250 -340 250v-164h131v-120h-131v-219h36
c88 0 159 19.667 213 59c60.667 44 91 108.667 91 194z" />
    <glyph glyph-name="Ntilde" unicode="&#xd1;" horiz-adv-x="762" 
d="M593 899c-14 -28.667 -32.999 -51.667 -56.999 -69c-26 -19.333 -54 -29 -84 -29c-16.667 0 -41.667 7.66699 -75 23s-58.333 23 -75 23c-14.667 0 -32 -17 -52 -51l-78 60c38 63.333 82.333 95 133 95c21.333 0 48.666 -7.66699 81.999 -23s57.333 -23 72 -23
c18 0 37.333 18.333 58 55zM723.001 -31l-552 539v-482h-130v782l549 -539v477h133v-777z" />
    <glyph glyph-name="Ograve" unicode="&#xd2;" horiz-adv-x="803" 
d="M531 814l-72 -45l-191 171l119 60zM805 372c0 -108 -40 -199.833 -120 -275.5s-174.333 -113.5 -283 -113.5c-109.333 0 -203.666 37.667 -282.999 113s-119 167.333 -119 276s39.667 200.334 119 275.001s173.666 112 282.999 112s203.833 -37.333 283.5 -112
s119.5 -166.334 119.5 -275.001zM674 372c0 75.333 -26.5 138.831 -79.5 190.498s-117.167 77.5 -192.5 77.5s-139.5 -25.833 -192.5 -77.5s-79.5 -115.167 -79.5 -190.5c0 -73.333 27 -136.166 81 -188.499s117.667 -78.5 191 -78.5c74.667 0 138.667 25.833 192 77.5
s80 114.834 80 189.501z" />
    <glyph glyph-name="Oacute" unicode="&#xd3;" horiz-adv-x="803" 
d="M539 941l-194 -170l-72 44l145 185zM805 372c0 -108 -40 -199.833 -120 -275.5s-174.333 -113.5 -283 -113.5c-109.333 0 -203.666 37.667 -282.999 113s-119 167.333 -119 276s39.667 200.334 119 275.001s173.666 112 282.999 112s203.833 -37.333 283.5 -112
s119.5 -166.334 119.5 -275.001zM674 372c0 75.333 -26.5 138.831 -79.5 190.498s-117.167 77.5 -192.5 77.5s-139.5 -25.833 -192.5 -77.5s-79.5 -115.167 -79.5 -190.5c0 -73.333 27 -136.166 81 -188.499s117.667 -78.5 191 -78.5c74.667 0 138.667 25.833 192 77.5
s80 114.834 80 189.501z" />
    <glyph glyph-name="Ocircumflex" unicode="&#xd4;" horiz-adv-x="803" 
d="M589 838l-89 -67l-98 88l-96 -88l-90 67l186 162zM805 372c0 -108 -40.001 -199.833 -120.001 -275.5s-174.333 -113.5 -283 -113.5c-109.333 0 -203.666 37.5 -282.999 112.5s-119 167.167 -119 276.5c0 108.667 40 200.667 120 276c78.667 73.333 172.667 110 282 110
s203.333 -36.667 282 -110c80.667 -75.333 121 -167.333 121 -276zM673.999 372c0 74.667 -26.667 138.001 -80 190.001s-117.333 78 -192 78c-75.333 0 -139.5 -25.833 -192.5 -77.5s-79.5 -115.167 -79.5 -190.5c0 -74 26.833 -137 80.5 -189s117.5 -78 191.5 -78
s137.833 26.167 191.5 78.5s80.5 115.166 80.5 188.499z" />
    <glyph glyph-name="Otilde" unicode="&#xd5;" horiz-adv-x="803" 
d="M611 898c-13.333 -29.333 -31.666 -53.333 -54.999 -72c-26 -20 -54.333 -30 -85 -30c-16 0 -40.833 8 -74.5 24s-59.167 24 -76.5 24c-16 0 -32.667 -17.333 -50 -52l-79 61c36.667 64.667 81 97 133 97c24.667 0 53.167 -7.83301 85.5 -23.5s55.166 -23.5 68.499 -23.5
c20 0 39.333 19 58 57zM805 370c0 -107.333 -40.002 -198.666 -120.002 -273.999s-174.333 -113 -283 -113c-109.333 0 -203.666 37.167 -282.999 111.5s-119 166.166 -119 275.499c0 108 40.333 199.667 121 275c78.667 73.333 172.334 110 281.001 110
s202.667 -36.667 282 -110c80.667 -75.333 121 -167 121 -275zM673.998 370c0 74.667 -26.667 137.834 -80 189.501s-117.333 77.5 -192 77.5c-75.333 0 -139.5 -25.833 -192.5 -77.5s-79.5 -114.834 -79.5 -189.501c0 -74 26.833 -136.667 80.5 -188s117.5 -77 191.5 -77
s137.833 25.833 191.5 77.5s80.5 114.167 80.5 187.5z" />
    <glyph glyph-name="Odieresis" unicode="&#xd6;" horiz-adv-x="803" 
d="M584 887c0 -22 -7.66895 -40.333 -23.002 -55s-34 -22 -56 -22c-21.333 0 -39.666 7.5 -54.999 22.5s-23 33.167 -23 54.5c0 20.667 7.83301 38.334 23.5 53.001s33.834 22 54.501 22c22.667 0 41.5 -6.83301 56.5 -20.5s22.5 -31.834 22.5 -54.501zM379.998 887
c0 -21.333 -7.66797 -39.501 -23.001 -54.501s-33.666 -22.5 -54.999 -22.5c-22 0 -40.667 7.33301 -56 22s-23 33 -23 55c0 22.667 7.5 40.834 22.5 54.501s33.833 20.5 56.5 20.5c22 0 40.5 -7 55.5 -21s22.5 -32 22.5 -54zM804.997 373.999
c0 -108 -39.999 -200.167 -119.999 -276.5s-174.333 -114.5 -283 -114.5c-110 0 -204 37.333 -282 112c-80 76 -120 169 -120 279c0 108.667 40 201 120 277c78.667 74 172.667 111 282 111s203.666 -37 282.999 -111c80 -76 120 -168.333 120 -277zM673.998 373.999
c0 75.333 -26.5 139 -79.5 191s-117.167 78 -192.5 78c-76 0 -140.333 -25.833 -193 -77.5s-79 -115.5 -79 -191.5c0 -74 26.833 -137.167 80.5 -189.5s117.5 -78.5 191.5 -78.5s137.833 26.333 191.5 79s80.5 115.667 80.5 189z" />
    <glyph glyph-name="multiply" unicode="&#xd7;" horiz-adv-x="584" 
d="M532 219l-86 -78l-154 135l-154 -134l-87 76l154 135l-154 136l89 76l152 -135l154 136l85 -78l-152 -135z" />
    <glyph glyph-name="Oslash" unicode="&#xd8;" horiz-adv-x="803" 
d="M821 693l-100.001 -95c56 -68 84 -144 84 -228c0 -106 -41 -196 -123 -270c-79.333 -72 -172.666 -108 -279.999 -108c-91.333 0 -174.666 26.667 -249.999 80l-98 -93l-68 67l95 90c-54 61.333 -81 139.333 -81 234c0 106.667 40.667 196.667 122 270
c79.333 71.333 172.666 107 279.999 107c92.667 0 177 -28 253 -84l96 92zM673.999 370c0 51.333 -15.668 99.333 -47.001 144l-380 -357c44.667 -31.333 96.334 -47 155.001 -47c73.333 0 137 25.167 191 75.5s81 111.833 81 184.5zM562.998 580c-45.333 34 -99 51 -161 51
c-74 0 -137.833 -25 -191.5 -75s-80.5 -112 -80.5 -186c0 -54.667 15.333 -105 46 -151z" />
    <glyph glyph-name="Ugrave" unicode="&#xd9;" horiz-adv-x="650" 
d="M446 815l-74 -44l-193 170l121 59zM613 277c0 -86 -26.667 -156.5 -80 -211.5s-123 -82.5 -209 -82.5c-82.667 0 -151.167 27.333 -205.5 82s-81.5 123.667 -81.5 207v473h131v-452c0 -125.333 52 -188 156 -188c105.333 0 158 65.333 158 196v444h131v-468z" />
    <glyph glyph-name="Uacute" unicode="&#xda;" horiz-adv-x="650" 
d="M461 942l-194 -171l-73 44l145 185zM613 277c0 -86 -26.667 -156.5 -80 -211.5s-123 -82.5 -209 -82.5c-82.667 0 -151.167 27.333 -205.5 82s-81.5 123.667 -81.5 207v473h131v-452c0 -125.333 52 -188 156 -188c105.333 0 158 65.333 158 196v444h131v-468z" />
    <glyph glyph-name="Ucircumflex" unicode="&#xdb;" horiz-adv-x="650" 
d="M512 839l-88 -68l-98 89l-98 -89l-87 68l185 161zM615 276c0 -85.333 -26.833 -155.5 -80.5 -210.5s-123.167 -82.5 -208.5 -82.5c-82.667 0 -151.167 27.5 -205.5 82.5s-81.5 123.833 -81.5 206.5v472h131v-451c0 -125.333 52 -188 156 -188c105.333 0 158 65 158 195
v444h131v-468z" />
    <glyph glyph-name="Udieresis" unicode="&#xdc;" horiz-adv-x="650" 
d="M507 887c0 -20.667 -7.83301 -38.6689 -23.5 -54.002s-34.167 -23 -55.5 -23c-20.667 0 -38.834 7.66699 -54.501 23s-23.5 33.333 -23.5 54c0 22.667 7.33301 40.834 22 54.501s33.334 20.5 56.001 20.5c21.333 0 39.833 -7.16699 55.5 -21.5s23.5 -32.166 23.5 -53.499
zM302 886.998c0 -21.333 -7.83496 -39.501 -23.502 -54.501s-34.167 -22.5 -55.5 -22.5s-39.666 7.5 -54.999 22.5s-23 33.167 -23 54.5c0 22.667 7.33301 40.834 22 54.501s33.334 20.5 56.001 20.5c22 0 40.667 -7 56 -21s23 -32 23 -54zM614.998 277.997
c0 -86 -26.667 -156.667 -80 -212s-123 -83 -209 -83c-82.667 0 -151.167 27.5 -205.5 82.5s-81.5 124.167 -81.5 207.5v475h131v-454c0 -125.333 52 -188 156 -188c105.333 0 158 65.333 158 196v446h131v-470z" />
    <glyph glyph-name="Yacute" unicode="&#xdd;" horiz-adv-x="555" 
d="M453 938l-194 -170l-74 45l146 185zM597 745l-253 -423v-322h-131v322l-253 423h150l168 -283l170 283h149z" />
    <glyph glyph-name="Thorn" unicode="&#xde;" horiz-adv-x="479" 
d="M489 391c0 -72 -25.001 -128.668 -75.001 -170.001c-46.667 -38 -107 -57 -181 -57h-52v-164h-133l2 739h131v-130h3c0.666992 -0.666992 1.33398 -1 2.00098 -1c20 -0.666992 50 -2.66699 90 -6c142 -19.333 213 -89.666 213 -210.999zM363.999 388.999
c0 70 -53 105 -159 105h-24v-214c54.667 0 95 5.33301 121 16c41.333 16.667 62 47.667 62 93z" />
    <glyph glyph-name="germandbls" unicode="&#xdf;" horiz-adv-x="563" 
d="M570 272c0 -40 -3.66602 -70.665 -10.999 -91.998c-17.333 -50.667 -46.5 -92.834 -87.5 -126.501s-87.833 -54.834 -140.5 -63.501c-22.667 -4 -48.667 -6 -78 -6v117c50 0 93.333 13.667 130 41c40 30 60 69.333 60 118c0 52 -19.333 92 -58 120c-34 24 -78 36 -132 36
v120c37.333 0 67.666 8.33301 90.999 25c27.333 18.667 41 46 41 82c0 29.333 -11 53.5 -33 72.5s-47.667 28.5 -77 28.5c-68 0 -102 -52.667 -102 -158v-587h-127v363h-40v117h40v132c0 78.667 18.667 139.667 56 183c39.333 46.667 97 70 173 70
c66 0 121.833 -21.833 167.5 -65.5s68.5 -98.167 68.5 -163.5c0 -60 -23.667 -108.667 -71 -146c38.667 -20.667 70 -51 94 -91s36 -82 36 -126z" />
    <glyph glyph-name="agrave" unicode="&#xe0;" horiz-adv-x="541" 
d="M402 537l-74 -44l-191 167l119 59zM507 -1l-127 -0.000976562v38c-37.333 -35.333 -83 -53 -137 -53c-70 0 -127.333 24.167 -172 72.5s-67 107.833 -67 178.5s22.333 129.334 67 176.001s102 70 172 70c48 0 93.667 -17.333 137 -52v41h127v-471zM383 236.999
c0 37.333 -11.4971 69 -34.4971 95s-53.167 39 -90.5 39c-36.667 0 -66.834 -13.333 -90.501 -40s-35.5 -58.667 -35.5 -96c0 -36 10.667 -67.667 32 -95c23.333 -30 52.666 -45 87.999 -45c41.333 0 73.666 13.667 96.999 41c22.667 25.333 34 59 34 101z" />
    <glyph glyph-name="aacute" unicode="&#xe1;" horiz-adv-x="541" 
d="M407 660l-194 -167l-73 44l146 182zM507 -1l-127 -0.000976562v38c-37.333 -35.333 -83 -53 -137 -53c-70 0 -127.333 24.167 -172 72.5s-67 107.833 -67 178.5s22.333 129.334 67 176.001s102 70 172 70c48 0 93.667 -17.333 137 -52v41h127v-471zM383 236.999
c0 37.333 -11.4971 69 -34.4971 95s-53.167 39 -90.5 39c-36.667 0 -66.834 -13.333 -90.501 -40s-35.5 -58.667 -35.5 -96c0 -36 10.667 -67.667 32 -95c23.333 -30 52.666 -45 87.999 -45c41.333 0 73.666 13.667 96.999 41c22.667 25.333 34 59 34 101z" />
    <glyph glyph-name="acircumflex" unicode="&#xe2;" horiz-adv-x="541" 
d="M457 562l-90 -69l-98 87l-97 -87l-88 69l185 157zM507 -1h-127v38c-37.333 -35.333 -83 -53 -137 -53c-70 0 -127.333 24.167 -172 72.5s-67 107.833 -67 178.5c0 71.333 22.167 130 66.5 176s101.833 69 172.5 69c50 0 95.667 -17 137 -51v40h127v-470zM383 237
c0 38.667 -11.3301 70.501 -33.9971 95.501s-53 37.5 -91 37.5c-36.667 0 -66.834 -13.333 -90.501 -40s-35.5 -58.334 -35.5 -95.001c0 -36 10.667 -67.667 32 -95c23.333 -30 52.666 -45 87.999 -45c41.333 0 73.666 13.667 96.999 41c22.667 25.333 34 59 34 101z" />
    <glyph glyph-name="atilde" unicode="&#xe3;" horiz-adv-x="541" 
d="M481 621c-12.667 -28.667 -31.667 -52.5 -57 -71.5s-53.333 -28.5 -84 -28.5c-17.333 0 -42.833 7.83301 -76.5 23.5s-58.5 23.5 -74.5 23.5s-33 -17 -51 -51l-78 61c40 64 84.333 96 133 96c20.667 0 47.667 -8 81 -24s58 -24 74 -24s36 18 60 54zM507 -1h-127v38
c-37.333 -35.333 -83 -53 -137 -53c-70 0 -127.333 24 -172 72s-67 107.333 -67 178c0 71.333 22.167 130 66.5 176s101.833 69 172.5 69c50 0 95.667 -17 137 -51v40h127v-469zM383 236c0 38 -11.498 69.832 -34.498 95.499s-53.167 38.5 -90.5 38.5
c-36.667 0 -66.834 -13.333 -90.501 -40s-35.5 -58.667 -35.5 -96c0 -36 10.667 -67.667 32 -95c23.333 -29.333 52.666 -44 87.999 -44c40.667 0 72.667 13.333 96 40s35 60.334 35 101.001z" />
    <glyph glyph-name="adieresis" unicode="&#xe4;" horiz-adv-x="541" 
d="M452 607c0 -22 -7.33203 -39.999 -21.999 -53.999s-33.334 -21 -56.001 -21c-21.333 0 -40 7.16699 -56 21.5s-24 32.166 -24 53.499c0 20.667 8 38.334 24 53.001s34.333 22 55 22s39 -7.33301 55 -22s24 -32.334 24 -53.001zM247.001 607.001
c0 -22 -7.33105 -40.001 -21.998 -54.001s-33.334 -21 -56.001 -21s-41.5 6.83301 -56.5 20.5s-22.5 31.834 -22.5 54.501c0 20.667 7.66699 38.334 23 53.001s33.666 22 54.999 22c20.667 0 39 -7.33301 55 -22s24 -32.334 24 -53.001zM507.003 -1l-127 0.000976562v38
c-37.333 -35.333 -83 -53 -137 -53c-70.667 0 -128.167 24.333 -172.5 73s-66.5 108.667 -66.5 180s22.167 130.166 66.5 176.499s101.833 69.5 172.5 69.5c55.333 0 101 -17.333 137 -52v41h127v-473zM383.003 238.001c0 37.333 -11.5 69.166 -34.5 95.499
s-53.167 39.5 -90.5 39.5c-36 0 -66 -13.5 -90 -40.5s-36 -58.833 -36 -95.5s10.667 -68.667 32 -96c22.667 -30 52 -45 88 -45c40 0 72.333 13.667 97 41c22.667 26.667 34 60.334 34 101.001z" />
    <glyph glyph-name="aring" unicode="&#xe5;" horiz-adv-x="541" 
d="M378 618c0 -30 -10.333 -54.999 -31 -74.999s-46 -30 -76 -30s-55.667 10.167 -77 30.5s-32 45.166 -32 74.499c0 28 11.167 51.833 33.5 71.5s47.5 29.5 75.5 29.5c28.667 0 53.667 -9.66699 75 -29s32 -43.333 32 -72zM507 -0.999023h-127.001v38
c-37.333 -35.333 -83 -53 -137 -53c-70 0 -127.667 25 -173 75c-44 48 -66 107.333 -66 178c0 70 22.5 128.833 67.5 176.5s102.167 71.5 171.5 71.5c48.667 0 94.334 -17 137.001 -51v39h127v-474zM293.999 618.001c0 14 -7.66699 21 -23 21
c-17.333 0 -26 -7.33301 -26 -22c0 -6 2.83301 -11.5 8.5 -16.5s11.5 -7.5 17.5 -7.5c15.333 0 23 8.33301 23 25zM382.999 239.001c0 38.667 -11.3311 70.833 -33.998 96.5s-53 38.5 -91 38.5c-36.667 0 -66.834 -13.667 -90.501 -41s-35.5 -59.333 -35.5 -96
s10.667 -68.667 32 -96c23.333 -30 52.666 -45 87.999 -45c41.333 0 74 13.667 98 41c22 26 33 60 33 102z" />
    <glyph glyph-name="ae" unicode="&#xe6;" horiz-adv-x="783" 
d="M796 124c-59.333 -93.333 -136.999 -140 -232.999 -140c-68.667 0 -128 23 -178 69c-45.333 -46 -103.333 -69 -174 -69c-54.667 0 -101.667 13 -141 39c-45.333 30.667 -68 71.667 -68 123l2 2c0 28 10.667 56 32 84c35.333 46 89 69 161 69c63.333 0 103 -6 119 -18v0
v0c0 34 -11.333 57 -34 69c-16.667 8.66699 -43.667 13 -81 13c-36 0 -79.333 -6.33301 -130 -19v112c47.333 8 94.666 12 141.999 12c81.333 0 138.666 -18.333 171.999 -55c46 38 102 57 168 57c157.333 0 236 -91.667 236 -275h-346c12.667 -68.667 53.667 -103 123 -103
c46.667 0 87.334 30.333 122.001 91zM660.001 295c-6.66699 22 -19.5 39.167 -38.5 51.5s-40.5 18.5 -64.5 18.5c-22 0 -42.667 -6.5 -62 -19.5s-33 -29.833 -41 -50.5h206zM312.001 146c0 17.333 -12.6689 31 -38.002 41c-19.333 6.66699 -39.666 10 -60.999 10
c-18 0 -36 -4.33301 -54 -13c-22.667 -10 -34 -23 -34 -39s11.667 -29 35 -39c18.667 -8.66699 37.334 -13 56.001 -13l6 1c20 0 38.667 4 56 12c22.667 10 34 23.333 34 40z" />
    <glyph glyph-name="ccedilla" unicode="&#xe7;" horiz-adv-x="428" 
d="M324 -21l-131 -158.001l-84 44l86 126c-54.667 15.333 -99.667 43 -135 83c-37.333 43.333 -56 93 -56 149c0 71.333 27 130.666 81 177.999c52 46 114 69 186 69c52 0 99.667 -11.333 143 -34v-169c-26.667 30 -49 51 -67 63c-26.667 18.667 -55.334 28 -86.001 28
c-35.333 0 -65.666 -12.667 -90.999 -38s-38 -55.666 -38 -90.999c0 -38 12.667 -70 38 -96s56.666 -39 93.999 -39c30.667 0 58.334 7.66699 83.001 23c6.66699 4.66699 29 23.334 67 56.001v-159c-32.667 -15.333 -66.667 -25.333 -102 -30z" />
    <glyph glyph-name="egrave" unicode="&#xe8;" horiz-adv-x="474" 
d="M368 537l-72 -44l-191 167l119 59zM487 127c-34 -50.667 -67.334 -86.334 -100.001 -107.001c-38 -24 -85.667 -36 -143 -36c-33.333 0 -66.333 7.33301 -99 22c-94 42.667 -141 124.334 -141 245.001c0 68 23.667 123.667 71 167c45.333 42 102 63 170 63
c78.667 0 138 -24.333 178 -73c37.333 -44.667 56 -107 56 -187c0 -2 -0.833008 -5.5 -2.5 -10.5s-2.5 -8.16699 -2.5 -9.5h-339c4 -32 16.667 -57.667 38 -77s48.333 -29 81 -29c50.667 0 91.334 31 122.001 93zM346.999 301c-14.667 47.333 -47 71 -97 71
c-56 0 -91.667 -23.667 -107 -71h204z" />
    <glyph glyph-name="eacute" unicode="&#xe9;" horiz-adv-x="474" 
d="M375 660l-193 -167l-74 44l145 182zM487 127c-34 -50.667 -67.334 -86.334 -100.001 -107.001c-38 -24 -85.667 -36 -143 -36c-33.333 0 -66.333 7.33301 -99 22c-94 42.667 -141 124.334 -141 245.001c0 68 23.667 123.667 71 167c45.333 42 102 63 170 63
c78.667 0 138 -24.333 178 -73c37.333 -44.667 56 -107 56 -187c0 -2 -0.833008 -5.5 -2.5 -10.5s-2.5 -8.16699 -2.5 -9.5h-339c4 -32 16.667 -57.667 38 -77s48.333 -29 81 -29c50.667 0 91.334 31 122.001 93zM346.999 301c-14.667 47.333 -47 71 -97 71
c-56 0 -91.667 -23.667 -107 -71h204z" />
    <glyph glyph-name="ecircumflex" unicode="&#xea;" horiz-adv-x="474" 
d="M423 562l-88 -70l-98 88l-97 -87l-88 69l185 157zM487 127c-34 -50.667 -67.668 -86.335 -101.001 -107.002c-37.333 -24 -84.666 -36 -141.999 -36c-34 0 -67 7.33301 -99 22c-94 42.667 -141 124.334 -141 245.001c0 28 6.33301 57.667 19 89
c37.333 93.333 111.333 140 222 140c77.333 0 136.333 -23.333 177 -70c38 -44.667 57 -106 57 -184c0 -2.66699 -0.666992 -6.66699 -2 -12c-2 -7.33301 -3 -11.666 -3 -12.999h-339c3.33301 -32 16 -57.667 38 -77s49 -29 81 -29c50 0 90.667 31 122 93zM346.999 300.999
c-14.667 46.667 -47 70 -97 70c-55.333 0 -91 -23.333 -107 -70h204z" />
    <glyph glyph-name="edieresis" unicode="&#xeb;" horiz-adv-x="474" 
d="M416 607c0 -22 -7.33203 -40 -21.999 -54s-33.334 -21 -56.001 -21c-22 0 -40.833 7 -56.5 21s-23.5 32 -23.5 54c0 20.667 8 38.334 24 53.001s34.333 22 55 22s39 -7.33301 55 -22s24 -32.334 24 -53.001zM211.001 607c0 -22.667 -7.33301 -40.832 -22 -54.499
s-33.334 -20.5 -56.001 -20.5c-22 0 -40.667 6.83301 -56 20.5s-23 31.834 -23 54.501c0 21.333 7.83301 39.166 23.5 53.499s33.834 21.5 54.501 21.5s39 -7.33301 55 -22s24 -32.334 24 -53.001zM487.001 128.002c-32 -49.333 -65.667 -85.332 -101 -107.999
c-38.667 -24 -86 -36 -142 -36c-74 0 -133.333 27 -178 81c-41.333 50 -62 112.667 -62 188c0 27.333 6.33301 57 19 89c37.333 94 111.333 141 222 141c78.667 0 138 -24.333 178 -73c36.667 -44.667 55 -107.334 55 -188.001c0 2.66699 -1.33301 -4 -4 -20h-339
c3.33301 -32 16 -57.667 38 -77s49 -29 81 -29c50 0 90.667 31 122 93zM347.001 303.003c-16 47.333 -48.332 71 -96.999 71c-54.667 0 -90.334 -23.667 -107.001 -71h204z" />
    <glyph glyph-name="igrave" unicode="&#xec;" horiz-adv-x="246" 
d="M252 538l-72 -45l-194 167l122 59zM187 0h-127v470h127v-470z" />
    <glyph glyph-name="iacute" unicode="&#xed;" horiz-adv-x="246" 
d="M258 660l-194 -167l-72 45l145 181zM187 0h-127v470h127v-470z" />
    <glyph glyph-name="icircumflex" unicode="&#xee;" horiz-adv-x="246" 
d="M309 562l-88 -69l-98 87l-97 -87l-89 69l187 157zM187 0h-127v469h127v-469z" />
    <glyph glyph-name="idieresis" unicode="&#xef;" horiz-adv-x="246" 
d="M304 607c0 -21.333 -7.66699 -39.167 -23 -53.5s-34 -21.5 -56 -21.5s-40.5 7 -55.5 21s-22.5 32 -22.5 54c0 21.333 7.5 39.166 22.5 53.499s33.167 21.5 54.5 21.5s40 -7.16699 56 -21.5s24 -32.166 24 -53.499zM100 606.999
c0 -21.333 -7.83203 -39.1641 -23.499 -53.4971s-34.167 -21.5 -55.5 -21.5c-22 0 -40.667 7.16699 -56 21.5s-23 32.166 -23 53.499s7.66699 39.166 23 53.499s33.666 21.5 54.999 21.5c20.667 0 39.167 -7.33301 55.5 -22s24.5 -32.334 24.5 -53.001zM187.001 0.000976562
h-127v472h127v-472z" />
    <glyph glyph-name="eth" unicode="&#xf0;" horiz-adv-x="523" 
d="M524 234c0 -74 -25 -134.166 -75 -180.499s-112.333 -69.5 -187 -69.5c-72 0 -133.333 23.833 -184 71.5s-76 107.167 -76 178.5c0 68 24.667 127 74 177s108 75 176 75c7.33301 0 18.333 -0.666992 33 -2c-38.667 54 -71.667 94.333 -99 121l-154 -84l-78 80l155 85
l-98 102l112 62l97 -104l143 79l73 -79l-141 -80c44.667 -50.667 94 -117.834 148 -201.501s81 -160.5 81 -230.5zM396 236.001c0 37.333 -13 68.667 -39 94s-57.667 38 -95 38s-69.5 -13.167 -96.5 -39.5s-40.5 -58.166 -40.5 -95.499c0 -34.667 14.5 -65.834 43.5 -93.501
s60.833 -41.5 95.5 -41.5c36 0 67 14 93 42s39 60 39 96z" />
    <glyph glyph-name="ntilde" unicode="&#xf1;" horiz-adv-x="507" 
d="M464 620c-32 -66 -79 -99 -141 -99c-16.667 0 -42.5 7.83301 -77.5 23.5s-59.167 23.5 -72.5 23.5c-16.667 0 -34 -17.333 -52 -52l-78 61c38.667 64 83.334 96 134.001 96c18.667 0 39 -4.33301 61 -13l57 -28c9.33301 -0.666992 21.666 -3 36.999 -7
c19.333 2 38 20.333 56 55zM467 0l-127.001 0.000976562v278c0 34 -4.66699 57.333 -14 70c-11.333 14 -33.333 21 -66 21c-61.333 0 -92 -38.667 -92 -116v-253h-127v468h127v-28c28 26 68.333 39 121 39c64.667 0 111.334 -18 140.001 -54
c25.333 -32.667 38 -82.334 38 -149.001v-276z" />
    <glyph glyph-name="ograve" unicode="&#xf2;" horiz-adv-x="523" 
d="M394 537l-74 -44l-192 167l121 59zM524 232c0 -70 -26.167 -129 -78.5 -177s-113.5 -72 -183.5 -72c-68.667 0 -129.5 24.5 -182.5 73.5s-79.5 107.5 -79.5 175.5c0 71.333 25.667 130.666 77 177.999s113 71 185 71s133.667 -23.667 185 -71s77 -106.666 77 -177.999z
M397 232c0 37.333 -13.001 68.667 -39.001 94s-58 38 -96 38c-36.667 0 -68.667 -12.833 -96 -38.5s-41 -57.167 -41 -94.5c0 -36 13.667 -66.5 41 -91.5s59.333 -37.5 96 -37.5s68.334 12.667 95.001 38s40 56 40 92z" />
    <glyph glyph-name="oacute" unicode="&#xf3;" horiz-adv-x="523" 
d="M399 658l-194 -167l-73 44l145 182zM524 231c0 -69.333 -26.167 -128 -78.5 -176s-113.5 -72 -183.5 -72c-68.667 0 -129 24 -181 72c-54 49.333 -81 108 -81 176c0 71.333 25.667 130.833 77 178.5s113 71.5 185 71.5s133.667 -23.833 185 -71.5s77 -107.167 77 -178.5z
M397 231c0 37.333 -13.168 68.834 -39.501 94.501s-58.166 38.5 -95.499 38.5c-36.667 0 -68.667 -13 -96 -39s-41 -57.333 -41 -94c0 -36 13.667 -66.5 41 -91.5s59.333 -37.5 96 -37.5c36 0 67.5 12.667 94.5 38s40.5 55.666 40.5 90.999z" />
    <glyph glyph-name="ocircumflex" unicode="&#xf4;" horiz-adv-x="523" 
d="M448 562l-88 -69l-98 87l-98 -88l-90 69l189 158zM524 231c0 -69.333 -26 -127.833 -78 -175.5s-113.333 -71.5 -184 -71.5c-69.333 0 -130.333 24 -183 72s-79 106.333 -79 175c-0 71.333 26.333 131 79 179c50.667 46.667 111.667 70 183 70
c72.667 0 134.5 -23.5 185.5 -70.5s76.5 -106.5 76.5 -178.5zM397 231c0 36.667 -13.1689 67.999 -39.502 93.999s-58.166 39 -95.499 39c-36.667 0 -68.667 -13 -96 -39s-41 -57.667 -41 -95c0 -35.333 14 -65.666 42 -90.999s59.667 -38 95 -38
c36.667 0 68.334 12.5 95.001 37.5s40 55.833 40 92.5z" />
    <glyph glyph-name="otilde" unicode="&#xf5;" horiz-adv-x="523" 
d="M474 621c-32.667 -66.667 -79.667 -100 -141 -100c-16.667 0 -42 7.83301 -76 23.5s-59 23.5 -75 23.5c-16.667 0 -34 -17 -52 -51l-77 61c36.667 64 80.667 96 132 96c20 0 46.833 -8 80.5 -24s59.167 -24 76.5 -24c14 0 32.333 18 55 54zM524 231
c0 -69.333 -26 -127.833 -78 -175.5s-113.333 -71.5 -184 -71.5c-69.333 0 -130.333 24 -183 72s-79 106.333 -79 175c-0 70.667 26.333 130 79 178c50.667 46.667 111.667 70 183 70c72 0 133.667 -23.5 185 -70.5s77 -106.167 77 -177.5zM397 231
c0 36.667 -13.1689 67.833 -39.502 93.5s-58.166 38.5 -95.499 38.5c-36.667 0 -68.667 -13 -96 -39s-41 -57.333 -41 -94c0 -36 13.833 -66.5 41.5 -91.5s59.5 -37.5 95.5 -37.5c36.667 0 68.334 12.667 95.001 38s40 56 40 92z" />
    <glyph glyph-name="odieresis" unicode="&#xf6;" horiz-adv-x="523" 
d="M443 607c0 -22.667 -7.49902 -40.832 -22.499 -54.499s-33.833 -20.5 -56.5 -20.5s-41.5 6.83301 -56.5 20.5s-22.5 31.834 -22.5 54.501c0 21.333 7.66699 39.166 23 53.499s33.666 21.5 54.999 21.5c20.667 0 39.167 -7.33301 55.5 -22s24.5 -32.334 24.5 -53.001z
M238.001 607.002c0 -22 -7.66699 -40.002 -23 -54.002s-34 -21 -56 -21s-40.5 7 -55.5 21s-22.5 32 -22.5 54c0 20.667 7.66699 38.334 23 53.001s33.333 22 54 22c21.333 0 40 -7.16699 56 -21.5s24 -32.166 24 -53.499zM524.001 233c0 -70 -26 -129.167 -78 -177.5
s-113.333 -72.5 -184 -72.5c-68 0 -128.667 24.667 -182 74s-80 108 -80 176c0 72 25.5 131.667 76.5 179s112.833 71 185.5 71c73.333 0 135.333 -23.5 186 -70.5s76 -106.833 76 -179.5zM397.001 233c0 37.333 -13.1689 68.833 -39.502 94.5s-58.166 38.5 -95.499 38.5
c-36.667 0 -68.667 -13 -96 -39s-41 -57.667 -41 -95c0 -36 13.833 -66.667 41.5 -92s59.5 -38 95.5 -38c36.667 0 68.334 12.667 95.001 38s40 56.333 40 93z" />
    <glyph glyph-name="divide" unicode="&#xf7;" horiz-adv-x="549" 
d="M344 423h-140v127h140v-127zM531 298h-513v110h513v-110zM344 156h-140v127h140v-127z" />
    <glyph glyph-name="oslash" unicode="&#xf8;" horiz-adv-x="523" 
d="M537 427l-64 -58c34 -44.667 51 -92.667 51 -144c0 -67.333 -27.333 -124 -82 -170c-52 -43.333 -112.667 -65 -182 -65c-58 0 -109.333 15 -154 45l-59 -56l-59 52l60 56c-33.333 46.667 -50 94 -50 142c0 67.333 27.667 124 83 170c52 44 112.333 66 181 66
c57.333 0 108.333 -14.667 153 -44l64 59zM397 229c0 18.667 -5.66797 37.667 -17.001 57l-181 -170c17.333 -9.33301 36.333 -14 57 -14c36.667 0 69.334 12.167 98.001 36.5s43 54.5 43 90.5zM322.999 339c-20 9.33301 -40.333 14.001 -61 14.001
c-34 0 -65.333 -12.5 -94 -37.5s-43 -54.5 -43 -88.5c0 -14.667 5.66699 -33.334 17 -56.001z" />
    <glyph glyph-name="ugrave" unicode="&#xf9;" horiz-adv-x="497" 
d="M381 537l-74 -44l-191 167l119 59zM461 201c0 -66 -18 -119.334 -54 -160.001c-38 -42 -89.667 -63 -155 -63c-62.667 0 -114.167 20.333 -154.5 61s-60.5 92.334 -60.5 155.001v275h127v-264c0 -30.667 7 -56 21 -76c16 -22.667 38.333 -34 67 -34
c54.667 0 82 36.667 82 110v264h127v-268z" />
    <glyph glyph-name="uacute" unicode="&#xfa;" horiz-adv-x="497" 
d="M386 660l-195 -167l-71 44l144 182zM461 201c0 -66 -18 -119.334 -54 -160.001c-38 -42 -89.667 -63 -155 -63c-62.667 0 -114.167 20.333 -154.5 61s-60.5 92.334 -60.5 155.001v275h127v-264c0 -30.667 7 -56 21 -76c16 -22.667 38.333 -34 67 -34
c54.667 0 82 36.667 82 110v264h127v-268z" />
    <glyph glyph-name="ucircumflex" unicode="&#xfb;" horiz-adv-x="497" 
d="M434 562l-88 -69l-97 87l-97 -88l-89 70l187 157zM461 201c0 -66 -18 -119.333 -54 -160c-38 -42 -89.667 -63 -155 -63c-62.667 0 -114.167 20.167 -154.5 60.5s-60.5 91.833 -60.5 154.5v276h127v-264c0 -30.667 7 -56 21 -76c16 -22.667 38.333 -34 67 -34
c54.667 0 82 36.667 82 110v264h127v-268z" />
    <glyph glyph-name="udieresis" unicode="&#xfc;" horiz-adv-x="497" 
d="M432 605c0 -21.333 -7.83203 -39.165 -23.499 -53.498s-34.167 -21.5 -55.5 -21.5c-22 0 -40.667 7 -56 21s-23 32 -23 54c0 21.333 7.66699 39.166 23 53.499s33.666 21.5 54.999 21.5c20.667 0 39.167 -7.33301 55.5 -22s24.5 -32.334 24.5 -53.001zM227.001 605.001
c0 -22.667 -7.49902 -40.834 -22.499 -54.501s-33.833 -20.5 -56.5 -20.5s-41.5 6.83301 -56.5 20.5s-22.5 31.834 -22.5 54.501c0 21.333 7.66699 39.166 23 53.499s33.666 21.5 54.999 21.5s40 -7.16699 56 -21.5s24 -32.166 24 -53.499zM461.002 200.001
c0 -67.333 -17.667 -121 -53 -161c-37.333 -42 -89.333 -63 -156 -63c-63.333 0 -115 20.333 -155 61s-60 92.667 -60 156v277h127v-266c0 -30 7 -55.333 21 -76c16 -23.333 38.333 -35 67 -35c54.667 0 82 37 82 111v266h127v-270z" />
    <glyph glyph-name="yacute" unicode="&#xfd;" horiz-adv-x="469" 
d="M371 659l-194 -169l-73 45l145 184zM516 466l-388 -729h-143l187 345l-220 384h149l141 -256l129 256h145z" />
    <glyph glyph-name="thorn" unicode="&#xfe;" horiz-adv-x="541" 
d="M533 233c0 -68.667 -20.333 -128 -61 -178c-44 -53.333 -99.667 -80 -167 -80c-57.333 0 -105.333 18 -144 54v-292h-127v1115h127v-421l4 3c45.333 34 90.333 51 135 51c70 0 127 -25 171 -75c41.333 -47.333 62 -106.333 62 -177zM408 232
c0 40 -11.832 73.333 -35.499 100s-55.167 40 -94.5 40c-36.667 0 -66 -13.833 -88 -41.5s-33 -60.167 -33 -97.5c0 -39.333 10 -72.333 30 -99c22 -28.667 51.667 -43.667 89 -45c1.33301 0.666992 4.66602 1 9.99902 1c36.667 0 66.667 14.667 90 44
c21.333 27.333 32 60 32 98z" />
    <glyph glyph-name="ydieresis" unicode="&#xff;" horiz-adv-x="469" 
d="M416 606c0 -21.333 -7.66797 -39.5 -23.001 -54.5s-33.666 -22.5 -54.999 -22.5c-20 0 -38.333 7.83301 -55 23.5s-25 33.5 -25 53.5c0 21.333 7.83301 39.333 23.5 54s34.167 22 55.5 22s39.833 -7.33301 55.5 -22s23.5 -32.667 23.5 -54zM210.999 606
c0 -22 -7.49902 -40.333 -22.499 -55s-33.5 -22 -55.5 -22c-21.333 0 -39.833 7.5 -55.5 22.5s-23.5 33.167 -23.5 54.5s7.66699 39.333 23 54s33.666 22 54.999 22s39.833 -7.33301 55.5 -22s23.5 -32.667 23.5 -54zM516 469l-388 -732h-143l187 346l-220 386h149l141 -257
l129 257h145z" />
    <glyph glyph-name="OE" unicode="&#x152;" horiz-adv-x="1109" 
d="M1100 -1l-421.998 -0.000976562v87c-74 -68 -165 -102 -273 -102s-202 36 -282 108c-82 74.667 -123 165.334 -123 272.001c0 110.667 39.667 204 119 280c77.333 74 171.666 111 282.999 111c41.333 0 83.666 -6.66699 126.999 -20c46.667 -14.667 84.667 -34 114 -58
l35 -29v92h422v-118h-299v-159h291v-118h-291v-228h299v-118zM674.002 364.999c0 78.667 -25.499 143.5 -76.499 194.5s-115.833 76.5 -194.5 76.5s-143.834 -25.667 -195.501 -77s-77.5 -116.333 -77.5 -195c0 -72 27.667 -133.667 83 -185
c53.333 -49.333 116.333 -74 189 -74c73.333 0 137 25.167 191 75.5s81 111.833 81 184.5z" />
    <glyph glyph-name="oe" unicode="&#x153;" horiz-adv-x="869" 
d="M884 125c-52.667 -94.667 -131.001 -142.001 -235.001 -142.001c-83.333 0 -147.666 27.333 -192.999 82c-22.667 -25.333 -52 -45.666 -88 -60.999s-71.333 -23 -106 -23c-66 0 -125.333 22.333 -178 67c-56 47.333 -84 103.333 -84 168c0 70 24 130.167 72 180.5
s107 75.5 177 75.5c80 0 149 -27.333 207 -82c47.333 54.667 112 82 194 82c68.667 0 123.667 -22.333 165 -67s62 -102 62 -172v-36h-345c5.33301 -30.667 18.5 -55.5 39.5 -74.5s46.833 -28.5 77.5 -28.5c52 0 93.333 30 124 90zM742.999 294.999
c-10.667 46.667 -49.332 70 -115.999 70c-18 0 -35.333 -7.16699 -52 -21.5s-28.334 -30.5 -35.001 -48.5h203zM397.001 226.999c0 36 -13 66.667 -39 92s-57 38 -93 38c-38 0 -69.667 -10.667 -95 -32c-28 -22.667 -42 -52.667 -42 -90c0 -34 11.333 -64.333 34 -91
c24 -28.667 52.667 -43 86 -43c40 0 74 11 102 33c31.333 23.333 47 54.333 47 93z" />
    <glyph glyph-name="Scaron" unicode="&#x160;" horiz-adv-x="521" 
d="M278 938l-7 -10l-9 13l10 -8zM511 254c0 -54 -13.501 -102.499 -40.501 -145.499s-64.833 -76.167 -113.5 -99.5c-36 -17.333 -68.333 -26 -97 -26c-73.333 0 -132.333 26.667 -177 80c-39.333 46 -63.666 107.333 -72.999 184l133 33c0 -106 40.667 -159 122 -159
c38 0 67.333 15.667 88 47c18 27.333 27 60.666 27 99.999c0 40.667 -29 76 -87 106c-101.333 52.667 -155.333 81.334 -162 86.001c-58 44.667 -87 104.667 -87 180c0 64 23.333 117 70 159s102 63 166 63c91.333 0 163 -49.667 215 -149l-105 -72
c-31.333 57.333 -69.333 86 -114 86c-26 0 -49.333 -8.5 -70 -25.5s-31 -38.167 -31 -63.5c0 -32.667 16.667 -59.334 50 -80.001c7.33301 -4.66699 38 -18 92 -40c129.333 -53.333 194 -141.333 194 -264z" />
    <glyph glyph-name="scaron" unicode="&#x161;" horiz-adv-x="374" 
d="M198 668l-7 -10l-9 13l10 -8zM368 173c0 -47.333 -16.001 -90.002 -48.001 -128.002c-34.667 -40.667 -75 -61 -121 -61c-91.333 0 -155 49.333 -191 148l112 60c19.333 -50.667 43.333 -76 72 -76c10 0 20.5 4.33301 31.5 13s16.5 17.667 16.5 27
c0 22 -17.667 44.667 -53 68c-58 38 -91 60.333 -99 67c-35.333 32.667 -53 71.334 -53 116.001c0 44 14.833 83 44.5 117s66.167 51 109.5 51c37.333 0 69 -11.667 95 -35c18.667 -17.333 38 -45.666 58 -84.999l-107 -65c-17.333 36 -34.666 54 -51.999 54
s-26 -10 -26 -30c0 -14.667 18.333 -31 55 -49c49.333 -24 83 -44.667 101 -62c36.667 -34 55 -77.333 55 -130z" />
    <glyph glyph-name="Ydieresis" unicode="&#x178;" horiz-adv-x="555" 
d="M468 826c0 -22 -7.5 -40.167 -22.5 -54.5s-33.5 -21.5 -55.5 -21.5s-40.5 7.16699 -55.5 21.5s-22.5 32.5 -22.5 54.5c0 21.333 7.5 39.333 22.5 54s33.167 22 54.5 22s39.833 -7.33301 55.5 -22s23.5 -32.667 23.5 -54zM263 826c0 -22.667 -7.33203 -41 -21.999 -55
s-33.334 -21 -56.001 -21c-22 0 -40.667 7.16699 -56 21.5s-23 32.5 -23 54.5c0 20 8 37.667 24 53s34 23 54 23c22 0 40.667 -7.16699 56 -21.5s23 -32.5 23 -54.5zM597.001 746l-253 -423v-323h-131v323l-253 423h150l168 -284l170 284h149z" />
    <glyph glyph-name="florin" unicode="&#x192;" 
d="M547 810l-20.999 -118.999c-34.667 7.33301 -55.667 11 -63 11c-36.667 0 -60.334 -26.667 -71.001 -80l-23 -113h123l-13 -103h-128l-60 -319c-16 -85.333 -43 -145 -81 -179c-40 -36 -102.667 -54 -188 -54c0.666992 0 -10 1 -32 3l21 116l37 -1
c39.333 -1.33301 68 11.667 86 39c11.333 17.333 21 48.666 29 93.999l54 301l-85 2l105 101c16 86 25 134 27 144c14 52.667 34 91.667 60 117c32 32.667 77 49 135 49c14 0 43.333 -3 88 -9z" />
    <glyph glyph-name="circumflex" unicode="&#x2c6;" horiz-adv-x="457" 
d="M414 589l-89 -57l-98 72l-97 -72l-88 57l185 130z" />
    <glyph glyph-name="tilde" unicode="&#x2dc;" horiz-adv-x="495" 
d="M459 635c-32 -49.333 -79.334 -74 -142.001 -74c-16.667 0 -42.5 5.83301 -77.5 17.5s-59.167 17.5 -72.5 17.5c-15.333 0 -32.666 -13 -51.999 -39l-78 46c38 48 82.667 72 134 72c19.333 0 45.833 -6 79.5 -18s58.5 -18 74.5 -18c16.667 0 35.667 13.667 57 41z" />
    <glyph glyph-name="endash" unicode="&#x2013;" horiz-adv-x="485" 
d="M505 277h-525v75h525v-75z" />
    <glyph glyph-name="emdash" unicode="&#x2014;" horiz-adv-x="970" 
d="M990 277h-1010v73h1010v-73z" />
    <glyph glyph-name="quoteleft" unicode="&#x2018;" horiz-adv-x="269" 
d="M268 724l-121 -260l-115 39l147 251z" />
    <glyph glyph-name="quoteright" unicode="&#x2019;" horiz-adv-x="269" 
d="M248 756l-156 -292h-96l128 291z" />
    <glyph glyph-name="quotesinglbase" unicode="&#x201a;" horiz-adv-x="222" 
d="M175 32c0 -42.667 -7.66797 -74.333 -23.001 -95s-43.666 -39 -84.999 -55l-44 60c20 5.33301 33.667 11 41 17c11.333 8 18 20.667 20 38h-43v119h134v-84z" />
    <glyph glyph-name="quotedblleft" unicode="&#x201c;" horiz-adv-x="426" 
d="M428 722l-120 -260l-115 42l146 250zM269 724l-122 -260l-115 39l143 251z" />
    <glyph glyph-name="quotedblright" unicode="&#x201d;" horiz-adv-x="426" 
d="M396 715l-147 -253l-92 31l124 261zM235 715l-147 -253l-93 31l125 261z" />
    <glyph glyph-name="quotedblbase" unicode="&#x201e;" horiz-adv-x="426" 
d="M420 75l-145 -251l-89 33l119 260zM259 77l-147 -254l-87 35l119 259z" />
    <glyph glyph-name="dagger" unicode="&#x2020;" 
d="M520 474h-176v-560h-127v560h-176l176 120v258h127v-258h176v-120z" />
    <glyph glyph-name="daggerdbl" unicode="&#x2021;" 
d="M520 312h-176v-398h-127v398h-176v120h176v75h-176v119h176v226h127v-226h176v-119h-176v-75h176v-120z" />
    <glyph glyph-name="bullet" unicode="&#x2022;" horiz-adv-x="280" 
d="M217 251c0 -16 -8.33398 -29.667 -25.001 -41s-33.667 -17 -51 -17c-18.667 0 -35.667 4.66699 -51 14c-18 11.333 -27 26 -27 44c0 17.333 9 31.666 27 42.999c15.333 9.33301 32.333 14 51 14s35.334 -4.66699 50.001 -14c17.333 -11.333 26 -25.666 26 -42.999z" />
    <glyph glyph-name="ellipsis" unicode="&#x2026;" horiz-adv-x="970" 
d="M886 42c0 -17.333 -8.16699 -31.333 -24.5 -42s-33.833 -16 -52.5 -16s-35.667 4.66699 -51 14c-18 11.333 -27 26 -27 44c0 17.333 9 31.333 27 42c15.333 9.33301 32.333 14 51 14s36.167 -5 52.5 -15s24.5 -23.667 24.5 -41zM562 42l1 -0.000976562
c0 -17.333 -9 -31.666 -27 -42.999c-15.333 -10 -32.333 -15 -51 -15c-19.333 0 -36 4.66699 -50 14c-16.667 11.333 -25 26 -25 44c0 17.333 8.66699 31.333 26 42c14 9.33301 30.333 14 49 14s36.167 -5 52.5 -15s24.5 -23.667 24.5 -41zM238 41.999
c0 -17.333 -8.16797 -31.334 -24.501 -42.001s-33.833 -16 -52.5 -16c-19.333 0 -36.333 4.66699 -51 14c-17.333 10.667 -26 25.334 -26 44.001c0 17.333 9 31.333 27 42c14.667 9.33301 31.334 14 50.001 14s36.167 -5 52.5 -15s24.5 -23.667 24.5 -41z" />
    <glyph glyph-name="perthousand" unicode="&#x2030;" horiz-adv-x="1076" 
d="M1078 166c0 -49.333 -19.334 -91.333 -58.001 -126s-83 -52 -133 -52c-50.667 0 -95.167 17.167 -133.5 51.5s-57.5 76.5 -57.5 126.5s19.667 92.333 59 127c37.333 33.333 81 50 131 50c50.667 0 95.334 -17 134.001 -51s58 -76 58 -126zM383.999 572
c0 -49.333 -19.333 -91 -58 -125s-83 -51 -133 -51s-94 16.333 -132 49c-40 34.667 -60 77 -60 127s20 92.333 60 127c37.333 32 81.333 48 132 48c50 0 94 -16.333 132 -49c39.333 -34.667 59 -76.667 59 -126zM610.999 713l-446 -731l-79 44l448 728zM695.999 166
c0 -50 -19.166 -92.167 -57.499 -126.5s-82.833 -51.5 -133.5 -51.5s-94.834 17.167 -132.501 51.5s-56.5 76.5 -56.5 126.5c0 49.333 18.833 91.166 56.5 125.499s81.5 51.5 131.5 51.5c52 0 97 -16.667 135 -50s57 -75.666 57 -126.999zM979 166
c0 24.667 -9.16699 45 -27.5 61s-39.833 24 -64.5 24s-46.167 -8.16699 -64.5 -24.5s-27.5 -36.5 -27.5 -60.5c0 -23.333 9.33301 -43 28 -59s40 -24 64 -24c23.333 0 44.5 8.16699 63.5 24.5s28.5 35.833 28.5 58.5zM285 573c0 24.667 -9.66699 45.332 -29 61.999
c-18 14.667 -39.667 22 -65 22c-24 0 -45.167 -8.16699 -63.5 -24.5s-27.5 -36.166 -27.5 -59.499c0 -24.667 9 -45 27 -61s39.333 -24 64 -24s46.5 8 65.5 24s28.5 36.333 28.5 61zM598 165.998c0 24 -9.33203 44.167 -27.999 60.5s-40.334 24.5 -65.001 24.5
c-24 0 -45.5 -8.33301 -64.5 -25s-28.5 -36.667 -28.5 -60c0 -24 9.33301 -43.833 28 -59.5s40.334 -23.5 65.001 -23.5c23.333 0 44.666 8 63.999 24s29 35.667 29 59z" />
    <glyph glyph-name="guilsinglleft" unicode="&#x2039;" horiz-adv-x="326" 
d="M281 143l-85 -57l-201 228l198 236l88 -56l-148 -180z" />
    <glyph glyph-name="guilsinglright" unicode="&#x203a;" horiz-adv-x="326" 
d="M331 314l-198 -228l-87 56l147 172l-146 180l84 56z" />
    <glyph glyph-name="trademark" unicode="&#x2122;" horiz-adv-x="911" 
d="M899 327h-102v242l-107 -242h-65l-105 244v-244h-102v412h137l104 -235l107 235h133v-412zM384 646h-135v-319h-102v319h-135v93h372v-93z" />
    <glyph glyph-name="glyph1" horiz-adv-x="0" 
 />
    <glyph glyph-name="glyph2" horiz-adv-x="280" 
 />
    <glyph glyph-name=".null" horiz-adv-x="0" 
 />
    <glyph glyph-name="HT" horiz-adv-x="280" 
 />
    <glyph glyph-name="nonmarkingreturn" horiz-adv-x="280" 
 />
    <glyph glyph-name="dotoperator" 
d="M485 371c0 -54 -20.5 -98.499 -61.5 -133.499s-88.833 -52.5 -143.5 -52.5c-52 0 -98.333 17.667 -139 53c-42.667 37.333 -64 81.666 -64 132.999c0 52 21 96.333 63 133c40 34 86.667 51 140 51c54 0 101.667 -17.333 143 -52s62 -78.667 62 -132z" />
    <glyph glyph-name="GS" horiz-adv-x="0" 
 />
    <glyph glyph-name="BS" horiz-adv-x="0" 
 />
    <glyph glyph-name="glyph224" horiz-adv-x="449" 
d="M503 0h-167l-155 189l-8 -7v-182h-127l-2 736h128l1 -398l143 140h171l-214 -204z" />
  </font>
</defs>
</svg>
