<?xml version="1.0" standalone="no"?>
<!DOCTYPE svg PUBLIC "-//W3C//DTD SVG 1.1//EN" "http://www.w3.org/Graphics/SVG/1.1/DTD/svg11.dtd" >
<svg xmlns="http://www.w3.org/2000/svg" xmlns:xlink="http://www.w3.org/1999/xlink" version="1.1">
<metadata>
Created by FontForge 20150715 at Fri Jul 24 10:50:48 2015
 By System Administrator
Copyright 1990-2003 Bitstream Inc. All rights reserved.
</metadata>
<defs>
<font id="PrimaSansMonoW01-Bold" horiz-adv-x="1233" >
  <font-face 
    font-family="PrimaSansMonoW01-Bold"
    font-weight="700"
    font-stretch="normal"
    units-per-em="2048"
    panose-1="2 11 7 9 3 6 4 2 2 4"
    ascent="1590"
    descent="-458"
    x-height="1120"
    cap-height="1493"
    bbox="-6 -483 1235 2192"
    underline-thickness="246"
    underline-position="-98"
    unicode-range="U+000D-2122"
  />
<missing-glyph horiz-adv-x="0" 
 />
    <glyph glyph-name=".notdef" horiz-adv-x="0" 
 />
    <glyph glyph-name="uni000D" unicode="&#xd;" horiz-adv-x="0" 
 />
    <glyph glyph-name="space" unicode=" " 
 />
    <glyph glyph-name="exclam" unicode="!" 
d="M483 1493h267v-655l-33 -357h-199l-35 357v655zM483 283h267v-283h-267v283z" />
    <glyph glyph-name="quotedbl" unicode="&#x22;" 
d="M487 1493v-555h-256v555h256zM999 1493v-555h-256v555h256z" />
    <glyph glyph-name="numbersign" unicode="#" 
d="M762 881h-205l-74 -293h205zM707 1470l-95 -374h203l94 374h224l-97 -374h193v-215h-246l-74 -293h205v-215h-258l-94 -373h-221l94 373h-205l-94 -373h-221l94 373h-207v215h260l74 293h-219v215h274l94 374h222z" />
    <glyph glyph-name="dollar" unicode="$" 
d="M694 -301l-140.999 -0.000976562l-1 301c-58 2 -118.667 10.667 -182 26s-129.333 37.333 -198 66v262c68.667 -40.667 135.167 -72 199.5 -94s124.833 -33.333 181.5 -34v329c-131.333 26 -229 70.833 -293 134.5s-96 147.834 -96 252.501c0 111.333 34 200 102 266
s163.667 103 287 111v237h141l1 -237c47.333 -2.66699 96.5 -8.66699 147.5 -18s103.167 -22.333 156.5 -39v-256c-41.333 26.667 -87.333 48 -138 64s-106.334 26 -167.001 30v-307c131.333 -20.667 230.5 -65.5 297.5 -134.5s100.5 -160.833 100.5 -275.5
c0 -109.333 -36.167 -199 -108.5 -269s-168.5 -108 -288.5 -114zM553.001 816.999v282.998c-41.333 -5.33301 -72.5 -19.166 -93.5 -41.499s-31.5 -52.833 -31.5 -91.5c0 -38 10.5 -69.667 31.5 -95s52.167 -43.666 93.5 -54.999zM694.001 527.997v-301.999
c42 6 74.667 22.167 98 48.5s35 59.833 35 100.5c0 41.333 -11.5 75.166 -34.5 101.499s-55.833 43.5 -98.5 51.5z" />
    <glyph glyph-name="percent" unicode="%" 
d="M897 457c-37.333 0 -69.167 -13.332 -95.5 -39.999s-39.5 -59.334 -39.5 -98.001s13 -71.167 39 -97.5s58 -39.5 96 -39.5c38.667 0 71.5 13.333 98.5 40s40.5 59 40.5 97s-13.667 70.5 -41 97.5s-60 40.5 -98 40.5zM579.999 319.001c0 89.333 30.833 165 92.5 227
s137.167 93 226.5 93c88 0 163.333 -31.167 226 -93.5s94 -137.833 94 -226.5c0 -88 -31.333 -163.167 -94 -225.5s-138 -93.5 -226 -93.5c-89.333 0 -164.833 30.833 -226.5 92.5s-92.5 137.167 -92.5 226.5zM85.999 561.001l1042 418l41 -96l-1048 -418zM351.999 1249
c-38 0 -70.333 -13.167 -97 -39.5s-40 -58.833 -40 -97.5s13.333 -71.167 40 -97.5s59 -39.5 97 -39.5c38.667 0 71.167 13.167 97.5 39.5s39.5 58.833 39.5 97.5c0 38 -13.333 70.333 -40 97s-59 40 -97 40zM32.999 1112c0 89.333 31 165 93 227s137.333 93 226 93
s164.167 -31.167 226.5 -93.5s93.5 -137.833 93.5 -226.5s-31.167 -164 -93.5 -226s-137.833 -93 -226.5 -93s-164 30.833 -226 92.5s-93 137.167 -93 226.5z" />
    <glyph glyph-name="ampersand" unicode="&#x26;" 
d="M440 731c-44 -28.667 -77.1689 -62.832 -99.502 -102.499s-33.5 -83.834 -33.5 -132.501c0 -81.333 26.167 -149.833 78.5 -205.5s116.5 -83.5 192.5 -83.5c18.667 0 37.834 2.16699 57.501 6.5s38.834 10.5 57.501 18.5l8 4c19.333 9.33301 35 18 47 26zM869.998 72.002
c-50 -33.333 -103.166 -58.5 -159.499 -75.5s-113.5 -25.5 -171.5 -25.5c-149.333 0 -270.333 43.667 -363 131s-139 200.666 -139 339.999c0 96.667 23.5 184.667 70.5 264s116.833 148.333 209.5 207c-33.333 52 -58 100.167 -74 144.5s-24 86.5 -24 126.5
c0 108 36.333 191 109 249s177.667 87 315 87c48.667 0 96.334 -3.66699 143.001 -11s92.667 -18 138 -32v-256c-42.667 24 -85.834 42.167 -129.501 54.5s-87.167 18.5 -130.5 18.5c-53.333 0 -93.666 -9.33301 -120.999 -28s-41 -46 -41 -82c0 -24 10.167 -57 30.5 -99
s53.166 -97 98.499 -165l313 -480c14 25.333 24.667 54.333 32 87s11 68 11 106c0 20 -0.666992 39.5 -2 58.5s-3.33301 36.833 -6 53.5h235v-51c0 -96.667 -11.333 -181.167 -34 -253.5s-58.334 -137.166 -107.001 -194.499l162 -246h-317z" />
    <glyph glyph-name="quotesingle" unicode="'" 
d="M743 1493v-555h-256v555h256z" />
    <glyph glyph-name="parenleft" unicode="(" 
d="M924 1554c-88 -159.333 -153.333 -313.668 -196 -463.001s-64 -298.666 -64 -447.999c0 -148 21.333 -297.167 64 -447.5s108 -305.5 196 -465.5h-228c-106 154 -184.667 305.833 -236 455.5s-77 302.167 -77 457.5c0 154.667 25.833 307.167 77.5 457.5
s130.167 301.5 235.5 453.5h228z" />
    <glyph glyph-name="parenright" unicode=")" 
d="M309 1554l228 0.00195312c105.333 -152 183.833 -303.167 235.5 -453.5s77.5 -302.833 77.5 -457.5c0 -155.333 -25.667 -307.833 -77 -457.5s-130 -301.5 -236 -455.5h-228c88 160 153.333 315.167 196 465.5s64 299.5 64 447.5c0 149.333 -21.333 298.666 -64 447.999
s-108 303.666 -196 462.999z" />
    <glyph glyph-name="asterisk" unicode="*" 
d="M1108 1217l-330 -173l330 -174l-76 -141l-332 184v-344h-172v344l-331 -184l-76 141l332 174l-332 173l76 141l331 -182v344h172v-344l332 182z" />
    <glyph glyph-name="plus" unicode="+" 
d="M735 1192v-430h430v-238h-430v-432h-237v432h-432v238h432v430h237z" />
    <glyph glyph-name="comma" unicode="," 
d="M461 367h313v-271l-196 -383h-216l99 383v271z" />
    <glyph glyph-name="hyphen" unicode="-" 
d="M301 735h631v-291h-631v291z" />
    <glyph glyph-name="period" unicode="." 
d="M449 367h333v-367h-333v367z" />
    <glyph glyph-name="slash" unicode="/" 
d="M899 1493h221l-786 -1683h-221z" />
    <glyph glyph-name="zero" unicode="0" 
d="M123 745c0 258.667 41 452.5 123 581.5s205.333 193.5 370 193.5c165.333 0 289 -64.5 371 -193.5s123 -322.833 123 -581.5c0 -258 -41 -451.5 -123 -580.5s-205.667 -193.5 -371 -193.5c-164.667 0 -288 64.5 -370 193.5s-123 322.5 -123 580.5zM616 1270
c-68 0 -117.667 -41.667 -149 -125s-47 -216.666 -47 -399.999c0 -182.667 15.667 -315.667 47 -399s81 -125 149 -125c68.667 0 118.667 41.667 150 125s47 216.333 47 399c0 183.333 -15.667 316.666 -47 399.999s-81.333 125 -150 125z" />
    <glyph glyph-name="one" unicode="1" 
d="M188 260h330v969l-307 -76v266l309 74h285v-1233h330v-260h-947v260z" />
    <glyph glyph-name="two" unicode="2" 
d="M434 260l629.002 0.00195312v-260h-948v252l160 170c190 202 305.333 326.333 346 373c50 57.333 86 108.166 108 152.499s33 88.166 33 131.499c0 66.667 -20.167 118.167 -60.5 154.5s-97.5 54.5 -171.5 54.5c-52.667 0 -111.834 -10.5 -177.501 -31.5
s-134.167 -51.5 -205.5 -91.5v275c71.333 26 141.166 45.833 209.499 59.5s133.833 20.5 196.5 20.5c158 0 282.167 -36.833 372.5 -110.5s135.5 -174.167 135.5 -301.5c0 -58.667 -9.83301 -113.667 -29.5 -165s-53.5 -108.333 -101.5 -171
c-35.333 -45.333 -132.333 -147.333 -291 -306c-86 -86 -154.333 -154.667 -205 -206z" />
    <glyph glyph-name="three" unicode="3" 
d="M549 668l-158.001 -0.00195312v260h158c73.333 0 130.166 14.5 170.499 43.5s60.5 69.833 60.5 122.5c0 55.333 -20.167 98.5 -60.5 129.5s-97.166 46.5 -170.499 46.5c-56 0 -116 -7 -180 -21s-130.333 -34.333 -199 -61v268c68.667 20.667 136.334 36.5 203.001 47.5
s130.667 16.5 192 16.5c157.333 0 280 -34.333 368 -103s132 -163.334 132 -284.001c0 -88.667 -25.333 -161.167 -76 -217.5s-123 -93.166 -217 -110.499c106.667 -18.667 188 -61.167 244 -127.5s84 -153.5 84 -261.5c0 -144.667 -46.333 -255 -139 -331
s-227.334 -114 -404.001 -114c-75.333 0 -149.5 6.33301 -222.5 19s-142.833 31 -209.5 55v274c62.667 -31.333 130.334 -55.166 203.001 -71.499s149 -24.5 229 -24.5s143.333 18.5 190 55.5s70 86.833 70 149.5c0 76.667 -23.333 135.834 -70 177.501
s-112.667 62.5 -198 62.5z" />
    <glyph glyph-name="four" unicode="4" 
d="M668 1493h309v-918h164v-253h-164v-322h-283v322h-592v286zM694 1165l-377 -590h377v590z" />
    <glyph glyph-name="five" unicode="5" 
d="M193 1493h811.001v-260h-572v-277c24 9.33301 49.667 16.166 77 20.499s56.333 6.5 87 6.5c148 0 268 -46.667 360 -140s138 -214.666 138 -363.999c0 -156.667 -49.833 -280.5 -149.5 -371.5s-235.5 -136.5 -407.5 -136.5c-64 0 -128.667 5.33301 -194 16
s-132 26.667 -200 48v266c55.333 -27.333 112.166 -47.833 170.499 -61.5s116.833 -20.5 175.5 -20.5c104 0 183 22.167 237 66.5s81 108.833 81 193.5c0 78 -26.833 140.5 -80.5 187.5s-125.167 70.5 -214.5 70.5c-52.667 0 -105.5 -6.5 -158.5 -19.5
s-106.5 -32.5 -160.5 -58.5v834z" />
    <glyph glyph-name="six" unicode="6" 
d="M1030 1458l-0.000976562 -268c-52.667 30 -103.167 52.5 -151.5 67.5s-94.833 22.5 -139.5 22.5c-106.667 0 -187.834 -35.833 -243.501 -107.5s-84.834 -177.5 -87.501 -317.5c31.333 43.333 71.333 75.833 120 97.5s106 32.5 172 32.5
c134.667 0 238.667 -42.5 312 -127.5s110 -205.5 110 -361.5c0 -167.333 -41.167 -297 -123.5 -389s-198.166 -138 -347.499 -138c-182 0 -314.167 61 -396.5 183s-123.5 319 -123.5 591c0 258.667 50.333 452.5 151 581.5s251.667 193.5 453 193.5
c46.667 0 94.834 -5 144.501 -15s99.834 -25 150.501 -45zM642.999 748c-64 0 -112.833 -23.167 -146.5 -69.5s-50.5 -113.5 -50.5 -201.5c0 -87.333 16.833 -154.166 50.5 -200.499s82.5 -69.5 146.5 -69.5s113.167 23.167 147.5 69.5s51.5 113.166 51.5 200.499
s-17.167 154.333 -51.5 201s-83.5 70 -147.5 70z" />
    <glyph glyph-name="seven" unicode="7" 
d="M135 1493h944v-209l-506 -1284h-301l486 1233h-623v260z" />
    <glyph glyph-name="eight" unicode="8" 
d="M428 1094c0 -58.667 16.833 -105.167 50.5 -139.5s79.5 -51.5 137.5 -51.5c58.667 0 104.834 17.167 138.501 51.5s50.5 80.833 50.5 139.5c0 58 -16.833 103.833 -50.5 137.5s-79.834 50.5 -138.501 50.5c-57.333 0 -103 -17 -137 -51s-51 -79.667 -51 -137zM397 791
c-75.333 26 -132.669 66.8311 -172.002 122.498s-59 123.834 -59 204.501c0 124 40.333 222 121 294s190.334 108 329.001 108c139.333 0 249.333 -36 330 -108s121 -170 121 -294c0 -80 -19.333 -147.833 -58 -203.5s-95 -96.834 -169 -123.501
c82.667 -25.333 147.334 -70.666 194.001 -135.999s70 -143.666 70 -234.999c0 -143.333 -42.333 -254 -127 -332s-205 -117 -361 -117c-155.333 0 -275.333 39 -360 117s-127 188.667 -127 332c0 92 23.667 170.667 71 236s113 110.333 197 135zM615.997 665.998
c-66 0 -119.332 -20.833 -159.999 -62.5s-61 -96.834 -61 -165.501s20.333 -124 61 -166s94 -63 160 -63s119.5 21.333 160.5 64s61.5 97.667 61.5 165c0 68.667 -20.333 123.834 -61 165.501s-94.334 62.5 -161.001 62.5z" />
    <glyph glyph-name="nine" unicode="9" 
d="M590 741c63.333 0 111.833 23.167 145.5 69.5s50.5 113.5 50.5 201.5c0 87.333 -16.833 154.166 -50.5 200.499s-82.167 69.5 -145.5 69.5c-64 0 -113.167 -23.167 -147.5 -69.5s-51.5 -113.166 -51.5 -200.499s17.167 -154.333 51.5 -201s83.5 -70 147.5 -70zM203 20
l0.00292969 269.001c52.667 -30.667 103.167 -53.334 151.5 -68.001s94.833 -22 139.5 -22c106 0 186.833 35.5 242.5 106.5s85.167 177.167 88.5 318.5c-31.333 -43.333 -71.333 -75.833 -120 -97.5s-106.334 -32.5 -173.001 -32.5c-134 0 -237.667 42.5 -311 127.5
s-110 205.5 -110 361.5c0 166.667 41 295.667 123 387s198 137 348 137c182 0 314.167 -60.833 396.5 -182.5s123.5 -318.167 123.5 -589.5c0 -258 -50.333 -451.5 -151 -580.5s-251.667 -193.5 -453 -193.5c-46.667 0 -94.834 5 -144.501 15s-99.834 24.667 -150.501 44z
" />
    <glyph glyph-name="colon" unicode=":" 
d="M449 367h333v-367h-333v367zM449 1063h333v-365h-333v365z" />
    <glyph glyph-name="semicolon" unicode=";" 
d="M449 1063h333v-365h-333v365zM449 367h333v-271l-196 -383h-215l78 383v271z" />
    <glyph glyph-name="less" unicode="&#x3c;" 
d="M1145 926l-795 -285l795 -283v-249l-1057 415v236l1057 416v-250z" />
    <glyph glyph-name="equal" unicode="=" 
d="M88 987h1057v-235h-1057v235zM88 532h1057v-237h-1057v237z" />
    <glyph glyph-name="greater" unicode="&#x3e;" 
d="M88 926v250l1057 -416v-236l-1057 -415v249l795 283z" />
    <glyph glyph-name="question" unicode="?" 
d="M707 401l-267 -0.000976562v154c0 66 10.333 122.333 31 169s57.667 96 111 148l90 89c42 40.667 70.5 74.334 85.5 101.001s22.5 54.334 22.5 83.001c0 44.667 -15.333 78.334 -46 101.001s-76.667 34 -138 34c-56 0 -114.5 -11.833 -175.5 -35.5
s-123.5 -58.834 -187.5 -105.501v268c65.333 37.333 131.5 65.5 198.5 84.5s134.167 28.5 201.5 28.5c134.667 0 240.334 -31.333 317.001 -94s115 -149 115 -259c0 -50.667 -11.333 -97.834 -34 -141.501s-65.334 -96.167 -128.001 -157.5l-88 -86
c-45.333 -44 -74.333 -80 -87 -108s-19 -62.333 -19 -103c0 -6 -0.166992 -13 -0.5 -21s-0.833008 -16.667 -1.5 -26v-123zM440 282.999h267v-283h-267v283z" />
    <glyph glyph-name="at" unicode="@" 
d="M1159 135l-195.998 -0.00195312v82c-25.333 -35.333 -55.166 -61.166 -89.499 -77.499s-75.5 -24.5 -123.5 -24.5c-109.333 0 -197.5 39.333 -264.5 118s-100.5 182.667 -100.5 312c0 128.667 33.333 232.167 100 310.5s155 117.5 265 117.5
c47.333 0 89 -8.16699 125 -24.5s65.333 -40.166 88 -71.499v41c0 90.667 -24.833 160.667 -74.5 210s-120.5 74 -212.5 74c-138.667 0 -251.834 -61 -339.501 -183s-131.5 -280.667 -131.5 -476c0 -204.667 50.667 -367.5 152 -488.5s236.333 -181.5 405 -181.5
c53.333 0 105 7.83301 155 23.5s98 39.167 144 70.5l92 -176c-54 -36.667 -112.833 -64.167 -176.5 -82.5s-131.834 -27.5 -204.501 -27.5c-233.333 0 -419.333 77.667 -558 233s-208 365 -208 629c0 258 62.333 464.5 187 619.5s289.667 232.5 495 232.5
c145.333 0 260.166 -43.833 344.499 -131.5s126.5 -207.167 126.5 -358.5v-770zM973.002 544.998c0 75.333 -17 134.333 -51 177s-80.667 64 -140 64s-105.833 -21.333 -139.5 -64s-50.5 -101.667 -50.5 -177c0 -76 16.833 -135.333 50.5 -178s80.167 -64 139.5 -64
s106 21.333 140 64s51 102 51 178z" />
    <glyph glyph-name="A" unicode="A" 
d="M436 1493h361l403 -1493h-295l-92 369h-395l-90 -369h-295zM616 1223l-139 -611h279z" />
    <glyph glyph-name="B" unicode="B" 
d="M125 1495l480.999 -0.00195312c166 0 290.833 -31.5 374.5 -94.5s125.5 -157.167 125.5 -282.5c0 -96 -24.667 -171 -74 -225s-121.666 -85.333 -216.999 -94c114 -11.333 199.833 -49.666 257.5 -114.999s86.5 -156.666 86.5 -273.999
c0 -144 -43.333 -248.333 -130 -313s-227.667 -97 -423 -97h-481v1495zM409.999 1260l-0.00195312 -347h196c74.667 0 127.834 13.333 159.501 40s47.5 70.667 47.5 132s-16.167 105.833 -48.5 133.5s-85.166 41.5 -158.499 41.5h-196zM409.997 677.998v-442h196
c94 0 159.833 16 197.5 48s56.5 87.667 56.5 167c0 80.667 -19.667 138.667 -59 174s-104.333 53 -195 53h-196z" />
    <glyph glyph-name="C" unicode="C" 
d="M1081 43c-46.667 -24 -95.667 -42.002 -147 -54.002s-105.333 -18 -162 -18c-201.333 0 -355 66.333 -461 199s-159 324.334 -159 575.001c0 251.333 53 443.333 159 576s259.667 199 461 199c56.667 0 111 -6 163 -18s100.667 -30 146 -54v-328
c-50.667 46.667 -99.834 80.834 -147.501 102.501s-96.834 32.5 -147.501 32.5c-108 0 -189.5 -42.833 -244.5 -128.5s-82.5 -212.834 -82.5 -381.501c0 -168 27.5 -294.833 82.5 -380.5s136.5 -128.5 244.5 -128.5c50.667 0 99.834 10.833 147.501 32.5
s96.834 55.834 147.501 102.501v-328z" />
    <glyph glyph-name="D" unicode="D" 
d="M137 1493h316c244 0 419.667 -58.167 527 -174.5s161 -306.5 161 -570.5c0 -264.667 -53.667 -455.5 -161 -572.5s-283 -175.5 -527 -175.5h-316v1493zM432 1227v-961h80c116 0 198.667 36.5 248 109.5s74 197.167 74 372.5c0 174 -24.667 297.333 -74 370
s-132 109 -248 109h-80z" />
    <glyph glyph-name="E" unicode="E" 
d="M1098 0h-930v1493h930v-260h-635v-322h575v-260h-575v-391h635v-260z" />
    <glyph glyph-name="F" unicode="F" 
d="M1112 1233h-635v-322h578v-260h-578v-651h-295v1493h930v-260z" />
    <glyph glyph-name="G" unicode="G" 
d="M872 270l-0.00195312 285h-202v248h460v-684c-56.667 -48.667 -119.167 -85.5 -187.5 -110.5s-141.5 -37.5 -219.5 -37.5c-193.333 0 -342.666 67.167 -447.999 201.5s-158 325.166 -158 572.499c0 251.333 53.167 443.333 159.5 576s259.833 199 460.5 199
c60 0 119 -8.5 177 -25.5s112.333 -41.5 163 -73.5v-327c-41.333 53.333 -88.833 93.5 -142.5 120.5s-112.5 40.5 -176.5 40.5c-112 0 -195.667 -42.167 -251 -126.5s-83 -212.166 -83 -383.499c0 -166 26.667 -292.333 80 -379s131 -130 233 -130
c30.667 0 57.334 2.83301 80.001 8.5s41 14.167 55 25.5z" />
    <glyph glyph-name="H" unicode="H" 
d="M137 1493h295v-569h369v569h295v-1493h-295v664h-369v-664h-295v1493z" />
    <glyph glyph-name="I" unicode="I" 
d="M172 1233v260h889v-260h-297v-973h297v-260h-889v260h297v973h-297z" />
    <glyph glyph-name="J" unicode="J" 
d="M109 74l-0.000976562 342c57.333 -58.667 118.5 -103.334 183.5 -134.001s130.5 -46 196.5 -46c77.333 0 134 19.333 170 58s54 100.334 54 185.001v754h-361v260h656v-1014c0 -182 -38.167 -312.167 -114.5 -390.5s-202.166 -117.5 -377.499 -117.5
c-63.333 0 -129.5 8.66699 -198.5 26s-138.5 43 -208.5 77z" />
    <glyph glyph-name="K" unicode="K" 
d="M117 1493h295v-590l462 590h334l-471 -588l488 -905h-328l-354 672l-131 -166v-506h-295v1493z" />
    <glyph glyph-name="L" unicode="L" 
d="M225 0v1493h295v-1233h631v-260h-926z" />
    <glyph glyph-name="M" unicode="M" 
d="M86 1493h352l178 -655l177 655h354v-1493h-254v1196l-158 -653h-235l-160 653v-1196h-254v1493z" />
    <glyph glyph-name="N" unicode="N" 
d="M119 1493h317l416 -1085v1085h260v-1493h-315l-418 1085v-1085h-260v1493z" />
    <glyph glyph-name="O" unicode="O" 
d="M92 745c0 255.333 44.167 448.333 132.5 579s218.833 196 391.5 196c173.333 0 304.166 -65.333 392.499 -196s132.5 -323.667 132.5 -579c0 -254.667 -44.167 -447.334 -132.5 -578.001s-219.166 -196 -392.499 -196c-172.667 0 -303.167 65.333 -391.5 196
s-132.5 323.334 -132.5 578.001zM616 1255c-75.333 0 -130.333 -40.167 -165 -120.5s-52 -210.166 -52 -389.499c0 -178.667 17.333 -308.167 52 -388.5s89.667 -120.5 165 -120.5c76 0 131.333 40.167 166 120.5s52 209.833 52 388.5
c0 179.333 -17.333 309.166 -52 389.499s-90 120.5 -166 120.5z" />
    <glyph glyph-name="P" unicode="P" 
d="M162 1493h405c206 0 354.167 -36.667 444.5 -110s135.5 -192.333 135.5 -357s-45.167 -283.667 -135.5 -357s-238.5 -110 -444.5 -110h-110v-559h-295v1493zM457 1245v-438.002h121c96.667 0 164.5 16.333 203.5 49s58.5 89.334 58.5 170.001
s-19.5 137.334 -58.5 170.001s-106.833 49 -203.5 49h-121z" />
    <glyph glyph-name="Q" unicode="Q" 
d="M616 1255c-75.333 0 -130.333 -40.167 -165 -120.5s-52 -210.166 -52 -389.499c0 -178.667 17.333 -308.167 52 -388.5s89.667 -120.5 165 -120.5c76 0 131.333 40.167 166 120.5s52 209.833 52 388.5c0 179.333 -17.333 309.166 -52 389.499s-90 120.5 -166 120.5z
M656 -23c-9.33301 -2 -17.167 -3.50195 -23.5 -4.50195s-12.5 -1.5 -18.5 -1.5c-171.333 0 -301.166 65.333 -389.499 196s-132.5 323.334 -132.5 578.001c0 255.333 44.167 448.333 132.5 579s218.833 196 391.5 196c173.333 0 304.166 -65.333 392.499 -196
s132.5 -323.667 132.5 -579c0 -175.333 -21 -322.166 -63 -440.499s-103 -202.833 -183 -253.5l186 -182l-202 -150z" />
    <glyph glyph-name="R" unicode="R" 
d="M428 1245v-407.001h139c80.667 0 138.5 15.833 173.5 47.5s52.5 83.834 52.5 156.501s-17.333 124.667 -52 156s-92.667 47 -174 47h-139zM807 704.999c29.333 -6 54.833 -19.832 76.5 -41.499s48.167 -63.834 79.5 -126.501l270 -537h-324l-180 377
c-5.33301 10.667 -12.333 25.334 -21 44.001c-52.667 112.667 -114.667 169 -186 169h-94v-590h-295v1493h426c192 0 329.833 -34 413.5 -102s125.5 -178.667 125.5 -332c0 -102.667 -25 -184.334 -75 -245.001s-122 -97 -216 -109z" />
    <glyph glyph-name="S" unicode="S" 
d="M510 655c-148.667 56.667 -249.336 116.169 -302.003 178.502s-79 146.166 -79 251.499c0 135.333 43.333 241.666 130 318.999s205.667 116 357 116c68.667 0 137.334 -7.83301 206.001 -23.5s136.667 -38.834 204 -69.501v-288
c-63.333 44.667 -127.666 78.667 -192.999 102s-130 35 -194 35c-71.333 0 -126 -14.333 -164 -43s-57 -69.667 -57 -123c0 -41.333 13.833 -75.5 41.5 -102.5s85.5 -56.833 173.5 -89.5l127 -48c120 -44 208.333 -102.333 265 -175s85 -164.334 85 -275.001
c0 -150.667 -44.5 -263.167 -133.5 -337.5s-223.5 -111.5 -403.5 -111.5c-74 0 -148.167 8.83301 -222.5 26.5s-146.166 43.834 -215.499 78.501v305c78.667 -56 154.834 -97.667 228.501 -125s146.5 -41 218.5 -41c72.667 0 129 16.5 169 49.5s60 79.167 60 138.5
c0 44.667 -13.333 83.834 -40 117.501s-65.334 60.167 -116.001 79.5z" />
    <glyph glyph-name="T" unicode="T" 
d="M764 0h-295v1235h-379v258h1053v-258h-379v-1235z" />
    <glyph glyph-name="U" unicode="U" 
d="M106 551l0.000976562 942h295v-1016c0 -74.667 19 -133.167 57 -175.5s90.667 -63.5 158 -63.5s120 21.167 158 63.5s57 100.833 57 175.5v1016h295v-942c0 -202.667 -40.333 -350 -121 -442s-210.334 -138 -389.001 -138c-178 0 -307.5 46 -388.5 138
s-121.5 239.333 -121.5 442z" />
    <glyph glyph-name="V" unicode="V" 
d="M616 246l263 1247h297l-355 -1493h-409l-355 1493h297z" />
    <glyph glyph-name="W" unicode="W" 
d="M0 1493h258l107 -1096l129 709h245l150 -709l84 1096h260l-172 -1493h-275l-170 784l-159 -784h-273z" />
    <glyph glyph-name="X" unicode="X" 
d="M1206 0h-305l-285 494l-284 -494h-305l438 758l-426 735h305l272 -475l273 475h305l-424 -735z" />
    <glyph glyph-name="Y" unicode="Y" 
d="M8 1493h318l290 -600l291 600h318l-461 -905v-588h-295v588z" />
    <glyph glyph-name="Z" unicode="Z" 
d="M137 1493h1010v-244l-692 -989h706v-260h-1046v244l671 989h-649v260z" />
    <glyph glyph-name="bracketleft" unicode="[" 
d="M422 1556h508v-190h-242v-1446h242v-190h-508v1826z" />
    <glyph glyph-name="backslash" unicode="\" 
d="M334 1493l786 -1683h-223l-786 1683h223z" />
    <glyph glyph-name="bracketright" unicode="]" 
d="M811 1556v-1826h-508v190h242v1446h-242v190h508z" />
    <glyph glyph-name="asciicircum" unicode="^" 
d="M739 1493l437 -557h-242l-318 301l-317 -301h-242l437 557h245z" />
    <glyph glyph-name="underscore" unicode="_" 
d="M1233 -293v-190h-1233v190h1233z" />
    <glyph glyph-name="grave" unicode="`" 
d="M481 1638l283 -376h-197l-368 376h282z" />
    <glyph glyph-name="a" unicode="a" 
d="M1108 639l-0.00292969 -638.999h-291v125c-35.333 -49.333 -80.666 -87.333 -135.999 -114s-116.333 -40 -183 -40c-127.333 0 -226.5 33.667 -297.5 101s-106.5 161.333 -106.5 282c0 130.667 42.333 227.167 127 289.5s215.667 93.5 393 93.5h203v49
c0 47.333 -17.167 83.166 -51.5 107.499s-84.833 36.5 -151.5 36.5c-70 0 -137.833 -8.83301 -203.5 -26.5s-134.167 -45.834 -205.5 -84.501v250c64.667 26.667 130.334 46.334 197.001 59.001s137.334 19 212.001 19c182 0 309.833 -37 383.5 -111
s110.5 -206.333 110.5 -397zM699.997 526.001c-109.333 0 -185.667 -14 -229 -42s-65 -76 -65 -144c0 -50.667 15 -91 45 -121s70.667 -45 122 -45c77.333 0 137.333 29.167 180 87.5s64 139.833 64 244.5v20h-117z" />
    <glyph glyph-name="b" unicode="b" 
d="M442 961c36 62 77.832 108.499 125.499 139.499s101.5 46.5 161.5 46.5c132.667 0 234.834 -50.667 306.501 -152s107.5 -246.666 107.5 -435.999c0 -186.667 -35.333 -331.334 -106 -434.001s-170 -154 -298 -154c-67.333 0 -126 16.333 -176 49
s-90.333 81.334 -121 146.001v-166h-292v1556h292v-595zM849.999 556.999c0 108 -18 192.667 -54 254s-85.667 92 -149 92s-113.333 -30.667 -150 -92s-55 -146 -55 -254s18.333 -192.667 55 -254s86.667 -92 150 -92s113 30.667 149 92s54 146 54 254z" />
    <glyph glyph-name="c" unicode="c" 
d="M1061 57c-49.333 -28.667 -102.333 -50.168 -159 -64.501s-117.667 -21.5 -183 -21.5c-172.667 0 -307.667 52 -405 156s-146 248 -146 432c0 184.667 49 329.167 147 433.5s233.333 156.5 406 156.5c60 0 117.833 -7 173.5 -21s111.167 -35.667 166.5 -65v-268
c-42.667 36.667 -89.5 64.834 -140.5 84.501s-103.833 29.5 -158.5 29.5c-95.333 0 -168.666 -30.333 -219.999 -91s-77 -147 -77 -259s25.667 -198 77 -258s124.666 -90 219.999 -90c56.667 0 109.667 9.5 159 28.5s96 47.833 140 86.5v-269z" />
    <glyph glyph-name="d" unicode="d" 
d="M383 557c0 -108 18 -192.667 54 -254s85.667 -92 149 -92s113.333 30.667 150 92s55 146 55 254s-18.333 192.667 -55 254s-86.667 92 -150 92s-113 -30.667 -149 -92s-54 -146 -54 -254zM791 961l-0.000976562 595.001h292v-1556h-292v166
c-31.333 -64.667 -71.833 -113.334 -121.5 -146.001s-108.167 -49 -175.5 -49c-128 0 -227.333 51.333 -298 154s-106 247.334 -106 434.001c0 189.333 35.833 334.666 107.5 435.999s173.834 152 306.501 152c60 0 113.833 -15.5 161.5 -46.5s89.5 -77.5 125.5 -139.5z" />
    <glyph glyph-name="e" unicode="e" 
d="M854 685c-1.33301 77.333 -21.167 135.833 -59.5 175.5s-94.833 59.5 -169.5 59.5c-67.333 0 -121 -20.5 -161 -61.5s-63.667 -99.167 -71 -174.5zM1102 55c-68 -28 -137.33 -49 -207.997 -63s-145.334 -21 -224.001 -21c-187.333 0 -330.5 50.167 -429.5 150.5
s-148.5 244.833 -148.5 433.5c0 182.667 47.667 327 143 433s225.333 159 390 159c166 0 294.833 -49.167 386.5 -147.5s137.5 -236.833 137.5 -415.5v-119h-759c0.666992 -88 26.667 -153.667 78 -197s128 -65 230 -65c67.333 0 133.666 9.66699 198.999 29
s133.666 50 204.999 92v-269z" />
    <glyph glyph-name="f" unicode="f" 
d="M739 1218v-98h344v-225h-344v-895h-293v895h-272v225h272v78c0 134.667 28 228 84 280s160 78 312 78h241v-225h-229c-44 0 -73.833 -8 -89.5 -24s-24.167 -45.667 -25.5 -89z" />
    <glyph glyph-name="g" unicode="g" 
d="M1096 84c0 -179.333 -40.499 -308.832 -121.499 -388.499s-212.5 -119.5 -394.5 -119.5c-61.333 0 -122 4.5 -182 13.5s-121 22.833 -183 41.5v269c55.333 -30.667 111.666 -53.334 168.999 -68.001s116.333 -22 177 -22c82.667 0 143.667 19.5 183 58.5
s59 99.833 59 182.5v121c-28.667 -53.333 -66.667 -93 -114 -119s-105 -39 -173 -39c-128 0 -229.667 50 -305 150s-113 235.667 -113 407c0 177.333 37.667 318 113 422s176.333 156 303 156c64 0 121 -15 171 -45s89.333 -72.333 118 -127v143h293v-1036zM803.001 578.001
c0 100 -19 180.167 -57 240.5s-88 90.5 -150 90.5c-61.333 0 -110.833 -30 -148.5 -90s-56.5 -140.333 -56.5 -241c0 -101.333 18.833 -182 56.5 -242s87.167 -90 148.5 -90c62 0 112 30.167 150 90.5s57 140.833 57 241.5z" />
    <glyph glyph-name="h" unicode="h" 
d="M1071 727v-727.002h-291v682c0 80.667 -11.5 138.334 -34.5 173.001s-60.5 52 -112.5 52c-53.333 0 -95 -23.5 -125 -70.5s-45 -112.167 -45 -195.5v-641h-291v1556h291v-604c20.667 62 56 110 106 144s110.333 51 181 51c106 0 186 -35.167 240 -105.5
s81 -175.166 81 -314.499z" />
    <glyph glyph-name="i" unicode="i" 
d="M508 1665h293v-342h-293v342zM221 1120h580v-895h364v-225h-1022v225h365v670h-287v225z" />
    <glyph glyph-name="j" unicode="j" 
d="M850 1323h-293v342h293v-342zM850 43c0 -168 -30.166 -287.833 -90.499 -359.5s-160.5 -107.5 -300.5 -107.5h-316v225h234c65.333 0 111.666 18.333 138.999 55s41 99 41 187v852h-297v225h590v-1077z" />
    <glyph glyph-name="k" unicode="k" 
d="M174 1556h293v-817l352 381h355l-424 -418l448 -702h-324l-307 524l-100 -96v-428h-293v1556z" />
    <glyph glyph-name="l" unicode="l" 
d="M221 1556h580v-1331h364v-225h-1022v225h365v1106h-287v225z" />
    <glyph glyph-name="m" unicode="m" 
d="M690 1008c22 47.333 49.998 82.334 83.998 105.001s75.667 34 125 34c96.667 0 163.5 -33.333 200.5 -100s55.5 -205.334 55.5 -416.001v-631h-240v719c0 83.333 -6.33301 139 -19 167s-35.667 42 -69 42s-56.666 -14.333 -69.999 -43s-20 -84 -20 -166v-719h-237v719
c0 82 -6.66699 137.333 -20 166s-36.666 43 -69.999 43s-56.333 -14 -69 -42s-19 -83.667 -19 -167v-719h-240v1120h213v-116c16.667 44 43.334 78.833 80.001 104.5s77.667 38.5 123 38.5s86.666 -13.5 123.999 -40.5s60 -59.833 68 -98.5z" />
    <glyph glyph-name="n" unicode="n" 
d="M1071 727v-727.001h-291v682c0 81.333 -11.5 139.5 -34.5 174.5s-60.5 52.5 -112.5 52.5c-52.667 0 -94.167 -23.667 -124.5 -71s-45.5 -113 -45.5 -197v-641h-291v1120h291v-168c20.667 62 56 110 106 144s110.333 51 181 51c106 0 186 -35.167 240 -105.5
s81 -175.166 81 -314.499z" />
    <glyph glyph-name="o" unicode="o" 
d="M98 559c0 180.667 46.833 323.834 140.5 429.501s219.5 158.5 377.5 158.5c158.667 0 284.834 -52.833 378.501 -158.5s140.5 -248.834 140.5 -429.501s-46.833 -323.834 -140.5 -429.501s-219.834 -158.5 -378.501 -158.5c-158 0 -283.833 52.833 -377.5 158.5
s-140.5 248.834 -140.5 429.501zM616 909c-70 0 -125 -30.833 -165 -92.5s-60 -147.5 -60 -257.5s20 -195.833 60 -257.5s95 -92.5 165 -92.5c70.667 0 126 30.833 166 92.5s60 147.5 60 257.5s-20 195.833 -60 257.5s-95.333 92.5 -166 92.5z" />
    <glyph glyph-name="p" unicode="p" 
d="M850 561c0 108 -18 192.667 -54 254s-85.667 92 -149 92s-113.333 -30.667 -150 -92s-55 -146 -55 -254s18.333 -192.667 55 -254s86.667 -92 150 -92s113 30.667 149 92s54 146 54 254zM442 158l0.000976562 -584.001h-292v1546h292v-168
c30.667 64.667 71 113.334 121 146.001s108.667 49 176 49c128 0 227.333 -51.333 298 -154s106 -247.334 106 -434.001c0 -189.333 -35.833 -334.666 -107.5 -435.999s-173.834 -152 -306.501 -152c-60 0 -113.833 15.5 -161.5 46.5s-89.5 77.833 -125.5 140.5z" />
    <glyph glyph-name="q" unicode="q" 
d="M791 158c-36 -62.667 -77.832 -109.499 -125.499 -140.499s-101.5 -46.5 -161.5 -46.5c-132.667 0 -234.834 50.667 -306.501 152s-107.5 246.666 -107.5 435.999c0 186.667 35.333 331.334 106 434.001s170 154 298 154c67.333 0 125.833 -16.333 175.5 -49
s90.167 -81.334 121.5 -146.001v168h292v-1546h-292v584zM383.001 561.001c0 -108 18 -192.667 54 -254s85.667 -92 149 -92s113.333 30.667 150 92s55 146 55 254s-18.333 192.667 -55 254s-86.667 92 -150 92s-113 -30.667 -149 -92s-54 -146 -54 -254z" />
    <glyph glyph-name="r" unicode="r" 
d="M1151 811c-32 29.333 -69.5 51.334 -112.5 66.001s-90.167 22 -141.5 22c-62 0 -116.167 -10.833 -162.5 -32.5s-82.166 -53.167 -107.499 -94.5c-16 -25.333 -27.167 -56 -33.5 -92s-9.5 -90.667 -9.5 -164v-516h-293v1120h293v-174c28.667 64 72.667 113.5 132 148.5
s128.666 52.5 207.999 52.5c40 0 79.167 -4.83301 117.5 -14.5s74.833 -23.834 109.5 -42.501v-279z" />
    <glyph glyph-name="s" unicode="s" 
d="M991 1085l-0.000976562 -256.003c-54 34.667 -110.167 60.834 -168.5 78.501s-116.833 26.5 -175.5 26.5c-65.333 0 -114.666 -9.5 -147.999 -28.5s-50 -47.167 -50 -84.5c0 -53.333 71.333 -96.666 214 -129.999l11 -3l84 -20
c106.667 -25.333 184.834 -66.166 234.501 -122.499s74.5 -132.5 74.5 -228.5c0 -115.333 -37.833 -201.833 -113.5 -259.5s-189.5 -86.5 -341.5 -86.5c-67.333 0 -136.333 5.83301 -207 17.5s-142.334 29.167 -215.001 52.5v256c64.667 -36.667 130.5 -64.667 197.5 -84
s131.833 -29 194.5 -29c68.667 0 120.667 10 156 30s53 49 53 87c0 37.333 -12.5 66 -37.5 86s-84.5 41.333 -178.5 64l-81 18c-112 25.333 -193.667 65 -245 119s-77 126.333 -77 217c0 108 39 192 117 252s187.667 90 329 90c63.333 0 126.5 -5.16699 189.5 -15.5
s124.167 -25.833 183.5 -46.5z" />
    <glyph glyph-name="t" unicode="t" 
d="M690 1438v-318h383v-225h-383v-530c0 -50 12.167 -85.833 36.5 -107.5s64.833 -32.5 121.5 -32.5h225v-225h-246c-168 -0 -281.667 26.833 -341 80.5s-89 153.167 -89 298.5v516h-286v225h286v318h293z" />
    <glyph glyph-name="u" unicode="u" 
d="M160 391l-0.000976562 729h293v-684c0 -80.667 11.333 -138.334 34 -173.001s60.334 -52 113.001 -52s93.834 23.333 123.501 70s44.5 112 44.5 196v643h293v-1120h-293v166c-20.667 -62 -55.834 -110 -105.501 -144s-109.5 -51 -179.5 -51
c-106.667 0 -187.167 35.333 -241.5 106s-81.5 175.334 -81.5 314.001z" />
    <glyph glyph-name="v" unicode="v" 
d="M1153 1120l-356 -1120h-361l-356 1120h297l239 -874l240 874h297z" />
    <glyph glyph-name="w" unicode="w" 
d="M0 1120h244l133 -858l121 565h237l119 -565l135 858h244l-203 -1120h-278l-136 582l-135 -582h-278z" />
    <glyph glyph-name="x" unicode="x" 
d="M1145 1120l-377 -536l410 -584h-342l-220 377l-219 -377h-342l414 584l-381 536h342l186 -334l187 334h342z" />
    <glyph glyph-name="y" unicode="y" 
d="M711 -121c-39.333 -105.333 -86.5 -182.167 -141.5 -230.5s-121.833 -72.5 -200.5 -72.5h-242v223h119c60 0 104 10.167 132 30.5s56.333 67.5 85 141.5l22 60l-426 1089h308l256 -727l245 727h308z" />
    <glyph glyph-name="z" unicode="z" 
d="M186 1120h895v-229l-589 -672h589v-219h-919v229l590 672h-566v219z" />
    <glyph glyph-name="braceleft" unicode="{" 
d="M1053 -143v-190.999h-150c-166 0 -277.167 24.667 -333.5 74s-84.5 147.666 -84.5 294.999v215c0 100.667 -17.833 170.167 -53.5 208.5s-100.167 57.5 -193.5 57.5h-62v191h62c93.333 0 157.833 19 193.5 57s53.5 107.667 53.5 209v215
c0 147.333 28.167 245.5 84.5 294.5s167.5 73.5 333.5 73.5h150v-190h-123c-69.333 0 -115.666 -14 -138.999 -42s-35 -89.667 -35 -185v-209c0 -110 -16.333 -187.333 -49 -232s-91 -73.334 -175 -86.001c84 -14 142.333 -43.667 175 -89s49 -122.666 49 -231.999v-205
c0 -96 11.667 -158.167 35 -186.5s69.666 -42.5 138.999 -42.5h123z" />
    <glyph glyph-name="bar" unicode="|" 
d="M729 1565v-2048h-227v2048h227z" />
    <glyph glyph-name="braceright" unicode="}" 
d="M180 -143l121 -0.000976562c69.333 0 116 14.333 140 43s36 90.667 36 186v205c0 109.333 16.333 186.666 49 231.999s90.667 75 174 89c-84 12.667 -142.167 41.334 -174.5 86.001s-48.5 122 -48.5 232v209c0 94 -11.833 155.333 -35.5 184s-70.5 43 -140.5 43h-121v190
h150c165.333 0 275.833 -24.5 331.5 -73.5s83.5 -147.167 83.5 -294.5v-215c0 -100.667 18.167 -170.167 54.5 -208.5s101.5 -57.5 195.5 -57.5h62v-191h-62c-94 0 -159.167 -19.333 -195.5 -58s-54.5 -108 -54.5 -208v-215c0 -147.333 -27.833 -245.666 -83.5 -294.999
s-166.167 -74 -331.5 -74h-150v191z" />
    <glyph glyph-name="asciitilde" unicode="~" 
d="M1145 811l0.00195312 -233.001c-50 -40 -98.833 -69.167 -146.5 -87.5s-97.834 -27.5 -150.501 -27.5c-60 0 -127.667 17 -203 51c-14.667 6.66699 -25.667 11.334 -33 14.001c-51.333 22.667 -94.166 38 -128.499 46s-68.5 12 -102.5 12
c-52 0 -101.5 -9.66699 -148.5 -29s-95.167 -50 -144.5 -92v229c52 40.667 102.333 70 151 88s100.667 27 156 27c35.333 0 69.666 -3.66699 102.999 -11s74.666 -21.333 123.999 -42l33 -15c77.333 -36.667 147 -55 209 -55c46.667 0 93 10.167 139 30.5
s93.333 51.833 142 94.5z" />
    <glyph glyph-name="uni00A0" unicode="&#xa0;" 
 />
    <glyph glyph-name="exclamdown" unicode="&#xa1;" 
d="M750 0h-267v655l33 357h199l35 -357v-655zM750 1210h-267v283h267v-283z" />
    <glyph glyph-name="cent" unicode="&#xa2;" 
d="M655 215v692c-76 -9.33301 -134.5 -43.833 -175.5 -103.5s-61.5 -140.5 -61.5 -242.5c0 -103.333 21 -185.833 63 -247.5s100 -94.5 174 -98.5zM1036 1077l-0.000976562 -268.004c-37.333 28 -76 50.167 -116 66.5s-81 26.833 -123 31.5v-692
c42.667 3.33301 83.834 13 123.501 29s78.167 38.333 115.5 67v-268c-34.667 -19.333 -72 -34.666 -112 -45.999s-82.333 -18.666 -127 -21.999v-288h-142v288c-156.667 14.667 -280.5 74.334 -371.5 179.001s-136.5 240.334 -136.5 407.001c0 170 45.5 307.167 136.5 411.5
s214.833 161.833 371.5 172.5v287h142v-287c40.667 -3.33301 80.5 -10.5 119.5 -21.5s78.833 -26.5 119.5 -46.5z" />
    <glyph glyph-name="sterling" unicode="&#xa3;" 
d="M1102 1462l0.000976562 -274c-38 27.333 -78.667 48.166 -122 62.499s-88 21.5 -134 21.5c-70.667 0 -122.5 -22.167 -155.5 -66.5s-49.5 -114.5 -49.5 -210.5v-176h336v-225h-336v-334h481v-260h-1003v260h235v334h-198v225h198v197
c0 170.667 37.5 297.334 112.5 380.001s189.833 124 344.5 124c55.333 0 106.666 -4.83301 153.999 -14.5s93 -24.167 137 -43.5z" />
    <glyph glyph-name="currency" unicode="&#xa4;" horiz-adv-x="506" 
d="M253 222c38 0 67.333 13.5 88 40.5s31 61.167 31 102.5c0 20 -2.66699 38.833 -8 56.5s-13 33 -23 46s-22.5 23.167 -37.5 30.5s-31.833 11 -50.5 11c-19.333 0 -36.333 -3.66699 -51 -11s-27.167 -17.5 -37.5 -30.5s-18.166 -28.333 -23.499 -46s-8 -36.5 -8 -56.5
c0 -20.667 2.66699 -39.667 8 -57s13.166 -32.333 23.499 -45s22.833 -22.667 37.5 -30s31.667 -11 51 -11zM19 168l69 70.999c-25.333 36.667 -38 78.667 -38 126s12.667 88.666 38 123.999l-69 71l45 43l67 -69c16 12 34.167 21.667 54.5 29s42.833 11 67.5 11
c24 0 46.333 -3.66699 67 -11s39 -17 55 -29l67 69l45 -43l-69 -71c24.667 -36 37 -77.333 37 -124c0 -23.333 -3.33301 -45.666 -10 -66.999s-16 -40.666 -28 -57.999l70 -72l-45 -43l-68 69c-32.667 -24.667 -73 -37 -121 -37s-88.333 12.333 -121 37l-68 -69z" />
    <glyph glyph-name="yen" unicode="&#xa5;" 
d="M8 1493h318l290 -600l291 600h318l-273 -528h224v-187h-322l-86 -151h408v-189h-412v-438h-295v438h-412v189h408l-86 151h-322v187h224z" />
    <glyph glyph-name="brokenbar" unicode="&#xa6;" 
d="M729 1432v-758h-227v758h227zM729 408v-758h-227v758h227z" />
    <glyph glyph-name="section" unicode="&#xa7;" 
d="M930 1460l-0.000976562 -225.001c-56.667 20 -107 34.833 -151 44.5s-84 14.5 -120 14.5c-50.667 0 -90.167 -9.66699 -118.5 -29s-42.5 -46.333 -42.5 -81c0 -50 67.667 -110 203 -180c12.667 -6.66699 22 -11.667 28 -15c142.667 -73.333 233.667 -133.5 273 -180.5
s59 -104.167 59 -171.5c0 -59.333 -15.833 -110.333 -47.5 -153s-81.5 -79.667 -149.5 -111c46.667 -33.333 80.834 -70.5 102.501 -111.5s32.5 -88.5 32.5 -142.5c0 -98 -34.833 -174.833 -104.5 -230.5s-166.5 -83.5 -290.5 -83.5
c-59.333 0 -117.666 4.83301 -174.999 14.5s-114.333 24.167 -171 43.5v229c56.667 -20 112 -35.167 166 -45.5s105.333 -15.5 154 -15.5c51.333 0 90.666 9.5 117.999 28.5s41 46.167 41 81.5c0 46.667 -71.333 108.334 -214 185.001l-11 6l-26 14
c-210.667 113.333 -316 227.333 -316 342c0 62.667 17.333 117.167 52 163.5s84.334 80.5 149.001 102.5c-47.333 33.333 -81.666 70 -102.999 110s-32 87.333 -32 142c0 94.667 34.667 170.667 104 228s161.333 86 276 86c49.333 0 100.166 -5 152.499 -15
s106.166 -25 161.499 -45zM517.999 855.999c-36.667 -24 -63.166 -47.5 -79.499 -70.5s-24.5 -47.833 -24.5 -74.5c0 -36 16.167 -68.667 48.5 -98s115.166 -76 248.499 -140c36.667 24 63.167 47.5 79.5 70.5s24.5 48.833 24.5 77.5c0 54 -88.333 127 -265 219z" />
    <glyph glyph-name="dieresis" unicode="&#xa8;" 
d="M301 1585h236v-246h-236v246zM696 1585h236v-246h-236v246z" />
    <glyph glyph-name="copyright" unicode="&#xa9;" 
d="M616 1229c-66 0 -127.332 -11.833 -183.999 -35.5s-109.334 -59.834 -158.001 -108.501c-47.333 -47.333 -83 -99.666 -107 -156.999s-36 -119.666 -36 -186.999c0 -65.333 12 -126.333 36 -183s59.667 -109 107 -157s99.666 -84.167 156.999 -108.5s119 -36.5 185 -36.5
c66.667 0 128.667 12.167 186 36.5s109.333 60.5 156 108.5c48 48 84 100.333 108 157s36 117.667 36 183c0 67.333 -12 129.666 -36 186.999s-60 109.666 -108 156.999c-48 48.667 -100.167 84.834 -156.5 108.501s-118.166 35.5 -185.499 35.5zM616.001 1358
c84.667 0 163.335 -15 236.002 -45s139 -75 199 -135c60 -60.667 105.333 -127.667 136 -201s46 -152 46 -236c0 -83.333 -15.167 -161.333 -45.5 -234s-75.833 -139.334 -136.5 -200.001s-127.334 -106.167 -200.001 -136.5s-151 -45.5 -235 -45.5
c-83.333 0 -161.333 15.167 -234 45.5s-139.334 75.833 -200.001 136.5s-106.167 127.334 -136.5 200.001s-45.5 150.667 -45.5 234c0 84 15.333 162.667 46 236s76 140.333 136 201c60 60 126.333 105 199 135s151 45 235 45zM848.002 1049l0.000976562 -168
c-34.667 20.667 -67.167 35.667 -97.5 45s-61.5 14 -93.5 14c-64.667 0 -114.834 -17.333 -150.501 -52s-53.5 -83.667 -53.5 -147s17.667 -112.166 53 -146.499s85.666 -51.5 150.999 -51.5c35.333 0 69 4.83301 101 14.5s62 24.5 90 44.5v-168
c-36.667 -11.333 -72.667 -20 -108 -26s-69.666 -9 -102.999 -9c-112.667 0 -202.667 31.167 -270 93.5s-101 145.166 -101 248.499c0 104 33.667 187 101 249s157.333 93 270 93c36.667 0 72.5 -2.83301 107.5 -8.5s69.5 -14.167 103.5 -25.5z" />
    <glyph glyph-name="ordfeminine" unicode="&#xaa;" 
d="M293 598h688v-170h-688v170zM786 809c-33.333 -38 -70.165 -65.999 -110.498 -83.999s-86.5 -27 -138.5 -27c-86.667 0 -155.167 22.833 -205.5 68.5s-75.5 107.5 -75.5 185.5c0 89.333 30.833 156.166 92.5 200.499s155.167 66.5 280.5 66.5h157v26
c0 32.667 -15.167 57.167 -45.5 73.5s-75.833 24.5 -136.5 24.5c-54.667 0 -105.834 -5.5 -153.501 -16.5s-92.834 -27.833 -135.501 -50.5v188c48.667 18.667 97.667 32.667 147 42s99.333 14 150 14c126 0 218.667 -28.667 278 -86s89 -147 89 -269v-448h-193v92z
M786.001 1049v30.001h-102c-72.667 0 -125.667 -8.66699 -159 -26s-50 -44.666 -50 -81.999c0 -32.667 10.167 -58.334 30.5 -77.001s48.5 -28 84.5 -28c57.333 0 104.333 17.167 141 51.5s55 78.166 55 131.499z" />
    <glyph glyph-name="guillemotleft" unicode="&#xab;" 
d="M588 1059v-238l-277 -221l277 -221v-238l-469 394v131zM1042 1059v-238l-276 -221l276 -221v-238l-469 394v131z" />
    <glyph glyph-name="logicalnot" unicode="&#xac;" 
d="M88 899h1057v-537h-238v300h-819v237z" />
    <glyph glyph-name="uni00AD" unicode="&#xad;" 
d="M301 735h631v-291h-631v291z" />
    <glyph glyph-name="registered" unicode="&#xae;" 
d="M616 1229c-66 0 -127.332 -11.833 -183.999 -35.5s-109.334 -59.834 -158.001 -108.501c-47.333 -47.333 -83 -99.666 -107 -156.999s-36 -119.666 -36 -186.999c0 -65.333 12 -126.333 36 -183s59.667 -109.667 107 -159c48 -47.333 100.5 -83 157.5 -107
s118.5 -36 184.5 -36s127.667 12 185 36s109.666 59.667 156.999 107c48 49.333 84 102.333 108 159s36 117.667 36 183c0 67.333 -12 129.666 -36 186.999s-60 109.666 -108 156.999c-48 48.667 -100.167 84.834 -156.5 108.501s-118.166 35.5 -185.499 35.5zM606.001 1055
c88.667 0 154.501 -14.668 197.501 -44.001s64.5 -74 64.5 -134c0 -43.333 -13 -79.166 -39 -107.499s-62.667 -46.5 -110 -54.5c25.333 -9.33301 47.166 -23.333 65.499 -42s35.5 -44.334 51.5 -77.001l79 -166h-172l-63 133c-18 38.667 -36.5 65.834 -55.5 81.501
s-42.167 24.167 -69.5 25.5h-31v-240h-164v625h246zM588.002 943.999l-63.999 -0.000976562v-164h64c38 0 66.5 6.66699 85.5 20s28.5 33.333 28.5 60c0 28.667 -9.33301 49.834 -28 63.501s-47.334 20.5 -86.001 20.5zM616.003 1358c84.667 0 163.335 -15 236.002 -45
s139 -75 199 -135c60 -60.667 105.333 -127.667 136 -201s46 -152 46 -236c0 -83.333 -15.167 -161.333 -45.5 -234s-75.833 -139.334 -136.5 -200.001s-127.334 -106.167 -200.001 -136.5s-151 -45.5 -235 -45.5c-83.333 0 -161.333 15.167 -234 45.5
s-139.334 75.833 -200.001 136.5s-106.167 127.334 -136.5 200.001s-45.5 150.667 -45.5 234c0 84 15.333 162.667 46 236s76 140.333 136 201c60 60 126.333 105 199 135s151 45 235 45z" />
    <glyph glyph-name="macron" unicode="&#xaf;" 
d="M301 1556h631v-188h-631v188z" />
    <glyph glyph-name="degree" unicode="&#xb0;" 
d="M616 1358c-48 0 -88.667 -16.667 -122 -50s-50 -74 -50 -122s16.333 -88.333 49 -121s73 -49 121 -49s88.667 16.5 122 49.5s50 73.167 50 120.5c0 48 -16.5 88.667 -49.5 122s-73.167 50 -120.5 50zM616 1520c44.667 0 87.335 -8.49902 128.002 -25.499
s76.667 -41.5 108 -73.5c31.333 -31.333 55.166 -67 71.499 -107s24.5 -82.667 24.5 -128c0 -44 -8.33301 -86.333 -25 -127s-40.334 -76.334 -71.001 -107.001c-32 -31.333 -68.333 -55.5 -109 -72.5s-83.667 -25.5 -129 -25.5c-94 0 -172.667 31.667 -236 95
s-95 142.333 -95 237c0 94 32 173.167 96 237.5s143 96.5 237 96.5z" />
    <glyph glyph-name="plusminus" unicode="&#xb1;" 
d="M88 238h1057v-238h-1057v238zM735 1284v-354h410v-236h-410v-354h-237v354h-410v236h410v354h237z" />
    <glyph glyph-name="uni00B2" unicode="&#xb2;" 
d="M500 813l440 -0.000976562v-145h-666v141c34 28.667 81 68 141 118c209.333 174.667 314 288.334 314 341.001c0 34.667 -14.5 62 -43.5 82s-68.5 30 -118.5 30c-37.333 0 -78.5 -5.83301 -123.5 -17.5s-93.167 -28.834 -144.5 -51.501v164
c50 14.667 98.667 25.834 146 33.501s93 11.5 137 11.5c112.667 0 200.167 -20.833 262.5 -62.5s93.5 -99.5 93.5 -173.5c0 -84 -118.333 -219.333 -355 -406c-36 -28 -63.667 -49.667 -83 -65z" />
    <glyph glyph-name="uni00B3" unicode="&#xb3;" 
d="M582 1042l-111.001 -0.00195312v146h111c49.333 0 88.166 8.33301 116.499 25s42.5 39.667 42.5 69c0 30 -13.167 53.5 -39.5 70.5s-62.833 25.5 -109.5 25.5c-46 0 -92 -3.66699 -138 -11s-91.667 -18.666 -137 -33.999v152c46 11.333 92.167 20 138.5 26
s91.833 9 136.5 9c108 0 192.667 -19.333 254 -58s92 -91.667 92 -159c0 -48.667 -17.5 -88.667 -52.5 -120s-85.167 -52.333 -150.5 -63c74 -10 130.5 -33.667 169.5 -71s58.5 -86.666 58.5 -147.999c0 -80.667 -32.167 -142.167 -96.5 -184.5s-157.833 -63.5 -280.5 -63.5
c-50 0 -100 3.5 -150 10.5s-99.667 17.167 -149 30.5v154c44.667 -18 92.334 -31.667 143.001 -41s102.667 -14 156 -14c56.667 0 100.834 10.667 132.501 32s47.5 50.666 47.5 87.999c0 40.667 -16.333 72.334 -49 95.001s-77.667 34 -135 34z" />
    <glyph glyph-name="acute" unicode="&#xb4;" 
d="M752 1638h282l-368 -376h-197z" />
    <glyph glyph-name="mu" unicode="&#xb5;" 
d="M174 -428l0.00292969 1548h287v-680c0 -76 13.667 -133.167 41 -171.5s68.333 -57.5 123 -57.5c54 0 94.333 19 121 57s40 95.333 40 172v680h289v-776c0 -47.333 4.5 -81.333 13.5 -102s23.833 -31 44.5 -31c9.33301 0 18.333 1.83301 27 5.5s18 9.16699 28 16.5v-217
c-28.667 -15.333 -55.334 -26.666 -80.001 -33.999s-48.667 -11 -72 -11c-48 0 -87.167 12.5 -117.5 37.5s-54.5 65.167 -72.5 120.5c-24.667 -52 -55.334 -91.333 -92.001 -118s-78.334 -40 -125.001 -40c-39.333 0 -72.833 7.83301 -100.5 23.5s-50.167 39.5 -67.5 71.5
l2 -494h-289z" />
    <glyph glyph-name="paragraph" unicode="&#xb6;" 
d="M545 1493h520.001v-1690h-191v1543h-190v-1543h-188v846c-136.667 16.667 -241.834 61.5 -315.501 134.5s-110.5 168.833 -110.5 287.5c0 126.667 43.333 228.667 130 306s201.667 116 345 116z" />
    <glyph glyph-name="periodcentered" unicode="&#xb7;" 
d="M449 895h333v-365h-333v365z" />
    <glyph glyph-name="cedilla" unicode="&#xb8;" 
d="M707 0c38 -41.333 66.166 -79.668 84.499 -115.001s27.5 -68.666 27.5 -99.999c0 -63.333 -20.5 -110.166 -61.5 -140.499s-103.833 -45.5 -188.5 -45.5c-32 0 -64.833 2.16699 -98.5 6.5s-68.167 10.833 -103.5 19.5v156c30 -11.333 59 -20 87 -26s54 -9 78 -9
c38.667 0 68.834 7.66699 90.501 23s32.5 36.333 32.5 63c0 17.333 -7 39.666 -21 66.999s-36.333 61 -67 101h140z" />
    <glyph glyph-name="uni00B9" unicode="&#xb9;" 
d="M313 813h226v543l-220 -43v149l222 41h194v-690h226v-145h-648v145z" />
    <glyph glyph-name="ordmasculine" unicode="&#xba;" 
d="M637 1343c-48.667 0 -87.167 -21 -115.5 -63s-42.5 -99.333 -42.5 -172s14.167 -129.834 42.5 -171.501s66.833 -62.5 115.5 -62.5s87.167 20.833 115.5 62.5s42.5 98.834 42.5 171.501s-14.167 130 -42.5 172s-66.833 63 -115.5 63zM274 1108
c0 126 32.833 226.167 98.5 300.5s153.834 111.5 264.501 111.5s198.667 -37 264 -111s98 -174.333 98 -301c0 -126 -32.5 -225.833 -97.5 -299.5s-153.167 -110.5 -264.5 -110.5c-110.667 0 -198.834 36.833 -264.501 110.5s-98.5 173.5 -98.5 299.5zM293 598h688v-170
h-688v170z" />
    <glyph glyph-name="guillemotright" unicode="&#xbb;" 
d="M647 1059l469 -393v-131l-469 -394v238l277 221l-277 221v238zM193 1059l469 -393v-131l-469 -394v238l276 221l-276 221v238z" />
    <glyph glyph-name="onequarter" unicode="&#xbc;" 
d="M56 969h226v543l-220 -43v149l222 41h194v-690h226v-145h-648v145zM84 500l-37 118l1059 263l37 -119zM805 566h204v-512h109v-143h-109v-180h-186v180h-393v162zM823 384l-250 -330h250v330z" />
    <glyph glyph-name="onehalf" unicode="&#xbd;" 
d="M56 969h226v543l-220 -43v149l222 41h194v-690h226v-145h-648v145zM84 500l-37 118l1059 263l37 -119zM701 -124l440 -0.000976562v-145h-666v141c34 28.667 81 68 141 118c209.333 174.667 314 288.334 314 341.001c0 34.667 -14.5 62 -43.5 82s-68.5 30 -118.5 30
c-37.333 0 -78.5 -5.83301 -123.5 -17.5s-93.167 -28.834 -144.5 -51.501v164c50 14.667 98.667 25.834 146 33.501s93 11.5 137 11.5c112.667 0 200.167 -20.833 262.5 -62.5s93.5 -99.5 93.5 -173.5c0 -84 -118.333 -219.333 -355 -406c-36 -28 -63.667 -49.667 -83 -65z
" />
    <glyph glyph-name="threequarters" unicode="&#xbe;" 
d="M356 1198l-111.001 -0.00195312v146h111c49.333 0 88.166 8.33301 116.499 25s42.5 39.667 42.5 69c0 30 -13.167 53.5 -39.5 70.5s-62.833 25.5 -109.5 25.5c-46 0 -92 -3.66699 -138 -11s-91.667 -18.666 -137 -33.999v152c46 11.333 92.167 20 138.5 26
s91.833 9 136.5 9c108 0 192.667 -19.333 254 -58s92 -91.667 92 -159c0 -48.667 -17.5 -88.667 -52.5 -120s-85.167 -52.333 -150.5 -63c74 -10 130.5 -33.667 169.5 -71s58.5 -86.666 58.5 -147.999c0 -80.667 -32.167 -142.167 -96.5 -184.5s-157.833 -63.5 -280.5 -63.5
c-50 0 -100 3.5 -150 10.5s-99.667 17.167 -149 30.5v154c44.667 -18 92.334 -31.667 143.001 -41s102.667 -14 156 -14c56.667 0 100.834 10.667 132.501 32s47.5 50.666 47.5 87.999c0 40.667 -16.333 72.334 -49 95.001s-77.667 34 -135 34zM83.999 499.998l-37 118
l1059 263l37 -119zM804.999 565.998h204v-512h109v-143h-109v-180h-186v180h-393v162zM822.999 383.998l-250 -330h250v330z" />
    <glyph glyph-name="questiondown" unicode="&#xbf;" 
d="M532 1092l267 -0.000976562v-154c0 -66 -10.333 -122.5 -31 -169.5s-57.667 -96.167 -111 -147.5l-90 -89c-40.667 -39.333 -68.5 -72.5 -83.5 -99.5s-22.5 -55.167 -22.5 -84.5c0 -44.667 15.333 -78.334 46 -101.001s76.667 -34 138 -34
c55.333 0 113.166 11.833 173.499 35.5s122.833 58.834 187.5 105.501v-268c-65.333 -37.333 -131.5 -65.5 -198.5 -84.5s-134.167 -28.5 -201.5 -28.5c-134 0 -239.167 31.333 -315.5 94s-114.5 149 -114.5 259c0 50.667 11.333 97.834 34 141.501
s65.334 96.167 128.001 157.5l88 86c44 42.667 72.333 78 85 106s19 63 19 105c0 0.666992 0.333008 2.66699 1 6c0.666992 14 1 27.667 1 41v123zM799 1210h-267v283h267v-283z" />
    <glyph glyph-name="Agrave" unicode="&#xc0;" 
d="M436 1493h361l403 -1493h-295l-92 369h-395l-90 -369h-295zM616 1223l-139 -611h279zM481 2011l283 -376h-197l-368 376h282z" />
    <glyph glyph-name="Aacute" unicode="&#xc1;" 
d="M436 1493h361l403 -1493h-295l-92 369h-395l-90 -369h-295zM616 1223l-139 -611h279zM752 2011h282l-368 -376h-197z" />
    <glyph glyph-name="Acircumflex" unicode="&#xc2;" 
d="M436 1493h361l403 -1493h-295l-92 369h-395l-90 -369h-295zM616 1223l-139 -611h279zM496 2011h241l256 -376h-178l-199 225l-198 -225h-178z" />
    <glyph glyph-name="Atilde" unicode="&#xc3;" 
d="M436 1493h361l403 -1493h-295l-92 369h-395l-90 -369h-295zM616 1223l-139 -611h279zM618 1737l-55 37l-12 8c-28.667 19.333 -52 29 -70 29c-24 0 -42.167 -10.333 -54.5 -31s-18.5 -50.667 -18.5 -90v-8h-140c0 90.667 17.167 160.667 51.5 210s82.833 74 145.5 74
c24 0 48 -4.5 72 -13.5s49.667 -23.5 77 -43.5l62 -43c14 -10 27.167 -17.667 39.5 -23s23.833 -8 34.5 -8c24 0 42.5 10.5 55.5 31.5s19.5 50.833 19.5 89.5v8h140c0 -90.667 -17.167 -160.667 -51.5 -210s-82.833 -74 -145.5 -74c-24 0 -47 4 -69 12s-49 23 -81 45z" />
    <glyph glyph-name="Adieresis" unicode="&#xc4;" 
d="M436 1493h361l403 -1493h-295l-92 369h-395l-90 -369h-295zM616 1223l-139 -611h279zM301 1958h236v-246h-236v246zM696 1958h236v-246h-236v246z" />
    <glyph glyph-name="Aring" unicode="&#xc5;" 
d="M436 1493h361l403 -1493h-295l-92 369h-395l-90 -369h-295zM616 1223l-139 -611h279zM485 1907c0 -36.667 12.832 -67.667 38.499 -93s56.5 -38 92.5 -38c36.667 0 67.834 12.833 93.501 38.5s38.5 56.5 38.5 92.5s-13 66.833 -39 92.5s-57 38.5 -93 38.5
s-66.833 -12.833 -92.5 -38.5s-38.5 -56.5 -38.5 -92.5zM331.999 1907c0 78.667 27.667 145.834 83 201.501s122.333 83.5 201 83.5c79.333 0 146.666 -27.833 201.999 -83.5s83 -122.834 83 -201.501s-27.667 -145.834 -83 -201.501s-122.666 -83.5 -201.999 -83.5
c-78.667 0 -145.667 27.833 -201 83.5s-83 122.834 -83 201.501z" />
    <glyph glyph-name="AE" unicode="&#xc6;" 
d="M537 1233l-148 -635h227v635h-79zM1161 1493v-260h-291v-311h260v-260h-260v-402h310v-260h-564v362h-282l-86 -362h-248l358 1493h803z" />
    <glyph glyph-name="Ccedilla" unicode="&#xc7;" 
d="M1081 43c-46.667 -24 -95.667 -42.002 -147 -54.002s-105.333 -18 -162 -18c-201.333 0 -355 66.333 -461 199s-159 324.334 -159 575.001c0 251.333 53 443.333 159 576s259.667 199 461 199c56.667 0 111 -6 163 -18s100.667 -30 146 -54v-328
c-50.667 46.667 -99.834 80.834 -147.501 102.501s-96.834 32.5 -147.501 32.5c-108 0 -189.5 -42.833 -244.5 -128.5s-82.5 -212.834 -82.5 -381.501c0 -168 27.5 -294.833 82.5 -380.5s136.5 -128.5 244.5 -128.5c50.667 0 99.834 10.833 147.501 32.5
s96.834 55.834 147.501 102.501v-328zM824 -0.00195312c38 -41.333 66.166 -79.668 84.499 -115.001s27.5 -68.666 27.5 -99.999c0 -63.333 -20.5 -110.166 -61.5 -140.499s-103.833 -45.5 -188.5 -45.5c-32 0 -64.833 2.16699 -98.5 6.5s-68.167 10.833 -103.5 19.5v156
c30 -11.333 59 -20 87 -26s54 -9 78 -9c38.667 0 68.834 7.66699 90.501 23s32.5 36.333 32.5 63c0 17.333 -7 39.666 -21 66.999s-36.333 61 -67 101h140z" />
    <glyph glyph-name="Egrave" unicode="&#xc8;" 
d="M1098 0h-930v1493h930v-260h-635v-322h575v-260h-575v-391h635v-260zM512 2011l283 -376h-197l-368 376h282z" />
    <glyph glyph-name="Eacute" unicode="&#xc9;" 
d="M1098 0h-930v1493h930v-260h-635v-322h575v-260h-575v-391h635v-260zM783 2011h282l-368 -376h-197z" />
    <glyph glyph-name="Ecircumflex" unicode="&#xca;" 
d="M1098 0h-930v1493h930v-260h-635v-322h575v-260h-575v-391h635v-260zM527 2011h241l256 -376h-178l-199 225l-198 -225h-178z" />
    <glyph glyph-name="Edieresis" unicode="&#xcb;" 
d="M1098 0h-930v1493h930v-260h-635v-322h575v-260h-575v-391h635v-260zM332 1958h236v-246h-236v246zM727 1958h236v-246h-236v246z" />
    <glyph glyph-name="Igrave" unicode="&#xcc;" 
d="M172 1233v260h889v-260h-297v-973h297v-260h-889v260h297v973h-297zM481 2011l283 -376h-197l-368 376h282z" />
    <glyph glyph-name="Iacute" unicode="&#xcd;" 
d="M172 1233v260h889v-260h-297v-973h297v-260h-889v260h297v973h-297zM752 2011h282l-368 -376h-197z" />
    <glyph glyph-name="Icircumflex" unicode="&#xce;" 
d="M172 1233v260h889v-260h-297v-973h297v-260h-889v260h297v973h-297zM496 2011h241l256 -376h-178l-199 225l-198 -225h-178z" />
    <glyph glyph-name="Idieresis" unicode="&#xcf;" 
d="M172 1233v260h889v-260h-297v-973h297v-260h-889v260h297v973h-297zM301 1958h236v-246h-236v246zM696 1958h236v-246h-236v246z" />
    <glyph glyph-name="Eth" unicode="&#xd0;" 
d="M137 1493h316c244 0 419.667 -58.167 527 -174.5s161 -306.5 161 -570.5c0 -264.667 -53.667 -455.5 -161 -572.5s-283 -175.5 -527 -175.5h-316v664h-137v237h137v592zM432 1227v-326h211v-237h-211v-398h80c116 0 198.667 36.5 248 109.5s74 197.167 74 372.5
c0 174 -24.667 297.333 -74 370s-132 109 -248 109h-80z" />
    <glyph glyph-name="Ntilde" unicode="&#xd1;" 
d="M119 1493h317l416 -1085v1085h260v-1493h-315l-418 1085v-1085h-260v1493zM618 1737l-55 37l-12 8c-28.667 19.333 -52 29 -70 29c-24 0 -42.167 -10.333 -54.5 -31s-18.5 -50.667 -18.5 -90v-8h-140c0 90.667 17.167 160.667 51.5 210s82.833 74 145.5 74
c24 0 48 -4.5 72 -13.5s49.667 -23.5 77 -43.5l62 -43c14 -10 27.167 -17.667 39.5 -23s23.833 -8 34.5 -8c24 0 42.5 10.5 55.5 31.5s19.5 50.833 19.5 89.5v8h140c0 -90.667 -17.167 -160.667 -51.5 -210s-82.833 -74 -145.5 -74c-24 0 -47 4 -69 12s-49 23 -81 45z" />
    <glyph glyph-name="Ograve" unicode="&#xd2;" 
d="M92 745c0 255.333 44.167 448.333 132.5 579s218.833 196 391.5 196c173.333 0 304.166 -65.333 392.499 -196s132.5 -323.667 132.5 -579c0 -254.667 -44.167 -447.334 -132.5 -578.001s-219.166 -196 -392.499 -196c-172.667 0 -303.167 65.333 -391.5 196
s-132.5 323.334 -132.5 578.001zM616 1255c-75.333 0 -130.333 -40.167 -165 -120.5s-52 -210.166 -52 -389.499c0 -178.667 17.333 -308.167 52 -388.5s89.667 -120.5 165 -120.5c76 0 131.333 40.167 166 120.5s52 209.833 52 388.5
c0 179.333 -17.333 309.166 -52 389.499s-90 120.5 -166 120.5zM481 2011l283 -376h-197l-368 376h282z" />
    <glyph glyph-name="Oacute" unicode="&#xd3;" 
d="M92 745c0 255.333 44.167 448.333 132.5 579s218.833 196 391.5 196c173.333 0 304.166 -65.333 392.499 -196s132.5 -323.667 132.5 -579c0 -254.667 -44.167 -447.334 -132.5 -578.001s-219.166 -196 -392.499 -196c-172.667 0 -303.167 65.333 -391.5 196
s-132.5 323.334 -132.5 578.001zM616 1255c-75.333 0 -130.333 -40.167 -165 -120.5s-52 -210.166 -52 -389.499c0 -178.667 17.333 -308.167 52 -388.5s89.667 -120.5 165 -120.5c76 0 131.333 40.167 166 120.5s52 209.833 52 388.5
c0 179.333 -17.333 309.166 -52 389.499s-90 120.5 -166 120.5zM752 2011h282l-368 -376h-197z" />
    <glyph glyph-name="Ocircumflex" unicode="&#xd4;" 
d="M92 745c0 255.333 44.167 448.333 132.5 579s218.833 196 391.5 196c173.333 0 304.166 -65.333 392.499 -196s132.5 -323.667 132.5 -579c0 -254.667 -44.167 -447.334 -132.5 -578.001s-219.166 -196 -392.499 -196c-172.667 0 -303.167 65.333 -391.5 196
s-132.5 323.334 -132.5 578.001zM616 1255c-75.333 0 -130.333 -40.167 -165 -120.5s-52 -210.166 -52 -389.499c0 -178.667 17.333 -308.167 52 -388.5s89.667 -120.5 165 -120.5c76 0 131.333 40.167 166 120.5s52 209.833 52 388.5
c0 179.333 -17.333 309.166 -52 389.499s-90 120.5 -166 120.5zM496 2011h241l256 -376h-178l-199 225l-198 -225h-178z" />
    <glyph glyph-name="Otilde" unicode="&#xd5;" 
d="M92 745c0 255.333 44.167 448.333 132.5 579s218.833 196 391.5 196c173.333 0 304.166 -65.333 392.499 -196s132.5 -323.667 132.5 -579c0 -254.667 -44.167 -447.334 -132.5 -578.001s-219.166 -196 -392.499 -196c-172.667 0 -303.167 65.333 -391.5 196
s-132.5 323.334 -132.5 578.001zM616 1255c-75.333 0 -130.333 -40.167 -165 -120.5s-52 -210.166 -52 -389.499c0 -178.667 17.333 -308.167 52 -388.5s89.667 -120.5 165 -120.5c76 0 131.333 40.167 166 120.5s52 209.833 52 388.5
c0 179.333 -17.333 309.166 -52 389.499s-90 120.5 -166 120.5zM618 1737l-55 37l-12 8c-28.667 19.333 -52 29 -70 29c-24 0 -42.167 -10.333 -54.5 -31s-18.5 -50.667 -18.5 -90v-8h-140c0 90.667 17.167 160.667 51.5 210s82.833 74 145.5 74c24 0 48 -4.5 72 -13.5
s49.667 -23.5 77 -43.5l62 -43c14 -10 27.167 -17.667 39.5 -23s23.833 -8 34.5 -8c24 0 42.5 10.5 55.5 31.5s19.5 50.833 19.5 89.5v8h140c0 -90.667 -17.167 -160.667 -51.5 -210s-82.833 -74 -145.5 -74c-24 0 -47 4 -69 12s-49 23 -81 45z" />
    <glyph glyph-name="Odieresis" unicode="&#xd6;" 
d="M92 745c0 255.333 44.167 448.333 132.5 579s218.833 196 391.5 196c173.333 0 304.166 -65.333 392.499 -196s132.5 -323.667 132.5 -579c0 -254.667 -44.167 -447.334 -132.5 -578.001s-219.166 -196 -392.499 -196c-172.667 0 -303.167 65.333 -391.5 196
s-132.5 323.334 -132.5 578.001zM616 1255c-75.333 0 -130.333 -40.167 -165 -120.5s-52 -210.166 -52 -389.499c0 -178.667 17.333 -308.167 52 -388.5s89.667 -120.5 165 -120.5c76 0 131.333 40.167 166 120.5s52 209.833 52 388.5
c0 179.333 -17.333 309.166 -52 389.499s-90 120.5 -166 120.5zM301 1958h236v-246h-236v246zM696 1958h236v-246h-236v246z" />
    <glyph glyph-name="multiply" unicode="&#xd7;" 
d="M1112 971l-330 -328l330 -330l-168 -166l-330 328l-327 -328l-168 166l330 330l-330 328l168 168l327 -328l330 328z" />
    <glyph glyph-name="Oslash" unicode="&#xd8;" 
d="M162 289c-23.333 58.667 -40.832 125.836 -52.499 201.503s-17.5 160.5 -17.5 254.5c0 255.333 44.167 448.333 132.5 579s218.833 196 391.5 196c68.667 0 130.667 -10.333 186 -31s103.333 -51.334 144 -92.001l113 162l162 -115l-158 -223
c26 -62.667 45.5 -133.834 58.5 -213.501s19.5 -167.167 19.5 -262.5c0 -254.667 -44.167 -447.334 -132.5 -578.001s-219.166 -196 -392.499 -196c-70.667 0 -134.334 11.167 -191.001 33.5s-106.334 55.5 -149.001 99.5l-120 -167l-162 114zM772.001 1153
c-17.333 34 -39 59.5 -65 76.5s-56.333 25.5 -91 25.5c-74.667 0 -129.5 -40 -164.5 -120s-52.5 -206.333 -52.5 -379v-127zM451.001 354.002c16 -38 38.168 -67.168 66.501 -87.501s61.166 -30.5 98.499 -30.5c76 0 131.333 40.167 166 120.5s52 209.833 52 388.5
c0 18.667 -0.333008 38.334 -1 59.001s-2 48.667 -4 84z" />
    <glyph glyph-name="Ugrave" unicode="&#xd9;" 
d="M106 551l0.000976562 942h295v-1016c0 -74.667 19 -133.167 57 -175.5s90.667 -63.5 158 -63.5s120 21.167 158 63.5s57 100.833 57 175.5v1016h295v-942c0 -202.667 -40.333 -350 -121 -442s-210.334 -138 -389.001 -138c-178 0 -307.5 46 -388.5 138
s-121.5 239.333 -121.5 442zM481.001 2011l283 -376h-197l-368 376h282z" />
    <glyph glyph-name="Uacute" unicode="&#xda;" 
d="M106 551l0.000976562 942h295v-1016c0 -74.667 19 -133.167 57 -175.5s90.667 -63.5 158 -63.5s120 21.167 158 63.5s57 100.833 57 175.5v1016h295v-942c0 -202.667 -40.333 -350 -121 -442s-210.334 -138 -389.001 -138c-178 0 -307.5 46 -388.5 138
s-121.5 239.333 -121.5 442zM752.001 2011h282l-368 -376h-197z" />
    <glyph glyph-name="Ucircumflex" unicode="&#xdb;" 
d="M106 551l0.000976562 942h295v-1016c0 -74.667 19 -133.167 57 -175.5s90.667 -63.5 158 -63.5s120 21.167 158 63.5s57 100.833 57 175.5v1016h295v-942c0 -202.667 -40.333 -350 -121 -442s-210.334 -138 -389.001 -138c-178 0 -307.5 46 -388.5 138
s-121.5 239.333 -121.5 442zM496.001 2011h241l256 -376h-178l-199 225l-198 -225h-178z" />
    <glyph glyph-name="Udieresis" unicode="&#xdc;" 
d="M106 551l0.000976562 942h295v-1016c0 -74.667 19 -133.167 57 -175.5s90.667 -63.5 158 -63.5s120 21.167 158 63.5s57 100.833 57 175.5v1016h295v-942c0 -202.667 -40.333 -350 -121 -442s-210.334 -138 -389.001 -138c-178 0 -307.5 46 -388.5 138
s-121.5 239.333 -121.5 442zM301.001 1958h236v-246h-236v246zM696.001 1958h236v-246h-236v246z" />
    <glyph glyph-name="Yacute" unicode="&#xdd;" 
d="M8 1493h318l290 -600l291 600h318l-461 -905v-588h-295v588zM752 2011h282l-368 -376h-197z" />
    <glyph glyph-name="Thorn" unicode="&#xde;" 
d="M162 1493l295 -0.000976562v-238h110c206 0 354.167 -36.5 444.5 -109.5s135.5 -192.167 135.5 -357.5c0 -159.333 -45.667 -275.166 -137 -347.499s-239 -108.5 -443 -108.5h-110v-332h-295v1493zM457 1014v-439h121c97.333 0 165.333 16.333 204 49s58 89 58 169
c0 80.667 -19.5 137.667 -58.5 171s-106.833 50 -203.5 50h-121z" />
    <glyph glyph-name="germandbls" unicode="&#xdf;" 
d="M1034 1059c-83.333 -4 -146.499 -21.1641 -189.499 -51.4971s-64.5 -72.5 -64.5 -126.5c0 -42.667 38.667 -93.667 116 -153c8.66699 -6.66699 15 -11.667 19 -15l97 -74c54.667 -41.333 95.334 -87.5 122.001 -138.5s40 -107.833 40 -170.5
c0 -111.333 -37.333 -199 -112 -263s-176.667 -96 -306 -96c-40.667 0 -81.667 4.16699 -123 12.5s-84.333 20.5 -129 36.5v250c38.667 -20.667 77.167 -36.334 115.5 -47.001s75.5 -16 111.5 -16c48.667 0 87.167 11.167 115.5 33.5s42.5 52.833 42.5 91.5
c0 48 -38.333 101.333 -115 160c-19.333 14.667 -34.333 26 -45 34l-86 68c-39.333 32 -69 69.167 -89 111.5s-30 89.166 -30 140.499c0 84 24.667 154.5 74 211.5s119.666 95.833 210.999 116.5c-6 49.333 -25.333 86.166 -58 110.499s-79.667 36.5 -141 36.5
c-62.667 0 -110 -16.833 -142 -50.5s-48 -83.167 -48 -148.5v-1122h-293v1126c0 140.667 40.167 247.5 120.5 320.5s197.166 109.5 350.499 109.5c148.667 0 258.5 -39.5 329.5 -118.5s106.5 -200.5 106.5 -364.5v-14z" />
    <glyph glyph-name="agrave" unicode="&#xe0;" 
d="M1108 639l-0.00292969 -638.999h-291v125c-35.333 -49.333 -80.666 -87.333 -135.999 -114s-116.333 -40 -183 -40c-127.333 0 -226.5 33.667 -297.5 101s-106.5 161.333 -106.5 282c0 130.667 42.333 227.167 127 289.5s215.667 93.5 393 93.5h203v49
c0 47.333 -17.167 83.166 -51.5 107.499s-84.833 36.5 -151.5 36.5c-70 0 -137.833 -8.83301 -203.5 -26.5s-134.167 -45.834 -205.5 -84.501v250c64.667 26.667 130.334 46.334 197.001 59.001s137.334 19 212.001 19c182 0 309.833 -37 383.5 -111
s110.5 -206.333 110.5 -397zM699.997 526.001c-109.333 0 -185.667 -14 -229 -42s-65 -76 -65 -144c0 -50.667 15 -91 45 -121s70.667 -45 122 -45c77.333 0 137.333 29.167 180 87.5s64 139.833 64 244.5v20h-117zM480.996 1638l283 -376h-197l-368 376h282z" />
    <glyph glyph-name="aacute" unicode="&#xe1;" 
d="M1108 639l-0.00292969 -638.999h-291v125c-35.333 -49.333 -80.666 -87.333 -135.999 -114s-116.333 -40 -183 -40c-127.333 0 -226.5 33.667 -297.5 101s-106.5 161.333 -106.5 282c0 130.667 42.333 227.167 127 289.5s215.667 93.5 393 93.5h203v49
c0 47.333 -17.167 83.166 -51.5 107.499s-84.833 36.5 -151.5 36.5c-70 0 -137.833 -8.83301 -203.5 -26.5s-134.167 -45.834 -205.5 -84.501v250c64.667 26.667 130.334 46.334 197.001 59.001s137.334 19 212.001 19c182 0 309.833 -37 383.5 -111
s110.5 -206.333 110.5 -397zM699.997 526.001c-109.333 0 -185.667 -14 -229 -42s-65 -76 -65 -144c0 -50.667 15 -91 45 -121s70.667 -45 122 -45c77.333 0 137.333 29.167 180 87.5s64 139.833 64 244.5v20h-117zM751.996 1638h282l-368 -376h-197z" />
    <glyph glyph-name="acircumflex" unicode="&#xe2;" 
d="M1108 639l-0.00292969 -638.999h-291v125c-35.333 -49.333 -80.666 -87.333 -135.999 -114s-116.333 -40 -183 -40c-127.333 0 -226.5 33.667 -297.5 101s-106.5 161.333 -106.5 282c0 130.667 42.333 227.167 127 289.5s215.667 93.5 393 93.5h203v49
c0 47.333 -17.167 83.166 -51.5 107.499s-84.833 36.5 -151.5 36.5c-70 0 -137.833 -8.83301 -203.5 -26.5s-134.167 -45.834 -205.5 -84.501v250c64.667 26.667 130.334 46.334 197.001 59.001s137.334 19 212.001 19c182 0 309.833 -37 383.5 -111
s110.5 -206.333 110.5 -397zM699.997 526.001c-109.333 0 -185.667 -14 -229 -42s-65 -76 -65 -144c0 -50.667 15 -91 45 -121s70.667 -45 122 -45c77.333 0 137.333 29.167 180 87.5s64 139.833 64 244.5v20h-117zM495.996 1638h241l256 -376h-178l-199 225l-198 -225h-178
z" />
    <glyph glyph-name="atilde" unicode="&#xe3;" 
d="M1108 639l-0.00292969 -638.999h-291v125c-35.333 -49.333 -80.666 -87.333 -135.999 -114s-116.333 -40 -183 -40c-127.333 0 -226.5 33.667 -297.5 101s-106.5 161.333 -106.5 282c0 130.667 42.333 227.167 127 289.5s215.667 93.5 393 93.5h203v49
c0 47.333 -17.167 83.166 -51.5 107.499s-84.833 36.5 -151.5 36.5c-70 0 -137.833 -8.83301 -203.5 -26.5s-134.167 -45.834 -205.5 -84.501v250c64.667 26.667 130.334 46.334 197.001 59.001s137.334 19 212.001 19c182 0 309.833 -37 383.5 -111
s110.5 -206.333 110.5 -397zM699.997 526.001c-109.333 0 -185.667 -14 -229 -42s-65 -76 -65 -144c0 -50.667 15 -91 45 -121s70.667 -45 122 -45c77.333 0 137.333 29.167 180 87.5s64 139.833 64 244.5v20h-117zM617.996 1364l-55 37l-12 8c-28.667 19.333 -52 29 -70 29
c-24 0 -42.167 -10.333 -54.5 -31s-18.5 -50.667 -18.5 -90v-8h-140c0 90.667 17.167 160.667 51.5 210s82.833 74 145.5 74c24 0 48 -4.5 72 -13.5s49.667 -23.5 77 -43.5l62 -43c14 -10 27.167 -17.667 39.5 -23s23.833 -8 34.5 -8c24 0 42.5 10.5 55.5 31.5
s19.5 50.833 19.5 89.5v8h140c0 -90.667 -17.167 -160.667 -51.5 -210s-82.833 -74 -145.5 -74c-24 0 -47 4 -69 12s-49 23 -81 45z" />
    <glyph glyph-name="adieresis" unicode="&#xe4;" 
d="M1108 639l-0.00292969 -638.999h-291v125c-35.333 -49.333 -80.666 -87.333 -135.999 -114s-116.333 -40 -183 -40c-127.333 0 -226.5 33.667 -297.5 101s-106.5 161.333 -106.5 282c0 130.667 42.333 227.167 127 289.5s215.667 93.5 393 93.5h203v49
c0 47.333 -17.167 83.166 -51.5 107.499s-84.833 36.5 -151.5 36.5c-70 0 -137.833 -8.83301 -203.5 -26.5s-134.167 -45.834 -205.5 -84.501v250c64.667 26.667 130.334 46.334 197.001 59.001s137.334 19 212.001 19c182 0 309.833 -37 383.5 -111
s110.5 -206.333 110.5 -397zM699.997 526.001c-109.333 0 -185.667 -14 -229 -42s-65 -76 -65 -144c0 -50.667 15 -91 45 -121s70.667 -45 122 -45c77.333 0 137.333 29.167 180 87.5s64 139.833 64 244.5v20h-117zM300.996 1585h236v-246h-236v246zM695.996 1585h236v-246
h-236v246z" />
    <glyph glyph-name="aring" unicode="&#xe5;" 
d="M1108 639l-0.00292969 -638.999h-291v125c-35.333 -49.333 -80.666 -87.333 -135.999 -114s-116.333 -40 -183 -40c-127.333 0 -226.5 33.667 -297.5 101s-106.5 161.333 -106.5 282c0 130.667 42.333 227.167 127 289.5s215.667 93.5 393 93.5h203v49
c0 47.333 -17.167 83.166 -51.5 107.499s-84.833 36.5 -151.5 36.5c-70 0 -137.833 -8.83301 -203.5 -26.5s-134.167 -45.834 -205.5 -84.501v250c64.667 26.667 130.334 46.334 197.001 59.001s137.334 19 212.001 19c182 0 309.833 -37 383.5 -111
s110.5 -206.333 110.5 -397zM699.997 526.001c-109.333 0 -185.667 -14 -229 -42s-65 -76 -65 -144c0 -50.667 15 -91 45 -121s70.667 -45 122 -45c77.333 0 137.333 29.167 180 87.5s64 139.833 64 244.5v20h-117zM484.996 1534c0 -36.667 12.832 -67.667 38.499 -93
s56.5 -38 92.5 -38c36.667 0 67.834 12.833 93.501 38.5s38.5 56.5 38.5 92.5s-13 66.833 -39 92.5s-57 38.5 -93 38.5s-66.833 -12.833 -92.5 -38.5s-38.5 -56.5 -38.5 -92.5zM331.995 1534c0 78.667 27.667 145.834 83 201.501s122.333 83.5 201 83.5
c79.333 0 146.666 -27.833 201.999 -83.5s83 -122.834 83 -201.501s-27.667 -145.834 -83 -201.501s-122.666 -83.5 -201.999 -83.5c-78.667 0 -145.667 27.833 -201 83.5s-83 122.834 -83 201.501z" />
    <glyph glyph-name="ae" unicode="&#xe6;" 
d="M1188 479l-451 -0.000976562c0 -96 16.667 -169.167 50 -219.5s81.666 -75.5 144.999 -75.5c40 0 80 9.83301 120 29.5s79.667 48.834 119 87.501v-244c-33.333 -29.333 -70.833 -51 -112.5 -65s-90.167 -21 -145.5 -21c-68.667 0 -128 14 -178 42s-89 68.667 -117 122
c-27.333 -56 -62.833 -97.333 -106.5 -124s-98.167 -40 -163.5 -40c-106.667 0 -189 30.833 -247 92.5s-87 149.167 -87 262.5c0 123.333 33.667 215.5 101 276.5s169 91.5 305 91.5h76v51c0 62 -13 108.667 -39 140s-64.333 47 -115 47c-38 0 -79.5 -9.16699 -124.5 -27.5
s-92.167 -45.5 -141.5 -81.5v246c49.333 26 97.333 45.5 144 58.5s91.334 19.5 134.001 19.5c65.333 0 118.833 -10.333 160.5 -31s74.167 -52.667 97.5 -96c19.333 40.667 50.833 72 94.5 94s96.167 33 157.5 33c118 0 201.5 -39.667 250.5 -119s73.5 -220 73.5 -422v-127z
M963 689.999v23c0 83.333 -8.33301 140.666 -25 171.999s-46 47 -88 47s-71.333 -15.667 -88 -47s-25 -88.666 -25 -171.999v-23h226zM489 400.999v81.999h-73c-58 0 -101.833 -13 -131.5 -39s-44.5 -64 -44.5 -114c0 -47.333 10.667 -83.5 32 -108.5s52.333 -37.5 93 -37.5
c42 0 73.167 14.333 93.5 43s30.5 72.334 30.5 131.001v43z" />
    <glyph glyph-name="ccedilla" unicode="&#xe7;" 
d="M1061 57c-49.333 -28.667 -102.333 -50.168 -159 -64.501s-117.667 -21.5 -183 -21.5c-172.667 0 -307.667 52 -405 156s-146 248 -146 432c0 184.667 49 329.167 147 433.5s233.333 156.5 406 156.5c60 0 117.833 -7 173.5 -21s111.167 -35.667 166.5 -65v-268
c-42.667 36.667 -89.5 64.834 -140.5 84.501s-103.833 29.5 -158.5 29.5c-95.333 0 -168.666 -30.333 -219.999 -91s-77 -147 -77 -259s25.667 -198 77 -258s124.666 -90 219.999 -90c56.667 0 109.667 9.5 159 28.5s96 47.833 140 86.5v-269zM779 -0.000976562
c38 -41.333 66.166 -79.668 84.499 -115.001s27.5 -68.666 27.5 -99.999c0 -63.333 -20.5 -110.166 -61.5 -140.499s-103.833 -45.5 -188.5 -45.5c-32 0 -64.833 2.16699 -98.5 6.5s-68.167 10.833 -103.5 19.5v156c30 -11.333 59 -20 87 -26s54 -9 78 -9
c38.667 0 68.834 7.66699 90.501 23s32.5 36.333 32.5 63c0 17.333 -7 39.666 -21 66.999s-36.333 61 -67 101h140z" />
    <glyph glyph-name="egrave" unicode="&#xe8;" 
d="M854 685c-1.33301 77.333 -21.167 135.833 -59.5 175.5s-94.833 59.5 -169.5 59.5c-67.333 0 -121 -20.5 -161 -61.5s-63.667 -99.167 -71 -174.5zM1102 55c-68 -28 -137.33 -49 -207.997 -63s-145.334 -21 -224.001 -21c-187.333 0 -330.5 50.167 -429.5 150.5
s-148.5 244.833 -148.5 433.5c0 182.667 47.667 327 143 433s225.333 159 390 159c166 0 294.833 -49.167 386.5 -147.5s137.5 -236.833 137.5 -415.5v-119h-759c0.666992 -88 26.667 -153.667 78 -197s128 -65 230 -65c67.333 0 133.666 9.66699 198.999 29
s133.666 50 204.999 92v-269zM520.002 1638l283 -376h-197l-368 376h282z" />
    <glyph glyph-name="eacute" unicode="&#xe9;" 
d="M854 685c-1.33301 77.333 -21.167 135.833 -59.5 175.5s-94.833 59.5 -169.5 59.5c-67.333 0 -121 -20.5 -161 -61.5s-63.667 -99.167 -71 -174.5zM1102 55c-68 -28 -137.33 -49 -207.997 -63s-145.334 -21 -224.001 -21c-187.333 0 -330.5 50.167 -429.5 150.5
s-148.5 244.833 -148.5 433.5c0 182.667 47.667 327 143 433s225.333 159 390 159c166 0 294.833 -49.167 386.5 -147.5s137.5 -236.833 137.5 -415.5v-119h-759c0.666992 -88 26.667 -153.667 78 -197s128 -65 230 -65c67.333 0 133.666 9.66699 198.999 29
s133.666 50 204.999 92v-269zM791.002 1638h282l-368 -376h-197z" />
    <glyph glyph-name="ecircumflex" unicode="&#xea;" 
d="M854 685c-1.33301 77.333 -21.167 135.833 -59.5 175.5s-94.833 59.5 -169.5 59.5c-67.333 0 -121 -20.5 -161 -61.5s-63.667 -99.167 -71 -174.5zM1102 55c-68 -28 -137.33 -49 -207.997 -63s-145.334 -21 -224.001 -21c-187.333 0 -330.5 50.167 -429.5 150.5
s-148.5 244.833 -148.5 433.5c0 182.667 47.667 327 143 433s225.333 159 390 159c166 0 294.833 -49.167 386.5 -147.5s137.5 -236.833 137.5 -415.5v-119h-759c0.666992 -88 26.667 -153.667 78 -197s128 -65 230 -65c67.333 0 133.666 9.66699 198.999 29
s133.666 50 204.999 92v-269zM535.002 1638h241l256 -376h-178l-199 225l-198 -225h-178z" />
    <glyph glyph-name="edieresis" unicode="&#xeb;" 
d="M854 685c-1.33301 77.333 -21.167 135.833 -59.5 175.5s-94.833 59.5 -169.5 59.5c-67.333 0 -121 -20.5 -161 -61.5s-63.667 -99.167 -71 -174.5zM1102 55c-68 -28 -137.33 -49 -207.997 -63s-145.334 -21 -224.001 -21c-187.333 0 -330.5 50.167 -429.5 150.5
s-148.5 244.833 -148.5 433.5c0 182.667 47.667 327 143 433s225.333 159 390 159c166 0 294.833 -49.167 386.5 -147.5s137.5 -236.833 137.5 -415.5v-119h-759c0.666992 -88 26.667 -153.667 78 -197s128 -65 230 -65c67.333 0 133.666 9.66699 198.999 29
s133.666 50 204.999 92v-269zM340.002 1585h236v-246h-236v246zM735.002 1585h236v-246h-236v246z" />
    <glyph glyph-name="igrave" unicode="&#xec;" 
d="M221 1120h580v-895h364v-225h-1022v225h365v670h-287v225zM481 1638l283 -376h-197l-368 376h282z" />
    <glyph glyph-name="iacute" unicode="&#xed;" 
d="M221 1120h580v-895h364v-225h-1022v225h365v670h-287v225zM752 1638h282l-368 -376h-197z" />
    <glyph glyph-name="icircumflex" unicode="&#xee;" 
d="M221 1120h580v-895h364v-225h-1022v225h365v670h-287v225zM496 1638h241l256 -376h-178l-199 225l-198 -225h-178z" />
    <glyph glyph-name="idieresis" unicode="&#xef;" 
d="M221 1120h580v-895h364v-225h-1022v225h365v670h-287v225zM301 1585h236v-246h-236v246zM696 1585h236v-246h-236v246z" />
    <glyph glyph-name="eth" unicode="&#xf0;" 
d="M940 1100c66.667 -91.333 114.332 -179.166 142.999 -263.499s43 -176.833 43 -277.5c0 -184 -45.333 -328 -136 -432s-216.667 -156 -378 -156c-157.333 0 -282.333 51 -375 153s-139 239.667 -139 413c0 157.333 43.333 282.666 130 375.999s202.334 140 347.001 140
c26.667 0 50.5 -2 71.5 -6s40.5 -10.333 58.5 -19l-160 219l-312 -119l-55 117l283 109l-158 202h293l92 -116l297 127l66 -123l-277 -117zM810.998 760c-32.667 18 -65.333 31.666 -98 40.999s-65 14 -97 14c-70 0 -125.333 -24.167 -166 -72.5s-61 -114.166 -61 -197.499
c0 -105.333 19.833 -187.666 59.5 -246.999s94.167 -89 163.5 -89c72.667 0 128.167 30.167 166.5 90.5s57.5 148.166 57.5 263.499c0 30 -2.16699 61.333 -6.5 94s-10.5 67 -18.5 103z" />
    <glyph glyph-name="ntilde" unicode="&#xf1;" 
d="M1071 727v-727.001h-291v682c0 81.333 -11.5 139.5 -34.5 174.5s-60.5 52.5 -112.5 52.5c-52.667 0 -94.167 -23.667 -124.5 -71s-45.5 -113 -45.5 -197v-641h-291v1120h291v-168c20.667 62 56 110 106 144s110.333 51 181 51c106 0 186 -35.167 240 -105.5
s81 -175.166 81 -314.499zM618 1364l-55 37l-12 8c-28.667 19.333 -52 29 -70 29c-24 0 -42.167 -10.333 -54.5 -31s-18.5 -50.667 -18.5 -90v-8h-140c0 90.667 17.167 160.667 51.5 210s82.833 74 145.5 74c24 0 48 -4.5 72 -13.5s49.667 -23.5 77 -43.5l62 -43
c14 -10 27.167 -17.667 39.5 -23s23.833 -8 34.5 -8c24 0 42.5 10.5 55.5 31.5s19.5 50.833 19.5 89.5v8h140c0 -90.667 -17.167 -160.667 -51.5 -210s-82.833 -74 -145.5 -74c-24 0 -47 4 -69 12s-49 23 -81 45z" />
    <glyph glyph-name="ograve" unicode="&#xf2;" 
d="M98 559c0 180.667 46.833 323.834 140.5 429.501s219.5 158.5 377.5 158.5c158.667 0 284.834 -52.833 378.501 -158.5s140.5 -248.834 140.5 -429.501s-46.833 -323.834 -140.5 -429.501s-219.834 -158.5 -378.501 -158.5c-158 0 -283.833 52.833 -377.5 158.5
s-140.5 248.834 -140.5 429.501zM616 909c-70 0 -125 -30.833 -165 -92.5s-60 -147.5 -60 -257.5s20 -195.833 60 -257.5s95 -92.5 165 -92.5c70.667 0 126 30.833 166 92.5s60 147.5 60 257.5s-20 195.833 -60 257.5s-95.333 92.5 -166 92.5zM481 1561l283 -299h-197
l-368 299h282z" />
    <glyph glyph-name="oacute" unicode="&#xf3;" 
d="M98 559c0 180.667 46.833 323.834 140.5 429.501s219.5 158.5 377.5 158.5c158.667 0 284.834 -52.833 378.501 -158.5s140.5 -248.834 140.5 -429.501s-46.833 -323.834 -140.5 -429.501s-219.834 -158.5 -378.501 -158.5c-158 0 -283.833 52.833 -377.5 158.5
s-140.5 248.834 -140.5 429.501zM616 909c-70 0 -125 -30.833 -165 -92.5s-60 -147.5 -60 -257.5s20 -195.833 60 -257.5s95 -92.5 165 -92.5c70.667 0 126 30.833 166 92.5s60 147.5 60 257.5s-20 195.833 -60 257.5s-95.333 92.5 -166 92.5zM752 1561h282l-368 -299h-197z
" />
    <glyph glyph-name="ocircumflex" unicode="&#xf4;" 
d="M98 559c0 180.667 46.833 323.834 140.5 429.501s219.5 158.5 377.5 158.5c158.667 0 284.834 -52.833 378.501 -158.5s140.5 -248.834 140.5 -429.501s-46.833 -323.834 -140.5 -429.501s-219.834 -158.5 -378.501 -158.5c-158 0 -283.833 52.833 -377.5 158.5
s-140.5 248.834 -140.5 429.501zM616 909c-70 0 -125 -30.833 -165 -92.5s-60 -147.5 -60 -257.5s20 -195.833 60 -257.5s95 -92.5 165 -92.5c70.667 0 126 30.833 166 92.5s60 147.5 60 257.5s-20 195.833 -60 257.5s-95.333 92.5 -166 92.5zM496 1561h241l256 -299h-178
l-199 147l-198 -147h-178z" />
    <glyph glyph-name="otilde" unicode="&#xf5;" 
d="M98 559c0 180.667 46.833 323.834 140.5 429.501s219.5 158.5 377.5 158.5c158.667 0 284.834 -52.833 378.501 -158.5s140.5 -248.834 140.5 -429.501s-46.833 -323.834 -140.5 -429.501s-219.834 -158.5 -378.501 -158.5c-158 0 -283.833 52.833 -377.5 158.5
s-140.5 248.834 -140.5 429.501zM616 909c-70 0 -125 -30.833 -165 -92.5s-60 -147.5 -60 -257.5s20 -195.833 60 -257.5s95 -92.5 165 -92.5c70.667 0 126 30.833 166 92.5s60 147.5 60 257.5s-20 195.833 -60 257.5s-95.333 92.5 -166 92.5zM618 1331l-54.999 37l-12 8
c-28.667 19.333 -52 29 -70 29c-22.667 0 -40.5 -10.667 -53.5 -32s-19.5 -51 -19.5 -89v-8h-140v33c0 75.333 18 136.166 54 182.499s83.667 69.5 143 69.5c24 0 47.833 -4.5 71.5 -13.5s49.5 -23.833 77.5 -44.5l62 -43c14 -10 27.167 -17.5 39.5 -22.5
s23.833 -7.5 34.5 -7.5c24 0 42.5 10.333 55.5 31s19.5 50.334 19.5 89.001v9h140c0 -4.66699 -0.333008 -10.5 -1 -17.5s-1 -12.167 -1 -15.5c0 -76.667 -17.833 -137.834 -53.5 -183.501s-82.834 -68.5 -141.501 -68.5c-23.333 0 -45.833 3.83301 -67.5 11.5
s-49.167 22.834 -82.5 45.501z" />
    <glyph glyph-name="odieresis" unicode="&#xf6;" 
d="M98 559c0 180.667 46.833 323.834 140.5 429.501s219.5 158.5 377.5 158.5c158.667 0 284.834 -52.833 378.501 -158.5s140.5 -248.834 140.5 -429.501s-46.833 -323.834 -140.5 -429.501s-219.834 -158.5 -378.501 -158.5c-158 0 -283.833 52.833 -377.5 158.5
s-140.5 248.834 -140.5 429.501zM616 909c-70 0 -125 -30.833 -165 -92.5s-60 -147.5 -60 -257.5s20 -195.833 60 -257.5s95 -92.5 165 -92.5c70.667 0 126 30.833 166 92.5s60 147.5 60 257.5s-20 195.833 -60 257.5s-95.333 92.5 -166 92.5zM696 1561h236v-246h-236v246z
M301 1561h236v-246h-236v246z" />
    <glyph glyph-name="divide" unicode="&#xf7;" 
d="M66 762h1099v-238h-1099v238zM461 395h309v-309h-309v309zM461 1198h309v-309h-309v309z" />
    <glyph glyph-name="oslash" unicode="&#xf8;" 
d="M188 199c-30 48.667 -52.501 102.666 -67.501 161.999s-22.5 125.333 -22.5 198c0 180.667 46.833 323.834 140.5 429.501s219.5 158.5 377.5 158.5c56.667 0 109.5 -7.16699 158.5 -21.5s95.833 -36.5 140.5 -66.5l148 176l139 -121l-160 -188
c30.667 -50.667 53.834 -106.667 69.501 -168s23.5 -127.666 23.5 -198.999c0 -180.667 -46.833 -323.834 -140.5 -429.501s-219.834 -158.5 -378.501 -158.5c-55.333 0 -108.166 7.5 -158.499 22.5s-97.833 37.5 -142.5 67.5l-151 -178l-139 119zM398.999 448.999l346 411
c-17.333 16.667 -36.333 29 -57 37s-44 12 -70 12c-70.667 0 -126.167 -30.833 -166.5 -92.5s-60.5 -147.5 -60.5 -257.5c0 -22.667 0.666992 -42.667 2 -60s3.33301 -34 6 -50zM830.999 674.999l-348 -412.998c20.667 -18 42 -31.333 64 -40s45.667 -13 71 -13
c69.333 0 124 31.167 164 93.5s60 147.833 60 256.5c0 19.333 -0.833008 38.666 -2.5 57.999s-4.5 38.666 -8.5 57.999z" />
    <glyph glyph-name="ugrave" unicode="&#xf9;" 
d="M160 391l-0.000976562 729h293v-684c0 -80.667 11.333 -138.334 34 -173.001s60.334 -52 113.001 -52s93.834 23.333 123.501 70s44.5 112 44.5 196v643h293v-1120h-293v166c-20.667 -62 -55.834 -110 -105.501 -144s-109.5 -51 -179.5 -51
c-106.667 0 -187.167 35.333 -241.5 106s-81.5 175.334 -81.5 314.001zM480.999 1638l283 -376h-197l-368 376h282z" />
    <glyph glyph-name="uacute" unicode="&#xfa;" 
d="M160 391l-0.000976562 729h293v-684c0 -80.667 11.333 -138.334 34 -173.001s60.334 -52 113.001 -52s93.834 23.333 123.501 70s44.5 112 44.5 196v643h293v-1120h-293v166c-20.667 -62 -55.834 -110 -105.501 -144s-109.5 -51 -179.5 -51
c-106.667 0 -187.167 35.333 -241.5 106s-81.5 175.334 -81.5 314.001zM751.999 1638h282l-368 -376h-197z" />
    <glyph glyph-name="ucircumflex" unicode="&#xfb;" 
d="M160 391l-0.000976562 729h293v-684c0 -80.667 11.333 -138.334 34 -173.001s60.334 -52 113.001 -52s93.834 23.333 123.501 70s44.5 112 44.5 196v643h293v-1120h-293v166c-20.667 -62 -55.834 -110 -105.501 -144s-109.5 -51 -179.5 -51
c-106.667 0 -187.167 35.333 -241.5 106s-81.5 175.334 -81.5 314.001zM495.999 1638h241l256 -376h-178l-199 225l-198 -225h-178z" />
    <glyph glyph-name="udieresis" unicode="&#xfc;" 
d="M160 391l-0.000976562 729h293v-684c0 -80.667 11.333 -138.334 34 -173.001s60.334 -52 113.001 -52s93.834 23.333 123.501 70s44.5 112 44.5 196v643h293v-1120h-293v166c-20.667 -62 -55.834 -110 -105.501 -144s-109.5 -51 -179.5 -51
c-106.667 0 -187.167 35.333 -241.5 106s-81.5 175.334 -81.5 314.001zM300.999 1585h236v-246h-236v246zM695.999 1585h236v-246h-236v246z" />
    <glyph glyph-name="yacute" unicode="&#xfd;" 
d="M711 -121c-39.333 -105.333 -86.5 -182.167 -141.5 -230.5s-121.833 -72.5 -200.5 -72.5h-242v223h119c60 0 104 10.167 132 30.5s56.333 67.5 85 141.5l22 60l-426 1089h308l256 -727l245 727h308zM752 1638h282l-368 -376h-197z" />
    <glyph glyph-name="thorn" unicode="&#xfe;" 
d="M850 561c0 108 -18 192.667 -54 254s-85.667 92 -149 92s-113.333 -30.667 -150 -92s-55 -146 -55 -254s18.333 -192.667 55 -254s86.667 -92 150 -92s113 30.667 149 92s54 146 54 254zM442 158l0.000976562 -584.001h-292v1982h292v-604
c30.667 64.667 71 113.334 121 146.001s108.667 49 176 49c128 0 227.333 -51.333 298 -154s106 -247.334 106 -434.001c0 -189.333 -35.833 -334.666 -107.5 -435.999s-173.834 -152 -306.501 -152c-60 0 -113.833 15.5 -161.5 46.5s-89.5 77.833 -125.5 140.5z" />
    <glyph glyph-name="ydieresis" unicode="&#xff;" 
d="M711 -121c-39.333 -105.333 -86.5 -182.167 -141.5 -230.5s-121.833 -72.5 -200.5 -72.5h-242v223h119c60 0 104 10.167 132 30.5s56.333 67.5 85 141.5l22 60l-426 1089h308l256 -727l245 727h308zM301 1585h236v-246h-236v246zM696 1585h236v-246h-236v246z" />
    <glyph glyph-name="dotlessi" unicode="&#x131;" 
d="M221 1120h580v-895h364v-225h-1022v225h365v670h-287v225z" />
    <glyph glyph-name="OE" unicode="&#x152;" 
d="M569 1233c-82 0 -138.333 -29.667 -169 -89s-46 -192.333 -46 -399c0 -207.333 15.167 -340 45.5 -398s86.833 -87 169.5 -87h52v973h-52zM1217 260v-260h-584c-216 -0 -364.167 51.833 -444.5 155.5s-120.5 300.167 -120.5 589.5c0 290.667 40.333 488 121 592
s228.667 156 444 156h573v-260h-332v-311h302v-260h-302v-402h343z" />
    <glyph glyph-name="oe" unicode="&#x153;" 
d="M520 559c0 161.333 -9.66699 264.164 -29 308.497s-54.666 66.5 -105.999 66.5c-52 0 -87.833 -22.167 -107.5 -66.5s-29.5 -147.166 -29.5 -308.499s9.83301 -264.166 29.5 -308.499s55.5 -66.5 107.5 -66.5c51.333 0 86.666 22.333 105.999 67s29 147.334 29 308.001z
M985 689.998v35c0 77.333 -8.5 131.5 -25.5 162.5s-46.167 46.5 -87.5 46.5s-70.333 -15.833 -87 -47.5s-25 -89.5 -25 -173.5v-23h225zM1210 478.998l-450 -0.000976562c0 -96 16.5 -169.167 49.5 -219.5s81.167 -75.5 144.5 -75.5c40 0 80 9.83301 120 29.5
s80 48.834 120 87.501v-244c-32.667 -29.333 -69.667 -51 -111 -65s-90.333 -21 -147 -21c-65.333 0 -121.666 12.333 -168.999 37s-86.666 61.667 -117.999 111c-28.667 -51.333 -65.167 -88.833 -109.5 -112.5s-99.833 -35.5 -166.5 -35.5
c-126.667 0 -218.167 46 -274.5 138s-84.5 242 -84.5 450c0 210 28.167 360.5 84.5 451.5s147.833 136.5 274.5 136.5c66 0 119.667 -9.83301 161 -29.5s75.666 -51.5 102.999 -95.5c18.667 40 49.667 70.833 93 92.5s95.666 32.5 156.999 32.5
c118 0 201.333 -39.667 250 -119s73 -220 73 -422v-127z" />
    <glyph glyph-name="Scaron" unicode="&#x160;" 
d="M510 655c-148.667 56.667 -249.336 116.169 -302.003 178.502s-79 146.166 -79 251.499c0 135.333 43.333 241.666 130 318.999s205.667 116 357 116c68.667 0 137.334 -7.83301 206.001 -23.5s136.667 -38.834 204 -69.501v-288
c-63.333 44.667 -127.666 78.667 -192.999 102s-130 35 -194 35c-71.333 0 -126 -14.333 -164 -43s-57 -69.667 -57 -123c0 -41.333 13.833 -75.5 41.5 -102.5s85.5 -56.833 173.5 -89.5l127 -48c120 -44 208.333 -102.333 265 -175s85 -164.334 85 -275.001
c0 -150.667 -44.5 -263.167 -133.5 -337.5s-223.5 -111.5 -403.5 -111.5c-74 0 -148.167 8.83301 -222.5 26.5s-146.166 43.834 -215.499 78.501v305c78.667 -56 154.834 -97.667 228.501 -125s146.5 -41 218.5 -41c72.667 0 129 16.5 169 49.5s60 79.167 60 138.5
c0 44.667 -13.333 83.834 -40 117.501s-65.334 60.167 -116.001 79.5zM495.998 1635l-256 376h178l198 -227l199 227h178l-256 -376h-241z" />
    <glyph glyph-name="scaron" unicode="&#x161;" 
d="M991 1085l-0.000976562 -256.003c-54 34.667 -110.167 60.834 -168.5 78.501s-116.833 26.5 -175.5 26.5c-65.333 0 -114.666 -9.5 -147.999 -28.5s-50 -47.167 -50 -84.5c0 -53.333 71.333 -96.666 214 -129.999l11 -3l84 -20
c106.667 -25.333 184.834 -66.166 234.501 -122.499s74.5 -132.5 74.5 -228.5c0 -115.333 -37.833 -201.833 -113.5 -259.5s-189.5 -86.5 -341.5 -86.5c-67.333 0 -136.333 5.83301 -207 17.5s-142.334 29.167 -215.001 52.5v256c64.667 -36.667 130.5 -64.667 197.5 -84
s131.833 -29 194.5 -29c68.667 0 120.667 10 156 30s53 49 53 87c0 37.333 -12.5 66 -37.5 86s-84.5 41.333 -178.5 64l-81 18c-112 25.333 -193.667 65 -245 119s-77 126.333 -77 217c0 108 39 192 117 252s187.667 90 329 90c63.333 0 126.5 -5.16699 189.5 -15.5
s124.167 -25.833 183.5 -46.5zM495.999 1262l-256 376h178l198 -227l199 227h178l-256 -376h-241z" />
    <glyph glyph-name="Ydieresis" unicode="&#x178;" 
d="M8 1493h318l290 -600l291 600h318l-461 -905v-588h-295v588zM301 1958h236v-246h-236v246zM696 1958h236v-246h-236v246z" />
    <glyph glyph-name="Zcaron" unicode="&#x17d;" 
d="M137 1493h1010v-244l-692 -989h706v-260h-1046v244l671 989h-649v260zM496 1635l-256 376h178l198 -227l199 227h178l-256 -376h-241z" />
    <glyph glyph-name="zcaron" unicode="&#x17e;" 
d="M186 1120h895v-229l-589 -672h589v-219h-919v229l590 672h-566v219zM496 1262l-256 376h178l198 -227l199 227h178l-256 -376h-241z" />
    <glyph glyph-name="florin" unicode="&#x192;" 
d="M1153 1505l-0.00390625 -231.001c-27.333 16.667 -54.666 29.334 -81.999 38.001s-53.333 13 -78 13c-62.667 0 -111.167 -20 -145.5 -60s-57.5 -103.333 -69.5 -190l-24 -190h260v-219h-289l-94 -713c-16.667 -120.667 -58.667 -214 -126 -280s-154.333 -99 -261 -99
c-41.333 0 -81.166 4.16699 -119.499 12.5s-75.833 21.166 -112.5 38.499v234c28.667 -18 56.334 -31.5 83.001 -40.5s53 -13.5 79 -13.5c63.333 0 112.5 20.167 147.5 60.5s58.167 103.5 69.5 189.5l80 611h-252v219h281l39 293c16 120 57.833 213 125.5 279
s154.834 99 261.501 99c40 0 78.667 -4.16699 116 -12.5s74.333 -21.166 111 -38.499z" />
    <glyph glyph-name="circumflex" unicode="&#x2c6;" 
d="M496 1638h241l256 -376h-178l-199 225l-198 -225h-178z" />
    <glyph glyph-name="caron" unicode="&#x2c7;" 
d="M496 1262l-256 376h178l198 -227l199 227h178l-256 -376h-241z" />
    <glyph glyph-name="ring" unicode="&#x2da;" 
d="M485 1534c0 -36.667 12.832 -67.667 38.499 -93s56.5 -38 92.5 -38c36.667 0 67.834 12.833 93.501 38.5s38.5 56.5 38.5 92.5s-13 66.833 -39 92.5s-57 38.5 -93 38.5s-66.833 -12.833 -92.5 -38.5s-38.5 -56.5 -38.5 -92.5zM331.999 1534
c0 78.667 27.667 145.834 83 201.501s122.333 83.5 201 83.5c79.333 0 146.666 -27.833 201.999 -83.5s83 -122.834 83 -201.501s-27.667 -145.834 -83 -201.501s-122.666 -83.5 -201.999 -83.5c-78.667 0 -145.667 27.833 -201 83.5s-83 122.834 -83 201.501z" />
    <glyph glyph-name="tilde" unicode="&#x2dc;" 
d="M618 1364l-55 37l-12 8c-28.667 19.333 -52 29 -70 29c-24 0 -42.167 -10.333 -54.5 -31s-18.5 -50.667 -18.5 -90v-8h-140c0 90.667 17.167 160.667 51.5 210s82.833 74 145.5 74c24 0 48 -4.5 72 -13.5s49.667 -23.5 77 -43.5l62 -43c14 -10 27.167 -17.667 39.5 -23
s23.833 -8 34.5 -8c24 0 42.5 10.5 55.5 31.5s19.5 50.833 19.5 89.5v8h140c0 -90.667 -17.167 -160.667 -51.5 -210s-82.833 -74 -145.5 -74c-24 0 -47 4 -69 12s-49 23 -81 45z" />
    <glyph glyph-name="endash" unicode="&#x2013;" 
d="M0 690h1233v-246h-1233v246z" />
    <glyph glyph-name="emdash" unicode="&#x2014;" 
d="M0 690h1233v-246h-1233v246z" />
    <glyph glyph-name="quoteleft" unicode="&#x2018;" 
d="M745 903h-313v271l197 382h215l-99 -382v-271z" />
    <glyph glyph-name="quoteright" unicode="&#x2019;" 
d="M530 1556h314v-270l-197 -383h-215l98 383v270z" />
    <glyph glyph-name="quotesinglbase" unicode="&#x201a;" 
d="M461 367h313v-271l-196 -383h-216l99 383v271z" />
    <glyph glyph-name="quotedblleft" unicode="&#x201c;" 
d="M985 903h-313v271l196 382h213l-96 -382v-271zM465 903h-313v271l196 382h215l-98 -382v-271z" />
    <glyph glyph-name="quotedblright" unicode="&#x201d;" 
d="M248 1556h313v-270l-196 -383h-215l98 383v270zM768 1556h313v-270l-196 -383h-215l98 383v270z" />
    <glyph glyph-name="quotedblbase" unicode="&#x201e;" 
d="M248 367h313v-271l-196 -383h-215l98 383v271zM768 367h313v-271l-196 -383h-215l98 383v271z" />
    <glyph glyph-name="dagger" unicode="&#x2020;" 
d="M487 1493h256v-387h332v-223h-332v-1080h-256v1080h-331v223h331v387z" />
    <glyph glyph-name="daggerdbl" unicode="&#x2021;" 
d="M487 1493h256v-387h332v-223h-332v-469h332v-224h-332v-387h-256v387h-331v224h331v469h-331v223h331v387z" />
    <glyph glyph-name="bullet" unicode="&#x2022;" 
d="M256 762c0 48.667 9.16602 94.835 27.499 138.502s44.5 82.167 78.5 115.5c36 34 75.333 59.833 118 77.5s88 26.5 136 26.5c48.667 0 94.834 -9 138.501 -27s82.167 -43.667 115.5 -77c35.333 -34.667 62 -73.667 80 -117s27 -89 27 -137
c0 -48.667 -9.16699 -94.834 -27.5 -138.501s-44.833 -82.834 -79.5 -117.501c-34 -34.667 -73 -61.167 -117 -79.5s-90.333 -27.5 -139 -27.5c-48 0 -93.667 9.16699 -137 27.5s-82.333 44.833 -117 79.5c-33.333 34 -59 72.833 -77 116.5s-27 90.167 -27 139.5z" />
    <glyph glyph-name="ellipsis" unicode="&#x2026;" 
d="M57 367h295v-367h-295v367zM469 367h295v-367h-295v367zM881 367h295v-367h-295v367z" />
    <glyph glyph-name="perthousand" unicode="&#x2030;" 
d="M35 664l1044 415l39 -94l-1046 -420zM330 414c-34 0 -63 -12.0029 -87 -36.0029s-36 -53 -36 -87c0 -35.333 12 -65.666 36 -90.999s53 -38 87 -38s63.333 12.833 88 38.5s37 55.834 37 90.501c0 32.667 -12.5 61.334 -37.5 86.001s-54.167 37 -87.5 37zM45 288.997
c0 80 27.499 147.667 82.499 203s122.5 83 202.5 83c79.333 0 146.833 -27.833 202.5 -83.5s83.5 -123.167 83.5 -202.5c0 -80 -28 -148.167 -84 -204.5s-123.333 -84.5 -202 -84.5c-79.333 0 -146.666 28 -201.999 84s-83 124.333 -83 205zM284.999 1270
c-34.667 0 -63.833 -11.835 -87.5 -35.502s-35.5 -52.834 -35.5 -87.501c0 -35.333 12 -65.666 36 -90.999s53 -38 87 -38s63.333 12.833 88 38.5s37 55.834 37 90.501c0 32.667 -12.5 61.334 -37.5 86.001s-54.167 37 -87.5 37zM0 1145c0 80 27.833 147.833 83.5 203.5
s123.5 83.5 203.5 83.5c78.667 0 145.667 -28 201 -84s83 -123.667 83 -203c0 -80 -27.667 -148.167 -83 -204.5s-122.333 -84.5 -201 -84.5c-79.333 0 -147 28 -203 84s-84 124.333 -84 205zM946 413.995c-33.333 0 -62.167 -12.498 -86.5 -37.498
s-36.5 -54.167 -36.5 -87.5c0 -34.667 12 -64.5 36 -89.5s53 -37.5 87 -37.5s63.333 12.5 88 37.5s37 54.833 37 89.5c0 33.333 -12.333 62.166 -37 86.499s-54 37.166 -88 38.499zM661.999 288.997c0 80 27.5 147.668 82.5 203.001s122.167 83 201.5 83
s147 -27.833 203 -83.5s84 -123.167 84 -202.5c0 -80 -28 -148.167 -84 -204.5s-123.667 -84.5 -203 -84.5c-78 0 -144.833 27.667 -200.5 83s-83.5 122.666 -83.5 201.999v4z" />
    <glyph glyph-name="guilsinglleft" unicode="&#x2039;" 
d="M815 1059v-238l-276 -221l276 -221v-238l-469 394v131z" />
    <glyph glyph-name="guilsinglright" unicode="&#x203a;" 
d="M420 1059l469 -393v-131l-469 -394v238l278 221l-278 221v238z" />
    <glyph glyph-name="Euro" unicode="&#x20ac;" 
d="M209 1010c29.333 166.667 92.665 293.334 189.998 380.001s224.333 130 381 130c55.333 0 107.333 -6 156 -18s95.667 -30 141 -54v-328c-49.333 52 -97.333 90 -144 114s-95.667 36 -147 36c-71.333 0 -130.333 -21.833 -177 -65.5s-80.334 -108.5 -101.001 -194.5h442
l-84 -189h-382c-1.33301 -10.667 -2.16602 -22 -2.49902 -34s-0.5 -30 -0.5 -54c0 -9.33301 0.166992 -19.333 0.5 -30s0.833008 -21.667 1.5 -33h316l-84 -187h-207c16 -84.667 47.833 -149.5 95.5 -194.5s107.834 -67.5 180.501 -67.5c52 0 101.5 12 148.5 36
s95.167 62 144.5 114v-328c-44 -24 -90.5 -42 -139.5 -54s-101.5 -18 -157.5 -18c-156.667 0 -283.667 43.667 -381 131s-160.666 214.333 -189.999 381h-203l84 187h96c-0.666992 9.33301 -1.16699 19.166 -1.5 29.499s-0.5 25.5 -0.5 45.5
c0 19.333 0.166992 34.333 0.5 45s0.833008 21 1.5 31h-180l84 189h119z" />
    <glyph glyph-name="trademark" unicode="&#x2122;" 
d="M438 1493v-133h-141v-445h-156v445h-141v133h438zM729 1493l100 -227l89 227h208v-578h-153v437l-107 -256h-75l-117 256v-437h-152v578h207z" />
    <glyph glyph-name="glyph220" 
d="M84 500l-37 118l1059 263l37 -119z" />
    <glyph glyph-name="glyph221" 
d="M621 1503h204v-512h109v-143h-109v-180h-186v180h-393v162zM639 1321l-250 -330h250v330z" />
    <glyph glyph-name="glyph223" horiz-adv-x="0" 
 />
  </font>
</defs>
</svg>
