<?xml version="1.0" standalone="no"?>
<!DOCTYPE svg PUBLIC "-//W3C//DTD SVG 1.1//EN" "http://www.w3.org/Graphics/SVG/1.1/DTD/svg11.dtd" >
<svg xmlns="http://www.w3.org/2000/svg" xmlns:xlink="http://www.w3.org/1999/xlink" version="1.1">
<metadata>
Created by FontForge 20141024 at Fri Jul 24 10:49:32 2015
 By Jimmy Warting
Copyright 1990-2003 Bitstream Inc. All rights reserved.
</metadata>
<defs>
<font id="PrimaSansMonoW01-Roman" horiz-adv-x="1233" >
  <font-face 
    font-family="PrimaSansMonoW01-Roman"
    font-weight="400"
    font-stretch="normal"
    units-per-em="2048"
    panose-1="2 11 6 9 3 8 4 2 2 4"
    ascent="1582"
    descent="-466"
    x-height="1118"
    cap-height="1493"
    bbox="-0.000976562 -483 1233 2171"
    underline-thickness="141"
    underline-position="-143"
    unicode-range="U+000D-2122"
  />
<missing-glyph horiz-adv-x="0" 
 />
    <glyph glyph-name=".notdef" horiz-adv-x="0" 
 />
    <glyph glyph-name="uni000D" unicode="&#xd;" horiz-adv-x="0" 
 />
    <glyph glyph-name="space" unicode=" " 
 />
    <glyph glyph-name="exclam" unicode="!" 
d="M516 254h203v-254h-203v254zM516 1493h203v-655l-21 -357h-161l-21 357v655z" />
    <glyph glyph-name="quotedbl" unicode="&#x22;" 
d="M512 1493v-555h-174v555h174zM895 1493v-555h-174v555h174z" />
    <glyph glyph-name="numbersign" unicode="#" 
d="M788 901h-245l-84 -334h246zM684 1470l-104 -415h245l105 415h160l-105 -415h244v-154h-281l-84 -334h250v-153h-289l-104 -414h-160l105 414h-246l-105 -414h-159l104 414h-258v153h297l84 334h-266v154h303l104 415h160z" />
    <glyph glyph-name="dollar" unicode="$" 
d="M692 -301l-100 0.00292969l-1 301c-68 3.33301 -135.5 12.666 -202.5 27.999s-133.167 36.666 -198.5 63.999v180c66.667 -41.333 133.834 -73 201.501 -95s134.5 -33.667 200.5 -35v458c-133.333 20.667 -233.666 61.334 -300.999 122.001s-101 141 -101 241
c0 104.667 35.167 188.167 105.5 250.5s169.166 98.166 296.499 107.499v235h100l1 -235c52.667 -3.33301 106 -10 160 -20s109 -23.667 165 -41v-173c-56.667 28.667 -111.834 50.834 -165.501 66.501s-107.167 24.834 -160.5 27.501v-431
c137.333 -20.667 242 -63.334 314 -128.001s108 -148.334 108 -251.001s-38.833 -188.334 -116.5 -257.001s-179.167 -106 -304.5 -112zM592 770.003v412.998c-69.333 -2.66699 -123.5 -22.667 -162.5 -60s-58.5 -87.333 -58.5 -150
c0 -57.333 18.167 -102.666 54.5 -135.999s91.833 -55.666 166.5 -66.999zM692 580.001v-434.001c73.333 2 130.666 22.333 171.999 61s62 91.334 62 158.001c0 62 -18.667 110.167 -56 144.5s-96.666 57.833 -177.999 70.5z" />
    <glyph glyph-name="percent" unicode="%" 
d="M33 1112c0 90 30.667 165.833 92 227.5s137 92.5 227 92.5c42.667 0 83.5 -8 122.5 -24s73.5 -39 103.5 -69s53.167 -64.5 69.5 -103.5s24.5 -80.167 24.5 -123.5c0 -89.333 -31 -164.833 -93 -226.5s-137.667 -92.5 -227 -92.5c-90 0 -165.667 30.667 -227 92
s-92 137 -92 227zM168 1112c0 -52.667 17.5 -96.5 52.5 -131.5s78.833 -52.5 131.5 -52.5c51.333 0 95 17.833 131 53.5s54 79.167 54 130.5s-18 94.833 -54 130.5s-79.667 53.5 -131 53.5s-94.833 -17.667 -130.5 -53s-53.5 -79 -53.5 -131zM121 465l-35 96l1042 418
l41 -96zM561 319c0 90 30.668 165.833 92.001 227.5s136.666 92.5 225.999 92.5c42.667 0 83.167 -8 121.5 -24s72.833 -39.333 103.5 -70c30.667 -31.333 54.334 -66.333 71.001 -105s25 -79 25 -121c0 -88.667 -31 -164 -93 -226s-138 -93 -228 -93
c-90.667 0 -166.334 30.5 -227.001 91.5s-91 136.833 -91 227.5zM696.001 319c0 -52 17.5 -95.667 52.5 -131s78.5 -53 130.5 -53c51.333 0 94.833 17.833 130.5 53.5s53.5 79.167 53.5 130.5s-18 95 -54 131s-79.333 54 -130 54c-52 0 -95.5 -17.667 -130.5 -53
s-52.5 -79.333 -52.5 -132z" />
    <glyph glyph-name="ampersand" unicode="&#x26;" 
d="M416 803c-61.333 -48.667 -107.168 -100.169 -137.501 -154.502s-45.5 -112.166 -45.5 -173.499c0 -100.667 33.333 -184.167 100 -250.5s151.667 -99.5 255 -99.5c28 0 57.333 4 88 12s60.667 19.667 90 35c18 10 32.833 18.833 44.5 26.5s22.834 15.834 33.501 24.501z
M546.998 906.998l416.001 -559c26 32.667 45.333 74 58 124s19 109.667 19 179c0 21.333 -1 55.333 -3 102l-1 7h164v-39c0 -107.333 -12.333 -201.5 -37 -282.5s-62 -150.833 -112 -209.5l170 -229h-213l-78 109c-55.333 -46.667 -114 -81.334 -176 -104.001
s-128.333 -34 -199 -34c-144 0 -263 44.833 -357 134.5s-141 202.5 -141 338.5c0 91.333 23 176 69 254s115.333 150.333 208 217c-33.333 48 -58 95 -74 141s-24 92.667 -24 140c0 100 33.167 179 99.5 237s157.166 87 272.499 87c43.333 0 86.833 -4 130.5 -12
s88.834 -19.667 135.501 -35v-183c-39.333 26 -79.833 45.167 -121.5 57.5s-85.5 18.5 -131.5 18.5c-64.667 0 -115.667 -15.167 -153 -45.5s-56 -71.166 -56 -122.499c0 -39.333 9.66699 -80.5 29 -123.5s54.666 -98.833 105.999 -167.5z" />
    <glyph glyph-name="quotesingle" unicode="'" 
d="M702 1493v-555h-174v555h174z" />
    <glyph glyph-name="parenleft" unicode="(" 
d="M885 1554c-88.667 -152 -154.834 -303.501 -198.501 -454.501s-65.5 -303.167 -65.5 -456.5c0 -152.667 21.833 -304.667 65.5 -456s109.834 -303.666 198.501 -456.999h-160c-100.667 158.667 -175.667 313.167 -225 463.5s-74 300.166 -74 449.499
c0 148.667 24.667 298.334 74 449.001s124.333 304.667 225 462h160z" />
    <glyph glyph-name="parenright" unicode=")" 
d="M348 1554l160 0.00195312c100.667 -157.333 175.667 -311.333 225 -462s74 -300.334 74 -449.001c0 -150 -24.667 -300.333 -74 -451s-124.333 -304.667 -225 -462h-160c88.667 154.667 154.834 307.667 198.501 459s65.5 302.666 65.5 453.999
c0 152 -21.833 303.667 -65.5 455s-109.834 303.333 -198.501 456z" />
    <glyph glyph-name="asterisk" unicode="*" 
d="M1067 1247l-358 -194l358 -195l-57 -98l-336 203v-377h-115v377l-336 -203l-57 98l358 195l-358 194l57 99l336 -203v377h115v-377l336 203z" />
    <glyph glyph-name="plus" unicode="+" 
d="M700 1171v-444h445v-170h-445v-444h-168v444h-444v170h444v444h168z" />
    <glyph glyph-name="comma" unicode="," 
d="M502 303h252v-207l-197 -383h-154l99 383v207z" />
    <glyph glyph-name="hyphen" unicode="-" 
d="M356 643h521v-164h-521v164z" />
    <glyph glyph-name="period" unicode="." 
d="M489 305h252v-305h-252v305z" />
    <glyph glyph-name="slash" unicode="/" 
d="M889 1493h190l-786 -1683h-191z" />
    <glyph glyph-name="zero" unicode="0" 
d="M616 1520c159.333 0 279.833 -65.333 361.5 -196s122.5 -323.667 122.5 -579c0 -254.667 -40.833 -447.334 -122.5 -578.001s-202.167 -196 -361.5 -196s-279.666 65.333 -360.999 196s-122 323.334 -122 578.001c0 255.333 40.667 448.333 122 579
s201.666 196 360.999 196zM616 1360c-94 0 -164.167 -50.667 -210.5 -152s-69.5 -255.666 -69.5 -462.999c0 -206.667 23.167 -360.667 69.5 -462s116.5 -152 210.5 -152c94.667 0 165.167 50.667 211.5 152s69.5 255.333 69.5 462c0 207.333 -23.167 361.666 -69.5 462.999
s-116.833 152 -211.5 152z" />
    <glyph glyph-name="one" unicode="1" 
d="M270 170h314v1141l-338 -76v184l336 74h202v-1323h310v-170h-824v170z" />
    <glyph glyph-name="two" unicode="2" 
d="M373 170l686.004 0.00195312v-170h-907v170c124.667 131.333 233.667 247.333 327 348s157.666 171.667 192.999 213c66.667 81.333 111.667 147.166 135 197.499s35 101.833 35 154.5c0 83.333 -24.5 148.666 -73.5 195.999s-116.167 71 -201.5 71
c-60.667 0 -124.334 -11 -191.001 -33s-137.334 -55.333 -212.001 -100v204c68.667 32.667 136.167 57.334 202.5 74.001s131.833 25 196.5 25c146 0 263.5 -38.833 352.5 -116.5s133.5 -179.5 133.5 -305.5c0 -64 -14.833 -128 -44.5 -192s-77.834 -134.667 -144.501 -212
c-37.333 -43.333 -91.5 -103.333 -162.5 -180s-179.167 -191.334 -324.5 -344.001z" />
    <glyph glyph-name="three" unicode="3" 
d="M776 799c98 -26 172.995 -72.1699 224.995 -138.503s78 -149.166 78 -248.499c0 -137.333 -46.167 -245.166 -138.5 -323.499s-220.166 -117.5 -383.499 -117.5c-68.667 0 -138.667 6.33301 -210 19s-141.333 31 -210 55v201c68 -35.333 135 -61.666 201 -78.999
s131.667 -26 197 -26c110.667 0 195.667 25 255 75s89 122 89 216c0 86.667 -29.667 155.5 -89 206.5s-139.666 76.5 -240.999 76.5h-154v166h154c92.667 0 165 20.333 217 61s78 97.334 78 170.001c0 76.667 -24.167 135.5 -72.5 176.5s-117.166 61.5 -206.499 61.5
c-59.333 0 -120.666 -6.66699 -183.999 -20s-129.666 -33.333 -198.999 -60v186c80.667 21.333 152.5 37.333 215.5 48s118.833 16 167.5 16c145.333 0 261.5 -36.5 348.5 -109.5s130.5 -169.833 130.5 -290.5c0 -82 -22.833 -150.333 -68.5 -205
s-112.167 -93.334 -199.5 -116.001z" />
    <glyph glyph-name="four" unicode="4" 
d="M702 1493h234v-973h199v-164h-199v-356h-201v356h-633v191zM735 1309l-471 -789h471v789z" />
    <glyph glyph-name="five" unicode="5" 
d="M207 1493l755.999 -0.000976562v-170h-572v-367c28.667 10.667 57.5 18.5 86.5 23.5s58.167 7.5 87.5 7.5c154.667 0 277.334 -45.667 368.001 -137s136 -215 136 -371c0 -157.333 -47.5 -281.333 -142.5 -372s-224.833 -136 -389.5 -136
c-79.333 0 -151.833 5.33301 -217.5 16s-124.5 26.667 -176.5 48v205c61.333 -33.333 123 -58.166 185 -74.499s125.333 -24.5 190 -24.5c111.333 0 197.166 29.333 257.499 88s90.5 142 90.5 250c0 106.667 -31.167 189.667 -93.5 249s-149.166 89 -260.499 89
c-54 0 -106.667 -6.16699 -158 -18.5s-100.333 -30.833 -147 -55.5v750z" />
    <glyph glyph-name="six" unicode="6" 
d="M631 829c-86 0 -153.667 -31 -203 -93s-74 -147.667 -74 -257s24.667 -195 74 -257s117 -93 203 -93c89.333 0 156.666 29.5 201.999 88.5s68 146.167 68 261.5c0 116 -22.667 203.333 -68 262s-112.666 88 -201.999 88zM991 1460l-0.000976562 -186.002
c-42 24.667 -86.667 43.5 -134 56.5s-96.666 19.5 -147.999 19.5c-128 0 -225 -48.167 -291 -144.5s-99 -238.166 -99 -425.499c32 66.667 76.333 117.834 133 153.501s121.667 53.5 195 53.5c144 0 255.5 -44.167 334.5 -132.5s118.5 -213.5 118.5 -375.5
c0 -161.333 -40.667 -286.333 -122 -375s-195.666 -133 -342.999 -133c-173.333 0 -300.333 62.167 -381 186.5s-121 320.166 -121 587.499c0 252 48.5 444.167 145.5 576.5s237.5 198.5 421.5 198.5c49.333 0 98.666 -5.16699 147.999 -15.5s97 -25.166 143 -44.499z" />
    <glyph glyph-name="seven" unicode="7" 
d="M139 1493h940v-86l-534 -1407h-211l520 1323h-715v170z" />
    <glyph glyph-name="eight" unicode="8" 
d="M367 1114c0 -80 21.333 -141 64 -183s104.334 -63 185.001 -63c81.333 0 143.333 21 186 63s64 103 64 183c0 81.333 -21.167 143.333 -63.5 186s-104.5 64 -186.5 64c-80.667 0 -142.334 -21.5 -185.001 -64.5s-64 -104.833 -64 -185.5zM440 793
c-86 22 -153.168 63 -201.501 123s-72.5 132.333 -72.5 217c0 118.667 40.333 212.834 121 282.501s190.334 104.5 329.001 104.5c139.333 0 249.333 -34.833 330 -104.5s121 -163.834 121 -282.501c0 -84.667 -24.167 -157 -72.5 -217s-115.5 -101 -201.5 -123
c100 -22 176.5 -66.333 229.5 -133s79.5 -153 79.5 -259c0 -134.667 -43 -240 -129 -316s-205 -114 -357 -114s-270.833 37.833 -356.5 113.5s-128.5 180.5 -128.5 314.5c0 106.667 26.5 193.5 79.5 260.5s129.5 111.5 229.5 133.5zM615.999 709
c-90 0 -159.501 -25.166 -208.501 -75.499s-73.5 -121.5 -73.5 -213.5s24.833 -163.5 74.5 -214.5s118.834 -76.5 207.501 -76.5c90.667 0 160.5 25.167 209.5 75.5s73.5 122.166 73.5 215.499c0 91.333 -24.833 162.333 -74.5 213s-119.167 76 -208.5 76z" />
    <glyph glyph-name="nine" unicode="9" 
d="M236 31l0.000976562 186.001c42 -24.667 86.667 -43.5 134 -56.5s96.666 -19.5 147.999 -19.5c128 0 224.833 48.167 290.5 144.5s98.5 238.166 98.5 425.499c-31.333 -66.667 -75.333 -117.834 -132 -153.501s-121.667 -53.5 -195 -53.5
c-144 0 -255.5 44.333 -334.5 133s-118.5 214.334 -118.5 377.001c0 160.667 40.5 285.167 121.5 373.5s195.5 132.5 343.5 132.5c173.333 0 300.333 -62.333 381 -187s121 -320.667 121 -588c0 -251.333 -48.5 -443.166 -145.5 -575.499s-237.833 -198.5 -422.5 -198.5
c-48.667 0 -97.667 5.16699 -147 15.5s-97 25.166 -143 44.499zM596.001 662.001c86 0 153.499 31 202.499 93s73.5 147.667 73.5 257s-24.5 195 -73.5 257s-116.5 93 -202.5 93c-89.333 0 -156.666 -29.5 -201.999 -88.5s-68 -146.167 -68 -261.5
c0 -116 22.5 -203.333 67.5 -262s112.5 -88 202.5 -88z" />
    <glyph glyph-name="colon" unicode=":" 
d="M489 305h252v-305h-252v305zM489 1063h252v-303h-252v303z" />
    <glyph glyph-name="semicolon" unicode=";" 
d="M489 1063h252v-303h-252v303zM502 303h252v-207l-197 -383h-154l99 383v207z" />
    <glyph glyph-name="less" unicode="&#x3c;" 
d="M1145 961l-850 -320l850 -317v-183l-1057 418v166l1057 418v-182z" />
    <glyph glyph-name="equal" unicode="=" 
d="M88 930h1057v-170h-1057v170zM88 524h1057v-172h-1057v172z" />
    <glyph glyph-name="greater" unicode="&#x3e;" 
d="M88 961v182l1057 -418v-166l-1057 -418v183l850 317z" />
    <glyph glyph-name="question" unicode="?" 
d="M487 254h203v-254h-203v254zM684 401l-190.001 0.000976562v154c0 65.333 10.167 120.833 30.5 166.5s58.5 95.834 114.5 150.501l90 89c41.333 39.333 69.833 73.666 85.5 102.999s23.5 60.333 23.5 93c0 59.333 -21.833 107.333 -65.5 144s-101.834 55 -174.501 55
c-52 0 -107.667 -11.5 -167 -34.5s-121.666 -57.167 -186.999 -102.5v188c62.667 38 125.834 66.333 189.501 85s130.167 28 199.5 28c124 0 222.833 -32 296.5 -96s110.5 -149.667 110.5 -257c0 -50.667 -11.167 -97.834 -33.5 -141.501s-64.833 -96.167 -127.5 -157.5
l-88 -86c-46 -44 -75.333 -80 -88 -108s-19 -62.333 -19 -103v-47v-123z" />
    <glyph glyph-name="at" unicode="@" 
d="M1178 135h-143.996v111c-24.667 -42 -58.834 -74.333 -102.501 -97s-92.834 -34 -147.501 -34c-107.333 0 -196.166 40.333 -266.499 121s-105.5 183.667 -105.5 309s35.167 228.333 105.5 309s159.166 121 266.499 121c53.333 0 102.333 -11.667 147 -35
s79 -55.333 103 -96v63c0 104 -29.333 187.667 -88 251s-136.334 95 -233.001 95c-164 0 -294.5 -63.833 -391.5 -191.5s-145.5 -300.5 -145.5 -518.5c0 -219.333 55 -394 165 -524s256.333 -195 439 -195c36 0 72 3.33301 108 10s73 17 111 31l48 -135
c-42 -16.667 -83.5 -29 -124.5 -37s-80.833 -12 -119.5 -12c-238 0 -426.833 77.667 -566.5 233s-209.5 365 -209.5 629c0 260 62.667 467 188 621s293.333 231 504 231c139.333 0 250.666 -44.333 333.999 -133s125 -207.667 125 -357v-770zM1038 545
c0 86 -21.333 154.833 -64 206.5s-99.667 77.5 -171 77.5s-128.5 -25.833 -171.5 -77.5s-64.5 -120.5 -64.5 -206.5c0 -86.667 21.5 -155.834 64.5 -207.501s100.167 -77.5 171.5 -77.5s128.333 25.833 171 77.5s64 120.834 64 207.501z" />
    <glyph glyph-name="A" unicode="A" 
d="M494 1493h245l457 -1493h-209l-110 389h-523l-108 -389h-209zM616 1315l-213 -764h426z" />
    <glyph glyph-name="B" unicode="B" 
d="M166 1493h441.999c152.667 0 270.334 -33 353.001 -99s124 -159.333 124 -280c0 -91.333 -21.833 -163.333 -65.5 -216s-109.167 -85.667 -196.5 -99c98 -14.667 174.833 -56.5 230.5 -125.5s83.5 -156.833 83.5 -263.5c0 -135.333 -44.333 -237.5 -133 -306.5
s-220.667 -103.5 -396 -103.5h-442v1493zM368.999 1327v-449.998h235c97.333 0 167.833 18.667 211.5 56s65.5 97.666 65.5 180.999c0 75.333 -21.5 129.666 -64.5 162.999s-113.833 50 -212.5 50h-235zM368.999 713.002v-547h239c117.333 0 201 20.5 251 61.5
s75 108.5 75 202.5c0 97.333 -26.333 168.833 -79 214.5s-135 68.5 -247 68.5h-239z" />
    <glyph glyph-name="C" unicode="C" 
d="M1073 53c-51.333 -27.333 -104 -47.832 -158 -61.499s-111.333 -20.5 -172 -20.5c-191.333 0 -339.833 67.667 -445.5 203s-158.5 325.666 -158.5 570.999c0 244 53.167 434.167 159.5 570.5s254.5 204.5 444.5 204.5c60.667 0 118 -6.83301 172 -20.5
s106.667 -34.167 158 -61.5v-207c-49.333 40.667 -102.333 71.667 -159 93s-113.667 32 -171 32c-131.333 0 -229.666 -50.667 -294.999 -152s-98 -254.333 -98 -459c0 -204 32.667 -356.667 98 -458s163.666 -152 294.999 -152c58.667 0 116.167 10.667 172.5 32
s108.833 52.333 157.5 93v-207z" />
    <glyph glyph-name="D" unicode="D" 
d="M440 1493c228 0 396 -60.667 504 -182s162 -310 162 -566c0 -254.667 -54 -442.5 -162 -563.5s-276 -181.5 -504 -181.5h-303v1493h303zM436 166c170 0 288.667 41.8311 356 125.498s101 234.834 101 453.501c0 220.667 -33.5 372.834 -100.5 456.501
s-185.833 125.5 -356.5 125.5h-96v-1161h96z" />
    <glyph glyph-name="E" unicode="E" 
d="M197 1493h886v-170h-684v-442h654v-170h-654v-541h703v-170h-905v1493z" />
    <glyph glyph-name="F" unicode="F" 
d="M233 1493h879v-170h-676v-440h613v-170h-613v-713h-203v1493z" />
    <glyph glyph-name="G" unicode="G" 
d="M1104 123c-54 -50 -114.833 -87.833 -182.5 -113.5s-140.834 -38.5 -219.501 -38.5c-189.333 0 -336.666 67.833 -441.999 203.5s-158 325.834 -158 570.501c0 244 53.333 434.167 160 570.5s255 204.5 445 204.5c62.667 0 122.667 -8.83301 180 -26.5
s112.666 -44.5 165.999 -80.5v-207c-54 51.333 -109.333 89.166 -166 113.499s-116.667 36.5 -180 36.5c-131.333 0 -229.833 -50.833 -295.5 -152.5s-98.5 -254.5 -98.5 -458.5c0 -207.333 31.833 -360.833 95.5 -460.5s161.5 -149.5 293.5 -149.5
c44.667 0 83.834 5.16699 117.501 15.5s64.167 26.5 91.5 48.5v401h-217v166h410v-643z" />
    <glyph glyph-name="H" unicode="H" 
d="M137 1493h203v-612h553v612h203v-1493h-203v711h-553v-711h-203v1493z" />
    <glyph glyph-name="I" unicode="I" 
d="M201 1493h829v-170h-313v-1153h313v-170h-829v170h313v1153h-313v170z" />
    <glyph glyph-name="J" unicode="J" 
d="M109 61l-0.000976562 235.999c60.667 -54 123.334 -94.5 188.001 -121.5s131.667 -40.5 201 -40.5c95.333 0 161.833 24.833 199.5 74.5s56.5 142.167 56.5 277.5v836h-381v170h583v-1006c0 -188 -35.167 -321 -105.5 -399s-187.833 -117 -352.5 -117
c-64 0 -127.667 7.33301 -191 22s-129.333 37.334 -198 68.001z" />
    <glyph glyph-name="K" unicode="K" 
d="M137 1493h203v-664l631 664h237l-581 -610l598 -883h-244l-487 748l-154 -164v-584h-203v1493z" />
    <glyph glyph-name="L" unicode="L" 
d="M215 1493h203v-1323h721v-170h-924v1493z" />
    <glyph glyph-name="M" unicode="M" 
d="M86 1493h270l258 -760l260 760h271v-1493h-187v1319l-266 -787h-153l-267 787v-1319h-186v1493z" />
    <glyph glyph-name="N" unicode="N" 
d="M139 1493h256l504 -1229v1229h195v-1493h-256l-504 1229v-1229h-195v1493z" />
    <glyph glyph-name="O" unicode="O" 
d="M1116 745c0 -260 -41.167 -453.999 -123.5 -581.999s-207.833 -192 -376.5 -192s-294 63.667 -376 191s-123 321.666 -123 582.999c0 260.667 41.167 455 123.5 583s207.5 192 375.5 192c168.667 0 294.167 -64 376.5 -192s123.5 -322.333 123.5 -583zM905 745.001
c0 219.333 -22.5 376 -67.5 470s-118.833 141 -221.5 141c-102 0 -175.5 -47 -220.5 -141s-67.5 -250.667 -67.5 -470c0 -218.667 22.5 -375 67.5 -469s118.5 -141 220.5 -141c102.667 0 176.5 46.833 221.5 140.5s67.5 250.167 67.5 469.5z" />
    <glyph glyph-name="P" unicode="P" 
d="M197 1493l436 -0.000976562c166.667 0 293 -37.833 379 -113.5s129 -186.5 129 -332.5c0 -147.333 -42.833 -258.666 -128.5 -333.999s-212.167 -113 -379.5 -113h-234v-600h-202v1493zM399 1327l0.000976562 -561h234c93.333 0 166.166 24.667 218.499 74
s78.5 118.333 78.5 207s-26 157.5 -78 206.5s-125 73.5 -219 73.5h-234z" />
    <glyph glyph-name="Q" unicode="Q" 
d="M905 745c0 219.333 -22.5 376 -67.5 470s-118.833 141 -221.5 141c-102 0 -175.5 -47 -220.5 -141s-67.5 -250.667 -67.5 -470c0 -218.667 22.5 -375 67.5 -469s118.5 -141 220.5 -141c102.667 0 176.5 46.833 221.5 140.5s67.5 250.167 67.5 469.5zM655 -27
c-4.66699 0 -11.332 -0.333008 -19.999 -1s-15.667 -1 -21 -1c-166.667 0 -291.167 64 -373.5 192s-123.5 322 -123.5 582c0 260.667 41.167 455 123.5 583s207.5 192 375.5 192c168.667 0 294.167 -64 376.5 -192s123.5 -322.333 123.5 -583
c0 -196 -22.833 -353.833 -68.5 -473.5s-114.834 -203.5 -207.501 -251.5l200 -190l-151 -100z" />
    <glyph glyph-name="R" unicode="R" 
d="M346 1327v-529.999h221c96.667 0 168.667 21.667 216 65s71 109.666 71 198.999c0 86 -25.167 151.833 -75.5 197.5s-123.5 68.5 -219.5 68.5h-213zM760 705.001c52 -13.333 96.332 -38.5 132.999 -75.5s82.334 -110.833 137.001 -221.5l203 -408h-217l-178 377
c-51.333 107.333 -97.5 176.5 -138.5 207.5s-94.5 46.5 -160.5 46.5h-193v-631h-203v1493h416c164 0 289.667 -37 377 -111s131 -181 131 -321c0 -98.667 -26.833 -179.167 -80.5 -241.5s-129.167 -100.5 -226.5 -114.5z" />
    <glyph glyph-name="S" unicode="S" 
d="M1012 1442l0.00292969 -204.997c-61.333 39.333 -122.833 69 -184.5 89s-123.834 30 -186.501 30c-95.333 0 -170.666 -22.167 -225.999 -66.5s-83 -104.166 -83 -179.499c0 -66 18.167 -116.333 54.5 -151s104.166 -63.667 203.499 -87l106 -24
c140 -32.667 242 -84 306 -154s96 -165.333 96 -286c0 -142 -44 -250.333 -132 -325s-216 -112 -384 -112c-70 0 -140.333 7.5 -211 22.5s-141.667 37.5 -213 67.5v215c76.667 -48.667 149.167 -84.334 217.5 -107.001s137.166 -34 206.499 -34
c102 0 181.333 22.833 238 68.5s85 109.5 85 191.5c0 74.667 -19.5 131.667 -58.5 171s-106.833 69.666 -203.5 90.999l-108 25c-138.667 31.333 -239.334 78.666 -302.001 141.999s-94 148.333 -94 255c0 133.333 44.833 240.166 134.5 320.499
s208.834 120.5 357.501 120.5c57.333 0 117.666 -6.5 180.999 -19.5s130 -32.5 200 -58.5z" />
    <glyph glyph-name="T" unicode="T" 
d="M47 1493h1139v-170h-467v-1323h-203v1323h-469v170z" />
    <glyph glyph-name="U" unicode="U" 
d="M147 573l0.00390625 919.998h203v-1012c0 -72.667 2 -124.5 6 -155.5s11 -54.833 21 -71.5c21.333 -39.333 52.166 -69 92.499 -89s89.166 -30 146.499 -30c58 0 107 10 147 30s71 49.667 93 89c10 16.667 17 40.334 21 71.001s6 82 6 154v94v920h202v-920
c0 -152.667 -9.5 -261.167 -28.5 -325.5s-51.833 -117.5 -98.5 -159.5c-44 -39.333 -94.333 -68.666 -151 -87.999s-120.334 -29 -191.001 -29c-70 0 -133.333 9.66699 -190 29s-107.334 48.666 -152.001 87.999c-46 41.333 -78.667 94.833 -98 160.5
s-29 173.834 -29 324.501z" />
    <glyph glyph-name="V" unicode="V" 
d="M616 170l351 1323h209l-437 -1493h-245l-437 1493h209z" />
    <glyph glyph-name="W" unicode="W" 
d="M0 1493h197l143 -1212l170 802h211l172 -804l143 1214h197l-223 -1493h-191l-203 887l-202 -887h-191z" />
    <glyph glyph-name="X" unicode="X" 
d="M86 1493h217l328 -563l334 563h217l-447 -702l479 -791h-217l-366 643l-395 -643h-218l500 791z" />
    <glyph glyph-name="Y" unicode="Y" 
d="M37 1493h215l364 -659l363 659h217l-479 -823v-670h-203v670z" />
    <glyph glyph-name="Z" unicode="Z" 
d="M178 1493h969v-154l-780 -1169h802v-170h-1013v154l759 1169h-737v170z" />
    <glyph glyph-name="bracketleft" unicode="[" 
d="M463 1556h424v-143h-240v-1540h240v-143h-424v1826z" />
    <glyph glyph-name="backslash" unicode="\" 
d="M293 1493l786 -1683h-190l-787 1683h191z" />
    <glyph glyph-name="bracketright" unicode="]" 
d="M770 1556v-1826h-424v143h240v1540h-240v143h424z" />
    <glyph glyph-name="asciicircum" unicode="^" 
d="M705 1493l456 -557h-178l-367 395l-366 -395h-178l456 557h177z" />
    <glyph glyph-name="underscore" unicode="_" 
d="M1024 -403v-80h-1024v80h1024z" />
    <glyph glyph-name="grave" unicode="`" 
d="M477 1638l281 -376h-154l-325 376h198z" />
    <glyph glyph-name="a" unicode="a" 
d="M1059 639l-0.000976562 -638.999h-185v166c-39.333 -66.667 -88.833 -115.834 -148.5 -147.501s-132.167 -47.5 -217.5 -47.5c-114 0 -205 32.167 -273 96.5s-102 150.5 -102 258.5c0 124.667 41.833 219.334 125.5 284.001s206.5 97 368.5 97h247v29
c-0.666992 89.333 -23.334 154.166 -68.001 194.499s-116 60.5 -214 60.5c-62.667 0 -126 -9 -190 -27s-126.333 -44.333 -187 -79v184c68 26 133.167 45.5 195.5 58.5s122.833 19.5 181.5 19.5c92.667 0 171.834 -13.667 237.501 -41s118.834 -68.333 159.501 -123
c25.333 -33.333 43.333 -74.5 54 -123.5s16 -122.5 16 -220.5zM701.999 563.001h-61.001c-107.333 0 -188.166 -18.833 -242.499 -56.5s-81.5 -93.834 -81.5 -168.501c0 -67.333 20.333 -119.666 61 -156.999s97 -56 169 -56c101.333 0 181 35.167 239 105.5
s87.333 167.5 88 291.5v41h-172z" />
    <glyph glyph-name="b" unicode="b" 
d="M377 977c29.333 54.667 69.833 96.667 121.5 126s111.5 44 179.5 44c134.667 0 240.667 -51.833 318 -155.5s116 -246.5 116 -428.5c0 -184.667 -38.833 -329.5 -116.5 -434.5s-184.167 -157.5 -319.5 -157.5c-66.667 0 -125.5 14.5 -176.5 43.5
s-91.833 71.167 -122.5 126.5v-141h-184v1556h184v-579zM918 559c0 142.667 -22.667 250.331 -68 322.998s-112.333 109 -201 109c-89.333 0 -157 -36.5 -203 -109.5s-69 -180.5 -69 -322.5c0 -141.333 23 -248.666 69 -321.999s113.667 -110 203 -110
c88.667 0 155.667 36.333 201 109s68 180.334 68 323.001z" />
    <glyph glyph-name="c" unicode="c" 
d="M1061 57c-49.333 -28.667 -100.167 -50.165 -152.5 -64.498s-105.833 -21.5 -160.5 -21.5c-173.333 0 -308.833 52 -406.5 156s-146.5 248 -146.5 432s48.833 328 146.5 432s233.167 156 406.5 156c54 0 106.667 -7 158 -21s103 -35.667 155 -65v-193
c-48.667 43.333 -97.5 74.666 -146.5 93.999s-104.5 29 -166.5 29c-115.333 0 -204 -37.333 -266 -112s-93 -181.334 -93 -320.001c0 -138 31.167 -244.5 93.5 -319.5s150.833 -112.5 265.5 -112.5c64 0 121.333 9.83301 172 29.5s97.667 50.167 141 91.5v-191z" />
    <glyph glyph-name="d" unicode="d" 
d="M317 559c0 -142.667 22.667 -250.331 68 -322.998s112.333 -109 201 -109s156.167 36.667 202.5 110s69.5 180.666 69.5 321.999c0 142 -23.167 249.5 -69.5 322.5s-113.833 109.5 -202.5 109.5s-155.667 -36.333 -201 -109s-68 -180.334 -68 -323.001zM858 977.003
l0.00195312 579h184v-1556h-184v141c-30.667 -55.333 -71.5 -97.5 -122.5 -126.5s-109.833 -43.5 -176.5 -43.5c-135.333 0 -241.833 52.5 -319.5 157.5s-116.5 249.833 -116.5 434.5c0 182 39 324.833 117 428.5s184.333 155.5 319 155.5
c67.333 0 126.666 -14.5 177.999 -43.5s91.666 -71.167 120.999 -126.5z" />
    <glyph glyph-name="e" unicode="e" 
d="M928 660c-2.66699 108 -28.167 190.167 -76.5 246.5s-117.833 84.5 -208.5 84.5c-88.667 0 -161.667 -29.333 -219 -88s-91.333 -140 -102 -244zM1112 606v-90h-797v-6c0 -122 31.833 -216.333 95.5 -283s153.5 -100 269.5 -100c58.667 0 120 9.33301 184 28
s132.333 47 205 85v-183c-70 -28.667 -137.5 -50.167 -202.5 -64.5s-127.833 -21.5 -188.5 -21.5c-174 0 -310 52.167 -408 156.5s-147 248.166 -147 431.499c0 178.667 48 321.334 144 428.001s224 160 384 160c142.667 0 255.167 -48.333 337.5 -145
s123.5 -228.667 123.5 -396z" />
    <glyph glyph-name="f" unicode="f" 
d="M1063 1556l0.000976562 -153h-209c-66 0 -111.833 -13.5 -137.5 -40.5s-38.5 -74.833 -38.5 -143.5v-99h385v-143h-385v-977h-184v977h-299v143h299v78c0 122.667 28.167 213 84.5 271s144.166 87 263.499 87h221z" />
    <glyph glyph-name="g" unicode="g" 
d="M1042 72c0 -168 -39.665 -295.331 -118.998 -381.998s-196 -130 -350 -130c-50.667 0 -103.667 4.66699 -159 14s-110.666 23 -165.999 41v182c65.333 -30.667 124.666 -53.334 177.999 -68.001s102.333 -22 147 -22c99.333 0 171.666 27 216.999 81s68 139.667 68 257v8
v125c-29.333 -62.667 -69.333 -109.334 -120 -140.001s-112.334 -46 -185.001 -46c-130.667 0 -235 52.333 -313 157s-117 244.667 -117 420c0 176 39 316.333 117 421s182.333 157 313 157c72 0 133 -14.333 183 -43s90.667 -73 122 -133v145h184v-1044zM858.002 569.002
c0 138 -22.501 242.833 -67.501 314.5s-110.5 107.5 -196.5 107.5c-90 0 -158.667 -35.833 -206 -107.5s-71 -176.5 -71 -314.5s23.833 -243.167 71.5 -315.5s116.834 -108.5 207.501 -108.5c84.667 0 149.5 36.333 194.5 109s67.5 177.667 67.5 315z" />
    <glyph glyph-name="h" unicode="h" 
d="M1051 694l-0.000976562 -694h-185v694c0 100.667 -17.667 174.667 -53 222s-90.666 71 -165.999 71c-86 0 -152.167 -30.5 -198.5 -91.5s-69.5 -148.5 -69.5 -262.5v-633h-184v1556h184v-604c32.667 64 77 112.5 133 145.5s122.333 49.5 199 49.5
c114 0 199.167 -37.5 255.5 -112.5s84.5 -188.5 84.5 -340.5z" />
    <glyph glyph-name="i" unicode="i" 
d="M543 1556h184v-233h-184v233zM256 1120h471v-977h365v-143h-914v143h365v834h-287v143z" />
    <glyph glyph-name="j" unicode="j" 
d="M600 1556h184v-233h-184v233zM600 -20v997h-317v143h501v-1140c0 -130 -29.833 -230.167 -89.5 -300.5s-144.5 -105.5 -254.5 -105.5h-254v156h234c60 0 105 20.833 135 62.5s45 104.167 45 187.5z" />
    <glyph glyph-name="k" unicode="k" 
d="M236 1556h190v-901l483 465h224l-441 -422l510 -698h-225l-414 578l-137 -129v-449h-190v1556z" />
    <glyph glyph-name="l" unicode="l" 
d="M256 1567h471v-1424h365v-143h-914v143h365v1280h-287v144z" />
    <glyph glyph-name="m" unicode="m" 
d="M676 1006c22.667 48 51.499 83.5 86.499 106.5s77.167 34.5 126.5 34.5c90 0 153.5 -34.833 190.5 -104.5s55.5 -200.834 55.5 -393.501v-649h-168v641c0 158 -8.83301 256.167 -26.5 294.5s-49.834 57.5 -96.501 57.5c-53.333 0 -89.833 -20.5 -109.5 -61.5
s-29.5 -137.833 -29.5 -290.5v-641h-168v641c0 160 -9.5 258.667 -28.5 296s-53.167 56 -102.5 56c-48.667 0 -82.5 -20.5 -101.5 -61.5s-28.5 -137.833 -28.5 -290.5v-641h-167v1120h167v-96c22 40 49.5 70.5 82.5 91.5s70.5 31.5 112.5 31.5
c50.667 0 92.834 -11.667 126.501 -35s59.834 -58.666 78.501 -105.999z" />
    <glyph glyph-name="n" unicode="n" 
d="M1051 694l-0.000976562 -694h-185v694c0 100.667 -17.667 174.667 -53 222s-90.666 71 -165.999 71c-86 0 -152.167 -30.5 -198.5 -91.5s-69.5 -148.5 -69.5 -262.5v-633h-184v1120h184v-168c32.667 64 77 112.5 133 145.5s122.333 49.5 199 49.5
c114 0 199.167 -37.5 255.5 -112.5s84.5 -188.5 84.5 -340.5z" />
    <glyph glyph-name="o" unicode="o" 
d="M616 1147c155.333 0 274.167 -50.333 356.5 -151s123.5 -246.334 123.5 -437.001c0 -191.333 -41 -337.166 -123 -437.499s-201 -150.5 -357 -150.5c-155.333 0 -274 50.167 -356 150.5s-123 246.166 -123 437.499c0 190.667 41 336.334 123 437.001s200.667 151 356 151
zM616.001 991c-93.333 0 -164 -36.333 -212 -109s-72 -180.334 -72 -323.001c0 -142 24 -249.5 72 -322.5s118.667 -109.5 212 -109.5c94 0 165 36.5 213 109.5s72 180.5 72 322.5c0 142.667 -24 250.334 -72 323.001s-119 109 -213 109z" />
    <glyph glyph-name="p" unicode="p" 
d="M915 559c0 142.667 -22.5 250.331 -67.5 322.998s-111.833 109 -200.5 109c-89.333 0 -157 -36.5 -203 -109.5s-69 -180.5 -69 -322.5c0 -141.333 23 -248.666 69 -321.999s113.667 -110 203 -110c88.667 0 155.5 36.333 200.5 109s67.5 180.334 67.5 323.001z
M375 140.997v-567h-185v1546h185v-143c30.667 55.333 71.5 97.5 122.5 126.5s109.833 43.5 176.5 43.5c135.333 0 241.5 -52.333 318.5 -157s115.5 -249.667 115.5 -435c0 -182 -38.667 -324.833 -116 -428.5s-183.333 -155.5 -318 -155.5c-68 0 -127.5 14.5 -178.5 43.5
s-91.167 71.167 -120.5 126.5z" />
    <glyph glyph-name="q" unicode="q" 
d="M870 139c-30 -55.333 -70.5 -97.833 -121.5 -127.5s-110.167 -44.5 -177.5 -44.5c-134 0 -239.833 51.833 -317.5 155.5s-116.5 246.5 -116.5 428.5c0 185.333 38.667 330.333 116 435s183.333 157 318 157c66.667 0 125.5 -14.5 176.5 -43.5
s91.833 -71.167 122.5 -126.5v143h185v-1546h-185v569zM332 555c0 -142.667 22.5 -250.332 67.5 -322.999s111.833 -109 200.5 -109s155.834 36.5 201.501 109.5s68.5 180.5 68.5 322.5s-22.833 249.5 -68.5 322.5s-112.834 109.5 -201.501 109.5
s-155.5 -36.333 -200.5 -109s-67.5 -180.334 -67.5 -323.001z" />
    <glyph glyph-name="r" unicode="r" 
d="M1155 889c-39.333 30.667 -79.3311 53.001 -119.998 67.001s-85.334 21 -134.001 21c-114.667 0 -202.334 -36 -263.001 -108s-91 -176 -91 -312v-557h-185v1120h185v-219c30.667 79.333 77.834 140.166 141.501 182.499s139.167 63.5 226.5 63.5
c45.333 0 87.666 -5.66699 126.999 -17s77 -29 113 -53v-188z" />
    <glyph glyph-name="s" unicode="s" 
d="M973 1081l-0.000976562 -179.999c-52.667 30.667 -105.667 53.667 -159 69s-107.666 23 -162.999 23c-83.333 0 -145.5 -13.5 -186.5 -40.5s-61.5 -68.167 -61.5 -123.5c0 -50 15.333 -87.333 46 -112s107 -48.667 229 -72l74 -14c91.333 -17.333 160.5 -52 207.5 -104
s70.5 -119.667 70.5 -203c0 -110.667 -39.333 -197.167 -118 -259.5s-188 -93.5 -328 -93.5c-55.333 0 -113.333 5.83301 -174 17.5s-126.334 29.167 -197.001 52.5v190c68.667 -35.333 134.334 -61.833 197.001 -79.5s122 -26.5 178 -26.5c81.333 0 144.333 16.5 189 49.5
s67 79.167 67 138.5c0 85.333 -81.667 144.333 -245 177l-8 2l-69 14c-106 20.667 -183.333 55.5 -232 104.5s-73 115.833 -73 200.5c0 107.333 36.333 190.166 109 248.499s176.334 87.5 311.001 87.5c60 0 117.667 -5.5 173 -16.5s109.666 -27.5 162.999 -49.5z" />
    <glyph glyph-name="t" unicode="t" 
d="M614 1438v-317.998h418v-143h-418v-608c0 -82.667 15.667 -140.334 47 -173.001s86 -49 164 -49h207v-147h-225c-138 0 -235.333 27.667 -292 83s-85 150.666 -85 285.999v608h-299v143h299v318h184z" />
    <glyph glyph-name="u" unicode="u" 
d="M195 424l-0.00195312 694h184v-694c0 -100.667 17.833 -174.667 53.5 -222s90.834 -71 165.501 -71c86.667 0 153 30.5 199 91.5s69 148.5 69 262.5v633h185v-1118h-185v168c-32.667 -64.667 -77.167 -113.667 -133.5 -147s-122.166 -50 -197.499 -50
c-114.667 0 -200 37.5 -256 112.5s-84 188.5 -84 340.5z" />
    <glyph glyph-name="v" unicode="v" 
d="M100 1120h191l325 -940l326 940h191l-398 -1120h-237z" />
    <glyph glyph-name="w" unicode="w" 
d="M0 1120h182l195 -905l160 578h157l162 -578l195 905h182l-262 -1120h-176l-179 614l-178 -614h-176z" />
    <glyph glyph-name="x" unicode="x" 
d="M1118 1120l-401 -536l440 -584h-213l-328 449l-327 -449h-213l440 584l-401 536h204l297 -405l295 405h207z" />
    <glyph glyph-name="y" unicode="y" 
d="M858 360c-30.667 -78 -69.667 -180.667 -117 -308c-66 -176 -110.333 -283.333 -133 -322c-30.667 -52 -69 -91 -115 -117s-99.667 -39 -161 -39h-148v154h109c54 0 96.333 15.667 127 47s69.667 112.333 117 243l-433 1102h195l332 -876l327 876h195z" />
    <glyph glyph-name="z" unicode="z" 
d="M227 1122h813v-168l-643 -804h643v-150h-837v170l643 805h-619v147z" />
    <glyph glyph-name="braceleft" unicode="{" 
d="M1012 -190l-0.000976562 -144h-64c-166 0 -277.167 24.667 -333.5 74s-84.5 147.666 -84.5 294.999v239c0 100.667 -17.833 170.334 -53.5 209.001s-100.167 58 -193.5 58h-62v143h62c94 0 158.667 19 194 57s53 107 53 207v240c0 147.333 28.167 245.5 84.5 294.5
s167.5 73.5 333.5 73.5h64v-143h-70c-93.333 0 -154.166 -14.5 -182.499 -43.5s-42.5 -90.833 -42.5 -185.5v-248c0 -104.667 -15.167 -180.667 -45.5 -228s-82.166 -79.333 -155.499 -96c74 -18 126 -50.667 156 -98s45 -123 45 -227v-248
c0 -95.333 14.167 -157.333 42.5 -186s89.166 -43 182.499 -43h70z" />
    <glyph glyph-name="bar" unicode="|" 
d="M702 1565v-2048h-172v2048h172z" />
    <glyph glyph-name="braceright" unicode="}" 
d="M221 -190h67.999c94 0 155.333 14.667 184 44s43 91 43 185v248c0 104 15 179.667 45 227s82 80 156 98c-73.333 16.667 -125.166 48.667 -155.499 96s-45.5 123.333 -45.5 228v248c0 94 -14.333 155.667 -43 185s-90 44 -184 44h-68v143h62c166 0 277 -24.5 333 -73.5
s84 -147.167 84 -294.5v-240c0 -100 17.833 -169 53.5 -207s100.5 -57 194.5 -57h64v-143h-64c-94 0 -158.833 -19.333 -194.5 -58s-53.5 -108.334 -53.5 -209.001v-239c0 -147.333 -28 -245.666 -84 -294.999s-167 -74 -333 -74h-62v144z" />
    <glyph glyph-name="asciitilde" unicode="~" 
d="M1145 780l0.000976562 -174.001c-50 -39.333 -98.833 -68.166 -146.5 -86.499s-97.834 -27.5 -150.501 -27.5c-60 0 -127.667 17 -203 51c-14.667 6.66699 -25.667 11.334 -33 14.001c-51.333 22 -94.166 37 -128.499 45s-68.5 12 -102.5 12
c-52.667 0 -102.5 -9.83301 -149.5 -29.5s-94.833 -50.5 -143.5 -92.5v174c52 40 102.333 69 151 87s100.667 27 156 27c35.333 0 69.666 -3.66699 102.999 -11s74.666 -21.333 123.999 -42c8 -3.33301 19 -8.33301 33 -15c77.333 -36.667 147 -55 209 -55
c46.667 0 92.834 10.167 138.501 30.5s93.167 51.166 142.5 92.499z" />
    <glyph glyph-name="uni00A0" unicode="&#xa0;" 
 />
    <glyph glyph-name="exclamdown" unicode="&#xa1;" 
d="M516 0v655l21 357h161l21 -357v-655h-203zM516 1239v254h203v-254h-203z" />
    <glyph glyph-name="cent" unicode="&#xa2;" 
d="M698 127v864.001c-88 -8 -158.667 -51.333 -212 -130s-80 -179.334 -80 -302.001s26.667 -223.167 80 -301.5s124 -121.833 212 -130.5zM1061 1077v-172.003c-44.667 26.667 -88.667 47.334 -132 62.001s-86 23.334 -128 26.001v-870c42 3.33301 84.833 12.5 128.5 27.5
s87.5 35.833 131.5 62.5v-172c-48.667 -20.667 -94.667 -36.667 -138 -48s-84 -18 -122 -20v-286h-103v286c-150 14.667 -268.333 74.167 -355 178.5s-130 240.166 -130 407.499c0 166.667 43.833 302.834 131.5 408.501s205.5 164.834 353.5 177.501v287h103v-287
c38 -2 78.667 -8.66699 122 -20s89.333 -27.333 138 -48z" />
    <glyph glyph-name="sterling" unicode="&#xa3;" 
d="M1092 1462l-0.00292969 -183.999c-41.333 29.333 -83.166 51.333 -125.499 66s-85.833 22 -130.5 22c-89.333 0 -155.166 -29.833 -197.499 -89.5s-63.5 -153.5 -63.5 -281.5v-217h371v-143h-371v-465h537v-170h-973v170h236v465h-199v143h199v238
c0 169.333 36.5 295.666 109.5 378.999s183.833 125 332.5 125c43.333 0 87.833 -4.83301 133.5 -14.5s92.834 -24.167 141.501 -43.5z" />
    <glyph glyph-name="currency" unicode="&#xa4;" horiz-adv-x="506" 
d="M253 222c38 0 67.333 13.5 88 40.5s31 61.167 31 102.5c0 20 -2.66699 38.833 -8 56.5s-13 33 -23 46s-22.5 23.167 -37.5 30.5s-31.833 11 -50.5 11c-19.333 0 -36.333 -3.66699 -51 -11s-27.167 -17.5 -37.5 -30.5s-18.166 -28.333 -23.499 -46s-8 -36.5 -8 -56.5
c0 -20.667 2.66699 -39.667 8 -57s13.166 -32.333 23.499 -45s22.833 -22.667 37.5 -30s31.667 -11 51 -11zM19 168l69 70.999c-25.333 36.667 -38 78.667 -38 126s12.667 88.666 38 123.999l-69 71l45 43l67 -69c16 12 34.167 21.667 54.5 29s42.833 11 67.5 11
c24 0 46.333 -3.66699 67 -11s39 -17 55 -29l67 69l45 -43l-69 -71c24.667 -36 37 -77.333 37 -124c0 -23.333 -3.33301 -45.666 -10 -66.999s-16 -40.666 -28 -57.999l70 -72l-45 -43l-68 69c-32.667 -24.667 -73 -37 -121 -37s-88.333 12.333 -121 37l-68 -69z" />
    <glyph glyph-name="yen" unicode="&#xa5;" 
d="M37 1493h215l364 -659l363 659h217l-330 -561h252v-111h-315l-86 -151v-35h401v-111h-401v-524h-203v524h-399v111h399v35l-90 151h-309v111h243z" />
    <glyph glyph-name="brokenbar" unicode="&#xa6;" 
d="M702 408v-758h-172v758h172zM702 1432v-758h-172v758h172z" />
    <glyph glyph-name="section" unicode="&#xa7;" 
d="M485 936c-41.333 -30 -72.166 -60 -92.499 -90s-30.5 -60.667 -30.5 -92c0 -50.667 23.5 -98.5 70.5 -143.5s152.833 -111.833 317.5 -200.5c41.333 30 72 60 92 90s30 60.667 30 92c0 50.667 -23.833 98.667 -71.5 144s-152.834 112 -315.501 200zM936 1462
l0.00488281 -164.003c-55.333 26 -106.833 45.5 -154.5 58.5s-90.5 19.5 -128.5 19.5c-64.667 0 -114.834 -13.333 -150.501 -40s-53.5 -63.667 -53.5 -111c0 -60 68.333 -128.333 205 -205c17.333 -10 30.666 -17.667 39.999 -23
c141.333 -79.333 233.666 -144.666 276.999 -195.999s65 -110.666 65 -177.999c0 -60 -15.167 -113.333 -45.5 -160s-76.5 -87.667 -138.5 -123c40.667 -34.667 70.667 -70.167 90 -106.5s29 -75.833 29 -118.5c0 -94.667 -34 -170 -102 -226s-159.667 -84 -275 -84
c-48.667 0 -98.834 4.83301 -150.501 14.5s-106.5 24.167 -164.5 43.5v164c58 -26 111.667 -45.5 161 -58.5s93 -19.5 131 -19.5c68 0 120.833 14 158.5 42s56.5 67.333 56.5 118c0 68 -73.667 143 -221 225l-24 14c-142.667 80 -235.334 145.5 -278.001 196.5
s-64 110.5 -64 178.5c0 60.667 15.5 114.834 46.5 162.501s76.833 87.834 137.5 120.501c-40 29.333 -69.833 62.666 -89.5 99.999s-29.5 79 -29.5 125c0 86.667 33.333 156.5 100 209.5s155.667 79.5 267 79.5c48 0 97.5 -4.83301 148.5 -14.5s103.167 -24.167 156.5 -43.5
z" />
    <glyph glyph-name="dieresis" unicode="&#xa8;" 
d="M711 1552h202v-202h-202v202zM319 1552h203v-202h-203v202z" />
    <glyph glyph-name="copyright" unicode="&#xa9;" 
d="M616 1358c84.667 0 163.335 -15 236.002 -45s139 -75 199 -135c60 -60.667 105.333 -127.667 136 -201s46 -152 46 -236c0 -83.333 -15.167 -161.333 -45.5 -234s-75.833 -139.334 -136.5 -200.001s-127.334 -106.167 -200.001 -136.5s-151 -45.5 -235 -45.5
c-83.333 0 -161.333 15.167 -234 45.5s-139.334 75.833 -200.001 136.5s-106.167 127.334 -136.5 200.001s-45.5 150.667 -45.5 234c-0 84 15.333 162.667 46 236s76 140.333 136 201c60 60 126.333 105 199 135s151 45 235 45zM616.001 1255
c-70.667 0 -136.168 -12.333 -196.501 -37s-115.5 -62 -165.5 -112s-87.833 -105.667 -113.5 -167s-38.5 -127.333 -38.5 -198c0 -69.333 12.833 -134.5 38.5 -195.5s63.5 -116.5 113.5 -166.5c50.667 -50.667 106.167 -88.667 166.5 -114s125.5 -38 195.5 -38
c70.667 0 136.167 12.667 196.5 38s115.833 63.333 166.5 114s88.5 106.167 113.5 166.5s37.5 125.5 37.5 195.5c0 70.667 -12.667 136.667 -38 198s-63 117 -113 167s-105.167 87.333 -165.5 112s-126.166 37 -197.499 37zM864 1071l0.00195312 -108.001
c-38.667 18.667 -76.5 32.5 -113.5 41.5s-74.833 13.5 -113.5 13.5c-78 0 -139.5 -24.833 -184.5 -74.5s-67.5 -117.167 -67.5 -202.5c0 -88 23.333 -155.667 70 -203s113.334 -71 200.001 -71c37.333 0 73.166 4.16699 107.499 12.5s68.166 21.166 101.499 38.499v-104
c-34.667 -15.333 -71 -26.666 -109 -33.999s-77.333 -11 -118 -11c-120 0 -214.5 33.333 -283.5 100s-103.5 157.334 -103.5 272.001c0 115.333 34.667 206.666 104 273.999s163.666 101 282.999 101c40.667 0 80 -3.66699 118 -11s74.333 -18.666 109 -33.999z" />
    <glyph glyph-name="ordfeminine" unicode="&#xaa;" 
d="M293 592h668v-123h-668v123zM954 1165l0.00292969 -447.999h-143v112c-32.667 -43.333 -70.834 -76 -114.501 -98s-92.834 -33 -147.501 -33c-86 0 -154 22.667 -204 68s-75 106.666 -75 183.999c0 86 31.167 152.333 93.5 199s150.833 70 265.5 70h182v4
c0 60 -19.833 105.333 -59.5 136s-98.5 46 -176.5 46c-34 0 -71.833 -5.83301 -113.5 -17.5s-84.834 -28.5 -129.501 -50.5v127c45.333 18.667 90.5 32.667 135.5 42s88.5 14 130.5 14c122.667 0 212.667 -28.667 270 -86s86 -147 86 -269zM684.003 1104
c-96 0 -164.667 -11.333 -206 -34s-62 -60 -62 -112c0 -42.667 14.5 -76.834 43.5 -102.501s67.5 -38.5 115.5 -38.5c70 0 126.833 23.833 170.5 71.5s65.5 109.834 65.5 186.501v29h-127z" />
    <glyph glyph-name="guillemotleft" unicode="&#xab;" 
d="M1042 1059v-191l-301 -268l301 -268v-191l-469 418v82zM588 1059v-191l-301 -268l301 -268v-191l-469 418v82z" />
    <glyph glyph-name="logicalnot" unicode="&#xac;" 
d="M88 862h1057v-491h-168v319h-889v172z" />
    <glyph glyph-name="uni00AD" unicode="&#xad;" 
d="M356 643h521v-164h-521v164z" />
    <glyph glyph-name="registered" unicode="&#xae;" 
d="M616 1255c-70.667 0 -136.168 -12.333 -196.501 -37s-115.5 -62 -165.5 -112s-87.833 -105.667 -113.5 -167s-38.5 -127.333 -38.5 -198c0 -69.333 12.833 -134.5 38.5 -195.5s63.5 -116.5 113.5 -166.5c50.667 -50.667 106.167 -88.667 166.5 -114s125.5 -38 195.5 -38
c70.667 0 136.167 12.667 196.5 38s115.833 63.333 166.5 114s88.5 106.167 113.5 166.5s37.5 125.5 37.5 195.5c0 70.667 -12.667 136.667 -38 198s-63 117 -113 167s-105.167 87.333 -165.5 112s-126.166 37 -197.499 37zM615.999 1358c84.667 0 163.335 -15 236.002 -45
s139 -75 199 -135c60 -60.667 105.333 -127.667 136 -201s46 -152 46 -236c0 -83.333 -15.167 -161.333 -45.5 -234s-75.833 -139.334 -136.5 -200.001s-127.334 -106.167 -200.001 -136.5s-151 -45.5 -235 -45.5c-83.333 0 -161.333 15.167 -234 45.5
s-139.334 75.833 -200.001 136.5s-106.167 127.334 -136.5 200.001s-45.5 150.667 -45.5 234c0 84 15.333 162.667 46 236s76 140.333 136 201c60 60 126.333 105 199 135s151 45 235 45zM594 1016h-102v-232h102c60 0 102.333 9 127 27s37 48 37 90
c0 41.333 -12.333 70.833 -37 88.5s-67 26.5 -127 26.5zM600 1100c98 0 171 -16.335 219 -49.002s72 -82.667 72 -150c0 -47.333 -14.667 -86.5 -44 -117.5s-70.666 -51.167 -123.999 -60.5c12.667 -3.33301 28.667 -16.166 48 -38.499s41.666 -53.166 66.999 -92.499
l114 -186h-143l-107 174c-32.667 53.333 -59.167 87 -79.5 101s-45.5 21 -75.5 21h-55v-296h-130v694h238z" />
    <glyph glyph-name="macron" unicode="&#xaf;" 
d="M317 1526h598v-148h-598v148z" />
    <glyph glyph-name="degree" unicode="&#xb0;" 
d="M616 1391c-52.667 0 -97.5 -18.5 -134.5 -55.5s-55.5 -82.167 -55.5 -135.5s18.167 -98 54.5 -134s80.833 -54 133.5 -54c53.333 0 98.833 18.333 136.5 55s56.5 81 56.5 133c0 52.667 -18.667 97.667 -56 135s-82.333 56 -135 56zM616 1520
c43.333 0 84.5 -8.16699 123.5 -24.5s73.167 -39.833 102.5 -70.5c30 -30 52.833 -64 68.5 -102s23.5 -79 23.5 -123c0 -88 -31 -162.5 -93 -223.5s-137.667 -91.5 -227 -91.5c-90 0 -165 30 -225 90s-90 135 -90 225c0 89.333 30.667 165 92 227s136.333 93 225 93z" />
    <glyph glyph-name="plusminus" unicode="&#xb1;" 
d="M700 1171v-329h445v-170h-445v-332h-168v332h-444v170h444v329h168zM88 170h1057v-170h-1057v170z" />
    <glyph glyph-name="uni00B2" unicode="&#xb2;" 
d="M483 782l410.003 -0.00195312v-114h-571v110l231 226c67.333 64.667 114.5 117.334 141.5 158.001s40.5 78 40.5 112c0 40.667 -16.667 73.667 -50 99s-77.333 38 -132 38c-32.667 0 -67.834 -6 -105.501 -18s-77.5 -30 -119.5 -54v125
c43.333 18.667 85.166 32.667 125.499 42s80.166 14 119.499 14c94.667 0 170.667 -22.167 228 -66.5s86 -102.166 86 -173.499c0 -38 -12.333 -76.833 -37 -116.5s-76.667 -98.5 -156 -176.5z" />
    <glyph glyph-name="uni00B3" unicode="&#xb3;" 
d="M731 1120c62.667 -14 110.5 -38.998 143.5 -74.998s49.5 -80.667 49.5 -134c0 -82.667 -31.667 -146.334 -95 -191.001s-154 -67 -272 -67c-38.667 0 -77 3.5 -115 10.5s-76.667 17.167 -116 30.5v121c46 -18 87.833 -31.333 125.5 -40s71.5 -13 101.5 -13
c67.333 0 120.666 13.5 159.999 40.5s59 63.167 59 108.5c0 49.333 -18.333 86.666 -55 111.999s-91.334 38 -164.001 38h-66v108h74c62 0 109.333 10.5 142 31.5s49 51.5 49 91.5c0 37.333 -16 66.5 -48 87.5s-77 31.5 -135 31.5c-29.333 0 -62.666 -4 -99.999 -12
s-75.666 -19.667 -114.999 -35v121c46 11.333 88.5 20 127.5 26s75.167 9 108.5 9c96.667 0 173 -19.667 229 -59s84 -92 84 -158c0 -47.333 -14.667 -86.5 -44 -117.5s-72 -52.833 -128 -65.5z" />
    <glyph glyph-name="acute" unicode="&#xb4;" 
d="M756 1638h198l-325 -376h-154z" />
    <glyph glyph-name="mu" unicode="&#xb5;" 
d="M195 -428l-0.00292969 1548h184v-696c0 -94.667 20 -167.167 60 -217.5s97 -75.5 171 -75.5c84.667 0 148.5 28.333 191.5 85s64.5 140.334 64.5 251.001v653h185v-864c0 -39.333 5.33301 -68.333 16 -87s27 -28 49 -28c6 0 13.833 1.66699 23.5 5
s23.834 9.33301 42.501 18v-148c-25.333 -15.333 -49.333 -26.666 -72 -33.999s-45.334 -11 -68.001 -11c-41.333 0 -74.5 13.167 -99.5 39.5s-41.5 65.833 -49.5 118.5c-30.667 -53.333 -68.167 -93 -112.5 -119s-96.166 -39 -155.499 -39
c-61.333 0 -113.166 12.667 -155.499 38s-78.166 64.666 -107.499 117.999v-555h-167z" />
    <glyph glyph-name="paragraph" unicode="&#xb6;" 
d="M582 1493l448 -0.000976562v-1690h-141v1567h-191v-1567h-141v846c-143.333 11.333 -254.333 53.833 -333 127.5s-118 171.834 -118 294.501c0 126.667 43.5 228.667 130.5 306s202.167 116 345.5 116z" />
    <glyph glyph-name="periodcentered" unicode="&#xb7;" 
d="M489 864h252v-305h-252v305z" />
    <glyph glyph-name="cedilla" unicode="&#xb8;" 
d="M700 0c37.333 -41.333 64.833 -79.501 82.5 -114.501s26.5 -68.5 26.5 -100.5c0 -59.333 -20 -104.166 -60 -134.499s-99.333 -45.5 -178 -45.5c-30 0 -59.5 2 -88.5 6s-58.167 10 -87.5 18v131c22.667 -11.333 46.5 -19.5 71.5 -24.5s53.167 -7.5 84.5 -7.5
c38.667 0 68.167 8 88.5 24s30.5 39.333 30.5 70c0 20 -7.33301 44.5 -22 73.5s-36.667 63.833 -66 104.5h118z" />
    <glyph glyph-name="uni00B9" unicode="&#xb9;" 
d="M362 778h205v611l-223 -41v116l229 39h138v-725h204v-110h-553v110z" />
    <glyph glyph-name="ordmasculine" unicode="&#xba;" 
d="M276 592h676v-123h-676v123zM616 1520c113.333 0 203.831 -37.333 271.498 -112s101.5 -174.667 101.5 -300c0 -124.667 -33.667 -224.167 -101 -298.5s-158 -111.5 -272 -111.5c-113.333 0 -203.666 37.167 -270.999 111.5s-101 173.833 -101 298.5
c0 125.333 33.833 225.333 101.5 300s157.834 112 270.501 112zM615.998 1403c-68 0 -121.167 -26 -159.5 -78s-57.5 -124.333 -57.5 -217s19.167 -164.667 57.5 -216s91.5 -77 159.5 -77c67.333 0 120.5 26.167 159.5 78.5s58.5 123.833 58.5 214.5
c0 92.667 -19.167 165 -57.5 217s-91.833 78 -160.5 78z" />
    <glyph glyph-name="guillemotright" unicode="&#xbb;" 
d="M193 1059l469 -418v-82l-469 -418v191l301 268l-301 268v191zM647 1059l469 -418v-82l-469 -418v191l301 268l-301 268v191z" />
    <glyph glyph-name="onequarter" unicode="&#xbc;" 
d="M105 934h205v611l-223 -41v116l229 39h138v-725h204v-110h-553v110zM51 504l-24 108l1060 262l27 -108zM839 441l-274 -413h274v413zM815 566h162v-538h116v-111h-116v-186h-138v186h-387v121z" />
    <glyph glyph-name="onehalf" unicode="&#xbd;" 
d="M105 934h205v611l-223 -41v116l229 39h138v-725h204v-110h-553v110zM51 504l-24 108l1060 262l27 -108zM684 -155l410.003 -0.00195312v-114h-571v110l231 226c67.333 64.667 114.5 117.334 141.5 158.001s40.5 78 40.5 112c0 40.667 -16.667 73.667 -50 99
s-77.333 38 -132 38c-32.667 0 -67.834 -6 -105.501 -18s-77.5 -30 -119.5 -54v125c43.333 18.667 85.166 32.667 125.499 42s80.166 14 119.499 14c94.667 0 170.667 -22.167 228 -66.5s86 -102.166 86 -173.499c0 -38 -12.333 -76.833 -37 -116.5
s-76.667 -98.5 -156 -176.5z" />
    <glyph glyph-name="threequarters" unicode="&#xbe;" 
d="M505 1276c62.667 -14 110.5 -38.998 143.5 -74.998s49.5 -80.667 49.5 -134c0 -82.667 -31.667 -146.334 -95 -191.001s-154 -67 -272 -67c-38.667 0 -77 3.5 -115 10.5s-76.667 17.167 -116 30.5v121c46 -18 87.833 -31.333 125.5 -40s71.5 -13 101.5 -13
c67.333 0 120.666 13.5 159.999 40.5s59 63.167 59 108.5c0 49.333 -18.333 86.666 -55 111.999s-91.334 38 -164.001 38h-66v108h74c62 0 109.333 10.5 142 31.5s49 51.5 49 91.5c0 37.333 -16 66.5 -48 87.5s-77 31.5 -135 31.5c-29.333 0 -62.666 -4 -99.999 -12
s-75.666 -19.667 -114.999 -35v121c46 11.333 88.5 20 127.5 26s75.167 9 108.5 9c96.667 0 173 -19.667 229 -59s84 -92 84 -158c0 -47.333 -14.667 -86.5 -44 -117.5s-72 -52.833 -128 -65.5zM51 504.002l-24 108l1060 262l27 -108zM839 441.002l-274 -413h274v413z
M815 566.002h162v-538h116v-111h-116v-186h-138v186h-387v121z" />
    <glyph glyph-name="questiondown" unicode="&#xbf;" 
d="M745 1239h-202v254h202v-254zM549 1092l190 -0.000976562v-154c0 -65.333 -10.167 -120.833 -30.5 -166.5s-58.5 -95.834 -114.5 -150.501l-90 -89c-41.333 -39.333 -69.833 -73.666 -85.5 -102.999s-23.5 -60.333 -23.5 -93c0 -59.333 21.833 -107.333 65.5 -144
s101.834 -55 174.501 -55c52 0 107.667 11.5 167 34.5s121.666 57.167 186.999 102.5v-188c-62.667 -38 -125.834 -66.333 -189.501 -85s-130.167 -28 -199.5 -28c-124 0 -222.833 32 -296.5 96s-110.5 149.667 -110.5 257c0 50.667 11.167 97.834 33.5 141.501
s64.833 96.167 127.5 157.5l88 86c44.667 42.667 73.334 78 86.001 106s19 63 19 105v5c1.33301 15.333 2 29.333 2 42v123z" />
    <glyph glyph-name="Agrave" unicode="&#xc0;" 
d="M494 1493h245l457 -1493h-209l-110 389h-523l-108 -389h-209zM616 1315l-213 -764h426zM477 2011l281 -376h-154l-325 376h198z" />
    <glyph glyph-name="Aacute" unicode="&#xc1;" 
d="M494 1493h245l457 -1493h-209l-110 389h-523l-108 -389h-209zM616 1315l-213 -764h426zM756 2011h198l-325 -376h-154z" />
    <glyph glyph-name="Acircumflex" unicode="&#xc2;" 
d="M494 1493h245l457 -1493h-209l-110 389h-523l-108 -389h-209zM616 1315l-213 -764h426zM543 2011h147l246 -376h-139l-181 245l-180 -245h-139z" />
    <glyph glyph-name="Atilde" unicode="&#xc3;" 
d="M494 1493h245l457 -1493h-209l-110 389h-523l-108 -389h-209zM616 1315l-213 -764h426zM612 1743l-57 55c-14 13.333 -26.5 23.166 -37.5 29.499s-21.167 9.5 -30.5 9.5c-25.333 0 -44 -12.333 -56 -37s-18.667 -64 -20 -118h-124c0.666992 89.333 18 158.666 52 207.999
s81.333 74 142 74c26 0 49.667 -4.66699 71 -14s44.333 -25 69 -47l57 -55c14 -13.333 26.5 -23.166 37.5 -29.499s20.833 -9.5 29.5 -9.5c26 0 45 12.333 57 37s18.333 64 19 118h125c-0.666992 -89.333 -18 -158.666 -52 -207.999s-81.333 -74 -142 -74
c-26 0 -49.667 4.66699 -71 14s-44.333 25 -69 47z" />
    <glyph glyph-name="Adieresis" unicode="&#xc4;" 
d="M494 1493h245l457 -1493h-209l-110 389h-523l-108 -389h-209zM616 1315l-213 -764h426zM711 1925h202v-202h-202v202zM319 1925h203v-202h-203v202z" />
    <glyph glyph-name="Aring" unicode="&#xc5;" 
d="M494 1493h245l457 -1493h-209l-110 389h-523l-108 -389h-209zM616 1315l-213 -764h426zM768 1897c0 42 -14.667 77.667 -44 107s-65.333 44 -108 44s-78.5 -14.5 -107.5 -43.5s-43.5 -64.833 -43.5 -107.5c0 -43.333 14.5 -79.5 43.5 -108.5s64.833 -43.5 107.5 -43.5
s78.667 14.667 108 44s44 65.333 44 108zM891 1897c0 -76.667 -26.5 -141.667 -79.5 -195s-118.167 -80 -195.5 -80c-76.667 0 -141.5 26.667 -194.5 80s-79.5 118.333 -79.5 195s26.5 141.5 79.5 194.5s117.833 79.5 194.5 79.5c77.333 0 142.5 -26.5 195.5 -79.5
s79.5 -117.833 79.5 -194.5z" />
    <glyph glyph-name="AE" unicode="&#xc6;" 
d="M530 1323l-202 -772h309v772h-107zM1161 1493v-170h-338v-442h307v-170h-307v-541h357v-170h-543v383h-352l-101 -383h-184l410 1493h751z" />
    <glyph glyph-name="Ccedilla" unicode="&#xc7;" 
d="M1073 53c-51.333 -27.333 -104 -47.832 -158 -61.499s-111.333 -20.5 -172 -20.5c-191.333 0 -339.833 67.667 -445.5 203s-158.5 325.666 -158.5 570.999c0 244 53.167 434.167 159.5 570.5s254.5 204.5 444.5 204.5c60.667 0 118 -6.83301 172 -20.5
s106.667 -34.167 158 -61.5v-207c-49.333 40.667 -102.333 71.667 -159 93s-113.667 32 -171 32c-131.333 0 -229.666 -50.667 -294.999 -152s-98 -254.333 -98 -459c0 -204 32.667 -356.667 98 -458s163.666 -152 294.999 -152c58.667 0 116.167 10.667 172.5 32
s108.833 52.333 157.5 93v-207zM800 0.000976562c37.333 -41.333 64.833 -79.501 82.5 -114.501s26.5 -68.5 26.5 -100.5c0 -59.333 -20 -104.166 -60 -134.499s-99.333 -45.5 -178 -45.5c-30 0 -59.5 2 -88.5 6s-58.167 10 -87.5 18v131
c22.667 -11.333 46.5 -19.5 71.5 -24.5s53.167 -7.5 84.5 -7.5c38.667 0 68.167 8 88.5 24s30.5 39.333 30.5 70c0 20 -7.33301 44.5 -22 73.5s-36.667 63.833 -66 104.5h118z" />
    <glyph glyph-name="Egrave" unicode="&#xc8;" 
d="M197 1493h886v-170h-684v-442h654v-170h-654v-541h703v-170h-905v1493zM495 2011l281 -376h-154l-325 376h198z" />
    <glyph glyph-name="Eacute" unicode="&#xc9;" 
d="M197 1493h886v-170h-684v-442h654v-170h-654v-541h703v-170h-905v1493zM774 2011h198l-325 -376h-154z" />
    <glyph glyph-name="Ecircumflex" unicode="&#xca;" 
d="M197 1493h886v-170h-684v-442h654v-170h-654v-541h703v-170h-905v1493zM561 2011h147l246 -376h-139l-181 245l-180 -245h-139z" />
    <glyph glyph-name="Edieresis" unicode="&#xcb;" 
d="M197 1493h886v-170h-684v-442h654v-170h-654v-541h703v-170h-905v1493zM729 1925h202v-202h-202v202zM337 1925h203v-202h-203v202z" />
    <glyph glyph-name="Igrave" unicode="&#xcc;" 
d="M201 1493h829v-170h-313v-1153h313v-170h-829v170h313v1153h-313v170zM477 2011l281 -376h-154l-325 376h198z" />
    <glyph glyph-name="Iacute" unicode="&#xcd;" 
d="M201 1493h829v-170h-313v-1153h313v-170h-829v170h313v1153h-313v170zM756 2011h198l-325 -376h-154z" />
    <glyph glyph-name="Icircumflex" unicode="&#xce;" 
d="M201 1493h829v-170h-313v-1153h313v-170h-829v170h313v1153h-313v170zM543 2011h147l246 -376h-139l-181 245l-180 -245h-139z" />
    <glyph glyph-name="Idieresis" unicode="&#xcf;" 
d="M201 1493h829v-170h-313v-1153h313v-170h-829v170h313v1153h-313v170zM711 1925h202v-202h-202v202zM319 1925h203v-202h-203v202z" />
    <glyph glyph-name="Eth" unicode="&#xd0;" 
d="M436 166c170 0 288.667 41.8311 356 125.498s101 234.834 101 453.501c0 220.667 -33.5 372.834 -100.5 456.501s-185.833 125.5 -356.5 125.5h-96v-469h264v-149h-264v-543h96zM436 1493c228 0 395.999 -60.667 503.999 -182s162 -310 162 -566
c0 -254.667 -54.167 -442.5 -162.5 -563.5s-276.166 -181.5 -503.499 -181.5h-303v709h-125v149h125v635h303z" />
    <glyph glyph-name="Ntilde" unicode="&#xd1;" 
d="M139 1493h256l504 -1229v1229h195v-1493h-256l-504 1229v-1229h-195v1493zM595 1743l-57 55c-14 13.333 -26.5 23.166 -37.5 29.499s-21.167 9.5 -30.5 9.5c-25.333 0 -44 -12.333 -56 -37s-18.667 -64 -20 -118h-124c0.666992 89.333 18 158.666 52 207.999
s81.333 74 142 74c26 0 49.667 -4.66699 71 -14s44.333 -25 69 -47l57 -55c14 -13.333 26.5 -23.166 37.5 -29.499s20.833 -9.5 29.5 -9.5c26 0 45 12.333 57 37s18.333 64 19 118h125c-0.666992 -89.333 -18 -158.666 -52 -207.999s-81.333 -74 -142 -74
c-26 0 -49.667 4.66699 -71 14s-44.333 25 -69 47z" />
    <glyph glyph-name="Ograve" unicode="&#xd2;" 
d="M1116 745c0 -260 -41.167 -453.999 -123.5 -581.999s-207.833 -192 -376.5 -192s-294 63.667 -376 191s-123 321.666 -123 582.999c0 260.667 41.167 455 123.5 583s207.5 192 375.5 192c168.667 0 294.167 -64 376.5 -192s123.5 -322.333 123.5 -583zM905 745.001
c0 219.333 -22.5 376 -67.5 470s-118.833 141 -221.5 141c-102 0 -175.5 -47 -220.5 -141s-67.5 -250.667 -67.5 -470c0 -218.667 22.5 -375 67.5 -469s118.5 -141 220.5 -141c102.667 0 176.5 46.833 221.5 140.5s67.5 250.167 67.5 469.5zM477 2011l281 -376h-154
l-325 376h198z" />
    <glyph glyph-name="Oacute" unicode="&#xd3;" 
d="M1116 745c0 -260 -41.167 -453.999 -123.5 -581.999s-207.833 -192 -376.5 -192s-294 63.667 -376 191s-123 321.666 -123 582.999c0 260.667 41.167 455 123.5 583s207.5 192 375.5 192c168.667 0 294.167 -64 376.5 -192s123.5 -322.333 123.5 -583zM905 745.001
c0 219.333 -22.5 376 -67.5 470s-118.833 141 -221.5 141c-102 0 -175.5 -47 -220.5 -141s-67.5 -250.667 -67.5 -470c0 -218.667 22.5 -375 67.5 -469s118.5 -141 220.5 -141c102.667 0 176.5 46.833 221.5 140.5s67.5 250.167 67.5 469.5zM756 2011h198l-325 -376h-154z
" />
    <glyph glyph-name="Ocircumflex" unicode="&#xd4;" 
d="M1116 745c0 -260 -41.167 -453.999 -123.5 -581.999s-207.833 -192 -376.5 -192s-294 63.667 -376 191s-123 321.666 -123 582.999c0 260.667 41.167 455 123.5 583s207.5 192 375.5 192c168.667 0 294.167 -64 376.5 -192s123.5 -322.333 123.5 -583zM905 745.001
c0 219.333 -22.5 376 -67.5 470s-118.833 141 -221.5 141c-102 0 -175.5 -47 -220.5 -141s-67.5 -250.667 -67.5 -470c0 -218.667 22.5 -375 67.5 -469s118.5 -141 220.5 -141c102.667 0 176.5 46.833 221.5 140.5s67.5 250.167 67.5 469.5zM543 2011h147l246 -376h-139
l-181 245l-180 -245h-139z" />
    <glyph glyph-name="Otilde" unicode="&#xd5;" 
d="M1116 745c0 -260 -41.167 -453.999 -123.5 -581.999s-207.833 -192 -376.5 -192s-294 63.667 -376 191s-123 321.666 -123 582.999c0 260.667 41.167 455 123.5 583s207.5 192 375.5 192c168.667 0 294.167 -64 376.5 -192s123.5 -322.333 123.5 -583zM905 745.001
c0 219.333 -22.5 376 -67.5 470s-118.833 141 -221.5 141c-102 0 -175.5 -47 -220.5 -141s-67.5 -250.667 -67.5 -470c0 -218.667 22.5 -375 67.5 -469s118.5 -141 220.5 -141c102.667 0 176.5 46.833 221.5 140.5s67.5 250.167 67.5 469.5zM612 1743l-57 55
c-14 13.333 -26.5 23.166 -37.5 29.499s-21.167 9.5 -30.5 9.5c-25.333 0 -44 -12.333 -56 -37s-18.667 -64 -20 -118h-124c0.666992 89.333 18 158.666 52 207.999s81.333 74 142 74c26 0 49.667 -4.66699 71 -14s44.333 -25 69 -47l57 -55
c14 -13.333 26.5 -23.166 37.5 -29.499s20.833 -9.5 29.5 -9.5c26 0 45 12.333 57 37s18.333 64 19 118h125c-0.666992 -89.333 -18 -158.666 -52 -207.999s-81.333 -74 -142 -74c-26 0 -49.667 4.66699 -71 14s-44.333 25 -69 47z" />
    <glyph glyph-name="Odieresis" unicode="&#xd6;" 
d="M1116 745c0 -260 -41.167 -453.999 -123.5 -581.999s-207.833 -192 -376.5 -192s-294 63.667 -376 191s-123 321.666 -123 582.999c0 260.667 41.167 455 123.5 583s207.5 192 375.5 192c168.667 0 294.167 -64 376.5 -192s123.5 -322.333 123.5 -583zM905 745.001
c0 219.333 -22.5 376 -67.5 470s-118.833 141 -221.5 141c-102 0 -175.5 -47 -220.5 -141s-67.5 -250.667 -67.5 -470c0 -218.667 22.5 -375 67.5 -469s118.5 -141 220.5 -141c102.667 0 176.5 46.833 221.5 140.5s67.5 250.167 67.5 469.5zM711 1925h202v-202h-202v202z
M319 1925h203v-202h-203v202z" />
    <glyph glyph-name="multiply" unicode="&#xd7;" 
d="M150 293l350 348l-350 350l116 117l350 -350l351 350l116 -117l-350 -350l348 -348l-116 -119l-349 350l-348 -350z" />
    <glyph glyph-name="Oslash" unicode="&#xd8;" 
d="M1032 1247c27.333 -54 48.165 -124 62.498 -210s21.5 -183.333 21.5 -292c0 -260 -41.167 -454 -123.5 -582s-207.833 -192 -376.5 -192c-80.667 0 -151 13.5 -211 40.5s-110.333 67.5 -151 121.5l-143 -203l-103 70l178 252c-21.333 48.667 -38.166 116.667 -50.499 204
s-18.5 183.666 -18.5 288.999c0 260.667 41.167 455 123.5 583s207.5 192 375.5 192c76.667 0 143.834 -13.667 201.501 -41s105.5 -67.666 143.5 -120.999l139 201l100 -74zM337.999 471l504 719.001c-16.667 54 -44.167 95.167 -82.5 123.5s-86.166 42.5 -143.499 42.5
c-104.667 0 -178.834 -48.667 -222.501 -146s-65.5 -272 -65.5 -524c0 -53.333 0.833008 -96.833 2.5 -130.5s4.16699 -61.834 7.5 -84.501zM370.999 303.001c20 -52 51.833 -92.999 95.5 -122.999s93.5 -45 149.5 -45c102.667 0 176.5 46.833 221.5 140.5
s67.5 250.167 67.5 469.5c0 73.333 -1.66699 132.666 -5 177.999s-8.33301 83 -15 113z" />
    <glyph glyph-name="Ugrave" unicode="&#xd9;" 
d="M147 573l0.00390625 919.998h203v-1012c0 -72.667 2 -124.5 6 -155.5s11 -54.833 21 -71.5c21.333 -39.333 52.166 -69 92.499 -89s89.166 -30 146.499 -30c58 0 107 10 147 30s71 49.667 93 89c10 16.667 17 40.334 21 71.001s6 82 6 154v94v920h202v-920
c0 -152.667 -9.5 -261.167 -28.5 -325.5s-51.833 -117.5 -98.5 -159.5c-44 -39.333 -94.333 -68.666 -151 -87.999s-120.334 -29 -191.001 -29c-70 0 -133.333 9.66699 -190 29s-107.334 48.666 -152.001 87.999c-46 41.333 -78.667 94.833 -98 160.5
s-29 173.834 -29 324.501zM477.004 2011l281 -376h-154l-325 376h198z" />
    <glyph glyph-name="Uacute" unicode="&#xda;" 
d="M147 573l0.00390625 919.998h203v-1012c0 -72.667 2 -124.5 6 -155.5s11 -54.833 21 -71.5c21.333 -39.333 52.166 -69 92.499 -89s89.166 -30 146.499 -30c58 0 107 10 147 30s71 49.667 93 89c10 16.667 17 40.334 21 71.001s6 82 6 154v94v920h202v-920
c0 -152.667 -9.5 -261.167 -28.5 -325.5s-51.833 -117.5 -98.5 -159.5c-44 -39.333 -94.333 -68.666 -151 -87.999s-120.334 -29 -191.001 -29c-70 0 -133.333 9.66699 -190 29s-107.334 48.666 -152.001 87.999c-46 41.333 -78.667 94.833 -98 160.5
s-29 173.834 -29 324.501zM756.004 2011h198l-325 -376h-154z" />
    <glyph glyph-name="Ucircumflex" unicode="&#xdb;" 
d="M147 573l0.00390625 919.998h203v-1012c0 -72.667 2 -124.5 6 -155.5s11 -54.833 21 -71.5c21.333 -39.333 52.166 -69 92.499 -89s89.166 -30 146.499 -30c58 0 107 10 147 30s71 49.667 93 89c10 16.667 17 40.334 21 71.001s6 82 6 154v94v920h202v-920
c0 -152.667 -9.5 -261.167 -28.5 -325.5s-51.833 -117.5 -98.5 -159.5c-44 -39.333 -94.333 -68.666 -151 -87.999s-120.334 -29 -191.001 -29c-70 0 -133.333 9.66699 -190 29s-107.334 48.666 -152.001 87.999c-46 41.333 -78.667 94.833 -98 160.5
s-29 173.834 -29 324.501zM543.004 2011h147l246 -376h-139l-181 245l-180 -245h-139z" />
    <glyph glyph-name="Udieresis" unicode="&#xdc;" 
d="M147 573l0.00390625 919.998h203v-1012c0 -72.667 2 -124.5 6 -155.5s11 -54.833 21 -71.5c21.333 -39.333 52.166 -69 92.499 -89s89.166 -30 146.499 -30c58 0 107 10 147 30s71 49.667 93 89c10 16.667 17 40.334 21 71.001s6 82 6 154v94v920h202v-920
c0 -152.667 -9.5 -261.167 -28.5 -325.5s-51.833 -117.5 -98.5 -159.5c-44 -39.333 -94.333 -68.666 -151 -87.999s-120.334 -29 -191.001 -29c-70 0 -133.333 9.66699 -190 29s-107.334 48.666 -152.001 87.999c-46 41.333 -78.667 94.833 -98 160.5
s-29 173.834 -29 324.501zM711.004 1925h202v-202h-202v202zM319.004 1925h203v-202h-203v202z" />
    <glyph glyph-name="Yacute" unicode="&#xdd;" 
d="M37 1493h215l364 -659l363 659h217l-479 -823v-670h-203v670zM756 2011h198l-325 -376h-154z" />
    <glyph glyph-name="Thorn" unicode="&#xde;" 
d="M201 1493h202v-270h254c173.333 0 301.333 -35 384 -105s124 -177.667 124 -323c0 -146 -41.333 -253.833 -124 -323.5s-210.667 -104.5 -384 -104.5h-254v-367h-202v1493zM403 1057v-525h234c105.333 0 184.166 22 236.499 66s78.5 109.667 78.5 197
s-26.167 152.833 -78.5 196.5s-131.166 65.5 -236.499 65.5h-234z" />
    <glyph glyph-name="germandbls" unicode="&#xdf;" 
d="M188 1137c0 142 34.999 247.335 104.999 316.002s177 103 321 103c136 0 239 -36.833 309 -110.5s105.667 -182.5 107 -326.5c-103.333 -9.33301 -183 -34.666 -239 -75.999s-84 -95.333 -84 -162c0 -32.667 9.16699 -61.834 27.5 -87.501s49.833 -52.5 94.5 -80.5
l58 -37c100.667 -62 169.5 -120.333 206.5 -175s55.5 -120.667 55.5 -198c0 -102.667 -37.333 -183.667 -112 -243s-177.334 -89 -308.001 -89c-46 0 -91.5 4.16699 -136.5 12.5s-89.5 20.5 -133.5 36.5v164c50.667 -20.667 98.167 -36 142.5 -46s86.166 -15 125.499 -15
c72 0 129.333 16.167 172 48.5s64 75.5 64 129.5c0 47.333 -10.833 86.833 -32.5 118.5s-72.5 72.167 -152.5 121.5l-67 39c-61.333 37.333 -107.166 78.166 -137.499 122.499s-45.5 92.833 -45.5 145.5c0 85.333 27 156.5 81 213.5s133 97.167 237 120.5
c-1.33301 71.333 -22.166 126 -62.499 164s-98.166 57 -173.499 57c-80.667 0 -140 -21.833 -178 -65.5s-57 -111.834 -57 -204.501v-1133h-187v1137z" />
    <glyph glyph-name="agrave" unicode="&#xe0;" 
d="M1059 639l-0.000976562 -638.999h-185v166c-39.333 -66.667 -88.833 -115.834 -148.5 -147.501s-132.167 -47.5 -217.5 -47.5c-114 0 -205 32.167 -273 96.5s-102 150.5 -102 258.5c0 124.667 41.833 219.334 125.5 284.001s206.5 97 368.5 97h247v29
c-0.666992 89.333 -23.334 154.166 -68.001 194.499s-116 60.5 -214 60.5c-62.667 0 -126 -9 -190 -27s-126.333 -44.333 -187 -79v184c68 26 133.167 45.5 195.5 58.5s122.833 19.5 181.5 19.5c92.667 0 171.834 -13.667 237.501 -41s118.834 -68.333 159.501 -123
c25.333 -33.333 43.333 -74.5 54 -123.5s16 -122.5 16 -220.5zM701.999 563.001h-61.001c-107.333 0 -188.166 -18.833 -242.499 -56.5s-81.5 -93.834 -81.5 -168.501c0 -67.333 20.333 -119.666 61 -156.999s97 -56 169 -56c101.333 0 181 35.167 239 105.5
s87.333 167.5 88 291.5v41h-172zM476.998 1638l281 -376h-154l-325 376h198z" />
    <glyph glyph-name="aacute" unicode="&#xe1;" 
d="M1059 639l-0.000976562 -638.999h-185v166c-39.333 -66.667 -88.833 -115.834 -148.5 -147.501s-132.167 -47.5 -217.5 -47.5c-114 0 -205 32.167 -273 96.5s-102 150.5 -102 258.5c0 124.667 41.833 219.334 125.5 284.001s206.5 97 368.5 97h247v29
c-0.666992 89.333 -23.334 154.166 -68.001 194.499s-116 60.5 -214 60.5c-62.667 0 -126 -9 -190 -27s-126.333 -44.333 -187 -79v184c68 26 133.167 45.5 195.5 58.5s122.833 19.5 181.5 19.5c92.667 0 171.834 -13.667 237.501 -41s118.834 -68.333 159.501 -123
c25.333 -33.333 43.333 -74.5 54 -123.5s16 -122.5 16 -220.5zM701.999 563.001h-61.001c-107.333 0 -188.166 -18.833 -242.499 -56.5s-81.5 -93.834 -81.5 -168.501c0 -67.333 20.333 -119.666 61 -156.999s97 -56 169 -56c101.333 0 181 35.167 239 105.5
s87.333 167.5 88 291.5v41h-172zM755.998 1638h198l-325 -376h-154z" />
    <glyph glyph-name="acircumflex" unicode="&#xe2;" 
d="M1059 639l-0.000976562 -638.999h-185v166c-39.333 -66.667 -88.833 -115.834 -148.5 -147.501s-132.167 -47.5 -217.5 -47.5c-114 0 -205 32.167 -273 96.5s-102 150.5 -102 258.5c0 124.667 41.833 219.334 125.5 284.001s206.5 97 368.5 97h247v29
c-0.666992 89.333 -23.334 154.166 -68.001 194.499s-116 60.5 -214 60.5c-62.667 0 -126 -9 -190 -27s-126.333 -44.333 -187 -79v184c68 26 133.167 45.5 195.5 58.5s122.833 19.5 181.5 19.5c92.667 0 171.834 -13.667 237.501 -41s118.834 -68.333 159.501 -123
c25.333 -33.333 43.333 -74.5 54 -123.5s16 -122.5 16 -220.5zM701.999 563.001h-61.001c-107.333 0 -188.166 -18.833 -242.499 -56.5s-81.5 -93.834 -81.5 -168.501c0 -67.333 20.333 -119.666 61 -156.999s97 -56 169 -56c101.333 0 181 35.167 239 105.5
s87.333 167.5 88 291.5v41h-172zM542.998 1638h147l246 -376h-139l-181 245l-180 -245h-139z" />
    <glyph glyph-name="atilde" unicode="&#xe3;" 
d="M1059 639l-0.000976562 -638.999h-185v166c-39.333 -66.667 -88.833 -115.834 -148.5 -147.501s-132.167 -47.5 -217.5 -47.5c-114 0 -205 32.167 -273 96.5s-102 150.5 -102 258.5c0 124.667 41.833 219.334 125.5 284.001s206.5 97 368.5 97h247v29
c-0.666992 89.333 -23.334 154.166 -68.001 194.499s-116 60.5 -214 60.5c-62.667 0 -126 -9 -190 -27s-126.333 -44.333 -187 -79v184c68 26 133.167 45.5 195.5 58.5s122.833 19.5 181.5 19.5c92.667 0 171.834 -13.667 237.501 -41s118.834 -68.333 159.501 -123
c25.333 -33.333 43.333 -74.5 54 -123.5s16 -122.5 16 -220.5zM701.999 563.001h-61.001c-107.333 0 -188.166 -18.833 -242.499 -56.5s-81.5 -93.834 -81.5 -168.501c0 -67.333 20.333 -119.666 61 -156.999s97 -56 169 -56c101.333 0 181 35.167 239 105.5
s87.333 167.5 88 291.5v41h-172zM611.998 1370l-57 55c-14 13.333 -26.5 23.166 -37.5 29.499s-21.167 9.5 -30.5 9.5c-25.333 0 -44 -12.333 -56 -37s-18.667 -64 -20 -118h-124c0.666992 89.333 18 158.666 52 207.999s81.333 74 142 74c26 0 49.667 -4.66699 71 -14
s44.333 -25 69 -47l57 -55c14 -13.333 26.5 -23.166 37.5 -29.499s20.833 -9.5 29.5 -9.5c26 0 45 12.333 57 37s18.333 64 19 118h125c-0.666992 -89.333 -18 -158.666 -52 -207.999s-81.333 -74 -142 -74c-26 0 -49.667 4.66699 -71 14s-44.333 25 -69 47z" />
    <glyph glyph-name="adieresis" unicode="&#xe4;" 
d="M1059 639l-0.000976562 -638.999h-185v166c-39.333 -66.667 -88.833 -115.834 -148.5 -147.501s-132.167 -47.5 -217.5 -47.5c-114 0 -205 32.167 -273 96.5s-102 150.5 -102 258.5c0 124.667 41.833 219.334 125.5 284.001s206.5 97 368.5 97h247v29
c-0.666992 89.333 -23.334 154.166 -68.001 194.499s-116 60.5 -214 60.5c-62.667 0 -126 -9 -190 -27s-126.333 -44.333 -187 -79v184c68 26 133.167 45.5 195.5 58.5s122.833 19.5 181.5 19.5c92.667 0 171.834 -13.667 237.501 -41s118.834 -68.333 159.501 -123
c25.333 -33.333 43.333 -74.5 54 -123.5s16 -122.5 16 -220.5zM701.999 563.001h-61.001c-107.333 0 -188.166 -18.833 -242.499 -56.5s-81.5 -93.834 -81.5 -168.501c0 -67.333 20.333 -119.666 61 -156.999s97 -56 169 -56c101.333 0 181 35.167 239 105.5
s87.333 167.5 88 291.5v41h-172zM710.998 1552h202v-202h-202v202zM318.998 1552h203v-202h-203v202z" />
    <glyph glyph-name="aring" unicode="&#xe5;" 
d="M1059 639l-0.000976562 -638.999h-185v166c-39.333 -66.667 -88.833 -115.834 -148.5 -147.501s-132.167 -47.5 -217.5 -47.5c-114 0 -205 32.167 -273 96.5s-102 150.5 -102 258.5c0 124.667 41.833 219.334 125.5 284.001s206.5 97 368.5 97h247v29
c-0.666992 89.333 -23.334 154.166 -68.001 194.499s-116 60.5 -214 60.5c-62.667 0 -126 -9 -190 -27s-126.333 -44.333 -187 -79v184c68 26 133.167 45.5 195.5 58.5s122.833 19.5 181.5 19.5c92.667 0 171.834 -13.667 237.501 -41s118.834 -68.333 159.501 -123
c25.333 -33.333 43.333 -74.5 54 -123.5s16 -122.5 16 -220.5zM701.999 563.001h-61.001c-107.333 0 -188.166 -18.833 -242.499 -56.5s-81.5 -93.834 -81.5 -168.501c0 -67.333 20.333 -119.666 61 -156.999s97 -56 169 -56c101.333 0 181 35.167 239 105.5
s87.333 167.5 88 291.5v41h-172zM767.998 1524c0 42 -14.667 77.667 -44 107s-65.333 44 -108 44s-78.5 -14.5 -107.5 -43.5s-43.5 -64.833 -43.5 -107.5c0 -43.333 14.5 -79.5 43.5 -108.5s64.833 -43.5 107.5 -43.5s78.667 14.667 108 44s44 65.333 44 108zM890.998 1524
c0 -76.667 -26.5 -141.667 -79.5 -195s-118.167 -80 -195.5 -80c-76.667 0 -141.5 26.667 -194.5 80s-79.5 118.333 -79.5 195s26.5 141.5 79.5 194.5s117.833 79.5 194.5 79.5c77.333 0 142.5 -26.5 195.5 -79.5s79.5 -117.833 79.5 -194.5z" />
    <glyph glyph-name="ae" unicode="&#xe6;" 
d="M1200 514l-491.001 0.000976562c-0.666992 -10 -1.16699 -20.833 -1.5 -32.5s-0.5 -28.834 -0.5 -51.501c0 -107.333 16.833 -185 50.5 -233s87.834 -72 162.501 -72c52.667 0 100.5 8.5 143.5 25.5s81.167 42.5 114.5 76.5v-172
c-36.667 -27.333 -77 -48.166 -121 -62.499s-89.667 -21.5 -137 -21.5c-73.333 0 -134.833 13.667 -184.5 41s-85.167 67 -106.5 119c-26 -53.333 -61.167 -93.333 -105.5 -120s-98.833 -40 -163.5 -40c-104 0 -183.167 28.667 -237.5 86s-81.5 140.666 -81.5 249.999
c0 114 33.333 200.833 100 260.5s163.667 89.5 291 89.5h117v88c0 80 -16.5 141.333 -49.5 184s-80.833 64 -143.5 64c-37.333 0 -78 -7.16699 -122 -21.5s-86.667 -34.5 -128 -60.5v168c51.333 23.333 99 40.5 143 51.5s86 16.5 126 16.5c60.667 0 111.667 -10.5 153 -31.5
s74.333 -52.833 99 -95.5c22 40.667 55 72 99 94s95.667 33 155 33c116 0 198.167 -39.5 246.5 -118.5s72.5 -220.5 72.5 -424.5v-90zM1036 657.001v52c0 100.667 -12.833 173.167 -38.5 217.5s-67.5 66.5 -125.5 66.5s-99.667 -22.667 -125 -68s-38 -120.333 -38 -225v-43
h327zM542.999 442.001v71.999h-49c-112.667 0 -189 -15 -229 -45s-60 -82.667 -60 -158c0 -59.333 14.833 -105.166 44.5 -137.499s72.167 -48.5 127.5 -48.5c61.333 0 104.333 22.167 129 66.5s37 127.833 37 250.5z" />
    <glyph glyph-name="ccedilla" unicode="&#xe7;" 
d="M1061 57c-49.333 -28.667 -100.167 -50.165 -152.5 -64.498s-105.833 -21.5 -160.5 -21.5c-173.333 0 -308.833 52 -406.5 156s-146.5 248 -146.5 432s48.833 328 146.5 432s233.167 156 406.5 156c54 0 106.667 -7 158 -21s103 -35.667 155 -65v-193
c-48.667 43.333 -97.5 74.666 -146.5 93.999s-104.5 29 -166.5 29c-115.333 0 -204 -37.333 -266 -112s-93 -181.334 -93 -320.001c0 -138 31.167 -244.5 93.5 -319.5s150.833 -112.5 265.5 -112.5c64 0 121.333 9.83301 172 29.5s97.667 50.167 141 91.5v-191z
M803.999 0.00195312c37.333 -41.333 64.833 -79.501 82.5 -114.501s26.5 -68.5 26.5 -100.5c0 -59.333 -20 -104.166 -60 -134.499s-99.333 -45.5 -178 -45.5c-30 0 -59.5 2 -88.5 6s-58.167 10 -87.5 18v131c22.667 -11.333 46.5 -19.5 71.5 -24.5s53.167 -7.5 84.5 -7.5
c38.667 0 68.167 8 88.5 24s30.5 39.333 30.5 70c0 20 -7.33301 44.5 -22 73.5s-36.667 63.833 -66 104.5h118z" />
    <glyph glyph-name="egrave" unicode="&#xe8;" 
d="M928 660c-2.66699 108 -28.167 190.167 -76.5 246.5s-117.833 84.5 -208.5 84.5c-88.667 0 -161.667 -29.333 -219 -88s-91.333 -140 -102 -244zM1112 606v-90h-797v-6c0 -122 31.833 -216.333 95.5 -283s153.5 -100 269.5 -100c58.667 0 120 9.33301 184 28
s132.333 47 205 85v-183c-70 -28.667 -137.5 -50.167 -202.5 -64.5s-127.833 -21.5 -188.5 -21.5c-174 0 -310 52.167 -408 156.5s-147 248.166 -147 431.499c0 178.667 48 321.334 144 428.001s224 160 384 160c142.667 0 255.167 -48.333 337.5 -145
s123.5 -228.667 123.5 -396zM491 1638l281 -376h-154l-325 376h198z" />
    <glyph glyph-name="eacute" unicode="&#xe9;" 
d="M928 660c-2.66699 108 -28.167 190.167 -76.5 246.5s-117.833 84.5 -208.5 84.5c-88.667 0 -161.667 -29.333 -219 -88s-91.333 -140 -102 -244zM1112 606v-90h-797v-6c0 -122 31.833 -216.333 95.5 -283s153.5 -100 269.5 -100c58.667 0 120 9.33301 184 28
s132.333 47 205 85v-183c-70 -28.667 -137.5 -50.167 -202.5 -64.5s-127.833 -21.5 -188.5 -21.5c-174 0 -310 52.167 -408 156.5s-147 248.166 -147 431.499c0 178.667 48 321.334 144 428.001s224 160 384 160c142.667 0 255.167 -48.333 337.5 -145
s123.5 -228.667 123.5 -396zM770 1638h198l-325 -376h-154z" />
    <glyph glyph-name="ecircumflex" unicode="&#xea;" 
d="M928 660c-2.66699 108 -28.167 190.167 -76.5 246.5s-117.833 84.5 -208.5 84.5c-88.667 0 -161.667 -29.333 -219 -88s-91.333 -140 -102 -244zM1112 606v-90h-797v-6c0 -122 31.833 -216.333 95.5 -283s153.5 -100 269.5 -100c58.667 0 120 9.33301 184 28
s132.333 47 205 85v-183c-70 -28.667 -137.5 -50.167 -202.5 -64.5s-127.833 -21.5 -188.5 -21.5c-174 0 -310 52.167 -408 156.5s-147 248.166 -147 431.499c0 178.667 48 321.334 144 428.001s224 160 384 160c142.667 0 255.167 -48.333 337.5 -145
s123.5 -228.667 123.5 -396zM557 1638h147l246 -376h-139l-181 245l-180 -245h-139z" />
    <glyph glyph-name="edieresis" unicode="&#xeb;" 
d="M928 660c-2.66699 108 -28.167 190.167 -76.5 246.5s-117.833 84.5 -208.5 84.5c-88.667 0 -161.667 -29.333 -219 -88s-91.333 -140 -102 -244zM1112 606v-90h-797v-6c0 -122 31.833 -216.333 95.5 -283s153.5 -100 269.5 -100c58.667 0 120 9.33301 184 28
s132.333 47 205 85v-183c-70 -28.667 -137.5 -50.167 -202.5 -64.5s-127.833 -21.5 -188.5 -21.5c-174 0 -310 52.167 -408 156.5s-147 248.166 -147 431.499c0 178.667 48 321.334 144 428.001s224 160 384 160c142.667 0 255.167 -48.333 337.5 -145
s123.5 -228.667 123.5 -396zM725 1552h202v-202h-202v202zM333 1552h203v-202h-203v202z" />
    <glyph glyph-name="igrave" unicode="&#xec;" 
d="M256 1120h471v-977h365v-143h-914v143h365v834h-287v143zM477 1638l281 -376h-154l-325 376h198z" />
    <glyph glyph-name="iacute" unicode="&#xed;" 
d="M256 1120h471v-977h365v-143h-914v143h365v834h-287v143zM756 1638h198l-325 -376h-154z" />
    <glyph glyph-name="icircumflex" unicode="&#xee;" 
d="M256 1120h471v-977h365v-143h-914v143h365v834h-287v143zM543 1638h147l246 -376h-139l-181 245l-180 -245h-139z" />
    <glyph glyph-name="idieresis" unicode="&#xef;" 
d="M256 1120h471v-977h365v-143h-914v143h365v834h-287v143zM711 1552h202v-202h-202v202zM319 1552h203v-202h-203v202z" />
    <glyph glyph-name="eth" unicode="&#xf0;" 
d="M793 918c-23.333 8.66699 -48.667 15.166 -76 19.499s-56 6.5 -86 6.5c-97.333 0 -171.5 -35 -222.5 -105s-76.5 -171.333 -76.5 -304c0 -130.667 24.667 -231.334 74 -302.001s119.333 -106 210 -106c91.333 0 161.666 35.333 210.999 106s74 171.334 74 302.001
c0 73.333 -9.66699 143.833 -29 211.5s-45.666 124.834 -78.999 171.501zM716.999 1327c131.333 -141.333 227.333 -275.334 288 -402.001s91 -256.667 91 -390c0 -178.667 -41.833 -317.334 -125.5 -416.001s-201.834 -148 -354.501 -148
c-152 0 -269.833 49.333 -353.5 148s-125.5 237.334 -125.5 416.001c0 176.667 41.833 314.334 125.5 413.001s200.167 148 349.5 148c22.667 0 39.834 -0.333008 51.501 -1s22.5 -1.66699 32.5 -3c-22 30 -45 59.833 -69 89.5s-48.667 59.167 -74 88.5l-279 -92l-30 98
l237 80l-182 200h219l127 -145l289 94l33 -98z" />
    <glyph glyph-name="ntilde" unicode="&#xf1;" 
d="M1051 694l-0.000976562 -694h-185v694c0 100.667 -17.667 174.667 -53 222s-90.666 71 -165.999 71c-86 0 -152.167 -30.5 -198.5 -91.5s-69.5 -148.5 -69.5 -262.5v-633h-184v1120h184v-168c32.667 64 77 112.5 133 145.5s122.333 49.5 199 49.5
c114 0 199.167 -37.5 255.5 -112.5s84.5 -188.5 84.5 -340.5zM611.999 1370l-57 55c-14 13.333 -26.5 23.166 -37.5 29.499s-21.167 9.5 -30.5 9.5c-25.333 0 -44 -12.333 -56 -37s-18.667 -64 -20 -118h-124c0.666992 89.333 18 158.666 52 207.999s81.333 74 142 74
c26 0 49.667 -4.66699 71 -14s44.333 -25 69 -47l57 -55c14 -13.333 26.5 -23.166 37.5 -29.499s20.833 -9.5 29.5 -9.5c26 0 45 12.333 57 37s18.333 64 19 118h125c-0.666992 -89.333 -18 -158.666 -52 -207.999s-81.333 -74 -142 -74c-26 0 -49.667 4.66699 -71 14
s-44.333 25 -69 47z" />
    <glyph glyph-name="ograve" unicode="&#xf2;" 
d="M616 1147c155.333 0 274.167 -50.333 356.5 -151s123.5 -246.334 123.5 -437.001c0 -191.333 -41 -337.166 -123 -437.499s-201 -150.5 -357 -150.5c-155.333 0 -274 50.167 -356 150.5s-123 246.166 -123 437.499c0 190.667 41 336.334 123 437.001s200.667 151 356 151
zM616.001 991c-93.333 0 -164 -36.333 -212 -109s-72 -180.334 -72 -323.001c0 -142 24 -249.5 72 -322.5s118.667 -109.5 212 -109.5c94 0 165 36.5 213 109.5s72 180.5 72 322.5c0 142.667 -24 250.334 -72 323.001s-119 109 -213 109zM477.001 1638l281 -376h-154
l-325 376h198z" />
    <glyph glyph-name="oacute" unicode="&#xf3;" 
d="M616 1147c155.333 0 274.167 -50.333 356.5 -151s123.5 -246.334 123.5 -437.001c0 -191.333 -41 -337.166 -123 -437.499s-201 -150.5 -357 -150.5c-155.333 0 -274 50.167 -356 150.5s-123 246.166 -123 437.499c0 190.667 41 336.334 123 437.001s200.667 151 356 151
zM616.001 991c-93.333 0 -164 -36.333 -212 -109s-72 -180.334 -72 -323.001c0 -142 24 -249.5 72 -322.5s118.667 -109.5 212 -109.5c94 0 165 36.5 213 109.5s72 180.5 72 322.5c0 142.667 -24 250.334 -72 323.001s-119 109 -213 109zM756.001 1638h198l-325 -376h-154z
" />
    <glyph glyph-name="ocircumflex" unicode="&#xf4;" 
d="M616 1147c155.333 0 274.167 -50.333 356.5 -151s123.5 -246.334 123.5 -437.001c0 -191.333 -41 -337.166 -123 -437.499s-201 -150.5 -357 -150.5c-155.333 0 -274 50.167 -356 150.5s-123 246.166 -123 437.499c0 190.667 41 336.334 123 437.001s200.667 151 356 151
zM616.001 991c-93.333 0 -164 -36.333 -212 -109s-72 -180.334 -72 -323.001c0 -142 24 -249.5 72 -322.5s118.667 -109.5 212 -109.5c94 0 165 36.5 213 109.5s72 180.5 72 322.5c0 142.667 -24 250.334 -72 323.001s-119 109 -213 109zM543.001 1638h147l246 -376h-139
l-181 245l-180 -245h-139z" />
    <glyph glyph-name="otilde" unicode="&#xf5;" 
d="M616 1147c155.333 0 274.167 -50.333 356.5 -151s123.5 -246.334 123.5 -437.001c0 -191.333 -41 -337.166 -123 -437.499s-201 -150.5 -357 -150.5c-155.333 0 -274 50.167 -356 150.5s-123 246.166 -123 437.499c0 190.667 41 336.334 123 437.001s200.667 151 356 151
zM616.001 991c-93.333 0 -164 -36.333 -212 -109s-72 -180.334 -72 -323.001c0 -142 24 -249.5 72 -322.5s118.667 -109.5 212 -109.5c94 0 165 36.5 213 109.5s72 180.5 72 322.5c0 142.667 -24 250.334 -72 323.001s-119 109 -213 109zM612.001 1370l-57 55
c-14 13.333 -26.5 23.166 -37.5 29.499s-21.167 9.5 -30.5 9.5c-25.333 0 -44 -12.333 -56 -37s-18.667 -64 -20 -118h-124c0.666992 89.333 18 158.666 52 207.999s81.333 74 142 74c26 0 49.667 -4.66699 71 -14s44.333 -25 69 -47l57 -55
c14 -13.333 26.5 -23.166 37.5 -29.499s20.833 -9.5 29.5 -9.5c26 0 45 12.333 57 37s18.333 64 19 118h125c-0.666992 -89.333 -18 -158.666 -52 -207.999s-81.333 -74 -142 -74c-26 0 -49.667 4.66699 -71 14s-44.333 25 -69 47z" />
    <glyph glyph-name="odieresis" unicode="&#xf6;" 
d="M616 1147c155.333 0 274.167 -50.333 356.5 -151s123.5 -246.334 123.5 -437.001c0 -191.333 -41 -337.166 -123 -437.499s-201 -150.5 -357 -150.5c-155.333 0 -274 50.167 -356 150.5s-123 246.166 -123 437.499c0 190.667 41 336.334 123 437.001s200.667 151 356 151
zM616.001 991c-93.333 0 -164 -36.333 -212 -109s-72 -180.334 -72 -323.001c0 -142 24 -249.5 72 -322.5s118.667 -109.5 212 -109.5c94 0 165 36.5 213 109.5s72 180.5 72 322.5c0 142.667 -24 250.334 -72 323.001s-119 109 -213 109zM711.001 1552h202v-202h-202v202z
M319.001 1552h203v-202h-203v202z" />
    <glyph glyph-name="divide" unicode="&#xf7;" 
d="M88 727h1057v-170h-1057v170zM494 1135h245v-246h-245v246zM494 395h245v-245h-245v245z" />
    <glyph glyph-name="oslash" unicode="&#xf8;" 
d="M217 180c-26 47.333 -45.834 103.496 -59.501 168.496s-20.5 135.167 -20.5 210.5c0 190.667 41 336.334 123 437.001s200.667 151 356 151c66.667 0 126.334 -9.16699 179.001 -27.5s99 -46.166 139 -83.499l147 176l93 -77l-164 -195c28 -44 49.333 -98.167 64 -162.5
s22 -137.166 22 -218.499c0 -191.333 -41 -337.166 -123 -437.499s-201 -150.5 -357 -150.5c-68.667 0 -129.167 9.83301 -181.5 29.5s-97.5 49.5 -135.5 89.5l-160 -186l-92 76zM816.999 896.996c-23.333 32 -51.499 55.667 -84.499 71s-71.833 23 -116.5 23
c-92.667 0 -163.834 -35.667 -213.501 -107s-74.5 -174.333 -74.5 -309c0 -32 2.33301 -67.333 7 -106s11.667 -81.667 21 -129zM877 779.996l-463 -559c24 -31.333 52.833 -54.833 86.5 -70.5s72.167 -23.5 115.5 -23.5c94 0 165 36.5 213 109.5s72 180.5 72 322.5
c0 34.667 -2 70.5 -6 107.5s-10 74.833 -18 113.5z" />
    <glyph glyph-name="ugrave" unicode="&#xf9;" 
d="M195 424l-0.00195312 694h184v-694c0 -100.667 17.833 -174.667 53.5 -222s90.834 -71 165.501 -71c86.667 0 153 30.5 199 91.5s69 148.5 69 262.5v633h185v-1118h-185v168c-32.667 -64.667 -77.167 -113.667 -133.5 -147s-122.166 -50 -197.499 -50
c-114.667 0 -200 37.5 -256 112.5s-84 188.5 -84 340.5zM476.998 1638l281 -376h-154l-325 376h198z" />
    <glyph glyph-name="uacute" unicode="&#xfa;" 
d="M195 424l-0.00195312 694h184v-694c0 -100.667 17.833 -174.667 53.5 -222s90.834 -71 165.501 -71c86.667 0 153 30.5 199 91.5s69 148.5 69 262.5v633h185v-1118h-185v168c-32.667 -64.667 -77.167 -113.667 -133.5 -147s-122.166 -50 -197.499 -50
c-114.667 0 -200 37.5 -256 112.5s-84 188.5 -84 340.5zM755.998 1638h198l-325 -376h-154z" />
    <glyph glyph-name="ucircumflex" unicode="&#xfb;" 
d="M195 424l-0.00195312 694h184v-694c0 -100.667 17.833 -174.667 53.5 -222s90.834 -71 165.501 -71c86.667 0 153 30.5 199 91.5s69 148.5 69 262.5v633h185v-1118h-185v168c-32.667 -64.667 -77.167 -113.667 -133.5 -147s-122.166 -50 -197.499 -50
c-114.667 0 -200 37.5 -256 112.5s-84 188.5 -84 340.5zM542.998 1638h147l246 -376h-139l-181 245l-180 -245h-139z" />
    <glyph glyph-name="udieresis" unicode="&#xfc;" 
d="M195 424l-0.00195312 694h184v-694c0 -100.667 17.833 -174.667 53.5 -222s90.834 -71 165.501 -71c86.667 0 153 30.5 199 91.5s69 148.5 69 262.5v633h185v-1118h-185v168c-32.667 -64.667 -77.167 -113.667 -133.5 -147s-122.166 -50 -197.499 -50
c-114.667 0 -200 37.5 -256 112.5s-84 188.5 -84 340.5zM710.998 1552h202v-202h-202v202zM318.998 1552h203v-202h-203v202z" />
    <glyph glyph-name="yacute" unicode="&#xfd;" 
d="M858 360c-30.667 -78 -69.667 -180.667 -117 -308c-66 -176 -110.333 -283.333 -133 -322c-30.667 -52 -69 -91 -115 -117s-99.667 -39 -161 -39h-148v154h109c54 0 96.333 15.667 127 47s69.667 112.333 117 243l-433 1102h195l332 -876l327 876h195zM756 1638h198
l-325 -376h-154z" />
    <glyph glyph-name="thorn" unicode="&#xfe;" 
d="M915 559c0 142.667 -22.5 250.331 -67.5 322.998s-111.833 109 -200.5 109c-89.333 0 -157 -36.5 -203 -109.5s-69 -180.5 -69 -322.5c0 -141.333 23 -248.666 69 -321.999s113.667 -110 203 -110c88.667 0 155.5 36.333 200.5 109s67.5 180.334 67.5 323.001z
M375 140.997v-567h-185v1993h185v-590c30.667 55.333 71.5 97.5 122.5 126.5s109.833 43.5 176.5 43.5c135.333 0 241.5 -52.333 318.5 -157s115.5 -249.667 115.5 -435c0 -182 -38.667 -324.833 -116 -428.5s-183.333 -155.5 -318 -155.5c-68 0 -127.5 14.5 -178.5 43.5
s-91.167 71.167 -120.5 126.5z" />
    <glyph glyph-name="ydieresis" unicode="&#xff;" 
d="M858 360c-30.667 -78 -69.667 -180.667 -117 -308c-66 -176 -110.333 -283.333 -133 -322c-30.667 -52 -69 -91 -115 -117s-99.667 -39 -161 -39h-148v154h109c54 0 96.333 15.667 127 47s69.667 112.333 117 243l-433 1102h195l332 -876l327 876h195zM711 1552h202v-202
h-202v202zM319 1552h203v-202h-203v202z" />
    <glyph glyph-name="dotlessi" unicode="&#x131;" 
d="M256 1120h471v-977h365v-143h-914v143h365v834h-287v143z" />
    <glyph glyph-name="OE" unicode="&#x152;" 
d="M590 1323c-118 0 -200.167 -38.333 -246.5 -115s-69.5 -231 -69.5 -463c0 -230.667 23.167 -384.167 69.5 -460.5s128.5 -114.5 246.5 -114.5h61v1153h-61zM1217 170l0.00195312 -170h-605c-196.667 0 -335.834 55.5 -417.501 166.5s-122.5 303.833 -122.5 578.5
c0 278 40.667 472.167 122 582.5s220.666 165.5 417.999 165.5h594v-170h-358v-442h328v-170h-328v-541h369z" />
    <glyph glyph-name="oe" unicode="&#x153;" 
d="M1210 514l-490.999 0.000976562v-84c0 -108.667 16.5 -187 49.5 -235s86.833 -72 161.5 -72c53.333 0 101.833 8.83301 145.5 26.5s81.167 43.5 112.5 77.5v-172c-39.333 -28.667 -79.833 -49.834 -121.5 -63.501s-87.167 -20.5 -136.5 -20.5
c-65.333 0 -122.5 11.167 -171.5 33.5s-89.5 55.5 -121.5 99.5c-34.667 -45.333 -73.334 -78.833 -116.001 -100.5s-92 -32.5 -148 -32.5c-126 0 -217.333 46 -274 138s-85 242 -85 450s28.333 358 85 450s148 138 274 138c59.333 0 110.333 -10.333 153 -31
s79.667 -52.667 111 -96c24.667 41.333 58.667 72.833 102 94.5s94 32.5 152 32.5c116.667 0 199 -39.5 247 -118.5s72 -220.5 72 -424.5v-90zM373.001 123.001c68 0 115.667 28 143 84s41 163.667 41 323c0 194 -13.333 320 -40 378s-74.667 87 -144 87
c-68.667 0 -116.334 -27.833 -143.001 -83.5s-40 -173.167 -40 -352.5s13.333 -296.833 40 -352.5s74.334 -83.5 143.001 -83.5zM1047 657.001c0 7.33301 0.333008 17.333 1 30s1 22 1 28c0 96.667 -13.333 167.5 -40 212.5s-68.667 67.5 -126 67.5
c-58 0 -99.833 -22.833 -125.5 -68.5s-38.5 -121.167 -38.5 -226.5v-43h328z" />
    <glyph glyph-name="Scaron" unicode="&#x160;" 
d="M1012 1442l0.00292969 -204.997c-61.333 39.333 -122.833 69 -184.5 89s-123.834 30 -186.501 30c-95.333 0 -170.666 -22.167 -225.999 -66.5s-83 -104.166 -83 -179.499c0 -66 18.167 -116.333 54.5 -151s104.166 -63.667 203.499 -87l106 -24
c140 -32.667 242 -84 306 -154s96 -165.333 96 -286c0 -142 -44 -250.333 -132 -325s-216 -112 -384 -112c-70 0 -140.333 7.5 -211 22.5s-141.667 37.5 -213 67.5v215c76.667 -48.667 149.167 -84.334 217.5 -107.001s137.166 -34 206.499 -34
c102 0 181.333 22.833 238 68.5s85 109.5 85 191.5c0 74.667 -19.5 131.667 -58.5 171s-106.833 69.666 -203.5 90.999l-108 25c-138.667 31.333 -239.334 78.666 -302.001 141.999s-94 148.333 -94 255c0 133.333 44.833 240.166 134.5 320.499
s208.834 120.5 357.501 120.5c57.333 0 117.666 -6.5 180.999 -19.5s130 -32.5 200 -58.5zM543.003 1635l-246 376h139l180 -245l181 245h139l-246 -376h-147z" />
    <glyph glyph-name="scaron" unicode="&#x161;" 
d="M973 1081l-0.000976562 -179.999c-52.667 30.667 -105.667 53.667 -159 69s-107.666 23 -162.999 23c-83.333 0 -145.5 -13.5 -186.5 -40.5s-61.5 -68.167 -61.5 -123.5c0 -50 15.333 -87.333 46 -112s107 -48.667 229 -72l74 -14c91.333 -17.333 160.5 -52 207.5 -104
s70.5 -119.667 70.5 -203c0 -110.667 -39.333 -197.167 -118 -259.5s-188 -93.5 -328 -93.5c-55.333 0 -113.333 5.83301 -174 17.5s-126.334 29.167 -197.001 52.5v190c68.667 -35.333 134.334 -61.833 197.001 -79.5s122 -26.5 178 -26.5c81.333 0 144.333 16.5 189 49.5
s67 79.167 67 138.5c0 85.333 -81.667 144.333 -245 177l-8 2l-69 14c-106 20.667 -183.333 55.5 -232 104.5s-73 115.833 -73 200.5c0 107.333 36.333 190.166 109 248.499s176.334 87.5 311.001 87.5c60 0 117.667 -5.5 173 -16.5s109.666 -27.5 162.999 -49.5z
M542.999 1262l-246 376h139l180 -245l181 245h139l-246 -376h-147z" />
    <glyph glyph-name="Ydieresis" unicode="&#x178;" 
d="M37 1493h215l364 -659l363 659h217l-479 -823v-670h-203v670zM711 1925h202v-202h-202v202zM319 1925h203v-202h-203v202z" />
    <glyph glyph-name="Zcaron" unicode="&#x17d;" 
d="M178 1493h969v-154l-780 -1169h802v-170h-1013v154l759 1169h-737v170zM543 1635l-246 376h139l180 -245l181 245h139l-246 -376h-147z" />
    <glyph glyph-name="zcaron" unicode="&#x17e;" 
d="M227 1122h813v-168l-643 -804h643v-150h-837v170l643 805h-619v147zM543 1262l-246 376h139l180 -245l181 245h139l-246 -376h-147z" />
    <glyph glyph-name="florin" unicode="&#x192;" 
d="M1200 1520v-164.001c-24 18.667 -49.667 32.834 -77 42.501s-55.666 14.5 -84.999 14.5c-68 0 -121.167 -20.667 -159.5 -62s-63.5 -105.333 -75.5 -192l-45 -311h303v-143h-328l-100 -635c-28.667 -177.333 -76.167 -304.333 -142.5 -381s-161.5 -115 -285.5 -115
c-38 0 -74 3.5 -108 10.5s-66.333 17.833 -97 32.5v164c32.667 -20.667 65.667 -36.5 99 -47.5s66 -16.5 98 -16.5c64 0 116.167 25 156.5 75s69.166 125.333 86.499 226l117 687h-252v143h275l49 330c17.333 118 59 210.5 125 277.5s148.333 100.5 247 100.5
c32.667 0 65.5 -3 98.5 -9s66.5 -15 100.5 -27z" />
    <glyph glyph-name="circumflex" unicode="&#x2c6;" 
d="M543 1638h147l246 -376h-139l-181 245l-180 -245h-139z" />
    <glyph glyph-name="caron" unicode="&#x2c7;" 
d="M543 1262l-246 376h139l180 -245l181 245h139l-246 -376h-147z" />
    <glyph glyph-name="ring" unicode="&#x2da;" 
d="M768 1524c0 42 -14.667 77.667 -44 107s-65.333 44 -108 44s-78.5 -14.5 -107.5 -43.5s-43.5 -64.833 -43.5 -107.5c0 -43.333 14.5 -79.5 43.5 -108.5s64.833 -43.5 107.5 -43.5s78.667 14.667 108 44s44 65.333 44 108zM891 1524c0 -76.667 -26.5 -141.667 -79.5 -195
s-118.167 -80 -195.5 -80c-76.667 0 -141.5 26.667 -194.5 80s-79.5 118.333 -79.5 195s26.5 141.5 79.5 194.5s117.833 79.5 194.5 79.5c77.333 0 142.5 -26.5 195.5 -79.5s79.5 -117.833 79.5 -194.5z" />
    <glyph glyph-name="tilde" unicode="&#x2dc;" 
d="M612 1370l-57 55c-14 13.333 -26.5 23.166 -37.5 29.499s-21.167 9.5 -30.5 9.5c-25.333 0 -44 -12.333 -56 -37s-18.667 -64 -20 -118h-124c0.666992 89.333 18 158.666 52 207.999s81.333 74 142 74c26 0 49.667 -4.66699 71 -14s44.333 -25 69 -47l57 -55
c14 -13.333 26.5 -23.166 37.5 -29.499s20.833 -9.5 29.5 -9.5c26 0 45 12.333 57 37s18.333 64 19 118h125c-0.666992 -89.333 -18 -158.666 -52 -207.999s-81.333 -74 -142 -74c-26 0 -49.667 4.66699 -71 14s-44.333 25 -69 47z" />
    <glyph glyph-name="endash" unicode="&#x2013;" 
d="M0 633h1233v-141h-1233v141z" />
    <glyph glyph-name="emdash" unicode="&#x2014;" 
d="M0 633h1233v-141h-1233v141z" />
    <glyph glyph-name="quoteleft" unicode="&#x2018;" 
d="M715 967h-252v207l196 382h154l-98 -382v-207z" />
    <glyph glyph-name="quoteright" unicode="&#x2019;" 
d="M561 1556h252v-206l-197 -383h-153l98 383v206z" />
    <glyph glyph-name="quotesinglbase" unicode="&#x201a;" 
d="M502 303h252v-207l-197 -383h-154l99 383v207z" />
    <glyph glyph-name="quotedblleft" unicode="&#x201c;" 
d="M465 967h-254v207l199 382h153l-98 -382v-207zM924 967h-252v207l196 382h154l-98 -382v-207z" />
    <glyph glyph-name="quotedblright" unicode="&#x201d;" 
d="M309 1556h252v-206l-196 -383h-154l98 383v206zM768 1556h252v-206l-197 -383h-153l98 383v206z" />
    <glyph glyph-name="quotedblbase" unicode="&#x201e;" 
d="M309 303h252v-207l-196 -383h-154l98 383v207zM768 303h252v-207l-197 -383h-153l98 383v207z" />
    <glyph glyph-name="dagger" unicode="&#x2020;" 
d="M528 1493h177v-420h366v-153h-366v-1117h-177v1117h-366v153h366v420z" />
    <glyph glyph-name="daggerdbl" unicode="&#x2021;" 
d="M1071 223h-366v-420h-177v420h-366v154h366v543h-366v153h366v420h177v-420h366v-153h-366v-543h366v-154z" />
    <glyph glyph-name="bullet" unicode="&#x2022;" 
d="M319 762c0 82.667 28.667 152.501 86 209.501s127.666 85.5 210.999 85.5c82.667 0 152.834 -28.667 210.501 -86s86.5 -127 86.5 -209c0 -82.667 -29 -152.834 -87 -210.501s-128.667 -86.5 -212 -86.5c-82.667 0 -152.5 28.5 -209.5 85.5s-85.5 127.5 -85.5 211.5z" />
    <glyph glyph-name="ellipsis" unicode="&#x2026;" 
d="M489 305h252v-305h-252v305zM899 305h252v-305h-252v305zM80 305h252v-305h-252v305z" />
    <glyph glyph-name="perthousand" unicode="&#x2030;" 
d="M659 289c0 80 27.667 147.667 83 203s123.333 83 204 83c80 0 147.833 -27.667 203.5 -83s83.5 -123 83.5 -203c0 -80.667 -27.833 -149 -83.5 -205s-123.5 -84 -203.5 -84c-80.667 -0 -148.667 27.833 -204 83.5s-83 124.167 -83 205.5zM780 289
c0 -47.333 16.167 -87.166 48.5 -119.499s71.5 -48.5 117.5 -48.5c46.667 0 86 16.167 118 48.5s48 72.166 48 119.499c0 44.667 -16.333 83.5 -49 116.5s-71.667 49.5 -117 49.5c-46 0 -85.167 -16.167 -117.5 -48.5s-48.5 -71.5 -48.5 -117.5zM0 1145
c0 80 27.667 147.833 83 203.5s123.333 83.5 204 83.5c80 0 147.667 -27.833 203 -83.5s83 -123.5 83 -203.5c0 -80.667 -27.667 -149 -83 -205s-123 -84 -203 -84c-80.667 0 -148.667 27.833 -204 83.5s-83 124.167 -83 205.5zM121 1145c0 -46 16.167 -85.167 48.5 -117.5
s71.5 -48.5 117.5 -48.5s85.167 16.167 117.5 48.5s48.5 71.5 48.5 117.5c0 44.667 -16.5 83.5 -49.5 116.5s-71.833 49.5 -116.5 49.5c-46 0 -85.167 -16.167 -117.5 -48.5s-48.5 -71.5 -48.5 -117.5zM45 289c0 80.667 27.501 148.5 82.501 203.5s122.5 82.5 202.5 82.5
s147.667 -27.667 203 -83s83 -123 83 -203c0 -80.667 -27.833 -149 -83.5 -205s-123.167 -84 -202.5 -84c-80.667 0 -148.334 27.667 -203.001 83s-82 124 -82 206zM166.001 289c0 -47.333 15.833 -87.167 47.5 -119.5s70.5 -48.5 116.5 -48.5
c45.333 0 84.333 16.5 117 49.5s49 72.5 49 118.5c0 44.667 -16.5 83.5 -49.5 116.5s-71.833 49.5 -116.5 49.5c-46 0 -84.833 -16.167 -116.5 -48.5s-47.5 -71.5 -47.5 -117.5zM72.001 566.999l-37 97l1044 415l39 -96z" />
    <glyph glyph-name="guilsinglleft" unicode="&#x2039;" 
d="M815 1059v-191l-301 -268l301 -268v-191l-469 418v82z" />
    <glyph glyph-name="guilsinglright" unicode="&#x203a;" 
d="M420 1059l469 -418v-82l-469 -418v191l301 268l-301 268v191z" />
    <glyph glyph-name="Euro" unicode="&#x20ac;" 
d="M211 948c32 188.667 93.667 331.167 185 427.5s211.333 144.5 360 144.5c56 0 108.5 -6.66699 157.5 -20s98.167 -34 147.5 -62v-207c-44 40.667 -92.5 72.334 -145.5 95.001s-105.5 34 -157.5 34c-97.333 0 -175 -34.667 -233 -104s-95 -172 -111 -308h481l-49 -108
h-442c-1.33301 -13.333 -2.16602 -27.5 -2.49902 -42.5s-0.5 -37.833 -0.5 -68.5c0 -10 0.166992 -21.333 0.5 -34s0.833008 -26.667 1.5 -42h361l-49 -110h-301c15.333 -135.333 52 -237.833 110 -307.5s136 -104.5 234 -104.5c52.667 0 105.167 11.167 157.5 33.5
s100.833 54.166 145.5 95.499v-207c-48 -28 -96.667 -48.667 -146 -62s-102.333 -20 -159 -20c-150.667 0 -271.834 48 -363.501 144s-152.167 238.667 -181.5 428h-174l49 110h117c-0.666992 8 -1.33398 18.667 -2.00098 32c-1.33301 30 -2 50 -2 60
c0 12 0.666992 33.667 2 65c0.666992 12.667 1.33398 22.667 2.00098 30h-166l49 108h125z" />
    <glyph glyph-name="trademark" unicode="&#x2122;" 
d="M692 1493l137 -256l125 256h172v-578h-114v482l-156 -301h-55l-166 301v-482h-113v578h170zM438 1493v-94h-162v-484h-114v484h-162v94h438z" />
    <glyph glyph-name="glyph220" 
d="M51 504l-24 108l1060 262l27 -108z" />
    <glyph glyph-name="glyph221" 
d="M655 1378l-274 -413h274v413zM631 1503h162v-538h116v-111h-116v-186h-138v186h-387v121z" />
    <glyph glyph-name="glyph223" horiz-adv-x="0" 
 />
  </font>
</defs>
</svg>
