<?xml version="1.0" standalone="no"?>
<!DOCTYPE svg PUBLIC "-//W3C//DTD SVG 1.1//EN" "http://www.w3.org/Graphics/SVG/1.1/DTD/svg11.dtd" >
<svg xmlns="http://www.w3.org/2000/svg" xmlns:xlink="http://www.w3.org/1999/xlink" version="1.1">
<metadata>
Created by FontForge 20141024 at Thu Sep 17 07:44:50 2015
 By Jimmy Warting
Singulier, designed by Jean Francois Porchez in 2010, is an exclusive sanserif typeface available in 6 weights, with Latin, Greek and Cyrillic scripts support designed solely and exclusively for YSL Beaute. More details at typofonderie.com. OpenType features include: pointed glyphs such A via Stylistic set 1/Titling alternates; rounded a via Stylistic set 3/Stylistic set Alternates; Dingbats via Stylistic set 4/Ornaments.
</metadata>
<defs>
<font id="Singulier-Demi" horiz-adv-x="540" >
  <font-face 
    font-family="Singulier Light"
    font-weight="650"
    font-stretch="normal"
    units-per-em="1000"
    panose-1="2 11 6 3 5 6 3 6 2 4"
    ascent="800"
    descent="-200"
    x-height="510"
    cap-height="682"
    bbox="-135 -247 1258 991"
    underline-thickness="101"
    underline-position="-43"
    stemh="107"
    stemv="129"
    unicode-range="U+000D-FB06"
  />
<missing-glyph horiz-adv-x="250" 
 />
    <glyph glyph-name="f_b" unicode="fb" horiz-adv-x="926" 
d="M892 255c0 -173 -101 -273 -239 -273c-68 0 -115 22 -151 49h-1l-108 -40h-3v618c-23 25 -55 41 -95 41c-50 0 -84 -28 -84 -78v-62h118v-107h-118v-403h-122v403h-51v5l51 102v74c0 108 68 173 177 173c60 0 99 -12 134 -38h1l108 40h3v-289h1c41 36 90 58 153 58
c132 0 226 -104 226 -273zM764 255c0 104 -57 164 -137 164c-49 0 -88 -24 -115 -57v-224c25 -26 64 -47 110 -47c84 0 142 58 142 164z" />
    <glyph glyph-name="f_f_b" unicode="ffb" horiz-adv-x="1227" 
d="M1193 255c0 -173 -101 -273 -239 -273c-68 0 -115 22 -151 49h-1l-108 -40h-3v618c-23 25 -55 41 -95 41c-51 0 -84 -28 -84 -78v-62h118v-107h-118v-403h-122v403h-179v-403h-122v403h-51v5l51 102v74c0 106 67 173 193 173c61 0 115 -11 164 -41c29 26 71 41 121 41
c60 0 99 -12 134 -38h1l108 40h3v-289h1c41 36 89 58 153 58c132 0 226 -104 226 -273zM1065 255c0 104 -57 164 -137 164c-50 0 -88 -24 -115 -57v-224c25 -26 64 -47 110 -47c84 0 142 58 142 164zM390 510v74c0 17 2 32 7 43c-29 22 -64 28 -97 28c-56 0 -89 -27 -89 -83
v-62h179z" />
    <glyph glyph-name="f_f" unicode="ff" horiz-adv-x="622" 
d="M512 0h-122v403h-179v-403h-122v403h-51v5l51 102v74c0 106 67 173 193 173c60 0 114 -11 160 -40c26 25 63 40 110 40c36 0 73 -7 104 -25v-115h-4c-19 20 -45 33 -72 33c-49 0 -68 -33 -68 -78v-62h118v-107h-118v-403zM390 510v74c0 17 2 32 6 45
c-27 20 -63 26 -96 26c-56 0 -89 -27 -89 -83v-62h179z" />
    <glyph glyph-name="f_h" unicode="fh" horiz-adv-x="930" 
d="M847 0h-122v306c0 77 -44 113 -103 113c-45 0 -83 -23 -110 -57v-362h-122v609c-23 25 -55 41 -95 41c-50 0 -84 -28 -84 -78v-62h118v-107h-118v-403h-122v403h-51v5l51 102v74c0 108 68 173 177 173c60 0 99 -12 134 -38h1l108 40h3v-289h1c40 36 89 58 149 58
c99 0 185 -58 185 -183v-345z" />
    <glyph glyph-name="f_f_h" unicode="ffh" horiz-adv-x="1231" 
d="M1148 0h-122v306c0 77 -44 113 -103 113c-45 0 -83 -23 -110 -57v-362h-122v609c-23 25 -55 41 -95 41c-51 0 -84 -28 -84 -78v-62h118v-107h-118v-403h-122v403h-179v-403h-122v403h-51v5l51 102v74c0 106 67 173 193 173c61 0 115 -11 164 -41c29 26 71 41 121 41
c60 0 99 -12 134 -38h1l108 40h3v-289h1c40 36 89 58 149 58c99 0 185 -58 185 -183v-345zM390 510v74c0 17 2 31 7 43c-29 22 -64 28 -97 28c-56 0 -89 -27 -89 -83v-62h179z" />
    <glyph glyph-name="fi" unicode="fi" horiz-adv-x="592" 
d="M512 0h-122v403h-179v-403h-122v403h-51v5l51 102v74c0 114 82 173 231 173c67 0 136 -11 194 -40v-118h-4c-38 34 -105 51 -167 51c-93 0 -132 -29 -132 -83v-57h301v-510z" />
    <glyph glyph-name="f_f_i" unicode="ffi" horiz-adv-x="893" 
d="M813 0h-122v403h-179v-403h-122v403h-179v-403h-122v403h-51v5l51 102v74c0 106 67 173 193 173c65 0 120 -12 171 -44c38 29 96 44 168 44c67 0 136 -11 194 -40v-118h-4c-38 34 -105 51 -167 51c-93 0 -132 -29 -132 -83v-57h301v-510zM390 510v74c0 17 2 31 7 43
c-29 22 -64 28 -97 28c-56 0 -89 -27 -89 -83v-62h179z" />
    <glyph glyph-name="f_j" unicode="fj" horiz-adv-x="592" 
d="M351 -193c-38 0 -77 8 -105 25v115h3c19 -19 45 -33 72 -33c40 0 69 20 69 78v411h-179v-403h-122v403h-51v5l51 102v74c0 114 82 173 231 173c67 0 136 -11 194 -40v-118h-4c-38 34 -105 51 -167 51c-93 0 -132 -29 -132 -83v-57h301v-526c0 -118 -63 -177 -161 -177z
" />
    <glyph glyph-name="f_f_j" unicode="ffj" horiz-adv-x="893" 
d="M652 -193c-39 0 -77 8 -105 25v115h3c19 -20 48 -33 73 -33c44 0 68 26 68 79v410h-179v-403h-122v403h-179v-403h-122v403h-51v5l51 102v74c0 106 67 173 193 173c65 0 120 -12 171 -44c38 29 96 44 168 44c67 0 136 -11 194 -40v-118h-4c-38 34 -105 51 -167 51
c-93 0 -132 -29 -132 -83v-57h301v-522c0 -123 -64 -181 -161 -181zM390 510v74c0 17 2 31 7 43c-29 22 -64 28 -97 28c-56 0 -89 -27 -89 -83v-62h179z" />
    <glyph glyph-name="f_k" unicode="fk" horiz-adv-x="866" 
d="M512 0h-122v609c-23 25 -55 41 -95 41c-50 0 -84 -28 -84 -78v-62h118v-107h-118v-403h-122v403h-51v5l51 102v74c0 108 68 173 177 173c60 0 99 -12 134 -38h1l108 40h3v-759zM851 0h-147l-182 256v4l174 250h142l-177 -249v-2z" />
    <glyph glyph-name="f_f_k" unicode="ffk" horiz-adv-x="1167" 
d="M813 0h-122v609c-23 25 -55 41 -95 41c-51 0 -84 -28 -84 -78v-62h118v-107h-118v-403h-122v403h-179v-403h-122v403h-51v5l51 102v74c0 106 67 173 193 173c61 0 115 -11 164 -41c29 26 71 41 121 41c60 0 99 -12 134 -38h1l108 40h3v-759zM1152 0h-147l-182 256v4
l174 250h142l-178 -249v-2zM390 510v74c0 17 2 31 7 43c-29 22 -64 28 -97 28c-56 0 -89 -27 -89 -83v-62h179z" />
    <glyph glyph-name="fl" unicode="fl" horiz-adv-x="592" 
d="M512 0h-122v609c-23 25 -55 41 -95 41c-50 0 -84 -28 -84 -78v-62h118v-107h-118v-403h-122v403h-51v5l51 102v74c0 108 68 173 177 173c60 0 99 -12 134 -38h1l108 40h3v-759z" />
    <glyph glyph-name="f_f_l" unicode="ffl" horiz-adv-x="893" 
d="M813 0h-122v609c-23 25 -55 41 -95 41c-51 0 -84 -28 -84 -78v-62h118v-107h-118v-403h-122v403h-179v-403h-122v403h-51v5l51 102v74c0 106 67 173 193 173c61 0 115 -11 164 -41c29 26 71 41 121 41c60 0 99 -12 134 -38h1l108 40h3v-759zM390 510v74c0 17 2 31 7 43
c-29 22 -64 28 -97 28c-56 0 -89 -27 -89 -83v-62h179z" />
    <glyph glyph-name="f_t" unicode="ft" horiz-adv-x="655" 
d="M512 0h-122v403h-179v-403h-122v403h-51v5l51 102v74c0 105 56 173 158 173c36 0 68 -7 98 -25v-112h-3c-18 18 -43 29 -68 29c-45 0 -63 -33 -63 -78v-61h179v152h122v-152h118v-107h-118v-403z" />
    <glyph glyph-name="f_f_t" unicode="fft" horiz-adv-x="956" 
d="M813 0h-122v403h-179v-403h-122v403h-179v-403h-122v403h-51v5l51 102v74c0 106 67 173 193 173c59 0 112 -11 160 -39c25 24 61 39 105 39c37 0 69 -7 99 -25v-112h-3c-19 18 -43 29 -68 29c-45 0 -63 -33 -63 -78v-61h179v152h122v-152h118v-107h-118v-403zM390 510v74
c0 16 2 31 6 45c-30 20 -64 26 -96 26c-56 0 -89 -27 -89 -83v-62h179z" />
    <glyph glyph-name=".notdef" horiz-adv-x="250" 
 />
    <glyph glyph-name=".null" horiz-adv-x="0" 
 />
    <glyph glyph-name=".null" horiz-adv-x="0" 
 />
    <glyph glyph-name="CR" unicode="&#xd;" horiz-adv-x="0" 
 />
    <glyph glyph-name="space" unicode=" " horiz-adv-x="270" 
 />
    <glyph glyph-name="space" unicode="&#xa0;" horiz-adv-x="270" 
 />
    <glyph glyph-name="nbspace" unicode="&#xe030;" 
 />
    <glyph glyph-name="A" unicode="A" horiz-adv-x="686" 
d="M673 0h-142l-64 175h-253l-64 -175h-137l273 700h113zM425 289l-84 232h-1l-85 -232h170z" />
    <glyph glyph-name="B" unicode="B" horiz-adv-x="630" 
d="M574 184c0 -128 -90 -184 -245 -184h-236v682h227c128 0 215 -62 215 -174c0 -74 -40 -127 -91 -158v-1c63 -16 130 -70 130 -165zM443 204c0 55 -45 85 -114 85h-107v-177h100c77 0 121 29 121 92zM403 486c0 51 -40 84 -104 84h-77v-173h106c54 18 75 47 75 89z" />
    <glyph glyph-name="C" unicode="C" horiz-adv-x="612" 
d="M561 198v-149c-55 -42 -125 -67 -208 -67c-175 0 -310 128 -310 359c0 222 126 359 306 359c83 0 155 -24 208 -67v-149h-4c-44 60 -110 94 -181 94c-119 0 -194 -92 -194 -237c0 -144 76 -237 198 -237c72 0 139 36 181 94h4z" />
    <glyph glyph-name="D" unicode="D" horiz-adv-x="720" 
d="M677 341c0 -230 -160 -341 -348 -341h-236v682h236c187 0 348 -111 348 -341zM546 341c0 147 -96 220 -220 220h-104v-440h104c124 0 220 72 220 220z" />
    <glyph glyph-name="E" unicode="E" horiz-adv-x="549" 
d="M488 0h-395v682h369v-121h-240v-151h230v-123h-230v-166h266v-121z" />
    <glyph glyph-name="F" unicode="F" horiz-adv-x="507" 
d="M222 0h-129v682h369v-121h-240v-181h230v-121h-230v-259z" />
    <glyph glyph-name="G" unicode="G" horiz-adv-x="708" 
d="M365 -18c-183 0 -322 129 -322 359c0 221 137 359 335 359c94 0 173 -29 233 -70v-146h-4c-55 60 -127 95 -212 95c-133 0 -217 -89 -217 -242c0 -164 84 -240 186 -240c89 0 161 44 166 160h-198v5l46 116h285c1 -13 2 -50 2 -63c0 -233 -132 -333 -300 -333z" />
    <glyph glyph-name="H" unicode="H" horiz-adv-x="760" 
d="M667 0h-129v292h-316v-292h-129v682h129v-269h316v269h129v-682z" />
    <glyph glyph-name="I" unicode="I" horiz-adv-x="315" 
d="M222 0h-129v682h129v-682z" />
    <glyph glyph-name="J" unicode="J" horiz-adv-x="438" 
d="M167 -18c-40 0 -82 11 -112 31v137h4c23 -31 54 -46 83 -46c57 0 84 33 84 102v354h-178v5l47 117h259v-500c0 -115 -52 -200 -187 -200z" />
    <glyph glyph-name="K" unicode="K" horiz-adv-x="642" 
d="M222 0h-129v682h129v-682zM622 0h-156l-231 343v5l221 334h153l-225 -333v-2z" />
    <glyph glyph-name="L" unicode="L" horiz-adv-x="503" 
d="M468 0h-375v682h129v-561h246v-121z" />
    <glyph glyph-name="M" unicode="M" horiz-adv-x="881" 
d="M807 0h-130l-35 382h-1l-196 -400h-9l-198 401h-1l-33 -383h-130l60 691h103l203 -441h1l203 441h103z" />
    <glyph glyph-name="N" unicode="N" horiz-adv-x="765" 
d="M672 -9h-104l-345 438h-1v-429h-129v633l-31 43v6h134l346 -446h1v446h129v-691z" />
    <glyph glyph-name="O" unicode="O" horiz-adv-x="751" 
d="M708 341c0 -227 -144 -359 -334 -359c-183 0 -331 130 -331 359c0 227 145 359 335 359c183 0 330 -131 330 -359zM574 341c0 154 -85 239 -196 239s-200 -81 -200 -239c0 -154 85 -240 196 -240s200 82 200 240z" />
    <glyph glyph-name="P" unicode="P" horiz-adv-x="608" 
d="M560 468c0 -148 -95 -240 -338 -261v-207h-129v682h223c136 0 244 -72 244 -214zM429 457c0 69 -51 106 -124 106h-83v-237c154 7 207 63 207 131z" />
    <glyph glyph-name="Q" unicode="Q" horiz-adv-x="751" 
d="M708 341c0 -193 -105 -314 -246 -347l159 -187h-150l-142 179c-159 18 -286 143 -286 355c0 227 145 359 335 359c183 0 330 -131 330 -359zM574 341c0 154 -85 239 -196 239s-200 -81 -200 -239c0 -154 85 -239 196 -239s200 81 200 239z" />
    <glyph glyph-name="R" unicode="R" horiz-adv-x="653" 
d="M628 0h-158l-235 319v5c154 24 199 69 199 136c0 63 -47 103 -132 103h-80v-563h-129v682h231c141 0 241 -69 241 -205c0 -100 -41 -167 -138 -210v-2z" />
    <glyph glyph-name="S" unicode="S" horiz-adv-x="548" 
d="M497 185c0 -114 -83 -203 -230 -203c-80 0 -149 21 -201 61v138h3c48 -56 123 -85 188 -85c70 0 111 26 111 79c0 135 -299 88 -299 323c0 103 62 202 218 202c67 0 136 -20 186 -61v-138h-3c-46 57 -112 85 -172 85c-65 0 -99 -30 -99 -75c0 -135 298 -87 298 -326z" />
    <glyph glyph-name="T" unicode="T" horiz-adv-x="558" 
d="M344 -1h-129v561h-185v121h498v-121h-184v-561z" />
    <glyph glyph-name="U" unicode="U" horiz-adv-x="669" 
d="M335 -18c-154 0 -252 80 -252 232v468h129v-454c0 -85 45 -125 120 -125c74 0 120 40 120 125v454h134v-468c0 -152 -98 -232 -251 -232z" />
    <glyph glyph-name="V" unicode="V" horiz-adv-x="661" 
d="M383 -18h-104l-269 700h143l180 -504h1l179 504h138z" />
    <glyph glyph-name="W" unicode="W" horiz-adv-x="987" 
d="M726 -18h-104l-128 362h-1l-128 -362h-104l-243 700h141l162 -467h1l110 315l-50 152h136l156 -467h1l158 467h136z" />
    <glyph glyph-name="X" unicode="X" horiz-adv-x="692" 
d="M661 0h-155l-163 249h-1l-148 -249h-152l208 347l-220 335h154l158 -244h1l149 244h152l-208 -337z" />
    <glyph glyph-name="Y" unicode="Y" horiz-adv-x="626" 
d="M378 0h-129v270l-241 412h154l150 -279h1l155 279h150l-240 -412v-270z" />
    <glyph glyph-name="Z" unicode="Z" horiz-adv-x="654" 
d="M600 0h-549v8l307 552v1h-284v121h504v-8l-308 -552v-1h330v-121z" />
    <glyph glyph-name="Agrave" unicode="&#xc0;" horiz-adv-x="686" 
d="M673 0h-142l-64 175h-253l-64 -175h-137l272 697l-84 103h127l62 -100h9zM425 289l-84 232h-1l-85 -232h170z" />
    <glyph glyph-name="Aacute" unicode="&#xc1;" horiz-adv-x="686" 
d="M673 0h-142l-64 175h-253l-64 -175h-137l273 700h9l63 100h127l-85 -104zM425 289l-84 232h-1l-85 -232h170z" />
    <glyph glyph-name="Acircumflex" unicode="&#xc2;" horiz-adv-x="686" 
d="M503 682h-97l267 -682h-142l-64 175h-253l-64 -175h-137l266 682h-96l108 128h104zM425 289l-84 232h-1l-85 -232h170zM343 744l-39 -44h78l-38 44h-1z" />
    <glyph glyph-name="Atilde" unicode="&#xc3;" horiz-adv-x="686" 
d="M414 696c-5 0 -10 0 -14 1l273 -697h-142l-64 175h-253l-64 -175h-137l273 700h100c-39 10 -76 38 -102 38c-25 0 -29 -18 -37 -42h-77c14 63 34 118 102 118c48 0 97 -42 130 -42c25 0 29 17 37 42h77c-14 -67 -34 -118 -102 -118zM425 289l-84 232h-1l-85 -232h170z
" />
    <glyph glyph-name="Adieresis" unicode="&#xc4;" horiz-adv-x="686" 
d="M673 0h-142l-64 175h-253l-64 -175h-137l273 700h113zM425 289l-84 232h-1l-85 -232h170zM293 719h-120v95h120v-95zM513 719h-121v95h121v-95z" />
    <glyph glyph-name="Amacron" unicode="&#x100;" horiz-adv-x="686" 
d="M673 0h-142l-64 175h-253l-64 -175h-137l273 700h113zM425 289l-84 232h-1l-85 -232h170zM507 730h-328v84h328v-84z" />
    <glyph glyph-name="Abreve" unicode="&#x102;" horiz-adv-x="686" 
d="M673 0h-142l-64 175h-253l-64 -175h-137l273 700h13c-64 12 -106 52 -114 114h88c9 -27 31 -42 70 -42s61 15 69 42h89c-9 -62 -51 -102 -115 -114h13zM425 289l-84 232h-1l-85 -232h170z" />
    <glyph glyph-name="Aring" unicode="&#xc5;" horiz-adv-x="686" 
d="M466 775c0 -43 -26 -71 -64 -84l271 -691h-142l-64 175h-253l-64 -175h-137l269 690c-38 13 -63 41 -63 85c0 62 55 92 125 92c69 0 122 -30 122 -92zM425 289l-84 232h-1l-85 -232h170zM391 775c0 22 -20 35 -48 35c-29 0 -50 -13 -50 -35c0 -23 21 -36 50 -36
c28 0 48 13 48 36z" />
    <glyph glyph-name="Aringacute" unicode="&#x1fa;" horiz-adv-x="686" 
d="M466 775c0 -43 -26 -71 -64 -84l271 -691h-142l-64 175h-253l-64 -175h-137l269 690c-38 13 -63 41 -63 85c0 47 32 77 79 87l65 103h127l-87 -107c38 -13 63 -41 63 -83zM425 289l-84 232h-1l-85 -232h170zM391 775c0 22 -20 35 -48 35c-29 0 -50 -13 -50 -35
c0 -23 21 -36 50 -36c28 0 48 13 48 36z" />
    <glyph glyph-name="Aogonek" unicode="&#x104;" horiz-adv-x="686" 
d="M666 -171c-29 -14 -66 -22 -100 -22c-74 0 -106 36 -106 78c0 41 27 77 71 115l-64 175h-253l-64 -175h-137l273 700h113l274 -700h-58c-43 -40 -59 -62 -59 -86c0 -21 16 -32 41 -32c23 0 45 9 66 25h3v-78zM425 289l-84 232h-1l-85 -232h170z" />
    <glyph glyph-name="AE" unicode="&#xc6;" horiz-adv-x="927" 
d="M866 0h-395v251h-176l-135 -251h-150l372 682h458v-121h-240v-168h230v-121h-230v-151h266v-121zM468 585l-113 -213h116v213h-3z" />
    <glyph glyph-name="AEacute" unicode="&#x1fc;" horiz-adv-x="927" 
d="M866 0h-395v251h-176l-135 -251h-150l372 682h90l74 118h127l-96 -118h263v-121h-240v-168h230v-121h-230v-151h266v-121zM468 585l-113 -213h116v213h-3z" />
    <glyph glyph-name="Cacute" unicode="&#x106;" horiz-adv-x="612" 
d="M561 198v-149c-55 -42 -125 -67 -208 -67c-175 0 -310 128 -310 359c0 202 104 333 259 355l65 104h127l-85 -105c58 -8 108 -30 148 -62v-149h-4c-44 60 -110 94 -181 94c-119 0 -194 -92 -194 -237c0 -144 76 -237 198 -237c72 0 139 36 181 94h4z" />
    <glyph glyph-name="Ccircumflex" unicode="&#x108;" horiz-adv-x="612" 
d="M511 682h-45c34 -12 65 -28 91 -49v-149h-4c-44 60 -110 94 -181 94c-119 0 -194 -92 -194 -237c0 -144 76 -237 198 -237c72 0 139 36 181 94h4v-149c-55 -42 -125 -67 -208 -67c-175 0 -310 128 -310 359c0 174 78 297 199 341h-51l108 128h104zM349 700
c14 0 29 -1 43 -2l-40 46h-1l-41 -47c12 2 25 3 39 3z" />
    <glyph glyph-name="Ccaron" unicode="&#x10c;" horiz-adv-x="612" 
d="M561 198v-149c-55 -42 -125 -67 -208 -67c-175 0 -310 128 -310 359c0 195 97 324 243 353l-93 111h105l54 -62h1l55 62h105l-94 -111c53 -10 100 -31 138 -61v-149h-4c-44 60 -110 94 -181 94c-119 0 -194 -92 -194 -237c0 -144 76 -237 198 -237c72 0 139 36 181 94h4z
" />
    <glyph glyph-name="Cdotaccent" unicode="&#x10a;" horiz-adv-x="612" 
d="M415 719h-130v95h130v-95zM561 198v-149c-55 -42 -125 -67 -208 -67c-175 0 -310 128 -310 359c0 222 126 359 306 359c83 0 155 -24 208 -67v-149h-4c-44 60 -110 94 -181 94c-119 0 -194 -92 -194 -237c0 -144 76 -237 198 -237c72 0 139 36 181 94h4z" />
    <glyph glyph-name="Ccedilla" unicode="&#xc7;" horiz-adv-x="612" 
d="M454 -115c0 -47 -43 -78 -119 -78c-34 0 -72 4 -103 17v62h3c19 -11 47 -21 77 -21s43 9 43 23c0 22 -29 27 -82 30l18 70c-144 26 -248 150 -248 353c0 222 126 359 306 359c83 0 155 -24 208 -67v-149h-4c-44 60 -110 94 -181 94c-119 0 -194 -92 -194 -237
c0 -144 76 -237 198 -237c72 0 139 36 181 94h4v-149c-50 -38 -111 -62 -184 -66l-6 -24c47 -8 83 -27 83 -74z" />
    <glyph glyph-name="Ccedilla.fr" unicode="&#xe16a;" horiz-adv-x="612" 
d="M336 -136h-115l87 121c-153 20 -265 145 -265 356c0 222 126 359 306 359c83 0 155 -24 208 -67v-149h-4c-44 60 -110 94 -181 94c-119 0 -194 -92 -194 -237c0 -144 76 -237 198 -237c72 0 139 36 181 94h4v-149c-41 -31 -90 -53 -147 -62z" />
    <glyph glyph-name="Dcaron" unicode="&#x10e;" horiz-adv-x="720" 
d="M677 341c0 -230 -160 -341 -348 -341h-236v682h161l-104 123h105l54 -62h1l55 62h105l-105 -125c171 -13 312 -124 312 -339zM546 341c0 147 -96 220 -220 220h-104v-440h104c124 0 220 72 220 220z" />
    <glyph glyph-name="Dcroat" unicode="&#x110;" horiz-adv-x="720" 
d="M677 341c0 -230 -160 -341 -348 -341h-236v297h-93v103h93v282h236c187 0 348 -111 348 -341zM546 341c0 147 -96 220 -220 220h-104v-161h164v-103h-164v-176h104c124 0 220 72 220 220z" />
    <glyph glyph-name="Egrave" unicode="&#xc8;" horiz-adv-x="549" 
d="M488 0h-395v682h141l-96 118h127l74 -118h123v-121h-240v-151h230v-123h-230v-166h266v-121z" />
    <glyph glyph-name="Eacute" unicode="&#xc9;" horiz-adv-x="549" 
d="M488 0h-395v682h128l74 118h127l-96 -118h136v-121h-240v-151h230v-123h-230v-166h266v-121z" />
    <glyph glyph-name="Ecircumflex" unicode="&#xca;" horiz-adv-x="549" 
d="M435 682h27v-121h-240v-151h230v-123h-230v-166h266v-121h-395v682h22l108 128h104zM275 744l-55 -62h110l-54 62h-1z" />
    <glyph glyph-name="Ecaron" unicode="&#x11a;" horiz-adv-x="549" 
d="M488 0h-395v682h125l-104 123h105l54 -62h1l55 62h105l-104 -123h132v-121h-240v-151h230v-123h-230v-166h266v-121z" />
    <glyph glyph-name="Edieresis" unicode="&#xcb;" horiz-adv-x="549" 
d="M224 719h-120v95h120v-95zM444 719h-121v95h121v-95zM488 0h-395v682h369v-121h-240v-151h230v-123h-230v-166h266v-121z" />
    <glyph glyph-name="Emacron" unicode="&#x112;" horiz-adv-x="549" 
d="M441 730h-328v84h328v-84zM488 0h-395v682h369v-121h-240v-151h230v-123h-230v-166h266v-121z" />
    <glyph glyph-name="Ebreve" unicode="&#x114;" horiz-adv-x="549" 
d="M274 696c-88 0 -148 43 -158 118h88c9 -27 31 -42 70 -42s61 15 69 42h89c-10 -75 -70 -118 -158 -118zM488 0h-395v682h369v-121h-240v-151h230v-123h-230v-166h266v-121z" />
    <glyph glyph-name="Edotaccent" unicode="&#x116;" horiz-adv-x="549" 
d="M339 719h-130v95h130v-95zM488 0h-395v682h369v-121h-240v-151h230v-123h-230v-166h266v-121z" />
    <glyph glyph-name="Eogonek" unicode="&#x118;" horiz-adv-x="549" 
d="M488 0h-51c-43 -40 -59 -62 -59 -86c0 -21 16 -32 41 -32c23 0 45 9 66 25h3v-78c-29 -14 -66 -22 -100 -22c-74 0 -106 36 -106 78c0 41 27 77 71 115h-260v682h369v-121h-240v-151h230v-123h-230v-166h266v-121z" />
    <glyph glyph-name="fi.cap" unicode="&#xe09f;" horiz-adv-x="825" 
d="M729 0h-129v682h129v-682zM222 0h-129v682h369v-121h-240v-181h230v-121h-230v-259z" />
    <glyph glyph-name="fl.cap" unicode="&#xe0a0;" horiz-adv-x="1010" 
d="M975 0h-375v682h129v-561h246v-121zM222 0h-129v682h369v-121h-240v-181h230v-121h-230v-259z" />
    <glyph glyph-name="Gcircumflex" unicode="&#x11c;" horiz-adv-x="708" 
d="M533 682h-31c41 -13 77 -31 109 -52v-146h-4c-55 60 -127 95 -212 95c-133 0 -217 -89 -217 -242c0 -164 84 -240 186 -240c89 0 161 44 166 160h-198v5l46 116h285c1 -13 2 -50 2 -63c0 -233 -132 -333 -300 -333c-183 0 -322 129 -322 359c0 174 85 297 218 341h-48
l108 128h104zM378 700c12 0 24 -1 35 -2l-39 46h-1l-42 -47c15 2 31 3 47 3z" />
    <glyph glyph-name="Gbreve" unicode="&#x11e;" horiz-adv-x="708" 
d="M365 -18c-183 0 -322 129 -322 359c0 206 119 339 295 357c-71 9 -118 50 -127 116h88c9 -27 31 -42 70 -42s61 15 69 42h89c-9 -64 -54 -104 -121 -115c82 -5 151 -32 205 -69v-146h-4c-55 60 -127 95 -212 95c-133 0 -217 -89 -217 -242c0 -164 84 -240 186 -240
c89 0 161 44 166 160h-198v5l46 116h285c1 -13 2 -50 2 -63c0 -233 -132 -333 -300 -333z" />
    <glyph glyph-name="Gdotaccent" unicode="&#x120;" horiz-adv-x="708" 
d="M439 719h-130v95h130v-95zM365 -18c-183 0 -322 129 -322 359c0 221 137 359 335 359c94 0 173 -29 233 -70v-146h-4c-55 60 -127 95 -212 95c-133 0 -217 -89 -217 -242c0 -164 84 -240 186 -240c89 0 161 44 166 160h-198v5l46 116h285c1 -13 2 -50 2 -63
c0 -233 -132 -333 -300 -333z" />
    <glyph glyph-name="Gcommaaccent" unicode="&#x122;" horiz-adv-x="708" 
d="M321 -193h-105l97 156h123zM365 -18c-183 0 -322 129 -322 359c0 221 137 359 335 359c94 0 173 -29 233 -70v-146h-4c-55 60 -127 95 -212 95c-133 0 -217 -89 -217 -242c0 -164 84 -240 186 -240c89 0 161 44 166 160h-198v5l46 116h285c1 -13 2 -50 2 -63
c0 -233 -132 -333 -300 -333z" />
    <glyph glyph-name="Hcircumflex" unicode="&#x124;" horiz-adv-x="760" 
d="M552 682h126v-682h-129v292h-316v-292h-129v682h128l108 128h104zM549 413v269h-102l-54 62h-1l-55 -62h-104v-269h316z" />
    <glyph glyph-name="Hbar" unicode="&#x126;" horiz-adv-x="760" 
d="M678 0h-129v293h-316v-293h-129v499h-104v103h104v80h129v-80h316v80h129v-80h83v-103h-83v-499zM233 414h316v85h-316v-85z" />
    <glyph glyph-name="Igrave" unicode="&#xcc;" horiz-adv-x="318" 
d="M211 682h11v-682h-129v682h13l-96 118h127z" />
    <glyph glyph-name="Iacute" unicode="&#xcd;" horiz-adv-x="318" 
d="M210 682h12v-682h-129v682h12l74 118h127z" />
    <glyph glyph-name="Icircumflex" unicode="&#xce;" horiz-adv-x="318" 
d="M319 682h-97v-682h-129v682h-94l108 128h104zM159 744l-55 -62h110l-54 62h-1z" />
    <glyph glyph-name="Itilde" unicode="&#x128;" horiz-adv-x="318" 
d="M222 0h-129v682h129v-682zM230 696c-48 0 -98 42 -130 42c-25 0 -29 -18 -37 -42h-77c14 63 34 118 102 118c48 0 97 -42 130 -42c25 0 29 17 37 42h77c-14 -67 -34 -118 -102 -118z" />
    <glyph glyph-name="Idieresis" unicode="&#xcf;" horiz-adv-x="318" 
d="M222 0h-129v682h129v-682zM110 719h-120v95h120v-95zM330 719h-121v95h121v-95z" />
    <glyph glyph-name="Imacron" unicode="&#x12a;" horiz-adv-x="318" 
d="M222 0h-129v682h129v-682zM323 730h-328v84h328v-84z" />
    <glyph glyph-name="Ibreve" unicode="&#x12c;" horiz-adv-x="318" 
d="M222 0h-129v682h129v-682zM159 696c-88 0 -148 43 -158 118h88c9 -27 31 -42 70 -42s61 15 69 42h89c-10 -75 -70 -118 -158 -118z" />
    <glyph glyph-name="Idotaccent" unicode="&#x130;" horiz-adv-x="318" 
d="M222 0h-129v682h129v-682zM223 719h-130v95h130v-95z" />
    <glyph glyph-name="Iogonek" unicode="&#x12e;" horiz-adv-x="318" 
d="M245 -171c-29 -14 -66 -22 -100 -22c-74 0 -106 36 -106 78c0 41 27 77 71 115h-17v682h129v-682h-28c-43 -40 -59 -62 -59 -86c0 -21 16 -32 41 -32c23 0 45 9 66 25h3v-78z" />
    <glyph glyph-name="IJ" unicode="&#x132;" horiz-adv-x="755" 
d="M222 0h-129v682h129v-682zM485 -18c-40 0 -82 11 -112 31v137h4c23 -31 54 -46 83 -46c57 0 84 33 84 102v354h-178v5l47 117h259v-500c0 -115 -52 -200 -187 -200z" />
    <glyph glyph-name="Jcircumflex" unicode="&#x134;" horiz-adv-x="438" 
d="M372 682h-18v-500c0 -115 -52 -200 -187 -200c-40 0 -82 11 -112 31v137h4c23 -31 54 -46 83 -46c57 0 84 33 84 102v354h-178v5l47 117h-43l108 128h104zM212 744l-55 -62h110l-54 62h-1z" />
    <glyph glyph-name="Kcommaaccent" unicode="&#x136;" horiz-adv-x="642" 
d="M299 -193h-105l97 156h123zM222 0h-129v682h129v-682zM622 0h-156l-231 343v5l221 334h153l-225 -333v-2z" />
    <glyph glyph-name="Lacute" unicode="&#x139;" horiz-adv-x="503" 
d="M468 0h-375v682h12l74 118h127l-96 -118h12v-561h246v-121z" />
    <glyph glyph-name="Lcaron" unicode="&#x13d;" horiz-adv-x="503" 
d="M360 551h-93l54 199h109zM468 0h-375v682h129v-561h246v-121z" />
    <glyph glyph-name="Lcommaaccent" unicode="&#x13b;" horiz-adv-x="503" 
d="M247 -193h-105l97 156h123zM468 0h-375v682h129v-561h246v-121z" />
    <glyph glyph-name="Lslash" unicode="&#x141;" horiz-adv-x="503" 
d="M468 0h-375v253l-93 -44v114l93 45v314h129v-252l171 82v-115l-171 -82v-194h246v-121z" />
    <glyph glyph-name="Ldot" unicode="&#x13f;" horiz-adv-x="532" 
d="M468 0h-375v682h129v-558h246v-124zM486 312h-127v131h127v-131z" />
    <glyph glyph-name="Nacute" unicode="&#x143;" horiz-adv-x="765" 
d="M417 682h-105l74 118h127zM672 -9h-104l-345 438h-1v-429h-129v633l-31 43v6h134l346 -446h1v446h129v-691z" />
    <glyph glyph-name="Ncaron" unicode="&#x147;" horiz-adv-x="765" 
d="M434 677h-104l-108 128h105l54 -62h1l55 62h105zM672 -9h-104l-345 438h-1v-429h-129v633l-31 43v6h134l346 -446h1v446h129v-691z" />
    <glyph glyph-name="Ntilde" unicode="&#xd1;" horiz-adv-x="765" 
d="M448 696c-48 0 -98 42 -130 42c-25 0 -29 -18 -37 -42h-77c14 63 34 118 102 118c48 0 97 -42 130 -42c25 0 29 17 37 42h77c-14 -67 -34 -118 -102 -118zM672 -9h-104l-345 438h-1v-429h-129v633l-31 43v6h134l346 -446h1v446h129v-691z" />
    <glyph glyph-name="Ncommaaccent" unicode="&#x145;" horiz-adv-x="765" 
d="M357 -193h-105l97 156h123zM672 -9h-104l-345 438h-1v-429h-129v633l-31 43v6h134l346 -446h1v446h129v-691z" />
    <glyph glyph-name="Ograve" unicode="&#xd2;" horiz-adv-x="751" 
d="M708 341c0 -227 -144 -359 -334 -359c-183 0 -331 130 -331 359c0 201 114 328 272 354l-85 105h127l64 -103c162 -19 287 -146 287 -356zM574 341c0 154 -85 239 -196 239s-200 -81 -200 -239c0 -154 85 -240 196 -240s200 82 200 240z" />
    <glyph glyph-name="Oacute" unicode="&#xd3;" horiz-adv-x="751" 
d="M708 341c0 -227 -144 -359 -334 -359c-183 0 -331 130 -331 359c0 207 120 335 285 356l65 103h127l-85 -105c155 -24 273 -151 273 -354zM574 341c0 154 -85 239 -196 239s-200 -81 -200 -239c0 -154 85 -240 196 -240s200 82 200 240z" />
    <glyph glyph-name="Ocircumflex" unicode="&#xd4;" horiz-adv-x="751" 
d="M535 682h-45c127 -43 218 -162 218 -341c0 -227 -144 -359 -334 -359c-183 0 -331 130 -331 359c0 178 89 297 219 341h-47l108 128h104zM574 341c0 154 -85 239 -196 239s-200 -81 -200 -239c0 -154 85 -240 196 -240s200 82 200 240zM378 700c13 0 25 -1 38 -2l-40 46
h-1l-41 -47c14 2 29 3 44 3z" />
    <glyph glyph-name="Otilde" unicode="&#xd5;" horiz-adv-x="751" 
d="M451 696c-48 0 -98 42 -130 42c-25 0 -29 -18 -37 -42h-77c14 63 34 118 102 118c48 0 97 -42 130 -42c25 0 29 17 37 42h77c-14 -67 -34 -118 -102 -118zM708 341c0 -227 -144 -359 -334 -359c-183 0 -331 130 -331 359c0 227 145 359 335 359c183 0 330 -131 330 -359z
M574 341c0 154 -85 239 -196 239s-200 -81 -200 -239c0 -154 85 -240 196 -240s200 82 200 240z" />
    <glyph glyph-name="Odieresis" unicode="&#xd6;" horiz-adv-x="751" 
d="M325 719h-120v95h120v-95zM545 719h-121v95h121v-95zM708 341c0 -227 -144 -359 -334 -359c-183 0 -331 130 -331 359c0 227 145 359 335 359c183 0 330 -131 330 -359zM574 341c0 154 -85 239 -196 239s-200 -81 -200 -239c0 -154 85 -240 196 -240s200 82 200 240z" />
    <glyph glyph-name="Omacron" unicode="&#x14c;" horiz-adv-x="751" 
d="M539 730h-328v84h328v-84zM708 341c0 -227 -144 -359 -334 -359c-183 0 -331 130 -331 359c0 227 145 359 335 359c183 0 330 -131 330 -359zM574 341c0 154 -85 239 -196 239s-200 -81 -200 -239c0 -154 85 -240 196 -240s200 82 200 240z" />
    <glyph glyph-name="Obreve" unicode="&#x14e;" horiz-adv-x="751" 
d="M708 341c0 -227 -144 -359 -334 -359c-183 0 -331 130 -331 359c0 212 126 341 298 357c-69 10 -116 51 -124 116h88c9 -27 31 -42 70 -42s61 15 69 42h89c-9 -65 -55 -106 -123 -116c168 -14 298 -143 298 -357zM574 341c0 154 -85 239 -196 239s-200 -81 -200 -239
c0 -154 85 -240 196 -240s200 82 200 240z" />
    <glyph glyph-name="Ohungarumlaut" unicode="&#x150;" horiz-adv-x="751" 
d="M518 682h-28c127 -43 218 -162 218 -341c0 -227 -144 -359 -334 -359c-183 0 -331 130 -331 359c0 178 89 297 219 341h-45l74 118h127l-82 -102c13 1 28 2 42 2c15 0 29 -1 43 -3l65 103h127zM574 341c0 154 -85 239 -196 239s-200 -81 -200 -239
c0 -154 85 -240 196 -240s200 82 200 240z" />
    <glyph glyph-name="Oslash" unicode="&#xd8;" horiz-adv-x="751" 
d="M171 -18h-128l81 110c-51 61 -81 144 -81 249c0 227 145 359 335 359c62 0 121 -15 170 -45l33 45h127l-82 -111c51 -60 82 -144 82 -248c0 -227 -144 -359 -334 -359c-63 0 -121 16 -171 44zM574 341c0 55 -11 102 -31 139l-266 -352c28 -17 61 -25 97 -25
c111 0 200 80 200 238zM178 341c0 -55 10 -101 29 -137l266 350c-28 16 -60 25 -95 25c-111 0 -200 -80 -200 -238z" />
    <glyph glyph-name="Oslashacute" unicode="&#x1fe;" horiz-adv-x="751" 
d="M171 -18h-128l81 110c-51 61 -81 144 -81 249c0 207 120 335 285 356l65 103h127l-85 -105c41 -6 79 -20 113 -40l33 45h127l-82 -111c51 -60 82 -144 82 -248c0 -227 -144 -359 -334 -359c-63 0 -121 16 -171 44zM574 341c0 55 -11 102 -31 139l-266 -352
c28 -17 61 -25 97 -25c111 0 200 80 200 238zM178 341c0 -55 10 -101 29 -137l266 350c-28 16 -60 25 -95 25c-111 0 -200 -80 -200 -238z" />
    <glyph glyph-name="OE" unicode="&#x152;" horiz-adv-x="958" 
d="M898 0h-376v33c-46 -35 -103 -51 -166 -51c-168 0 -313 130 -313 359c0 227 143 359 317 359c60 0 118 -17 162 -52v34h350v-121h-240v-153h230v-121h-230v-166h266v-121zM503 155v371c-33 33 -78 53 -125 53c-111 0 -200 -79 -200 -238c0 -154 85 -238 196 -238
c49 0 95 18 129 52z" />
    <glyph glyph-name="Racute" unicode="&#x154;" horiz-adv-x="653" 
d="M331 682c137 -3 234 -72 234 -205c0 -100 -41 -167 -138 -210v-2l201 -265h-158l-235 319v5c154 24 199 69 199 136c0 63 -47 103 -132 103h-80v-563h-129v682h133l74 118h127z" />
    <glyph glyph-name="Rcaron" unicode="&#x158;" horiz-adv-x="653" 
d="M628 0h-158l-235 319v5c154 24 199 69 199 136c0 63 -47 103 -132 103h-80v-563h-129v682h150l-104 123h105l54 -62h1l55 62h105l-105 -124c125 -10 211 -78 211 -204c0 -100 -41 -167 -138 -210v-2z" />
    <glyph glyph-name="Rcommaaccent" unicode="&#x156;" horiz-adv-x="653" 
d="M303 -193h-105l97 156h123zM628 0h-158l-235 319v5c154 24 199 69 199 136c0 63 -47 103 -132 103h-80v-563h-129v682h231c141 0 241 -69 241 -205c0 -100 -41 -167 -138 -210v-2z" />
    <glyph glyph-name="germandbls.cap" unicode="&#xe0aa;" horiz-adv-x="1096" 
d="M497 185c0 -114 -83 -203 -230 -203c-80 0 -149 21 -201 61v138h3c48 -56 123 -85 188 -85c70 0 111 26 111 79c0 135 -299 88 -299 323c0 103 62 202 218 202c67 0 136 -20 186 -61v-138h-3c-46 57 -112 85 -172 85c-65 0 -99 -30 -99 -75c0 -135 298 -87 298 -326z
M1045 185c0 -114 -83 -203 -230 -203c-80 0 -149 21 -201 61v138h3c48 -56 123 -85 188 -85c70 0 111 26 111 79c0 135 -299 88 -299 323c0 103 62 202 218 202c67 0 136 -20 186 -61v-138h-3c-46 57 -112 85 -172 85c-65 0 -99 -30 -99 -75c0 -135 298 -87 298 -326z" />
    <glyph glyph-name="Sacute" unicode="&#x15a;" horiz-adv-x="548" 
d="M497 185c0 -114 -83 -203 -230 -203c-80 0 -149 21 -201 61v138h3c48 -56 123 -85 188 -85c70 0 111 26 111 79c0 135 -299 88 -299 323c0 91 49 179 169 198l65 104h127l-86 -105c48 -8 93 -27 129 -56v-138h-3c-46 57 -112 85 -172 85c-65 0 -99 -30 -99 -75
c0 -135 298 -87 298 -326z" />
    <glyph glyph-name="Scircumflex" unicode="&#x15c;" horiz-adv-x="548" 
d="M443 682h-48c28 -10 55 -25 78 -43v-138h-3c-46 57 -112 85 -172 85c-65 0 -99 -30 -99 -75c0 -135 298 -87 298 -326c0 -114 -83 -203 -230 -203c-80 0 -149 21 -201 61v138h3c48 -56 123 -85 188 -85c70 0 111 26 111 79c0 135 -299 88 -299 323c0 76 34 151 115 184
h-61l108 128h104zM287 700c12 0 24 -1 37 -2l-40 46h-1l-42 -48c14 2 29 4 46 4z" />
    <glyph glyph-name="Scaron" unicode="&#x160;" horiz-adv-x="548" 
d="M497 185c0 -114 -83 -203 -230 -203c-80 0 -149 21 -201 61v138h3c48 -56 123 -85 188 -85c70 0 111 26 111 79c0 135 -299 88 -299 323c0 87 44 171 151 195l-94 112h105l54 -62h1l55 62h105l-94 -112c44 -9 87 -26 121 -54v-138h-3c-46 57 -112 85 -172 85
c-65 0 -99 -30 -99 -75c0 -135 298 -87 298 -326z" />
    <glyph glyph-name="Scedilla" unicode="&#x15e;" horiz-adv-x="548" 
d="M375 -115c0 -47 -43 -78 -119 -78c-34 0 -72 4 -103 17v62h3c19 -11 47 -21 77 -21s43 9 43 23c0 22 -29 27 -82 30l18 68c-57 7 -107 26 -146 57v138h3c48 -56 123 -85 188 -85c70 0 111 26 111 79c0 135 -299 88 -299 323c0 103 62 202 218 202c67 0 136 -20 186 -61
v-138h-3c-46 57 -112 85 -172 85c-65 0 -99 -30 -99 -75c0 -135 298 -87 298 -326c0 -106 -71 -189 -199 -201l-6 -25c47 -8 83 -27 83 -74z" />
    <glyph glyph-name="Scommaaccent" unicode="&#x218;" horiz-adv-x="548" 
d="M225 -193h-105l97 156h123zM497 185c0 -114 -83 -203 -230 -203c-80 0 -149 21 -201 61v138h3c48 -56 123 -85 188 -85c70 0 111 26 111 79c0 135 -299 88 -299 323c0 103 62 202 218 202c67 0 136 -20 186 -61v-138h-3c-46 57 -112 85 -172 85c-65 0 -99 -30 -99 -75
c0 -135 298 -87 298 -326z" />
    <glyph glyph-name="Tcaron" unicode="&#x164;" horiz-adv-x="558" 
d="M344 -1h-129v561h-185v121h193l-104 124h105l54 -62h1l55 62h105l-105 -124h194v-121h-184v-561z" />
    <glyph glyph-name="Tcommaaccent" unicode="&#x162;" horiz-adv-x="558" 
d="M228 -193h-105l97 156h123zM344 -1h-129v561h-185v121h498v-121h-184v-561z" />
    <glyph glyph-name="Tcommaaccent" unicode="&#x21a;" horiz-adv-x="558" 
d="M228 -193h-105l97 156h123zM344 -1h-129v561h-185v121h498v-121h-184v-561z" />
    <glyph glyph-name="Tbar" unicode="&#x166;" horiz-adv-x="558" 
d="M344 0h-129v241h-125v103h125v217h-185v121h498v-121h-184v-217h124v-103h-124v-241z" />
    <glyph glyph-name="Ugrave" unicode="&#xd9;" horiz-adv-x="669" 
d="M385 682h-105l-96 118h127zM335 -18c-154 0 -252 80 -252 232v468h129v-454c0 -85 45 -125 120 -125c74 0 120 40 120 125v454h134v-468c0 -152 -98 -232 -251 -232z" />
    <glyph glyph-name="Uacute" unicode="&#xda;" horiz-adv-x="669" 
d="M381 682h-105l74 118h127zM335 -18c-154 0 -252 80 -252 232v468h129v-454c0 -85 45 -125 120 -125c74 0 120 40 120 125v454h134v-468c0 -152 -98 -232 -251 -232z" />
    <glyph glyph-name="Ucircumflex" unicode="&#xdb;" horiz-adv-x="669" 
d="M491 682h95v-468c0 -152 -98 -232 -251 -232c-154 0 -252 80 -252 232v468h88l108 128h104zM452 228v454h-66l-54 62h-1l-55 -62h-64v-454c0 -85 45 -125 120 -125c74 0 120 40 120 125z" />
    <glyph glyph-name="Utilde" unicode="&#x168;" horiz-adv-x="669" 
d="M410 696c-48 0 -98 42 -130 42c-25 0 -29 -18 -37 -42h-77c14 63 34 118 102 118c48 0 97 -42 130 -42c25 0 29 17 37 42h77c-14 -67 -34 -118 -102 -118zM335 -18c-154 0 -252 80 -252 232v468h129v-454c0 -85 45 -125 120 -125c74 0 120 40 120 125v454h134v-468
c0 -152 -98 -232 -251 -232z" />
    <glyph glyph-name="Udieresis" unicode="&#xdc;" horiz-adv-x="669" 
d="M281 719h-120v95h120v-95zM501 719h-121v95h121v-95zM335 -18c-154 0 -252 80 -252 232v468h129v-454c0 -85 45 -125 120 -125c74 0 120 40 120 125v454h134v-468c0 -152 -98 -232 -251 -232z" />
    <glyph glyph-name="Umacron" unicode="&#x16a;" horiz-adv-x="669" 
d="M498 730h-328v84h328v-84zM335 -18c-154 0 -252 80 -252 232v468h129v-454c0 -85 45 -125 120 -125c74 0 120 40 120 125v454h134v-468c0 -152 -98 -232 -251 -232z" />
    <glyph glyph-name="Ubreve" unicode="&#x16c;" horiz-adv-x="669" 
d="M332 696c-88 0 -148 43 -158 118h88c9 -27 31 -42 70 -42s61 15 69 42h89c-10 -75 -70 -118 -158 -118zM335 -18c-154 0 -252 80 -252 232v468h129v-454c0 -85 45 -125 120 -125c74 0 120 40 120 125v454h134v-468c0 -152 -98 -232 -251 -232z" />
    <glyph glyph-name="Uring" unicode="&#x16e;" horiz-adv-x="669" 
d="M335 -18c-154 0 -252 80 -252 232v468h129v-454c0 -85 45 -125 120 -125c74 0 120 40 120 125v454h134v-468c0 -152 -98 -232 -251 -232zM458 775c0 -63 -55 -93 -124 -93c-71 0 -123 30 -123 93c0 62 55 92 125 92c69 0 122 -30 122 -92zM383 775c0 22 -20 35 -48 35
c-29 0 -50 -13 -50 -35c0 -23 21 -36 50 -36c28 0 48 13 48 36z" />
    <glyph glyph-name="Uhungarumlaut" unicode="&#x170;" horiz-adv-x="669" 
d="M473 682h113v-468c0 -152 -98 -232 -251 -232c-154 0 -252 80 -252 232v468h89l74 118h127l-95 -118h-66v-454c0 -85 45 -125 120 -125c74 0 120 40 120 125v454h-85l74 118h127z" />
    <glyph glyph-name="Uogonek" unicode="&#x172;" horiz-adv-x="669" 
d="M449 -171c-29 -14 -66 -22 -100 -22c-74 0 -106 36 -106 78c0 35 20 67 54 99c-132 13 -214 91 -214 230v468h129v-454c0 -85 45 -125 120 -125c74 0 120 40 120 125v454h134v-468c0 -136 -78 -214 -204 -229c-31 -31 -43 -51 -43 -71c0 -21 16 -32 41 -32
c23 0 45 9 66 25h3v-78z" />
    <glyph glyph-name="Wgrave" unicode="&#x1e80;" horiz-adv-x="987" 
d="M726 -18h-104l-128 362h-1l-128 -362h-104l-243 700h141l162 -467h1l110 315l-50 152h42l-96 118h127l74 -118h-11l156 -467h1l158 467h136z" />
    <glyph glyph-name="Wacute" unicode="&#x1e82;" horiz-adv-x="987" 
d="M726 -18h-104l-128 362h-1l-128 -362h-104l-243 700h141l162 -467h1l110 315l-50 152h38l74 118h127l-96 -118h-7l156 -467h1l158 467h136z" />
    <glyph glyph-name="Wcircumflex" unicode="&#x174;" horiz-adv-x="987" 
d="M638 682h-105l-54 62h-1l-55 -62h95l156 -467h1l158 467h136l-243 -700h-104l-128 362h-1l-128 -362h-104l-243 700h141l162 -467h1l110 315l-50 152h-64l108 128h104z" />
    <glyph glyph-name="Wdieresis" unicode="&#x1e84;" horiz-adv-x="987" 
d="M438 719h-120v95h120v-95zM658 719h-121v95h121v-95zM726 -18h-104l-128 362h-1l-128 -362h-104l-243 700h141l162 -467h1l110 315l-50 152h136l156 -467h1l158 467h136z" />
    <glyph glyph-name="Ygrave" unicode="&#x1ef2;" horiz-adv-x="626" 
d="M378 0h-129v270l-241 412h154l150 -279h1l155 279h150l-240 -412v-270zM369 682h-105l-96 118h127z" />
    <glyph glyph-name="Yacute" unicode="&#xdd;" horiz-adv-x="626" 
d="M378 0h-129v270l-241 412h154l150 -279h1l155 279h150l-240 -412v-270zM364 682h-105l74 118h127z" />
    <glyph glyph-name="Ycircumflex" unicode="&#x176;" horiz-adv-x="626" 
d="M475 682h143l-240 -412v-270h-129v270l-241 412h147l108 128h104zM313 403l155 279h-98l-54 62h-1l-55 -62h-98l150 -279h1z" />
    <glyph glyph-name="Ydieresis" unicode="&#x178;" horiz-adv-x="626" 
d="M378 0h-129v270l-241 412h154l150 -279h1l155 279h150l-240 -412v-270zM265 719h-120v95h120v-95zM485 719h-121v95h121v-95z" />
    <glyph glyph-name="Zacute" unicode="&#x179;" horiz-adv-x="654" 
d="M366 682h212v-8l-308 -552v-1h330v-121h-549v8l307 552v1h-284v121h187l74 118h127z" />
    <glyph glyph-name="Zcaron" unicode="&#x17d;" horiz-adv-x="654" 
d="M600 0h-549v8l307 552v1h-284v121h196l-104 123h105l54 -62h1l55 62h105l-104 -123h196v-8l-308 -552v-1h330v-121z" />
    <glyph glyph-name="Zdotaccent" unicode="&#x17b;" horiz-adv-x="654" 
d="M384 719h-130v95h130v-95zM600 0h-549v8l307 552v1h-284v121h504v-8l-308 -552v-1h330v-121z" />
    <glyph glyph-name="Eng" unicode="&#x14a;" horiz-adv-x="765" 
d="M501 -193c-38 0 -78 11 -104 31v114h4c19 -18 50 -29 78 -29c37 0 66 24 66 67v10l-322 423h-1v-423h-129v633l-31 43v6h134l346 -455h1v455h129v-691c0 -122 -64 -184 -171 -184z" />
    <glyph glyph-name="Eth" unicode="&#xd0;" horiz-adv-x="720" 
d="M677 341c0 -230 -160 -341 -348 -341h-236v297h-93v103h93v282h236c187 0 348 -111 348 -341zM546 341c0 147 -96 220 -220 220h-104v-161h164v-103h-164v-176h104c124 0 220 72 220 220z" />
    <glyph glyph-name="Thorn" unicode="&#xde;" horiz-adv-x="608" 
d="M560 408c0 -149 -96 -240 -338 -262v-146h-129v682h129v-60h94c136 0 244 -72 244 -214zM429 397c0 68 -51 106 -124 106h-83v-237c154 7 207 63 207 131z" />
    <glyph glyph-name="a" unicode="a" horiz-adv-x="567" 
d="M493 0h-119v38h-1c-38 -34 -85 -56 -148 -56c-95 0 -172 60 -172 163c0 100 68 167 190 167c51 0 95 -12 128 -31v36c0 74 -56 104 -129 104c-61 0 -119 -31 -155 -69h-3v122c49 34 114 54 183 54c127 0 226 -62 226 -211v-317zM371 135v51c-28 17 -63 26 -105 26
c-60 0 -92 -19 -92 -61c0 -35 30 -65 90 -65c42 0 80 17 107 49z" />
    <glyph glyph-name="b" unicode="b" horiz-adv-x="619" 
d="M583 255c0 -173 -101 -273 -239 -273c-68 0 -115 22 -151 49h-1l-108 -40h-3v759h122v-280h1c41 36 89 58 153 58c131 0 226 -104 226 -273zM454 255c0 104 -56 164 -136 164c-50 0 -88 -24 -115 -57v-224c25 -26 64 -47 110 -47c84 0 141 58 141 164z" />
    <glyph glyph-name="c" unicode="c" horiz-adv-x="472" 
d="M431 163v-130c-41 -32 -94 -51 -158 -51c-132 0 -239 97 -239 273c0 168 99 273 237 273c63 0 116 -16 157 -50v-130h-3c-30 41 -81 72 -134 72c-79 0 -129 -68 -129 -166s54 -165 140 -165c51 0 98 32 126 74h3z" />
    <glyph glyph-name="d" unicode="d" horiz-adv-x="619" 
d="M539 0h-121v40h-1c-42 -36 -91 -58 -155 -58c-131 0 -226 104 -226 273c0 172 102 273 239 273c58 0 106 -17 141 -41h1v263h122v-750zM417 148v223c-26 27 -65 48 -111 48c-84 0 -141 -58 -141 -164c0 -105 56 -164 136 -164c50 0 89 24 116 57z" />
    <glyph glyph-name="e" unicode="e" horiz-adv-x="563" 
d="M496 35c-48 -34 -116 -53 -189 -53c-158 0 -273 99 -273 273c0 168 97 273 248 273c132 0 238 -94 238 -243c0 -15 -1 -41 -2 -58h-355c8 -89 71 -139 169 -139c65 0 124 29 161 67h3v-120zM392 327c-3 54 -47 94 -110 94c-65 0 -109 -33 -119 -94h229z" />
    <glyph glyph-name="f" unicode="f" horiz-adv-x="354" 
d="M211 0h-122v403h-51v5l51 102v74c0 105 56 173 162 173c36 0 73 -7 104 -25v-115h-3c-20 20 -46 33 -73 33c-48 0 -68 -33 -68 -78v-62h118v-107h-118v-403z" />
    <glyph glyph-name="g" unicode="g" horiz-adv-x="607" 
d="M409 157v220c-26 26 -64 42 -102 42c-83 0 -140 -57 -140 -155c0 -96 57 -155 135 -155c44 0 81 18 107 48zM297 -197c-67 0 -142 16 -194 54v120h4c46 -47 108 -68 173 -68c89 0 129 50 129 111v36h-1c-40 -36 -92 -56 -152 -56c-120 0 -220 90 -220 264
c0 172 101 264 235 264c62 0 112 -22 149 -50h1l107 40h3v-489c0 -148 -96 -226 -234 -226z" />
    <glyph glyph-name="h" unicode="h" horiz-adv-x="614" 
d="M538 0h-122v306c0 77 -44 113 -103 113c-46 0 -83 -23 -110 -57v-362h-122v750h122v-280h1c40 36 88 58 149 58c99 0 185 -58 185 -183v-345z" />
    <glyph glyph-name="i" unicode="i" horiz-adv-x="283" 
d="M203 0h-122v510h122v-510zM207 642h-130v108h130v-108z" />
    <glyph glyph-name="j" unicode="j" horiz-adv-x="283" 
d="M42 -193c-39 0 -77 8 -105 25v115h3c19 -20 47 -33 73 -33c43 0 68 26 68 78v518h122v-522c0 -123 -64 -181 -161 -181zM207 642h-130v108h130v-108z" />
    <glyph glyph-name="k" unicode="k" horiz-adv-x="557" 
d="M203 0h-122v750h122v-750zM542 0h-147l-182 256v4l174 250h143l-178 -250v-2z" />
    <glyph glyph-name="l" unicode="l" horiz-adv-x="283" 
d="M203 0h-122v750h122v-750z" />
    <glyph glyph-name="m" unicode="m" horiz-adv-x="949" 
d="M873 0h-122v306c0 77 -44 113 -103 113c-44 0 -84 -22 -115 -64c3 -14 5 -29 5 -47v-308h-122v306c0 77 -44 113 -103 113c-46 0 -83 -23 -110 -57v-362h-122v510h121v-41h1c41 37 89 59 151 59c65 0 124 -26 156 -80h2c58 56 111 80 178 80c97 0 183 -58 183 -183v-345z
" />
    <glyph glyph-name="n" unicode="n" horiz-adv-x="626" 
d="M550 0h-122v306c0 77 -46 113 -109 113c-50 0 -88 -23 -116 -57v-362h-122v510h121v-41h1c41 37 91 59 155 59c104 0 192 -58 192 -183v-345z" />
    <glyph glyph-name="o" unicode="o" horiz-adv-x="598" 
d="M436 255c0 103 -55 166 -136 166s-138 -60 -138 -166c0 -104 55 -166 136 -166s138 59 138 166zM565 255c0 -170 -111 -273 -267 -273c-152 0 -264 102 -264 273c0 170 110 273 266 273c152 0 265 -102 265 -273z" />
    <glyph glyph-name="p" unicode="p" horiz-adv-x="619" 
d="M583 255c0 -173 -101 -273 -239 -273c-58 0 -106 16 -140 41h-1v-216h-122v703h121v-41h1c41 37 90 59 154 59c131 0 226 -104 226 -273zM454 255c0 104 -56 164 -136 164c-50 0 -88 -24 -115 -57v-224c25 -26 64 -47 110 -47c84 0 141 58 141 164z" />
    <glyph glyph-name="q" unicode="q" horiz-adv-x="619" 
d="M539 -193h-122v233h-1c-41 -36 -90 -58 -154 -58c-131 0 -226 104 -226 273c0 172 102 273 239 273c68 0 116 -23 152 -50h1l108 40h3v-711zM417 148v223c-26 27 -65 48 -111 48c-84 0 -141 -58 -141 -164c0 -105 56 -164 136 -164c50 0 89 24 116 57z" />
    <glyph glyph-name="r" unicode="r" horiz-adv-x="406" 
d="M205 0h-122v510h116v-43h1c38 36 78 61 128 61c18 0 37 -3 53 -10v-121h-3c-19 12 -40 19 -63 19c-43 0 -76 -23 -110 -53v-363z" />
    <glyph glyph-name="s" unicode="s" horiz-adv-x="469" 
d="M414 143c0 -96 -62 -161 -192 -161c-64 0 -121 16 -162 45v121h3c37 -42 98 -66 155 -66c49 0 77 20 77 51c0 91 -233 52 -233 237c0 94 60 158 178 158c59 0 116 -16 156 -45v-122h-3c-34 38 -87 67 -143 67c-45 0 -67 -22 -67 -50c0 -89 231 -49 231 -235z" />
    <glyph glyph-name="t" unicode="t" horiz-adv-x="354" 
d="M211 0h-122v403h-51v5l51 102v152h122v-152h118v-107h-118v-403z" />
    <glyph glyph-name="u" unicode="u" horiz-adv-x="605" 
d="M531 510v-310c0 -136 -86 -218 -230 -218c-140 0 -227 81 -227 218v310h122v-306c0 -79 40 -115 106 -115c65 0 107 36 107 115v306h122z" />
    <glyph glyph-name="v" unicode="v" horiz-adv-x="556" 
d="M323 -18h-91l-222 528h139l129 -348h1l129 348h137z" />
    <glyph glyph-name="w" unicode="w" horiz-adv-x="846" 
d="M634 -18h-81l-129 282h-1l-130 -282h-82l-196 528h137l110 -305h1l155 323h11l154 -323h1l110 305h136z" />
    <glyph glyph-name="x" unicode="x" horiz-adv-x="552" 
d="M540 0h-145l-123 173h-1l-107 -173h-141l165 261l-175 249h144l120 -171h1l108 171h142l-167 -255z" />
    <glyph glyph-name="y" unicode="y" horiz-adv-x="557" 
d="M277 -193h-134l79 194l-214 509h139l138 -353h1l120 353h136z" />
    <glyph glyph-name="z" unicode="z" horiz-adv-x="503" 
d="M468 0h-442v8l227 394v1h-208v107h407v-9l-228 -394v-1h244v-106z" />
    <glyph glyph-name="agrave" unicode="&#xe0;" horiz-adv-x="567" 
d="M493 0h-119v38h-1c-38 -34 -85 -56 -148 -56c-95 0 -172 60 -172 163c0 100 68 167 190 167c51 0 95 -12 128 -31v36c0 74 -56 104 -129 104c-61 0 -119 -31 -155 -69h-3v122c49 34 114 54 183 54c127 0 226 -62 226 -211v-317zM371 135v51c-28 17 -63 26 -105 26
c-60 0 -92 -19 -92 -61c0 -35 30 -65 90 -65c42 0 80 17 107 49zM338 562h-106l-136 188h127z" />
    <glyph glyph-name="aacute" unicode="&#xe1;" horiz-adv-x="567" 
d="M493 0h-119v38h-1c-38 -34 -85 -56 -148 -56c-95 0 -172 60 -172 163c0 100 68 167 190 167c51 0 95 -12 128 -31v36c0 74 -56 104 -129 104c-61 0 -119 -31 -155 -69h-3v122c49 34 114 54 183 54c127 0 226 -62 226 -211v-317zM371 135v51c-28 17 -63 26 -105 26
c-60 0 -92 -19 -92 -61c0 -35 30 -65 90 -65c42 0 80 17 107 49zM328 561h-106l119 189h123z" />
    <glyph glyph-name="acircumflex" unicode="&#xe2;" horiz-adv-x="567" 
d="M493 0h-119v38h-1c-38 -34 -85 -56 -148 -56c-95 0 -172 60 -172 163c0 100 68 167 190 167c51 0 95 -12 128 -31v36c0 74 -56 104 -129 104c-61 0 -119 -31 -155 -69h-3v122c49 34 114 54 183 54c127 0 226 -62 226 -211v-317zM371 135v51c-28 17 -63 26 -105 26
c-60 0 -92 -19 -92 -61c0 -35 30 -65 90 -65c42 0 80 17 107 49zM468 562h-106l-82 111h-1l-83 -111h-106l141 193h96z" />
    <glyph glyph-name="atilde" unicode="&#xe3;" horiz-adv-x="567" 
d="M493 0h-119v38h-1c-38 -34 -85 -56 -148 -56c-95 0 -172 60 -172 163c0 100 68 167 190 167c51 0 95 -12 128 -31v36c0 74 -56 104 -129 104c-61 0 -119 -31 -155 -69h-3v122c49 34 114 54 183 54c127 0 226 -62 226 -211v-317zM371 135v51c-28 17 -63 26 -105 26
c-60 0 -92 -19 -92 -61c0 -35 30 -65 90 -65c42 0 80 17 107 49zM365 603c-60 0 -116 58 -159 58c-25 0 -31 -23 -42 -58h-76c15 89 39 147 107 147c60 0 116 -58 159 -58c25 0 31 23 42 58h76c-15 -90 -39 -147 -107 -147z" />
    <glyph glyph-name="adieresis" unicode="&#xe4;" horiz-adv-x="567" 
d="M493 0h-119v38h-1c-38 -34 -85 -56 -148 -56c-95 0 -172 60 -172 163c0 100 68 167 190 167c51 0 95 -12 128 -31v36c0 74 -56 104 -129 104c-61 0 -119 -31 -155 -69h-3v122c49 34 114 54 183 54c127 0 226 -62 226 -211v-317zM371 135v51c-28 17 -63 26 -105 26
c-60 0 -92 -19 -92 -61c0 -35 30 -65 90 -65c42 0 80 17 107 49zM229 642h-120v108h120v-108zM449 642h-121v108h121v-108z" />
    <glyph glyph-name="amacron" unicode="&#x101;" horiz-adv-x="567" 
d="M493 0h-119v38h-1c-38 -34 -85 -56 -148 -56c-95 0 -172 60 -172 163c0 100 68 167 190 167c51 0 95 -12 128 -31v36c0 74 -56 104 -129 104c-61 0 -119 -31 -155 -69h-3v122c49 34 114 54 183 54c127 0 226 -62 226 -211v-317zM371 135v51c-28 17 -63 26 -105 26
c-60 0 -92 -19 -92 -61c0 -35 30 -65 90 -65c42 0 80 17 107 49zM453 646h-348v93h348v-93z" />
    <glyph glyph-name="abreve" unicode="&#x103;" horiz-adv-x="567" 
d="M493 0h-119v38h-1c-38 -34 -85 -56 -148 -56c-95 0 -172 60 -172 163c0 100 68 167 190 167c51 0 95 -12 128 -31v36c0 74 -56 104 -129 104c-61 0 -119 -31 -155 -69h-3v122c49 34 114 54 183 54c127 0 226 -62 226 -211v-317zM371 135v51c-28 17 -63 26 -105 26
c-60 0 -92 -19 -92 -61c0 -35 30 -65 90 -65c42 0 80 17 107 49zM284 587c-111 0 -167 69 -176 163h91c8 -49 38 -81 85 -81s77 32 85 81h91c-9 -94 -65 -163 -176 -163z" />
    <glyph glyph-name="aring" unicode="&#xe5;" horiz-adv-x="567" 
d="M493 0h-119v38h-1c-38 -34 -85 -56 -148 -56c-95 0 -172 60 -172 163c0 100 68 167 190 167c51 0 95 -12 128 -31v36c0 74 -56 104 -129 104c-61 0 -119 -31 -155 -69h-3v122c49 34 114 54 183 54c127 0 226 -62 226 -211v-317zM371 135v51c-28 17 -63 26 -105 26
c-60 0 -92 -19 -92 -61c0 -35 30 -65 90 -65c42 0 80 17 107 49zM409 674c0 -66 -57 -98 -125 -98c-69 0 -124 32 -124 98c0 65 57 97 126 97c68 0 123 -32 123 -97zM329 674c0 23 -15 38 -44 38c-30 0 -46 -15 -46 -38c0 -26 16 -40 46 -40c29 0 44 14 44 40z" />
    <glyph glyph-name="aringacute" unicode="&#x1fb;" horiz-adv-x="567" 
d="M493 0h-119v38h-1c-38 -34 -85 -56 -148 -56c-95 0 -172 60 -172 163c0 100 68 167 190 167c51 0 95 -12 128 -31v36c0 74 -56 104 -129 104c-61 0 -119 -31 -155 -69h-3v122c49 34 114 54 183 54c127 0 226 -62 226 -211v-317zM371 135v51c-28 17 -63 26 -105 26
c-60 0 -92 -19 -92 -61c0 -35 30 -65 90 -65c42 0 80 17 107 49zM333 802h-106l119 189h123zM409 674c0 -66 -57 -98 -125 -98c-69 0 -124 32 -124 98c0 65 57 97 126 97c68 0 123 -32 123 -97zM329 674c0 23 -15 38 -44 38c-30 0 -46 -15 -46 -38c0 -26 16 -40 46 -40
c29 0 44 14 44 40z" />
    <glyph glyph-name="aogonek" unicode="&#x105;" horiz-adv-x="567" 
d="M510 -171c-29 -14 -66 -22 -100 -22c-74 0 -106 36 -106 78c0 41 27 77 71 115h-1v38h-1c-38 -34 -85 -56 -148 -56c-95 0 -172 60 -172 163c0 100 68 167 190 167c51 0 95 -12 128 -31v36c0 74 -56 104 -129 104c-61 0 -119 -31 -155 -69h-3v122c49 34 114 54 183 54
c127 0 226 -62 226 -211v-317h-34c-43 -40 -59 -62 -59 -86c0 -21 16 -32 41 -32c23 0 45 9 66 25h3v-78zM371 135v51c-28 17 -63 26 -105 26c-60 0 -92 -19 -92 -61c0 -35 30 -65 90 -65c42 0 80 17 107 49z" />
    <glyph glyph-name="ae" unicode="&#xe6;" horiz-adv-x="893" 
d="M637 -18c-88 0 -162 30 -210 85h-2c-62 -65 -130 -85 -200 -85c-95 0 -172 60 -172 163c0 99 68 167 190 167c51 0 95 -12 128 -31v37c0 74 -58 103 -129 103c-61 0 -119 -31 -155 -68h-3v121c49 34 114 54 183 54c78 0 132 -24 171 -69h2c36 43 98 69 172 69
c132 0 238 -93 238 -242c0 -15 0 -43 -2 -59h-355c8 -90 72 -140 169 -140c65 0 124 30 161 67h3v-119c-48 -34 -115 -53 -189 -53zM265 86c47 0 92 25 120 55c-6 15 -12 30 -13 45c-25 15 -62 26 -99 26c-65 0 -99 -16 -99 -62c0 -36 29 -64 91 -64zM723 327
c-5 58 -49 94 -113 94c-62 0 -106 -30 -117 -94h230z" />
    <glyph glyph-name="aeacute" unicode="&#x1fd;" horiz-adv-x="893" 
d="M491 561h-106l119 189h123zM637 -18c-88 0 -162 30 -210 85h-2c-62 -65 -130 -85 -200 -85c-95 0 -172 60 -172 163c0 99 68 167 190 167c51 0 95 -12 128 -31v37c0 74 -58 103 -129 103c-61 0 -119 -31 -155 -68h-3v121c49 34 114 54 183 54c78 0 132 -24 171 -69h2
c36 43 98 69 172 69c132 0 238 -93 238 -242c0 -15 0 -43 -2 -59h-355c8 -90 72 -140 169 -140c65 0 124 30 161 67h3v-119c-48 -34 -115 -53 -189 -53zM265 86c47 0 92 25 120 55c-6 15 -12 30 -13 45c-25 15 -62 26 -99 26c-65 0 -99 -16 -99 -62c0 -36 29 -64 91 -64z
M723 327c-5 58 -49 94 -113 94c-62 0 -106 -30 -117 -94h230z" />
    <glyph glyph-name="cacute" unicode="&#x107;" horiz-adv-x="472" 
d="M307 561h-106l119 189h123zM431 163v-130c-41 -32 -94 -51 -158 -51c-132 0 -239 97 -239 273c0 168 99 273 237 273c63 0 116 -16 157 -50v-130h-3c-30 41 -81 72 -134 72c-79 0 -129 -68 -129 -166s54 -165 140 -165c51 0 98 32 126 74h3z" />
    <glyph glyph-name="ccircumflex" unicode="&#x109;" horiz-adv-x="472" 
d="M455 562h-106l-82 111h-1l-83 -111h-106l141 193h96zM431 163v-130c-41 -32 -94 -51 -158 -51c-132 0 -239 97 -239 273c0 168 99 273 237 273c63 0 116 -16 157 -50v-130h-3c-30 41 -81 72 -134 72c-79 0 -129 -68 -129 -166s54 -165 140 -165c51 0 98 32 126 74h3z" />
    <glyph glyph-name="ccaron" unicode="&#x10d;" horiz-adv-x="472" 
d="M299 556h-96l-141 194h106l82 -112h1l83 112h106zM431 163v-130c-41 -32 -94 -51 -158 -51c-132 0 -239 97 -239 273c0 168 99 273 237 273c63 0 116 -16 157 -50v-130h-3c-30 41 -81 72 -134 72c-79 0 -129 -68 -129 -166s54 -165 140 -165c51 0 98 32 126 74h3z" />
    <glyph glyph-name="cdotaccent" unicode="&#x10b;" horiz-adv-x="472" 
d="M431 163v-130c-41 -32 -94 -51 -158 -51c-132 0 -239 97 -239 273c0 168 99 273 237 273c63 0 116 -16 157 -50v-130h-3c-30 41 -81 72 -134 72c-79 0 -129 -68 -129 -166s54 -165 140 -165c51 0 98 32 126 74h3zM321 642h-130v108h130v-108z" />
    <glyph glyph-name="ccedilla" unicode="&#xe7;" horiz-adv-x="472" 
d="M377 -115c0 -47 -43 -78 -119 -78c-34 0 -72 4 -103 17v62h3c19 -11 47 -21 77 -21s43 9 43 23c0 22 -29 27 -82 30l19 71c-104 24 -181 116 -181 266c0 168 99 273 237 273c63 0 116 -16 157 -50v-130h-3c-30 41 -81 72 -134 72c-79 0 -129 -68 -129 -166
s54 -165 140 -165c51 0 98 32 126 74h3v-130c-35 -28 -79 -45 -131 -50l-6 -24c47 -8 83 -27 83 -74z" />
    <glyph glyph-name="ccedilla.fr" unicode="&#xe16b;" horiz-adv-x="472" 
d="M254 -136h-115l88 122c-110 20 -193 114 -193 269c0 168 99 273 237 273c63 0 116 -16 157 -50v-130h-3c-30 41 -81 72 -134 72c-79 0 -129 -68 -129 -166s54 -165 140 -165c51 0 98 32 126 74h3v-130c-28 -22 -60 -37 -98 -45z" />
    <glyph glyph-name="dcaron" unicode="&#x10f;" horiz-adv-x="747" 
d="M676 551h-93l54 199h109zM539 0h-121v40h-1c-42 -36 -91 -58 -155 -58c-131 0 -226 104 -226 273c0 172 102 273 239 273c58 0 106 -17 141 -41h1v263h122v-750zM417 148v223c-26 27 -65 48 -111 48c-84 0 -141 -58 -141 -164c0 -105 56 -164 136 -164c50 0 89 24 116 57
z" />
    <glyph glyph-name="dcroat" unicode="&#x111;" horiz-adv-x="619" 
d="M539 0h-121v40h-1c-42 -36 -91 -58 -155 -58c-131 0 -226 104 -226 273c0 172 102 273 239 273c58 0 106 -17 141 -41h1v98h-183v97h183v68h122v-68h80v-97h-80v-585zM417 148v223c-26 27 -65 48 -111 48c-84 0 -141 -58 -141 -164c0 -105 56 -164 136 -164
c50 0 89 24 116 57z" />
    <glyph glyph-name="egrave" unicode="&#xe8;" horiz-adv-x="563" 
d="M496 35c-48 -34 -116 -53 -189 -53c-158 0 -273 99 -273 273c0 168 97 273 248 273c132 0 238 -94 238 -243c0 -15 -1 -41 -2 -58h-355c8 -89 71 -139 169 -139c65 0 124 29 161 67h3v-120zM392 327c-3 54 -47 94 -110 94c-65 0 -109 -33 -119 -94h229zM332 562h-106
l-136 188h127z" />
    <glyph glyph-name="eacute" unicode="&#xe9;" horiz-adv-x="563" 
d="M325 561h-106l119 189h123zM496 35c-48 -34 -116 -53 -189 -53c-158 0 -273 99 -273 273c0 168 97 273 248 273c132 0 238 -94 238 -243c0 -15 -1 -41 -2 -58h-355c8 -89 71 -139 169 -139c65 0 124 29 161 67h3v-120zM392 327c-3 54 -47 94 -110 94
c-65 0 -109 -33 -119 -94h229z" />
    <glyph glyph-name="ecircumflex" unicode="&#xea;" horiz-adv-x="563" 
d="M470 562h-106l-82 111h-1l-83 -111h-106l141 193h96zM496 35c-48 -34 -116 -53 -189 -53c-158 0 -273 99 -273 273c0 168 97 273 248 273c132 0 238 -94 238 -243c0 -15 -1 -41 -2 -58h-355c8 -89 71 -139 169 -139c65 0 124 29 161 67h3v-120zM392 327
c-3 54 -47 94 -110 94c-65 0 -109 -33 -119 -94h229z" />
    <glyph glyph-name="ecaron" unicode="&#x11b;" horiz-adv-x="563" 
d="M329 556h-96l-141 194h106l82 -112h1l83 112h106zM496 35c-48 -34 -116 -53 -189 -53c-158 0 -273 99 -273 273c0 168 97 273 248 273c132 0 238 -94 238 -243c0 -15 -1 -41 -2 -58h-355c8 -89 71 -139 169 -139c65 0 124 29 161 67h3v-120zM392 327
c-3 54 -47 94 -110 94c-65 0 -109 -33 -119 -94h229z" />
    <glyph glyph-name="edieresis" unicode="&#xeb;" horiz-adv-x="563" 
d="M232 642h-120v108h120v-108zM452 642h-121v108h121v-108zM496 35c-48 -34 -116 -53 -189 -53c-158 0 -273 99 -273 273c0 168 97 273 248 273c132 0 238 -94 238 -243c0 -15 -1 -41 -2 -58h-355c8 -89 71 -139 169 -139c65 0 124 29 161 67h3v-120zM392 327
c-3 54 -47 94 -110 94c-65 0 -109 -33 -119 -94h229z" />
    <glyph glyph-name="emacron" unicode="&#x113;" horiz-adv-x="563" 
d="M496 35c-48 -34 -116 -53 -189 -53c-158 0 -273 99 -273 273c0 168 97 273 248 273c132 0 238 -94 238 -243c0 -15 -1 -41 -2 -58h-355c8 -89 71 -139 169 -139c65 0 124 29 161 67h3v-120zM392 327c-3 54 -47 94 -110 94c-65 0 -109 -33 -119 -94h229zM455 646h-348v93
h348v-93z" />
    <glyph glyph-name="ebreve" unicode="&#x115;" horiz-adv-x="563" 
d="M496 35c-48 -34 -116 -53 -189 -53c-158 0 -273 99 -273 273c0 168 97 273 248 273c132 0 238 -94 238 -243c0 -15 -1 -41 -2 -58h-355c8 -89 71 -139 169 -139c65 0 124 29 161 67h3v-120zM392 327c-3 54 -47 94 -110 94c-65 0 -109 -33 -119 -94h229zM281 587
c-111 0 -167 69 -176 163h91c8 -49 38 -81 85 -81s77 32 85 81h91c-9 -94 -65 -163 -176 -163z" />
    <glyph glyph-name="edotaccent" unicode="&#x117;" horiz-adv-x="563" 
d="M496 35c-48 -34 -116 -53 -189 -53c-158 0 -273 99 -273 273c0 168 97 273 248 273c132 0 238 -94 238 -243c0 -15 -1 -41 -2 -58h-355c8 -89 71 -139 169 -139c65 0 124 29 161 67h3v-120zM392 327c-3 54 -47 94 -110 94c-65 0 -109 -33 -119 -94h229zM346 642h-130v108
h130v-108z" />
    <glyph glyph-name="eogonek" unicode="&#x119;" horiz-adv-x="563" 
d="M496 -171c-29 -14 -65 -22 -100 -22c-73 0 -106 36 -106 78c0 33 22 68 53 99c-12 -2 -24 -2 -36 -2c-158 0 -273 99 -273 273c0 168 97 273 248 273c132 0 238 -94 238 -243c0 -15 -1 -41 -2 -58h-355c8 -89 71 -139 169 -139c65 0 124 29 161 67h3v-120
c-58 -34 -109 -89 -109 -121c0 -21 15 -32 41 -32c23 0 45 9 65 25h3v-78zM392 327c-3 54 -46 94 -111 94c-63 0 -108 -31 -118 -94h229z" />
    <glyph glyph-name="gcircumflex" unicode="&#x11d;" horiz-adv-x="607" 
d="M497 562h-106l-82 111h-1l-83 -111h-106l141 193h96zM409 157v220c-26 26 -64 42 -102 42c-83 0 -140 -57 -140 -155c0 -96 57 -155 135 -155c44 0 81 18 107 48zM297 -197c-67 0 -142 16 -194 54v120h4c46 -47 108 -68 173 -68c89 0 129 50 129 111v36h-1
c-40 -36 -92 -56 -152 -56c-120 0 -220 90 -220 264c0 172 101 264 235 264c62 0 112 -22 149 -50h1l107 40h3v-489c0 -148 -96 -226 -234 -226z" />
    <glyph glyph-name="gbreve" unicode="&#x11f;" horiz-adv-x="607" 
d="M409 157v220c-26 26 -64 42 -102 42c-83 0 -140 -57 -140 -155c0 -96 57 -155 135 -155c44 0 81 18 107 48zM297 -197c-67 0 -142 16 -194 54v120h4c46 -47 108 -68 173 -68c89 0 129 50 129 111v36h-1c-40 -36 -92 -56 -152 -56c-120 0 -220 90 -220 264
c0 172 101 264 235 264c62 0 112 -22 149 -50h1l107 40h3v-489c0 -148 -96 -226 -234 -226zM308 587c-111 0 -167 69 -176 163h91c8 -49 38 -81 85 -81s77 32 85 81h91c-9 -94 -65 -163 -176 -163z" />
    <glyph glyph-name="gdotaccent" unicode="&#x121;" horiz-adv-x="607" 
d="M409 157v220c-26 26 -64 42 -102 42c-83 0 -140 -57 -140 -155c0 -96 57 -155 135 -155c44 0 81 18 107 48zM297 -197c-67 0 -142 16 -194 54v120h4c46 -47 108 -68 173 -68c89 0 129 50 129 111v36h-1c-40 -36 -92 -56 -152 -56c-120 0 -220 90 -220 264
c0 172 101 264 235 264c62 0 112 -22 149 -50h1l107 40h3v-489c0 -148 -96 -226 -234 -226zM373 642h-130v108h130v-108z" />
    <glyph glyph-name="gcommaaccent" unicode="&#x123;" horiz-adv-x="607" 
d="M365 594h-122l114 156h106zM409 157v220c-26 26 -64 42 -102 42c-83 0 -140 -57 -140 -155c0 -96 57 -155 135 -155c44 0 81 18 107 48zM297 -197c-67 0 -142 16 -194 54v120h4c46 -47 108 -68 173 -68c89 0 129 50 129 111v36h-1c-40 -36 -92 -56 -152 -56
c-120 0 -220 90 -220 264c0 172 101 264 235 264c62 0 112 -22 149 -50h1l107 40h3v-489c0 -148 -96 -226 -234 -226z" />
    <glyph glyph-name="hcircumflex" unicode="&#x125;" horiz-adv-x="614" 
d="M332 771h-106l-82 111h-1l-83 -111h-106l141 193h96zM538 0h-122v306c0 77 -44 113 -103 113c-46 0 -83 -23 -110 -57v-362h-122v750h122v-280h1c40 36 88 58 149 58c99 0 185 -58 185 -183v-345z" />
    <glyph glyph-name="hbar" unicode="&#x127;" horiz-adv-x="614" 
d="M538 0h-122v306c0 77 -44 113 -103 113c-46 0 -83 -23 -110 -57v-362h-122v585h-81v97h81v68h122v-68h205v-97h-205v-115h1c40 36 88 58 149 58c99 0 185 -58 185 -183v-345z" />
    <glyph glyph-name="igrave" unicode="&#xec;" horiz-adv-x="283" 
d="M203 0h-122v510h122v-510zM190 562h-106l-136 188h127z" />
    <glyph glyph-name="iacute" unicode="&#xed;" horiz-adv-x="283" 
d="M203 0h-122v510h122v-510zM197 561h-106l119 189h123z" />
    <glyph glyph-name="icircumflex" unicode="&#xee;" horiz-adv-x="283" 
d="M203 0h-122v510h122v-510zM331 562h-106l-82 111h-1l-83 -111h-106l141 193h96z" />
    <glyph glyph-name="itilde" unicode="&#x129;" horiz-adv-x="283" 
d="M203 0h-122v510h122v-510zM227 603c-60 0 -116 58 -159 58c-25 0 -31 -23 -42 -58h-76c15 89 39 147 107 147c60 0 116 -58 159 -58c25 0 31 23 42 58h76c-15 -90 -39 -147 -107 -147z" />
    <glyph glyph-name="idieresis" unicode="&#xef;" horiz-adv-x="283" 
d="M203 0h-122v510h122v-510zM312 642h-121v108h121v-108zM92 642h-120v108h120v-108z" />
    <glyph glyph-name="imacron" unicode="&#x12b;" horiz-adv-x="283" 
d="M203 0h-122v510h122v-510zM316 646h-348v93h348v-93z" />
    <glyph glyph-name="ibreve" unicode="&#x12d;" horiz-adv-x="283" 
d="M203 0h-122v510h122v-510zM142 587c-111 0 -167 69 -176 163h91c8 -49 38 -81 85 -81s77 32 85 81h91c-9 -94 -65 -163 -176 -163z" />
    <glyph glyph-name="iogonek" unicode="&#x12f;" horiz-adv-x="283" 
d="M227 -171c-29 -14 -66 -22 -100 -22c-74 0 -106 36 -106 78c0 41 27 77 71 115h-11v510h122v-510h-27c-43 -40 -59 -62 -59 -86c0 -21 16 -32 41 -32c23 0 45 9 66 25h3v-78zM207 642h-130v108h130v-108z" />
    <glyph glyph-name="dotlessi" unicode="&#x131;" horiz-adv-x="283" 
d="M203 0h-122v510h122v-510z" />
    <glyph glyph-name="i.TRK" unicode="&#xe08a;" horiz-adv-x="283" 
d="M203 0h-122v510h122v-510zM207 642h-130v108h130v-108z" />
    <glyph glyph-name="ij" unicode="&#x133;" horiz-adv-x="566" 
d="M325 -193c-39 0 -77 8 -105 25v115h3c19 -20 47 -33 73 -33c43 0 68 26 68 78v518h122v-522c0 -123 -64 -181 -161 -181zM203 0h-122v510h122v-510zM490 642h-130v108h130v-108zM207 642h-130v108h130v-108z" />
    <glyph glyph-name="jcircumflex" unicode="&#x135;" horiz-adv-x="283" 
d="M42 -193c-39 0 -77 11 -105 28v97h3c19 -19 45 -30 72 -30c40 0 69 27 69 89v519h122v-526c0 -118 -64 -177 -161 -177zM331 562h-106l-82 111h-1l-83 -111h-106l141 193h96z" />
    <glyph glyph-name="kcommaaccent" unicode="&#x137;" horiz-adv-x="557" 
d="M255 -193h-105l97 156h123zM203 0h-122v750h122v-750zM542 0h-147l-182 256v4l174 250h143l-178 -250v-2z" />
    <glyph glyph-name="lacute" unicode="&#x13a;" horiz-adv-x="283" 
d="M193 770h-106l119 189h123zM203 0h-122v750h122v-750z" />
    <glyph glyph-name="lcaron" unicode="&#x13e;" horiz-adv-x="396" 
d="M340 551h-93l54 199h109zM203 0h-122v750h122v-750z" />
    <glyph glyph-name="lcommaaccent" unicode="&#x13c;" horiz-adv-x="283" 
d="M90 -193h-105l97 156h123zM203 0h-122v750h122v-750z" />
    <glyph glyph-name="lslash" unicode="&#x142;" horiz-adv-x="283" 
d="M203 0h-122v342l-81 -38v108l81 39v299h122v-241l80 39v-109l-80 -38v-401z" />
    <glyph glyph-name="ldot" unicode="&#x140;" horiz-adv-x="413" 
d="M203 0h-122v750h122v-750zM408 202h-126v131h126v-131z" />
    <glyph glyph-name="nacute" unicode="&#x144;" horiz-adv-x="626" 
d="M367 561h-106l119 189h123zM550 0h-122v306c0 77 -46 113 -109 113c-50 0 -88 -23 -116 -57v-362h-122v510h121v-41h1c41 37 91 59 155 59c104 0 192 -58 192 -183v-345z" />
    <glyph glyph-name="ncaron" unicode="&#x148;" horiz-adv-x="626" 
d="M361 556h-96l-141 194h106l82 -112h1l83 112h106zM550 0h-122v306c0 77 -46 113 -109 113c-50 0 -88 -23 -116 -57v-362h-122v510h121v-41h1c41 37 91 59 155 59c104 0 192 -58 192 -183v-345z" />
    <glyph glyph-name="ntilde" unicode="&#xf1;" horiz-adv-x="626" 
d="M550 0h-122v306c0 77 -46 113 -109 113c-50 0 -88 -23 -116 -57v-362h-122v510h121v-41h1c41 37 91 59 155 59c104 0 192 -58 192 -183v-345zM400 603c-60 0 -116 58 -159 58c-25 0 -31 -23 -42 -58h-76c15 89 39 147 107 147c60 0 116 -58 159 -58c25 0 31 23 42 58h76
c-15 -90 -39 -147 -107 -147z" />
    <glyph glyph-name="ncommaaccent" unicode="&#x146;" horiz-adv-x="626" 
d="M277 -193h-105l97 156h123zM550 0h-122v306c0 77 -46 113 -109 113c-50 0 -88 -23 -116 -57v-362h-122v510h121v-41h1c41 37 91 59 155 59c104 0 192 -58 192 -183v-345z" />
    <glyph glyph-name="ograve" unicode="&#xf2;" horiz-adv-x="598" 
d="M436 255c0 103 -55 166 -136 166s-138 -60 -138 -166c0 -104 55 -166 136 -166s138 59 138 166zM565 255c0 -170 -111 -273 -267 -273c-152 0 -264 102 -264 273c0 170 110 273 266 273c152 0 265 -102 265 -273zM353 562h-106l-136 188h127z" />
    <glyph glyph-name="oacute" unicode="&#xf3;" horiz-adv-x="598" 
d="M353 561h-106l119 189h123zM436 255c0 103 -55 166 -136 166s-138 -60 -138 -166c0 -104 55 -166 136 -166s138 59 138 166zM565 255c0 -170 -111 -273 -267 -273c-152 0 -264 102 -264 273c0 170 110 273 266 273c152 0 265 -102 265 -273z" />
    <glyph glyph-name="ocircumflex" unicode="&#xf4;" horiz-adv-x="598" 
d="M488 562h-106l-82 111h-1l-83 -111h-106l141 193h96zM436 255c0 103 -55 166 -136 166s-138 -60 -138 -166c0 -104 55 -166 136 -166s138 59 138 166zM565 255c0 -170 -111 -273 -267 -273c-152 0 -264 102 -264 273c0 170 110 273 266 273c152 0 265 -102 265 -273z" />
    <glyph glyph-name="otilde" unicode="&#xf5;" horiz-adv-x="598" 
d="M436 255c0 103 -55 166 -136 166s-138 -60 -138 -166c0 -104 55 -166 136 -166s138 59 138 166zM565 255c0 -170 -111 -273 -267 -273c-152 0 -264 102 -264 273c0 170 110 273 266 273c152 0 265 -102 265 -273zM384 603c-60 0 -116 58 -159 58c-25 0 -31 -23 -42 -58
h-76c15 89 39 147 107 147c60 0 116 -58 159 -58c25 0 31 23 42 58h76c-15 -90 -39 -147 -107 -147z" />
    <glyph glyph-name="odieresis" unicode="&#xf6;" horiz-adv-x="598" 
d="M249 642h-120v108h120v-108zM469 642h-121v108h121v-108zM436 255c0 103 -55 166 -136 166s-138 -60 -138 -166c0 -104 55 -166 136 -166s138 59 138 166zM565 255c0 -170 -111 -273 -267 -273c-152 0 -264 102 -264 273c0 170 110 273 266 273c152 0 265 -102 265 -273z
" />
    <glyph glyph-name="omacron" unicode="&#x14d;" horiz-adv-x="598" 
d="M473 646h-348v93h348v-93zM436 255c0 103 -55 166 -136 166s-138 -60 -138 -166c0 -104 55 -166 136 -166s138 59 138 166zM565 255c0 -170 -111 -273 -267 -273c-152 0 -264 102 -264 273c0 170 110 273 266 273c152 0 265 -102 265 -273z" />
    <glyph glyph-name="obreve" unicode="&#x14f;" horiz-adv-x="598" 
d="M436 255c0 103 -55 166 -136 166s-138 -60 -138 -166c0 -104 55 -166 136 -166s138 59 138 166zM565 255c0 -170 -111 -273 -267 -273c-152 0 -264 102 -264 273c0 170 110 273 266 273c152 0 265 -102 265 -273zM299 587c-111 0 -167 69 -176 163h91
c8 -49 38 -81 85 -81s77 32 85 81h91c-9 -94 -65 -163 -176 -163z" />
    <glyph glyph-name="ohungarumlaut" unicode="&#x151;" horiz-adv-x="598" 
d="M258 561h-106l119 189h123zM448 561h-106l119 189h123zM436 255c0 103 -55 166 -136 166s-138 -60 -138 -166c0 -104 55 -166 136 -166s138 59 138 166zM565 255c0 -170 -111 -273 -267 -273c-152 0 -264 102 -264 273c0 170 110 273 266 273c152 0 265 -102 265 -273z
" />
    <glyph glyph-name="oslash" unicode="&#xf8;" horiz-adv-x="598" 
d="M155 -18h-121l62 86c-39 46 -62 109 -62 187c0 170 110 273 266 273c45 0 87 -9 124 -27l19 27h122l-63 -87c40 -46 63 -109 63 -186c0 -170 -111 -273 -267 -273c-46 0 -88 9 -124 26zM162 255c0 -31 5 -58 14 -81l181 234c-17 8 -36 13 -57 13
c-81 0 -138 -60 -138 -166zM436 255c0 30 -5 57 -14 80l-181 -234c17 -8 36 -12 57 -12c81 0 138 59 138 166z" />
    <glyph glyph-name="oslashacute" unicode="&#x1ff;" horiz-adv-x="598" 
d="M155 -18h-121l62 86c-39 46 -62 109 -62 187c0 170 110 273 266 273c45 0 87 -9 124 -27l19 27h122l-63 -87c40 -46 63 -109 63 -186c0 -170 -111 -273 -267 -273c-46 0 -88 9 -124 26zM162 255c0 -31 5 -58 14 -81l181 234c-17 8 -36 13 -57 13
c-81 0 -138 -60 -138 -166zM436 255c0 30 -5 57 -14 80l-181 -234c17 -8 36 -12 57 -12c81 0 138 59 138 166zM353 561h-106l119 189h123z" />
    <glyph glyph-name="oe" unicode="&#x153;" horiz-adv-x="961" 
d="M894 35c-49 -34 -116 -53 -189 -53c-90 0 -171 33 -212 100h-1c-38 -62 -108 -100 -194 -100c-152 0 -264 102 -264 273c0 170 110 273 266 273c84 0 150 -38 188 -94h1c36 64 109 94 191 94c131 0 238 -93 238 -242c0 -15 -1 -43 -3 -59h-355c9 -94 75 -139 169 -139
c66 0 124 28 161 66h4v-119zM436 255c0 103 -55 166 -136 166s-138 -60 -138 -166c0 -103 55 -166 136 -166s138 60 138 166zM790 327c-4 54 -49 94 -112 94c-62 0 -108 -34 -117 -94h229z" />
    <glyph glyph-name="racute" unicode="&#x155;" horiz-adv-x="406" 
d="M260 561h-106l119 189h123zM205 0h-122v510h116v-43h1c38 36 78 61 128 61c18 0 37 -3 53 -10v-121h-3c-19 12 -40 19 -63 19c-43 0 -76 -23 -110 -53v-363z" />
    <glyph glyph-name="rcaron" unicode="&#x159;" horiz-adv-x="406" 
d="M267 556h-96l-141 194h106l82 -112h1l83 112h106zM205 0h-122v510h116v-43h1c38 36 78 61 128 61c18 0 37 -3 53 -10v-121h-3c-19 12 -40 19 -63 19c-43 0 -76 -23 -110 -53v-363z" />
    <glyph glyph-name="rcommaaccent" unicode="&#x157;" horiz-adv-x="406" 
d="M99 -193h-105l97 156h123zM205 0h-122v510h116v-43h1c38 36 78 61 128 61c18 0 37 -3 53 -10v-121h-3c-19 12 -40 19 -63 19c-43 0 -76 -23 -110 -53v-363z" />
    <glyph glyph-name="sacute" unicode="&#x15b;" horiz-adv-x="469" 
d="M276 561h-106l119 189h123zM414 143c0 -96 -62 -161 -192 -161c-64 0 -121 16 -162 45v121h3c37 -42 98 -66 155 -66c49 0 77 20 77 51c0 91 -233 52 -233 237c0 94 60 158 178 158c59 0 116 -16 156 -45v-122h-3c-34 38 -87 67 -143 67c-45 0 -67 -22 -67 -50
c0 -89 231 -49 231 -235z" />
    <glyph glyph-name="scircumflex" unicode="&#x15d;" horiz-adv-x="469" 
d="M424 562h-106l-82 111h-1l-83 -111h-106l141 193h96zM414 143c0 -96 -62 -161 -192 -161c-64 0 -121 16 -162 45v121h3c37 -42 98 -66 155 -66c49 0 77 20 77 51c0 91 -233 52 -233 237c0 94 60 158 178 158c59 0 116 -16 156 -45v-122h-3c-34 38 -87 67 -143 67
c-45 0 -67 -22 -67 -50c0 -89 231 -49 231 -235z" />
    <glyph glyph-name="scaron" unicode="&#x161;" horiz-adv-x="469" 
d="M282 556h-96l-141 194h106l82 -112h1l83 112h106zM414 143c0 -96 -62 -161 -192 -161c-64 0 -121 16 -162 45v121h3c37 -42 98 -66 155 -66c49 0 77 20 77 51c0 91 -233 52 -233 237c0 94 60 158 178 158c59 0 116 -16 156 -45v-122h-3c-34 38 -87 67 -143 67
c-45 0 -67 -22 -67 -50c0 -89 231 -49 231 -235z" />
    <glyph glyph-name="scedilla" unicode="&#x15f;" horiz-adv-x="469" 
d="M341 -115c0 -47 -43 -78 -119 -78c-34 0 -72 4 -103 17v62h3c19 -11 47 -21 77 -21s43 9 43 23c0 22 -29 27 -82 30l18 67c-46 5 -87 20 -118 42v121h3c37 -42 98 -66 155 -66c49 0 77 20 77 51c0 91 -233 52 -233 237c0 94 60 158 178 158c59 0 116 -16 156 -45v-122h-3
c-34 38 -87 67 -143 67c-45 0 -67 -22 -67 -50c0 -89 231 -49 231 -235c0 -85 -49 -145 -149 -158l-7 -26c47 -8 83 -27 83 -74z" />
    <glyph glyph-name="scommaaccent" unicode="&#x219;" horiz-adv-x="469" 
d="M195 -193h-105l97 156h123zM414 143c0 -96 -62 -161 -192 -161c-64 0 -121 16 -162 45v121h3c37 -42 98 -66 155 -66c49 0 77 20 77 51c0 91 -233 52 -233 237c0 94 60 158 178 158c59 0 116 -16 156 -45v-122h-3c-34 38 -87 67 -143 67c-45 0 -67 -22 -67 -50
c0 -89 231 -49 231 -235z" />
    <glyph glyph-name="germandbls" unicode="&#xdf;" horiz-adv-x="667" 
d="M427 -18c-68 0 -124 16 -165 45v119h3c37 -42 100 -64 152 -64c53 0 80 17 80 52c0 94 -233 48 -233 238c0 151 170 151 170 226c0 36 -37 52 -101 52c-72 0 -122 -23 -122 -89v-561h-122v403h-51v5l51 102v66c0 111 87 181 247 181c148 0 227 -53 227 -149
c0 -140 -179 -138 -179 -222c0 -109 232 -48 232 -244c0 -93 -62 -160 -189 -160z" />
    <glyph glyph-name="tcaron" unicode="&#x165;" horiz-adv-x="408" 
d="M349 551h-93l54 199h109zM211 0h-122v403h-51v5l51 102v152h122v-152h118v-107h-118v-403z" />
    <glyph glyph-name="tcommaaccent" unicode="&#x163;" horiz-adv-x="354" 
d="M102 -193h-105l97 156h123zM211 0h-122v403h-51v5l51 102v152h122v-152h118v-107h-118v-403z" />
    <glyph glyph-name="tcommaaccent" unicode="&#x21b;" horiz-adv-x="354" 
d="M102 -193h-105l97 156h123zM211 0h-122v403h-51v5l51 102v152h122v-152h118v-107h-118v-403z" />
    <glyph glyph-name="tbar" unicode="&#x167;" horiz-adv-x="354" 
d="M211 0h-122v180h-69v97h69v126h-51v5l51 102v152h122v-152h118v-107h-118v-126h106v-97h-106v-180z" />
    <glyph glyph-name="ugrave" unicode="&#xf9;" horiz-adv-x="605" 
d="M531 510v-310c0 -136 -86 -218 -230 -218c-140 0 -227 81 -227 218v310h122v-306c0 -79 40 -115 106 -115c65 0 107 36 107 115v306h122zM357 562h-106l-136 188h127z" />
    <glyph glyph-name="uacute" unicode="&#xfa;" horiz-adv-x="605" 
d="M350 561h-106l119 189h123zM531 510v-310c0 -136 -86 -218 -230 -218c-140 0 -227 81 -227 218v310h122v-306c0 -79 40 -115 106 -115c65 0 107 36 107 115v306h122z" />
    <glyph glyph-name="ucircumflex" unicode="&#xfb;" horiz-adv-x="605" 
d="M491 562h-106l-82 111h-1l-83 -111h-106l141 193h96zM531 510v-310c0 -136 -86 -218 -230 -218c-140 0 -227 81 -227 218v310h122v-306c0 -79 40 -115 106 -115c65 0 107 36 107 115v306h122z" />
    <glyph glyph-name="utilde" unicode="&#x169;" horiz-adv-x="605" 
d="M531 510v-310c0 -136 -86 -218 -230 -218c-140 0 -227 81 -227 218v310h122v-306c0 -79 40 -115 106 -115c65 0 107 36 107 115v306h122zM392 603c-60 0 -116 58 -159 58c-25 0 -31 -23 -42 -58h-76c15 89 39 147 107 147c60 0 116 -58 159 -58c25 0 31 23 42 58h76
c-15 -90 -39 -147 -107 -147z" />
    <glyph glyph-name="udieresis" unicode="&#xfc;" horiz-adv-x="605" 
d="M252 642h-120v108h120v-108zM472 642h-121v108h121v-108zM531 510v-310c0 -136 -86 -218 -230 -218c-140 0 -227 81 -227 218v310h122v-306c0 -79 40 -115 106 -115c65 0 107 36 107 115v306h122z" />
    <glyph glyph-name="umacron" unicode="&#x16b;" horiz-adv-x="605" 
d="M531 510v-310c0 -136 -86 -218 -230 -218c-140 0 -227 81 -227 218v310h122v-306c0 -79 40 -115 106 -115c65 0 107 36 107 115v306h122zM476 646h-348v93h348v-93z" />
    <glyph glyph-name="ubreve" unicode="&#x16d;" horiz-adv-x="605" 
d="M531 510v-310c0 -136 -86 -218 -230 -218c-140 0 -227 81 -227 218v310h122v-306c0 -79 40 -115 106 -115c65 0 107 36 107 115v306h122zM302 587c-111 0 -167 69 -176 163h91c8 -49 38 -81 85 -81s77 32 85 81h91c-9 -94 -65 -163 -176 -163z" />
    <glyph glyph-name="uring" unicode="&#x16f;" horiz-adv-x="605" 
d="M426 674c0 -66 -57 -98 -125 -98c-69 0 -124 32 -124 98c0 65 57 97 126 97c68 0 123 -32 123 -97zM346 674c0 23 -15 38 -44 38c-30 0 -46 -15 -46 -38c0 -26 16 -40 46 -40c29 0 44 14 44 40zM531 510v-310c0 -136 -86 -218 -230 -218c-140 0 -227 81 -227 218v310h122
v-306c0 -79 40 -115 106 -115c65 0 107 36 107 115v306h122z" />
    <glyph glyph-name="uhungarumlaut" unicode="&#x171;" horiz-adv-x="605" 
d="M531 510v-310c0 -136 -86 -218 -230 -218c-140 0 -227 81 -227 218v310h122v-306c0 -79 40 -115 106 -115c65 0 107 36 107 115v306h122zM257 561h-106l119 189h123zM447 561h-106l119 189h123z" />
    <glyph glyph-name="uogonek" unicode="&#x173;" horiz-adv-x="605" 
d="M531 510v-310c0 -117 -64 -194 -174 -213c-32 -32 -45 -52 -45 -73s16 -32 41 -32c23 0 45 9 66 25h3v-78c-29 -14 -66 -22 -100 -22c-74 0 -106 36 -106 78c0 35 20 66 53 99c-121 11 -195 89 -195 216v310h122v-306c0 -79 40 -115 106 -115c65 0 107 36 107 115v306
h122z" />
    <glyph glyph-name="wgrave" unicode="&#x1e81;" horiz-adv-x="846" 
d="M634 -18h-81l-129 282h-1l-130 -282h-82l-196 528h137l110 -305h1l155 323h11l154 -323h1l110 305h136zM477 562h-106l-136 188h127z" />
    <glyph glyph-name="wacute" unicode="&#x1e83;" horiz-adv-x="846" 
d="M475 561h-106l119 189h123zM634 -18h-81l-129 282h-1l-130 -282h-82l-196 528h137l110 -305h1l155 323h11l154 -323h1l110 305h136z" />
    <glyph glyph-name="wcircumflex" unicode="&#x175;" horiz-adv-x="846" 
d="M612 562h-106l-82 111h-1l-83 -111h-106l141 193h96zM634 -18h-81l-129 282h-1l-130 -282h-82l-196 528h137l110 -305h1l155 323h11l154 -323h1l110 305h136z" />
    <glyph glyph-name="wdieresis" unicode="&#x1e85;" horiz-adv-x="846" 
d="M373 642h-120v108h120v-108zM593 642h-121v108h121v-108zM634 -18h-81l-129 282h-1l-130 -282h-82l-196 528h137l110 -305h1l155 323h11l154 -323h1l110 305h136z" />
    <glyph glyph-name="ygrave" unicode="&#x1ef3;" horiz-adv-x="557" 
d="M277 -193h-134l79 194l-214 509h139l138 -353h1l120 353h136zM330 562h-106l-136 188h127z" />
    <glyph glyph-name="yacute" unicode="&#xfd;" horiz-adv-x="557" 
d="M277 -193h-134l79 194l-214 509h139l138 -353h1l120 353h136zM336 561h-106l119 189h123z" />
    <glyph glyph-name="ycircumflex" unicode="&#x177;" horiz-adv-x="557" 
d="M277 -193h-134l79 194l-214 509h139l138 -353h1l120 353h136zM468 562h-106l-82 111h-1l-83 -111h-106l141 193h96z" />
    <glyph glyph-name="ydieresis" unicode="&#xff;" horiz-adv-x="557" 
d="M277 -193h-134l79 194l-214 509h139l138 -353h1l120 353h136zM229 642h-120v108h120v-108zM449 642h-121v108h121v-108z" />
    <glyph glyph-name="zacute" unicode="&#x17a;" horiz-adv-x="503" 
d="M295 561h-106l119 189h123zM468 0h-442v8l227 394v1h-208v107h407v-9l-228 -394v-1h244v-106z" />
    <glyph glyph-name="zcaron" unicode="&#x17e;" horiz-adv-x="503" 
d="M292 556h-96l-141 194h106l82 -112h1l83 112h106zM468 0h-442v8l227 394v1h-208v107h407v-9l-228 -394v-1h244v-106z" />
    <glyph glyph-name="zdotaccent" unicode="&#x17c;" horiz-adv-x="503" 
d="M468 0h-442v8l227 394v1h-208v107h407v-9l-228 -394v-1h244v-106zM309 642h-130v108h130v-108z" />
    <glyph glyph-name="eng" unicode="&#x14b;" horiz-adv-x="626" 
d="M394 -193c-37 0 -73 8 -101 25v111h4c17 -16 40 -29 65 -29c39 0 66 25 66 84v308c0 77 -46 113 -109 113c-50 0 -88 -23 -116 -57v-362h-122v510h121v-41h1c41 37 91 59 155 59c104 0 192 -58 192 -183v-357c0 -118 -62 -181 -156 -181z" />
    <glyph glyph-name="eth" unicode="&#xf0;" horiz-adv-x="598" 
d="M491 618l-91 -15l101 -157c39 -60 64 -118 64 -193c0 -168 -111 -271 -267 -271c-152 0 -264 102 -264 271c0 137 85 257 232 257c17 0 34 -1 50 -5v1l-48 75l-156 -25v101l97 16l-47 75v2h145l35 -56l149 25v-101zM436 253c0 101 -55 157 -136 157s-138 -53 -138 -157
c0 -101 55 -164 136 -164s138 60 138 164z" />
    <glyph glyph-name="thorn" unicode="&#xfe;" horiz-adv-x="619" 
d="M454 255c0 104 -56 164 -136 164c-50 0 -88 -24 -115 -57v-224c25 -26 64 -47 110 -47c84 0 141 58 141 164zM583 255c0 -173 -101 -273 -239 -273c-58 0 -106 16 -140 41h-1v-216h-122v943h122v-280h1c41 36 89 58 153 58c131 0 226 -104 226 -273z" />
    <glyph glyph-name="Alpha" unicode="&#x391;" horiz-adv-x="686" 
d="M673 0h-142l-64 175h-253l-64 -175h-137l273 700h113zM425 289l-84 232h-1l-85 -232h170z" />
    <glyph glyph-name="Beta" unicode="&#x392;" horiz-adv-x="630" 
d="M574 184c0 -128 -90 -184 -245 -184h-236v682h227c128 0 215 -62 215 -174c0 -74 -40 -127 -91 -158v-1c63 -16 130 -70 130 -165zM443 204c0 55 -45 85 -114 85h-107v-177h100c77 0 121 29 121 92zM403 486c0 51 -40 84 -104 84h-77v-173h106c54 18 75 47 75 89z" />
    <glyph glyph-name="Gamma" unicode="&#x393;" horiz-adv-x="498" 
d="M222 0h-129v682h375v-124h-246v-558z" />
    <glyph glyph-name="uni0394" unicode="&#x394;" horiz-adv-x="686" 
d="M673 0h-660l273 700h113zM487 121l-146 404h-1l-147 -404h294z" />
    <glyph glyph-name="Epsilon" unicode="&#x395;" horiz-adv-x="549" 
d="M488 0h-395v682h369v-121h-240v-152h230v-121h-230v-167h266v-121z" />
    <glyph glyph-name="Zeta" unicode="&#x396;" horiz-adv-x="654" 
d="M600 0h-549v8l307 552v1h-284v121h504v-8l-308 -552v-1h330v-121z" />
    <glyph glyph-name="Eta" unicode="&#x397;" horiz-adv-x="760" 
d="M667 0h-129v292h-316v-292h-129v682h129v-269h316v269h129v-682z" />
    <glyph glyph-name="Theta" unicode="&#x398;" horiz-adv-x="751" 
d="M708 341c0 -227 -144 -359 -334 -359c-183 0 -331 130 -331 359c0 227 145 359 335 359c183 0 330 -131 330 -359zM574 341c0 154 -85 238 -196 238s-200 -80 -200 -238c0 -154 85 -238 196 -238s200 80 200 238zM497 281h-243v121h243v-121z" />
    <glyph glyph-name="Iota" unicode="&#x399;" horiz-adv-x="315" 
d="M222 0h-129v682h129v-682z" />
    <glyph glyph-name="Kappa" unicode="&#x39a;" horiz-adv-x="642" 
d="M222 0h-129v682h129v-682zM622 0h-156l-231 343v5l221 334h153l-225 -333v-2z" />
    <glyph glyph-name="Lambda" unicode="&#x39b;" horiz-adv-x="671" 
d="M658 0h-146l-179 492h-1l-176 -492h-143l270 700h104z" />
    <glyph glyph-name="Mu" unicode="&#x39c;" horiz-adv-x="881" 
d="M807 0h-130l-35 382h-1l-196 -400h-9l-198 401h-1l-33 -383h-130l60 691h103l203 -441h1l203 441h103z" />
    <glyph glyph-name="Nu" unicode="&#x39d;" horiz-adv-x="765" 
d="M672 -9h-104l-345 438h-1v-429h-129v633l-31 43v6h134l346 -446h1v446h129v-691z" />
    <glyph glyph-name="Xi" unicode="&#x39e;" horiz-adv-x="622" 
d="M564 0h-506v121h506v-121zM542 561h-463v121h463v-121zM528 288h-434v121h434v-121z" />
    <glyph glyph-name="Omicron" unicode="&#x39f;" horiz-adv-x="751" 
d="M708 341c0 -227 -144 -359 -334 -359c-183 0 -331 130 -331 359c0 227 145 359 335 359c183 0 330 -131 330 -359zM574 341c0 154 -85 238 -196 238s-200 -80 -200 -238c0 -154 85 -238 196 -238s200 80 200 238z" />
    <glyph glyph-name="Pi" unicode="&#x3a0;" horiz-adv-x="745" 
d="M652 0h-129v561h-301v-561h-129v682h559v-682z" />
    <glyph glyph-name="Rho" unicode="&#x3a1;" horiz-adv-x="608" 
d="M560 468c0 -148 -95 -240 -338 -261v-207h-129v682h223c136 0 244 -72 244 -214zM429 457c0 69 -51 106 -124 106h-83v-237c154 7 207 63 207 131z" />
    <glyph glyph-name="Sigma" unicode="&#x3a3;" horiz-adv-x="587" 
d="M546 0h-523v8l231 343v1l-217 322v8h489v-121h-250v-1l138 -205v-8l-155 -225v-1h287v-121z" />
    <glyph glyph-name="Tau" unicode="&#x3a4;" horiz-adv-x="558" 
d="M344 0h-129v561h-185v121h498v-121h-184v-561z" />
    <glyph glyph-name="Upsilon" unicode="&#x3a5;" horiz-adv-x="626" 
d="M378 0h-129v270l-241 412h154l150 -279h1l155 279h150l-240 -412v-270z" />
    <glyph glyph-name="Phi" unicode="&#x3a6;" horiz-adv-x="818" 
d="M474 -8h-129v61c-176 10 -304 105 -304 288c0 182 127 276 304 287v62h129v-62c176 -11 303 -106 303 -287c0 -182 -127 -277 -303 -288v-61zM348 172v337c-107 -6 -172 -63 -172 -168c0 -106 66 -163 172 -169zM472 172c104 6 170 63 170 169c0 105 -66 162 -170 168
v-337z" />
    <glyph glyph-name="Chi" unicode="&#x3a7;" horiz-adv-x="692" 
d="M661 0h-155l-163 249h-1l-148 -249h-152l208 347l-220 335h154l158 -244h1l149 244h152l-208 -337z" />
    <glyph glyph-name="Psi" unicode="&#x3a8;" horiz-adv-x="808" 
d="M468 0h-129v140c-185 10 -275 85 -275 262v280h128v-281c0 -91 43 -135 147 -142v423h129v-424c106 7 147 51 147 143v281h129v-280c0 -177 -91 -252 -276 -262v-140z" />
    <glyph glyph-name="uni03A9" unicode="&#x3a9;" horiz-adv-x="763" 
d="M713 0h-293v103c98 75 147 148 147 261c0 138 -76 215 -185 215c-110 0 -185 -77 -185 -215c0 -113 48 -186 146 -261v-103h-293v121h118v1c-64 67 -106 148 -106 273c0 192 136 305 320 305c183 0 320 -113 320 -305c0 -125 -43 -206 -106 -273v-1h117v-121z" />
    <glyph glyph-name="Alphatonos" unicode="&#x386;" horiz-adv-x="701" 
d="M133 493h-91l31 189h110zM688 0h-142l-64 175h-253l-64 -175h-137l273 700h113zM440 289l-84 232h-1l-85 -232h170z" />
    <glyph glyph-name="Epsilontonos" unicode="&#x388;" horiz-adv-x="622" 
d="M81 493h-91l31 189h110zM561 0h-395v682h369v-121h-240v-152h230v-121h-230v-167h266v-121z" />
    <glyph glyph-name="Etatonos" unicode="&#x389;" horiz-adv-x="834" 
d="M81 493h-91l31 189h110zM740 0h-129v292h-316v-292h-129v682h129v-269h316v269h129v-682z" />
    <glyph glyph-name="Iotadieresis" unicode="&#x3aa;" horiz-adv-x="318" 
d="M222 0h-129v682h129v-682zM110 719h-120v95h120v-95zM330 719h-121v95h121v-95z" />
    <glyph glyph-name="Iotatonos" unicode="&#x38a;" horiz-adv-x="389" 
d="M81 493h-91l31 189h110zM295 0h-129v682h129v-682z" />
    <glyph glyph-name="Omicrontonos" unicode="&#x38c;" horiz-adv-x="805" 
d="M81 493h-91l31 189h110zM761 341c0 -227 -144 -359 -334 -359c-183 0 -331 130 -331 359c0 227 145 359 335 359c183 0 330 -131 330 -359zM627 341c0 154 -85 238 -196 238s-200 -80 -200 -238c0 -154 85 -238 196 -238s200 80 200 238z" />
    <glyph glyph-name="Upsilondieresis" unicode="&#x3ab;" horiz-adv-x="623" 
d="M376 0h-129v270l-241 412h154l150 -279h1l155 279h150l-240 -412v-270zM263 719h-120v95h120v-95zM483 719h-121v95h121v-95z" />
    <glyph glyph-name="Upsilontonos" unicode="&#x38e;" horiz-adv-x="753" 
d="M81 493h-91l31 189h110zM505 0h-129v270l-241 412h154l150 -279h1l155 279h150l-240 -412v-270z" />
    <glyph glyph-name="Omegatonos" unicode="&#x38f;" horiz-adv-x="810" 
d="M760 0h-293v103c98 75 147 148 147 261c0 138 -76 215 -185 215c-110 0 -185 -77 -185 -215c0 -113 48 -186 146 -261v-103h-293v121h118v1c-64 67 -106 148 -106 273c0 192 136 305 320 305c183 0 320 -113 320 -305c0 -125 -43 -206 -106 -273v-1h117v-121zM87 493h-91
l31 189h110z" />
    <glyph glyph-name="alpha" unicode="&#x3b1;" horiz-adv-x="610" 
d="M408 148v223c-25 27 -61 48 -107 48c-82 0 -136 -58 -136 -164c0 -105 53 -164 131 -164c49 0 85 24 112 57zM530 0h-122v40h-1c-41 -36 -87 -58 -150 -58c-130 0 -221 104 -221 273c0 172 98 273 234 273c68 0 112 -23 148 -50h1l108 40h3v-518z" />
    <glyph glyph-name="beta" unicode="&#x3b2;" horiz-adv-x="616" 
d="M578 206c0 -139 -96 -224 -225 -224c-62 0 -113 18 -144 41h-1v-172l-120 -44h-2v743c0 137 70 207 221 207c136 0 220 -67 220 -184c0 -77 -33 -129 -103 -171v-1c78 -15 154 -71 154 -195zM450 220c0 84 -60 116 -142 116h-53v109h65c60 26 81 61 81 109
c0 56 -37 97 -97 97c-72 0 -96 -38 -96 -103v-410c29 -31 71 -47 121 -47c64 0 121 39 121 129z" />
    <glyph glyph-name="gamma" unicode="&#x3b3;" horiz-adv-x="535" 
d="M319 -151l-117 -42h-2c0 134 -12 201 -72 370l-118 333h136l82 -246c14 -42 22 -68 30 -97h1l16 47c33 96 67 190 125 296h132c-84 -152 -137 -291 -202 -452l-22 -57c9 -49 11 -86 11 -152z" />
    <glyph glyph-name="delta" unicode="&#x3b4;" horiz-adv-x="589" 
d="M555 239c0 -154 -110 -257 -262 -257c-147 0 -259 102 -259 253c0 104 46 175 162 247c-55 36 -78 73 -78 132c0 85 60 143 189 143c72 0 127 -15 181 -43v-124h-3c-47 41 -109 67 -163 67c-57 0 -81 -17 -81 -45c0 -25 23 -45 86 -81l45 -26c102 -56 183 -130 183 -266z
M427 238c0 79 -43 132 -110 168l-23 13c-102 -52 -132 -112 -132 -181c0 -92 55 -149 133 -149c75 0 132 57 132 149z" />
    <glyph glyph-name="epsilon" unicode="&#x3b5;" horiz-adv-x="480" 
d="M40 138c0 66 41 116 99 133v1c-46 24 -71 61 -71 117c0 86 68 139 193 139c77 0 129 -18 166 -47v-122h-3c-31 42 -80 69 -137 69c-59 0 -85 -28 -85 -58c0 -37 31 -59 78 -59h99v-100h-154c-36 -10 -56 -32 -56 -60c0 -54 63 -69 106 -69c66 0 122 23 154 68h3v-121
c-39 -30 -99 -47 -185 -47c-132 0 -207 58 -207 156z" />
    <glyph glyph-name="zeta" unicode="&#x3b6;" horiz-adv-x="473" 
d="M416 -142h-124c24 35 38 64 38 92c0 14 -3 24 -12 33c-35 32 -150 5 -229 86c-33 33 -56 82 -56 154c0 144 80 251 238 419v1h-206v107h391v-86c-220 -217 -295 -311 -295 -430c0 -36 12 -63 29 -82c55 -64 180 -35 237 -83c20 -16 28 -40 28 -73c0 -42 -15 -90 -39 -138
z" />
    <glyph glyph-name="eta" unicode="&#x3b7;" horiz-adv-x="626" 
d="M550 -193h-122v499c0 77 -46 113 -109 113c-50 0 -88 -23 -116 -57v-362h-122v510h121v-41h1c41 37 91 59 155 59c104 0 192 -58 192 -183v-538z" />
    <glyph glyph-name="theta" unicode="&#x3b8;" horiz-adv-x="568" 
d="M529 341c0 -248 -106 -359 -245 -359c-137 0 -245 111 -245 359s104 359 245 359c144 0 245 -111 245 -359zM284 593c-61 0 -110 -54 -120 -200h239c-9 145 -56 200 -119 200zM284 89c62 0 109 55 119 197h-238c10 -142 59 -197 119 -197z" />
    <glyph glyph-name="iota" unicode="&#x3b9;" horiz-adv-x="283" 
d="M203 0h-122v510h122v-510z" />
    <glyph glyph-name="kappa" unicode="&#x3ba;" horiz-adv-x="557" 
d="M203 0h-122v510h122v-510zM542 0h-147l-182 256v4l174 250h143l-178 -250v-2z" />
    <glyph glyph-name="lambda" unicode="&#x3bb;" horiz-adv-x="555" 
d="M545 0h-137l-117 353h-1l-140 -353h-140l221 509c-36 92 -72 166 -128 241h143c47 -71 84 -155 115 -242z" />
    <glyph glyph-name="uni03BC" unicode="&#x3bc;" horiz-adv-x="618" 
d="M538 0h-116v40h-1c-30 -32 -75 -58 -122 -58c-48 0 -87 16 -109 52h-2c7 -67 12 -129 15 -183l-120 -44h-2v703h122v-304c0 -82 46 -115 106 -115c45 0 84 22 107 68v351h122v-510z" />
    <glyph glyph-name="nu" unicode="&#x3bd;" horiz-adv-x="548" 
d="M311 -18h-86l-215 528h139l127 -357h1c50 101 97 233 127 357h131c-44 -190 -138 -375 -224 -528z" />
    <glyph glyph-name="xi" unicode="&#x3be;" horiz-adv-x="487" 
d="M430 -142h-124c25 36 38 66 38 92c0 15 -4 26 -13 33c-37 31 -154 6 -232 86c-30 30 -56 76 -56 144c0 96 56 163 150 184v1c-60 29 -109 89 -109 175c0 112 80 184 210 184c76 0 126 -18 169 -51v-120h-3c-37 45 -85 71 -139 71c-63 0 -108 -34 -108 -102
c0 -66 54 -111 123 -111h77v-107h-149c-49 -12 -93 -51 -93 -111c0 -35 11 -61 32 -80c66 -60 184 -31 238 -77c20 -17 28 -40 28 -72c0 -45 -17 -97 -39 -139z" />
    <glyph glyph-name="omicron" unicode="&#x3bf;" horiz-adv-x="598" 
d="M436 255c0 103 -55 166 -136 166s-138 -60 -138 -166c0 -104 55 -166 136 -166s138 59 138 166zM565 255c0 -170 -111 -273 -267 -273c-152 0 -264 102 -264 273c0 170 110 273 266 273c152 0 265 -102 265 -273z" />
    <glyph glyph-name="pi" unicode="&#x3c0;" horiz-adv-x="672" 
d="M546 0h-122v403h-158c-1 -143 -13 -272 -30 -403h-122c17 133 29 267 30 403h-131v5l51 102h583v-107h-101v-403z" />
    <glyph glyph-name="rho" unicode="&#x3c1;" horiz-adv-x="612" 
d="M576 255c0 -173 -101 -273 -239 -273c-58 0 -106 16 -140 41h-1v-216h-122v466c0 173 97 255 246 255c151 0 256 -100 256 -273zM448 255c0 103 -51 168 -132 168c-75 0 -120 -46 -120 -154v-131c25 -26 64 -47 110 -47c84 0 142 58 142 164z" />
    <glyph glyph-name="sigma1" unicode="&#x3c2;" horiz-adv-x="446" 
d="M283 -16c-32 29 -133 13 -199 93c-34 42 -50 98 -50 175c0 174 97 276 231 276c60 0 107 -20 146 -51v-128h-3c-27 40 -71 72 -124 72c-71 0 -122 -66 -122 -166c0 -47 11 -82 31 -106c55 -66 151 -38 202 -80c18 -17 26 -39 26 -73c0 -43 -15 -92 -39 -138h-124
c27 42 38 66 38 92c0 15 -3 26 -13 34z" />
    <glyph glyph-name="sigma" unicode="&#x3c3;" horiz-adv-x="610" 
d="M553 227c0 -147 -109 -245 -260 -245c-147 0 -259 101 -259 260c0 177 112 268 282 268h270v-108h-117c60 -49 84 -103 84 -175zM427 240c0 70 -30 118 -98 163h-12c-90 0 -155 -52 -155 -161c0 -93 53 -155 133 -155c77 0 132 59 132 153z" />
    <glyph glyph-name="tau" unicode="&#x3c4;" horiz-adv-x="459" 
d="M290 0h-122v403h-143v107h409v-107h-144v-403z" />
    <glyph glyph-name="upsilon" unicode="&#x3c5;" horiz-adv-x="607" 
d="M391 510h127c11 -84 18 -152 18 -243c0 -169 -69 -285 -239 -285c-141 0 -221 84 -221 220v308h122v-305c0 -77 35 -116 101 -116c91 0 115 75 115 174c0 90 -8 162 -23 247z" />
    <glyph glyph-name="phi" unicode="&#x3c6;" horiz-adv-x="762" 
d="M322 87v336c-93 -3 -160 -58 -160 -168c0 -109 68 -163 160 -168zM728 255c0 -166 -121 -260 -286 -270v-178h-122v178c-165 10 -286 104 -286 270c0 165 114 260 286 270v225h122v-226c170 -9 286 -104 286 -269zM600 255c0 111 -67 165 -161 168v-336
c93 4 161 59 161 168z" />
    <glyph glyph-name="chi" unicode="&#x3c7;" horiz-adv-x="543" 
d="M533 -193h-141l-121 259h-1l-116 -259h-138l166 349l-172 354h141l120 -261h1l119 261h138l-166 -354z" />
    <glyph glyph-name="psi" unicode="&#x3c8;" horiz-adv-x="811" 
d="M468 -193h-122v178c-181 11 -270 87 -270 248v277h122v-277c0 -90 42 -138 148 -142v659h122v-658c108 7 150 61 150 175c0 88 -7 157 -18 243h122c10 -84 18 -152 18 -243c0 -184 -87 -270 -272 -282v-178z" />
    <glyph glyph-name="omega" unicode="&#x3c9;" horiz-adv-x="799" 
d="M548 -18c-71 0 -121 28 -147 77h-2c-27 -49 -77 -77 -147 -77c-132 0 -196 121 -196 270c0 100 15 171 62 258h136c-49 -87 -66 -157 -66 -258c0 -90 21 -164 78 -164c46 0 73 32 73 104v183h122v-183c0 -72 27 -104 73 -104c57 0 78 74 78 164c0 101 -16 171 -66 258
h135c47 -88 63 -158 63 -258c0 -149 -65 -270 -196 -270z" />
    <glyph glyph-name="alphatonos" unicode="&#x3ac;" horiz-adv-x="610" 
d="M367 561h-91l31 189h110zM408 148v223c-25 27 -61 48 -107 48c-82 0 -136 -58 -136 -164c0 -105 53 -164 131 -164c49 0 85 24 112 57zM530 0h-122v40h-1c-41 -36 -87 -58 -150 -58c-130 0 -221 104 -221 273c0 172 98 273 234 273c68 0 112 -23 148 -50h1l108 40h3v-518
z" />
    <glyph glyph-name="epsilontonos" unicode="&#x3ad;" horiz-adv-x="480" 
d="M316 561h-91l31 189h110zM40 138c0 66 41 116 99 133v1c-46 24 -71 61 -71 117c0 86 68 139 193 139c77 0 129 -18 166 -47v-122h-3c-31 42 -80 69 -137 69c-59 0 -85 -28 -85 -58c0 -37 31 -59 78 -59h99v-100h-154c-36 -10 -56 -32 -56 -60c0 -54 63 -69 106 -69
c66 0 122 23 154 68h3v-121c-39 -30 -99 -47 -185 -47c-132 0 -207 58 -207 156z" />
    <glyph glyph-name="etatonos" unicode="&#x3ae;" horiz-adv-x="626" 
d="M377 561h-91l31 189h110zM550 -193h-122v499c0 77 -46 113 -109 113c-50 0 -88 -23 -116 -57v-362h-122v510h121v-41h1c41 37 91 59 155 59c104 0 192 -58 192 -183v-538z" />
    <glyph glyph-name="iotadieresis" unicode="&#x3ca;" horiz-adv-x="283" 
d="M203 0h-122v510h122v-510zM312 642h-121v108h121v-108zM92 642h-120v108h120v-108z" />
    <glyph glyph-name="iotadieresistonos" unicode="&#x390;" horiz-adv-x="283" 
d="M203 0h-122v510h122v-510zM188 561h-94l21 189h110zM62 597h-106v94h106v-94zM356 597h-106v94h106v-94z" />
    <glyph glyph-name="iotatonos" unicode="&#x3af;" horiz-adv-x="283" 
d="M203 0h-122v510h122v-510zM190 561h-91l31 189h110z" />
    <glyph glyph-name="omicrontonos" unicode="&#x3cc;" horiz-adv-x="598" 
d="M340 561h-91l31 189h110zM436 255c0 103 -55 166 -136 166s-138 -60 -138 -166c0 -104 55 -166 136 -166s138 59 138 166zM565 255c0 -170 -111 -273 -267 -273c-152 0 -264 102 -264 273c0 170 110 273 266 273c152 0 265 -102 265 -273z" />
    <glyph glyph-name="upsilondieresis" unicode="&#x3cb;" horiz-adv-x="607" 
d="M249 642h-120v108h120v-108zM469 642h-121v108h121v-108zM391 510h127c11 -84 18 -152 18 -243c0 -169 -69 -285 -239 -285c-141 0 -221 84 -221 220v308h122v-305c0 -77 35 -116 101 -116c91 0 115 75 115 174c0 90 -8 162 -23 247z" />
    <glyph glyph-name="upsilondieresistonos" unicode="&#x3b0;" horiz-adv-x="607" 
d="M214 597h-106v94h106v-94zM508 597h-106v94h106v-94zM340 561h-94l21 189h110zM391 510h127c11 -84 18 -152 18 -243c0 -169 -69 -285 -239 -285c-141 0 -221 84 -221 220v308h122v-305c0 -77 35 -116 101 -116c91 0 115 75 115 174c0 90 -8 162 -23 247z" />
    <glyph glyph-name="upsilontonos" unicode="&#x3cd;" horiz-adv-x="607" 
d="M343 561h-91l31 189h110zM391 510h127c11 -84 18 -152 18 -243c0 -169 -69 -285 -239 -285c-141 0 -221 84 -221 220v308h122v-305c0 -77 35 -116 101 -116c91 0 115 75 115 174c0 90 -8 162 -23 247z" />
    <glyph glyph-name="omegatonos" unicode="&#x3ce;" horiz-adv-x="799" 
d="M448 561h-91l31 189h110zM548 -18c-71 0 -121 28 -147 77h-2c-27 -49 -77 -77 -147 -77c-132 0 -196 121 -196 270c0 100 15 171 62 258h136c-49 -87 -66 -157 -66 -258c0 -90 21 -164 78 -164c46 0 73 32 73 104v183h122v-183c0 -72 27 -104 73 -104c57 0 78 74 78 164
c0 101 -16 171 -66 258h135c47 -88 63 -158 63 -258c0 -149 -65 -270 -196 -270z" />
    <glyph glyph-name="uni0410" unicode="&#x410;" horiz-adv-x="686" 
d="M673 0h-142l-64 175h-253l-64 -175h-137l273 700h113zM425 289l-84 232h-1l-85 -232h170z" />
    <glyph glyph-name="uni0411" unicode="&#x411;" horiz-adv-x="622" 
d="M574 211c0 -146 -95 -211 -255 -211h-226v682h407v-121h-278v-141h97c158 0 255 -60 255 -209zM444 211c0 65 -46 90 -126 90h-96v-182h96c82 0 126 32 126 92z" />
    <glyph glyph-name="uni0412" unicode="&#x412;" horiz-adv-x="630" 
d="M574 184c0 -128 -90 -184 -245 -184h-236v682h227c128 0 215 -62 215 -174c0 -74 -40 -127 -91 -158v-1c63 -16 130 -70 130 -165zM443 204c0 55 -45 85 -114 85h-107v-177h100c77 0 121 29 121 92zM403 486c0 51 -40 84 -104 84h-77v-173h106c54 18 75 47 75 89z" />
    <glyph glyph-name="uni0413" unicode="&#x413;" horiz-adv-x="498" 
d="M222 0h-129v682h375v-121h-246v-561z" />
    <glyph glyph-name="uni0414" unicode="&#x414;" horiz-adv-x="743" 
d="M698 -142h-119v142h-435v-142h-119v263h75c50 83 72 159 81 284l18 277h421v-561h78v-263zM492 121v442h-173l-11 -172c-8 -125 -32 -195 -72 -270h256z" />
    <glyph glyph-name="uni0415" unicode="&#x415;" horiz-adv-x="549" 
d="M488 0h-395v682h369v-121h-240v-152h230v-121h-230v-167h266v-121z" />
    <glyph glyph-name="uni0416" unicode="&#x416;" horiz-adv-x="928" 
d="M174 0h-156l219 347v2l-208 333h153l204 -334v-5zM528 0h-129v682h129v-682zM910 0h-156l-212 343v5l204 334h153l-208 -333v-2z" />
    <glyph glyph-name="uni0417" unicode="&#x417;" horiz-adv-x="569" 
d="M264 -18c-80 0 -144 15 -198 50v137h3c42 -45 119 -73 183 -73c74 0 131 30 131 96c0 57 -46 89 -126 89h-116v119h124c60 23 77 57 77 92c0 64 -47 94 -115 94c-62 0 -117 -30 -154 -72h-3v137c47 32 108 49 176 49c135 0 228 -70 228 -187c0 -74 -35 -128 -92 -162v-1
c69 -17 131 -76 131 -176c0 -125 -100 -192 -249 -192z" />
    <glyph glyph-name="uni0418" unicode="&#x418;" horiz-adv-x="760" 
d="M667 0h-129v476h-1l-325 -485h-119v691h129v-476h1l325 485h119v-691z" />
    <glyph glyph-name="uni0419" unicode="&#x419;" horiz-adv-x="760" 
d="M382 696c-88 0 -148 43 -158 118h91c7 -27 29 -45 67 -45s60 18 66 45h92c-10 -75 -70 -118 -158 -118zM667 0h-129v476h-1l-325 -485h-119v691h129v-476h1l325 485h119v-691z" />
    <glyph glyph-name="uni041A" unicode="&#x41a;" horiz-adv-x="642" 
d="M222 0h-129v682h129v-682zM622 0h-156l-231 343v5l221 334h153l-225 -333v-2z" />
    <glyph glyph-name="uni041B" unicode="&#x41b;" horiz-adv-x="701" 
d="M604 0h-129v561h-172l-16 -215c-19 -266 -93 -353 -261 -356v124c105 0 125 95 137 284l19 284h422v-682z" />
    <glyph glyph-name="uni041C" unicode="&#x41c;" horiz-adv-x="881" 
d="M807 0h-130l-35 382h-1l-196 -400h-9l-198 401h-1l-33 -383h-130l60 691h103l203 -441h1l203 441h103z" />
    <glyph glyph-name="uni041D" unicode="&#x41d;" horiz-adv-x="760" 
d="M667 0h-129v293h-316v-293h-129v682h129v-268h316v268h129v-682z" />
    <glyph glyph-name="uni041E" unicode="&#x41e;" horiz-adv-x="751" 
d="M708 341c0 -227 -144 -359 -334 -359c-183 0 -331 130 -331 359c0 227 145 359 335 359c183 0 330 -131 330 -359zM574 341c0 154 -85 238 -196 238s-200 -80 -200 -238c0 -154 85 -238 196 -238s200 80 200 238z" />
    <glyph glyph-name="uni041F" unicode="&#x41f;" horiz-adv-x="750" 
d="M657 0h-129v561h-306v-561h-129v682h564v-682z" />
    <glyph glyph-name="uni0420" unicode="&#x420;" horiz-adv-x="608" 
d="M560 468c0 -148 -95 -240 -338 -261v-207h-129v682h223c136 0 244 -72 244 -214zM429 457c0 69 -51 106 -124 106h-83v-237c154 7 207 63 207 131z" />
    <glyph glyph-name="uni0421" unicode="&#x421;" horiz-adv-x="612" 
d="M561 198v-149c-55 -42 -125 -67 -208 -67c-175 0 -310 128 -310 359c0 222 126 359 306 359c83 0 155 -24 208 -67v-149h-4c-44 60 -110 94 -181 94c-119 0 -194 -92 -194 -237c0 -144 76 -237 198 -237c72 0 139 36 181 94h4z" />
    <glyph glyph-name="uni0422" unicode="&#x422;" horiz-adv-x="558" 
d="M344 0h-129v561h-185v121h498v-121h-184v-561z" />
    <glyph glyph-name="uni0423" unicode="&#x423;" horiz-adv-x="625" 
d="M307 0h-138l84 185l-243 497h149l160 -350h1l158 350h136z" />
    <glyph glyph-name="uni0424" unicode="&#x424;" horiz-adv-x="818" 
d="M474 -8h-129v61c-176 10 -304 105 -304 288c0 182 127 276 304 287v62h129v-62c176 -11 303 -106 303 -287c0 -182 -127 -277 -303 -288v-61zM348 172v337c-107 -6 -172 -68 -172 -168c0 -101 66 -163 172 -169zM472 172c104 6 170 68 170 169c0 100 -66 162 -170 168
v-337z" />
    <glyph glyph-name="uni0425" unicode="&#x425;" horiz-adv-x="692" 
d="M661 0h-155l-163 249h-1l-148 -249h-152l208 347l-220 335h154l158 -244h1l149 244h152l-208 -337z" />
    <glyph glyph-name="uni0426" unicode="&#x426;" horiz-adv-x="769" 
d="M724 -142h-119v142h-512v682h129v-561h296v561h129v-561h77v-263z" />
    <glyph glyph-name="uni0427" unicode="&#x427;" horiz-adv-x="648" 
d="M555 0h-129v200c-314 20 -373 102 -373 277v205h129v-198c0 -102 28 -155 244 -165v363h129v-682z" />
    <glyph glyph-name="uni0428" unicode="&#x428;" horiz-adv-x="1013" 
d="M920 0h-827v682h129v-561h220v561h129v-561h221v561h128v-682z" />
    <glyph glyph-name="uni0429" unicode="&#x429;" horiz-adv-x="1043" 
d="M998 -142h-119v142h-786v682h129v-561h220v561h129v-561h221v561h128v-561h78v-263z" />
    <glyph glyph-name="uni042A" unicode="&#x42a;" horiz-adv-x="737" 
d="M696 221c0 -154 -97 -221 -254 -221h-226v560h-186v121h314v-241h98c155 0 254 -63 254 -219zM566 221c0 69 -48 100 -131 100h-91v-201h91c85 0 131 35 131 101z" />
    <glyph glyph-name="uni042B" unicode="&#x42b;" horiz-adv-x="851" 
d="M558 217c0 -151 -99 -217 -258 -217h-207v682h129v-247h78c158 0 258 -64 258 -218zM429 217c0 68 -49 99 -130 99h-77v-197h77c83 0 130 34 130 98zM758 0h-129v682h129v-682z" />
    <glyph glyph-name="uni042C" unicode="&#x42c;" horiz-adv-x="614" 
d="M574 221c0 -154 -100 -221 -255 -221h-226v682h129v-241h97c154 0 255 -64 255 -220zM444 221c0 69 -49 100 -130 100h-92v-201h92c84 0 130 35 130 101z" />
    <glyph glyph-name="uni042D" unicode="&#x42d;" horiz-adv-x="649" 
d="M280 -18c-90 0 -165 25 -219 70v143h3c51 -58 121 -92 206 -92c120 0 197 72 197 185h-359v121h359c0 103 -86 170 -198 170c-85 0 -152 -33 -201 -90h-3v141c55 42 128 70 218 70c188 0 323 -134 323 -359c0 -234 -145 -359 -326 -359z" />
    <glyph glyph-name="uni042E" unicode="&#x42e;" horiz-adv-x="1032" 
d="M654 -18c-165 0 -306 108 -325 311h-107v-293h-129v682h129v-268h110c30 193 171 286 326 286c183 0 331 -131 331 -359c0 -227 -145 -359 -335 -359zM654 103c111 0 200 80 200 238c0 154 -85 238 -196 238s-200 -80 -200 -238c0 -154 85 -238 196 -238z" />
    <glyph glyph-name="uni042F" unicode="&#x42f;" horiz-adv-x="634" 
d="M540 0h-129v563h-80c-85 0 -132 -40 -132 -103c0 -67 45 -112 199 -136v-5l-217 -319h-156l181 265v2c-97 43 -138 110 -138 210c0 136 100 205 241 205h231v-682z" />
    <glyph glyph-name="uni0403" unicode="&#x403;" horiz-adv-x="498" 
d="M222 0h-129v682h126l74 118h127l-96 -118h144v-121h-246v-561z" />
    <glyph glyph-name="uni0490" unicode="&#x490;" horiz-adv-x="498" 
d="M222 0h-129v682h256v137h119v-257h-246v-562z" />
    <glyph glyph-name="uni0402" unicode="&#x402;" horiz-adv-x="732" 
d="M445 6v118c13 -5 26 -6 39 -6c41 0 77 23 77 83c0 63 -42 89 -119 89h-97v-290h-130v561h-185v121h567v-121h-252v-152h93c146 0 253 -53 253 -208c0 -145 -99 -201 -198 -201c-18 0 -37 1 -48 6z" />
    <glyph glyph-name="uni0404" unicode="&#x404;" horiz-adv-x="649" 
d="M370 -18c-181 0 -326 125 -326 359c0 225 135 359 323 359c90 0 163 -28 218 -70v-141h-3c-49 57 -116 90 -201 90c-112 0 -198 -67 -198 -170h359v-121h-359c0 -113 77 -185 197 -185c85 0 155 34 206 92h3v-143c-54 -45 -129 -70 -219 -70z" />
    <glyph glyph-name="uni0405" unicode="&#x405;" horiz-adv-x="548" 
d="M497 185c0 -114 -83 -203 -230 -203c-80 0 -149 21 -201 61v140h3c48 -56 123 -83 188 -83c70 0 111 22 111 75c0 135 -299 88 -299 323c0 103 62 202 218 202c67 0 136 -20 186 -61v-140h-3c-46 57 -112 83 -172 83c-65 0 -99 -26 -99 -71c0 -135 298 -87 298 -326z" />
    <glyph glyph-name="uni0400" unicode="&#x400;" horiz-adv-x="549" 
d="M488 0h-395v682h141l-96 118h127l74 -118h123v-121h-240v-151h230v-123h-230v-166h266v-121z" />
    <glyph glyph-name="uni0401" unicode="&#x401;" horiz-adv-x="549" 
d="M224 719h-120v95h120v-95zM444 719h-121v95h121v-95zM488 0h-395v682h369v-121h-240v-151h230v-123h-230v-166h266v-121z" />
    <glyph glyph-name="uni0406" unicode="&#x406;" horiz-adv-x="315" 
d="M222 0h-129v682h129v-682z" />
    <glyph glyph-name="uni0407" unicode="&#x407;" horiz-adv-x="318" 
d="M222 0h-129v682h129v-682zM110 719h-120v95h120v-95zM330 719h-121v95h121v-95z" />
    <glyph glyph-name="uni0408" unicode="&#x408;" horiz-adv-x="438" 
d="M167 -18c-40 0 -82 11 -112 31v137h4c23 -31 54 -46 83 -46c57 0 84 33 84 102v354h-178v5l47 117h259v-500c0 -115 -52 -200 -187 -200z" />
    <glyph glyph-name="uni040D" unicode="&#x40d;" horiz-adv-x="760" 
d="M435 682h-105l-96 118h127zM667 0h-129v476h-1l-325 -485h-119v691h129v-476h1l325 485h119v-691z" />
    <glyph glyph-name="uni040C" unicode="&#x40c;" horiz-adv-x="642" 
d="M377 682h-105l74 118h127zM222 0h-129v682h129v-682zM622 0h-156l-231 343v5l221 334h153l-225 -333v-2z" />
    <glyph glyph-name="uni0409" unicode="&#x409;" horiz-adv-x="946" 
d="M905 217c0 -151 -99 -217 -258 -217h-217v561h-127l-16 -215c-19 -266 -93 -353 -261 -356v124c105 0 125 95 137 284l19 284h376v-247h89c158 0 258 -67 258 -218zM775 217c0 65 -48 99 -129 99h-88v-197h88c83 0 129 34 129 98z" />
    <glyph glyph-name="uni040A" unicode="&#x40a;" horiz-adv-x="1013" 
d="M973 207c0 -149 -100 -207 -259 -207h-217v294h-275v-294h-129v682h129v-267h275v267h128v-267h89c158 0 259 -59 259 -208zM843 207c0 63 -49 89 -130 89h-88v-177h88c83 0 130 26 130 88z" />
    <glyph glyph-name="uni040B" unicode="&#x40b;" horiz-adv-x="755" 
d="M707 0h-129v169c0 79 -51 116 -141 116h-93v-285h-129v561h-185v121h519v-121h-205v-157h110c155 0 253 -65 253 -214v-190z" />
    <glyph glyph-name="uni040E" unicode="&#x40e;" horiz-adv-x="625" 
d="M318 696c-88 0 -148 43 -158 118h91c7 -27 29 -45 67 -45s60 18 66 45h92c-10 -75 -70 -118 -158 -118zM307 0h-138l84 185l-243 497h149l160 -350h1l158 350h136z" />
    <glyph glyph-name="uni040F" unicode="&#x40f;" horiz-adv-x="750" 
d="M657 0h-222v-142h-120v142h-222v682h129v-561h306v561h129v-682z" />
    <glyph glyph-name="uni0462" unicode="&#x462;" horiz-adv-x="731" 
d="M690 210c0 -141 -100 -210 -258 -210h-218v511h-184v121h184v50h130v-50h224v-121h-224v-90h87c159 0 259 -67 259 -211zM560 210c0 63 -44 92 -125 92h-91v-183h91c83 0 125 31 125 91z" />
    <glyph glyph-name="uni0472" unicode="&#x472;" horiz-adv-x="751" 
d="M708 341c0 -227 -144 -359 -334 -359c-183 0 -331 130 -331 359c0 227 145 359 335 359c183 0 330 -131 330 -359zM374 103c97 0 178 62 196 184h-388c17 -120 94 -184 192 -184zM378 579c-94 0 -173 -58 -194 -171h384c-21 111 -97 171 -190 171z" />
    <glyph glyph-name="uni0474" unicode="&#x474;" horiz-adv-x="670" 
d="M383 -18h-104l-269 700h143l180 -504h1l88 259c36 110 62 178 108 245h138c-56 -81 -85 -155 -126 -265z" />
    <glyph glyph-name="uni0492" unicode="&#x492;" horiz-adv-x="498" 
d="M222 0h-129v254h-93v121h93v307h375v-121h-246v-186h153v-121h-153v-254z" />
    <glyph glyph-name="uni0496" unicode="&#x496;" horiz-adv-x="952" 
d="M174 0h-156l219 347v2l-208 333h153l204 -334v-5zM528 0h-129v682h129v-682zM834 119h98v-261h-119v142h-59l-212 343v5l204 334h153l-208 -333v-2z" />
    <glyph glyph-name="uni049A" unicode="&#x49a;" horiz-adv-x="661" 
d="M222 0h-129v682h129v-682zM540 119h101v-261h-120v142h-55l-231 343v5l221 334h153l-225 -333v-2z" />
    <glyph glyph-name="uni04A2" unicode="&#x4a2;" horiz-adv-x="790" 
d="M667 119h78v-261h-119v142h-88v293h-316v-293h-129v682h129v-268h316v268h129v-563z" />
    <glyph glyph-name="uni04AE" unicode="&#x4ae;" horiz-adv-x="626" 
d="M378 0h-129v270l-241 412h154l150 -279h1l155 279h150l-240 -412v-270z" />
    <glyph glyph-name="uni04B0" unicode="&#x4b0;" horiz-adv-x="635" 
d="M383 0h-129v209h-118v102h94l-217 371h154l150 -279h1l155 279h150l-216 -371h93v-102h-117v-209z" />
    <glyph glyph-name="uni04B2" unicode="&#x4b2;" horiz-adv-x="705" 
d="M582 119h103v-261h-119v142h-60l-163 249h-1l-148 -249h-152l208 347l-220 335h154l158 -244h1l149 244h152l-208 -337z" />
    <glyph glyph-name="uni04B6" unicode="&#x4b6;" horiz-adv-x="676" 
d="M632 -142h-119v142h-87v200c-314 20 -373 102 -373 277v205h129v-198c0 -102 28 -155 244 -165v363h128v-563h78v-261z" />
    <glyph glyph-name="uni04BA" unicode="&#x4ba;" horiz-adv-x="633" 
d="M585 0h-129v202c0 79 -51 116 -141 116h-93v-318h-129v683h129v-244h110c155 0 253 -67 253 -216v-223z" />
    <glyph glyph-name="uni04C0" unicode="&#x4c0;" horiz-adv-x="315" 
d="M222 0h-129v682h129v-682z" />
    <glyph glyph-name="uni04D8" unicode="&#x4d8;" horiz-adv-x="752" 
d="M94 629c63 45 151 71 247 71c208 0 360 -130 360 -359c0 -221 -128 -359 -326 -359c-173 0 -313 121 -313 319c0 20 1 46 3 67h473c-11 137 -98 210 -228 210c-86 0 -163 -36 -212 -96h-4v147zM225 246c5 -87 64 -143 152 -143c83 0 146 53 159 143h-311z" />
    <glyph glyph-name="uni04E2" unicode="&#x4e2;" horiz-adv-x="760" 
d="M546 730h-328v84h328v-84zM667 0h-129v476h-1l-325 -485h-119v691h129v-476h1l325 485h119v-691z" />
    <glyph glyph-name="uni04E8" unicode="&#x4e8;" horiz-adv-x="751" 
d="M708 341c0 -227 -144 -359 -334 -359c-183 0 -331 130 -331 359c0 227 145 359 335 359c183 0 330 -131 330 -359zM374 103c97 0 178 62 196 184h-388c17 -120 94 -184 192 -184zM378 579c-94 0 -173 -58 -194 -171h384c-21 111 -97 171 -190 171z" />
    <glyph glyph-name="uni04EE" unicode="&#x4ee;" horiz-adv-x="625" 
d="M482 730h-328v84h328v-84zM307 0h-138l84 185l-243 497h149l160 -350h1l158 350h136z" />
    <glyph glyph-name="uni0430" unicode="&#x430;" horiz-adv-x="567" 
d="M493 0h-119v38h-1c-38 -34 -85 -56 -148 -56c-95 0 -172 60 -172 163c0 100 68 167 190 167c51 0 95 -12 128 -31v36c0 74 -56 104 -129 104c-61 0 -119 -31 -155 -69h-3v122c49 34 114 54 183 54c127 0 226 -62 226 -211v-317zM371 135v51c-28 17 -63 26 -105 26
c-60 0 -92 -19 -92 -61c0 -35 30 -65 90 -65c42 0 80 17 107 49z" />
    <glyph glyph-name="uni0431" unicode="&#x431;" horiz-adv-x="603" 
d="M569 255c0 -170 -105 -273 -261 -273c-161 0 -265 111 -265 324c0 82 7 159 39 239c31 78 70 131 166 155c94 24 197 9 266 57h3v-118c-61 -32 -150 -32 -222 -47c-82 -17 -114 -74 -127 -156l2 -1c28 47 89 78 155 78c132 0 244 -84 244 -258zM441 251
c0 99 -53 154 -134 154c-89 0 -135 -70 -135 -144c0 -92 42 -172 135 -172c81 0 134 63 134 162z" />
    <glyph glyph-name="uni0432" unicode="&#x432;" horiz-adv-x="556" 
d="M512 137c0 -95 -67 -137 -183 -137h-248v510h241c96 0 161 -47 161 -131c0 -55 -25 -93 -79 -116v-1c63 -12 108 -54 108 -125zM383 153c0 38 -31 55 -80 55h-100v-108h94c55 0 86 15 86 53zM354 362c0 28 -28 48 -74 48h-77v-106h97c39 12 54 30 54 58z" />
    <glyph glyph-name="uni0433" unicode="&#x433;" horiz-adv-x="451" 
d="M203 0h-122v510h344v-107h-222v-403z" />
    <glyph glyph-name="uni0434" unicode="&#x434;" horiz-adv-x="629" 
d="M591 -142h-113v142h-348v-142h-113v249h60c37 63 56 116 62 217l11 186h369v-403h72v-249zM397 107v296h-137l-7 -110c-5 -83 -23 -135 -51 -186h195z" />
    <glyph glyph-name="uni0435" unicode="&#x435;" horiz-adv-x="563" 
d="M496 35c-48 -34 -116 -53 -189 -53c-158 0 -273 99 -273 273c0 168 97 273 248 273c132 0 238 -94 238 -243c0 -15 -1 -41 -2 -58h-355c8 -89 71 -139 169 -139c65 0 124 29 161 67h3v-120zM392 327c-3 54 -47 94 -110 94c-65 0 -109 -33 -119 -94h229z" />
    <glyph glyph-name="uni0436" unicode="&#x436;" horiz-adv-x="789" 
d="M162 0h-147l170 258v2l-158 250h143l153 -250v-4zM456 0h-122v510h122v-510zM774 0h-147l-161 256v4l153 250h144l-158 -250v-2z" />
    <glyph glyph-name="uni0437" unicode="&#x437;" horiz-adv-x="483" 
d="M443 133c0 -94 -79 -151 -209 -151c-86 0 -143 14 -184 44v124h3c33 -41 90 -68 152 -68c74 0 109 31 109 65c0 40 -31 64 -97 64h-114v100h127c37 14 50 36 50 61s-26 56 -82 56c-54 0 -103 -22 -139 -68h-3v121c36 28 88 47 166 47c121 0 191 -51 191 -138
c0 -55 -19 -86 -71 -118v-1c64 -22 101 -63 101 -138z" />
    <glyph glyph-name="uni0438" unicode="&#x438;" horiz-adv-x="633" 
d="M552 0h-122v328h-1l-235 -337h-113v519h122v-329h1l234 338h114v-519z" />
    <glyph glyph-name="uni0439" unicode="&#x439;" horiz-adv-x="633" 
d="M320 587c-111 0 -167 69 -176 163h94c8 -49 35 -84 82 -84s74 35 82 84h94c-9 -94 -65 -163 -176 -163zM552 0h-122v328h-1l-235 -337h-113v519h122v-329h1l234 338h114v-519z" />
    <glyph glyph-name="uni043A" unicode="&#x43a;" horiz-adv-x="557" 
d="M203 0h-122v510h122v-510zM542 0h-147l-182 256v4l174 250h143l-178 -250v-2z" />
    <glyph glyph-name="uni043B" unicode="&#x43b;" horiz-adv-x="584" 
d="M504 0h-122v403h-131l-10 -138c-17 -200 -72 -275 -219 -275v105c80 0 97 76 105 212l13 203h364v-510z" />
    <glyph glyph-name="uni043C" unicode="&#x43c;" horiz-adv-x="725" 
d="M662 0h-121l-25 263h-1l-147 -278h-11l-147 279h-1l-24 -264h-121l44 519h114l141 -299h1l140 299h112z" />
    <glyph glyph-name="uni043D" unicode="&#x43d;" horiz-adv-x="630" 
d="M550 0h-122v210h-225v-210h-122v510h122v-193h225v193h122v-510z" />
    <glyph glyph-name="uni043E" unicode="&#x43e;" horiz-adv-x="598" 
d="M436 255c0 103 -55 166 -136 166s-138 -60 -138 -166c0 -104 55 -166 136 -166s138 59 138 166zM565 255c0 -170 -111 -273 -267 -273c-152 0 -264 102 -264 273c0 170 110 273 266 273c152 0 265 -102 265 -273z" />
    <glyph glyph-name="uni043F" unicode="&#x43f;" horiz-adv-x="620" 
d="M540 0h-122v403h-215v-403h-122v510h459v-510z" />
    <glyph glyph-name="uni0440" unicode="&#x440;" horiz-adv-x="619" 
d="M583 255c0 -173 -101 -273 -239 -273c-58 0 -106 16 -140 41h-1v-216h-122v703h121v-41h1c41 37 90 59 154 59c131 0 226 -104 226 -273zM454 255c0 104 -56 164 -136 164c-50 0 -88 -24 -115 -57v-224c25 -26 64 -47 110 -47c84 0 141 58 141 164z" />
    <glyph glyph-name="uni0441" unicode="&#x441;" horiz-adv-x="472" 
d="M431 163v-130c-41 -32 -94 -51 -158 -51c-132 0 -239 97 -239 273c0 168 99 273 237 273c63 0 116 -16 157 -50v-130h-3c-30 41 -81 72 -134 72c-79 0 -129 -68 -129 -166s54 -165 140 -165c51 0 98 32 126 74h3z" />
    <glyph glyph-name="uni0442" unicode="&#x442;" horiz-adv-x="432" 
d="M277 0h-122v403h-130v107h382v-107h-130v-403z" />
    <glyph glyph-name="uni0443" unicode="&#x443;" horiz-adv-x="557" 
d="M277 -193h-134l79 194l-214 509h139l138 -353h1l120 353h136z" />
    <glyph glyph-name="uni0444" unicode="&#x444;" horiz-adv-x="797" 
d="M761 255c0 -159 -76 -273 -215 -273c-39 0 -60 5 -86 14v-189h-122v189c-27 -8 -53 -14 -87 -14c-139 0 -215 114 -215 273c0 158 76 273 215 273c39 0 60 -5 87 -14v236h122v-236c27 10 49 14 86 14c139 0 215 -115 215 -273zM338 102v305c-19 8 -37 12 -57 12
c-76 0 -116 -63 -116 -164s40 -164 116 -164c20 0 38 4 57 11zM633 255c0 101 -41 164 -117 164c-20 0 -37 -4 -56 -12v-305c19 -7 36 -11 56 -11c76 0 117 63 117 164z" />
    <glyph glyph-name="uni0445" unicode="&#x445;" horiz-adv-x="552" 
d="M540 0h-144l-121 176h-1l-111 -176h-140l164 258l-174 252h143l118 -174h1l112 174h141l-166 -252z" />
    <glyph glyph-name="uni0446" unicode="&#x446;" horiz-adv-x="631" 
d="M596 -142h-113v142h-402v510h122v-404h203v404h122v-404h68v-248z" />
    <glyph glyph-name="uni0447" unicode="&#x447;" horiz-adv-x="553" 
d="M472 0h-122v139c-236 14 -302 78 -302 205v166h125v-143c0 -71 21 -108 177 -117v260h122v-510z" />
    <glyph glyph-name="uni0448" unicode="&#x448;" horiz-adv-x="874" 
d="M793 0h-712v510h122v-403h173v403h122v-403h173v403h122v-510z" />
    <glyph glyph-name="uni0449" unicode="&#x449;" horiz-adv-x="903" 
d="M865 -142h-113v142h-671v510h122v-404h173v404h122v-404h173v404h122v-404h72v-248z" />
    <glyph glyph-name="uni044A" unicode="&#x44a;" horiz-adv-x="609" 
d="M440 171c0 40 -28 66 -84 66h-79v-137h74c64 0 89 23 89 71zM569 169c0 -109 -68 -169 -186 -169h-228v403h-130v107h252v-173h115c119 0 177 -72 177 -168z" />
    <glyph glyph-name="uni044B" unicode="&#x44b;" horiz-adv-x="737" 
d="M477 168c0 -108 -70 -168 -185 -168h-211v510h122v-175h97c111 0 177 -68 177 -167zM348 168c0 44 -30 67 -84 67h-61v-135h56c42 0 89 10 89 68zM656 0h-122v510h122v-510z" />
    <glyph glyph-name="uni044C" unicode="&#x44c;" horiz-adv-x="535" 
d="M495 169c0 -103 -70 -169 -186 -169h-228v510h122v-173h106c119 0 186 -74 186 -168zM366 168c0 49 -38 70 -84 70h-79v-138h74c40 0 89 8 89 68z" />
    <glyph glyph-name="uni044D" unicode="&#x44d;" horiz-adv-x="532" 
d="M229 -18c-67 0 -131 16 -179 51v127h4c38 -46 89 -72 166 -72c90 0 152 48 152 123h-270v100h270c-4 64 -61 110 -150 110c-68 0 -126 -26 -162 -71h-3v126c46 35 108 52 181 52c148 0 260 -100 260 -273c0 -156 -99 -273 -269 -273z" />
    <glyph glyph-name="uni044E" unicode="&#x44e;" horiz-adv-x="832" 
d="M532 -18c-135 0 -241 82 -258 229h-71v-211h-122v510h122v-192h74c24 133 125 210 257 210c152 0 265 -102 265 -273c0 -170 -111 -273 -267 -273zM532 89c81 0 138 59 138 166c0 103 -55 166 -136 166s-138 -60 -138 -166c0 -104 55 -166 136 -166z" />
    <glyph glyph-name="uni044F" unicode="&#x44f;" horiz-adv-x="568" 
d="M488 0h-122v404h-90c-58 0 -92 -21 -92 -63c0 -49 36 -80 172 -106v-4l-189 -231h-155l174 191v1c-99 32 -132 93 -132 166c0 101 76 152 185 152h249v-510z" />
    <glyph glyph-name="uni0453" unicode="&#x453;" horiz-adv-x="451" 
d="M303 561h-106l119 189h123zM203 0h-122v510h344v-107h-222v-403z" />
    <glyph glyph-name="uni0491" unicode="&#x491;" horiz-adv-x="451" 
d="M203 0h-122v510h233v142h111v-249h-222v-403z" />
    <glyph glyph-name="uni0452" unicode="&#x452;" horiz-adv-x="614" 
d="M416 1v305c0 77 -44 113 -103 113c-46 0 -83 -23 -110 -57v-362h-122v585h-81v97h81v68h122v-68h205v-97h-205v-115h1c40 36 88 58 149 58c99 0 185 -58 185 -183v-361c0 -118 -63 -177 -152 -177c-31 0 -60 6 -87 16v107h3c14 -12 32 -18 50 -18c37 0 64 26 64 89z" />
    <glyph glyph-name="uni0454" unicode="&#x454;" horiz-adv-x="532" 
d="M303 -18c-170 0 -269 117 -269 273c0 173 112 273 260 273c73 0 135 -17 181 -52v-126h-3c-36 45 -94 71 -162 71c-89 0 -146 -46 -150 -110h270v-100h-270c0 -75 62 -123 152 -123c77 0 128 26 166 72h4v-127c-48 -35 -112 -51 -179 -51z" />
    <glyph glyph-name="uni0455" unicode="&#x455;" horiz-adv-x="469" 
d="M414 143c0 -96 -62 -161 -192 -161c-64 0 -121 16 -162 45v121h3c37 -42 98 -66 155 -66c49 0 77 20 77 51c0 91 -233 52 -233 237c0 94 60 158 178 158c59 0 116 -16 156 -45v-122h-3c-34 38 -87 67 -143 67c-45 0 -67 -22 -67 -50c0 -89 231 -49 231 -235z" />
    <glyph glyph-name="uni0450" unicode="&#x450;" horiz-adv-x="563" 
d="M496 35c-48 -34 -116 -53 -189 -53c-158 0 -273 99 -273 273c0 168 97 273 248 273c132 0 238 -94 238 -243c0 -15 -1 -41 -2 -58h-355c8 -89 71 -139 169 -139c65 0 124 29 161 67h3v-120zM392 327c-3 54 -47 94 -110 94c-65 0 -109 -33 -119 -94h229zM352 562h-106
l-136 188h127z" />
    <glyph glyph-name="uni0451" unicode="&#x451;" horiz-adv-x="563" 
d="M232 642h-120v108h120v-108zM452 642h-121v108h121v-108zM496 35c-48 -34 -116 -53 -189 -53c-158 0 -273 99 -273 273c0 168 97 273 248 273c132 0 238 -94 238 -243c0 -15 -1 -41 -2 -58h-355c8 -89 71 -139 169 -139c65 0 124 29 161 67h3v-120zM392 327
c-3 54 -47 94 -110 94c-65 0 -109 -33 -119 -94h229z" />
    <glyph glyph-name="uni0456" unicode="&#x456;" horiz-adv-x="283" 
d="M203 0h-122v510h122v-510zM207 642h-130v108h130v-108z" />
    <glyph glyph-name="uni0457" unicode="&#x457;" horiz-adv-x="283" 
d="M203 0h-122v510h122v-510zM312 642h-121v108h121v-108zM92 642h-120v108h120v-108z" />
    <glyph glyph-name="uni0458" unicode="&#x458;" horiz-adv-x="283" 
d="M42 -193c-39 0 -77 8 -105 25v115h3c19 -20 47 -33 73 -33c43 0 68 26 68 78v518h122v-522c0 -123 -64 -181 -161 -181zM207 642h-130v108h130v-108z" />
    <glyph glyph-name="uni045D" unicode="&#x45d;" horiz-adv-x="633" 
d="M552 0h-122v328h-1l-235 -337h-113v519h122v-329h1l234 338h114v-519zM388 562h-106l-136 188h127z" />
    <glyph glyph-name="uni045C" unicode="&#x45c;" horiz-adv-x="557" 
d="M346 561h-106l119 189h123zM203 0h-122v510h122v-510zM542 0h-147l-182 256v4l174 250h143l-178 -250v-2z" />
    <glyph glyph-name="uni0459" unicode="&#x459;" horiz-adv-x="788" 
d="M748 165c0 -107 -73 -165 -191 -165h-206v403h-100l-10 -138c-17 -192 -72 -265 -219 -265v105c80 0 97 72 105 202l13 203h333v-181h92c113 0 183 -63 183 -164zM619 165c0 43 -28 64 -84 64h-62v-129h57c64 0 89 23 89 65z" />
    <glyph glyph-name="uni045A" unicode="&#x45a;" horiz-adv-x="839" 
d="M798 163c0 -99 -67 -163 -185 -163h-211v210h-199v-210h-122v510h122v-193h199v193h122v-184h97c113 0 177 -72 177 -163zM669 163c0 39 -27 63 -83 63h-62v-126h56c64 0 89 23 89 63z" />
    <glyph glyph-name="uni045B" unicode="&#x45b;" horiz-adv-x="614" 
d="M538 0h-122v306c0 77 -44 113 -103 113c-46 0 -83 -23 -110 -57v-362h-122v585h-81v97h81v68h122v-68h205v-97h-205v-115h1c40 36 88 58 149 58c99 0 185 -58 185 -183v-345z" />
    <glyph glyph-name="uni045E" unicode="&#x45e;" horiz-adv-x="557" 
d="M282 587c-111 0 -167 69 -176 163h94c8 -49 35 -84 82 -84s74 35 82 84h94c-9 -94 -65 -163 -176 -163zM277 -193h-134l79 194l-214 509h139l138 -353h1l120 353h136z" />
    <glyph glyph-name="uni045F" unicode="&#x45f;" horiz-adv-x="620" 
d="M366 -142h-112v142h-173v510h122v-404h215v404h122v-510h-174v-142z" />
    <glyph glyph-name="uni0463" unicode="&#x463;" horiz-adv-x="603" 
d="M562 160c0 -99 -67 -160 -185 -160h-221v413h-131v97h131v173h122v-173h163v-97h-163v-93h108c112 0 176 -67 176 -160zM434 161c0 39 -29 59 -83 59h-73v-120h68c61 0 88 20 88 61z" />
    <glyph glyph-name="uni0473" unicode="&#x473;" horiz-adv-x="598" 
d="M565 255c0 -170 -111 -273 -267 -273c-152 0 -264 102 -264 273c0 170 110 273 266 273c152 0 265 -102 265 -273zM298 89c66 0 116 39 132 113h-263c16 -72 65 -113 131 -113zM300 421c-67 0 -117 -40 -133 -113h263c-15 71 -64 113 -130 113z" />
    <glyph glyph-name="uni0475" unicode="&#x475;" horiz-adv-x="556" 
d="M323 -18h-91l-222 528h139l129 -348h1l59 172c18 58 37 125 72 176h139c-48 -66 -71 -133 -100 -206z" />
    <glyph glyph-name="uni0493" unicode="&#x493;" horiz-adv-x="451" 
d="M203 0h-122v177h-72v98h72v235h344v-107h-222v-128h119v-98h-119v-177z" />
    <glyph glyph-name="uni0497" unicode="&#x497;" horiz-adv-x="826" 
d="M162 0h-147l170 258v2l-158 250h143l153 -250v-4zM456 0h-122v510h122v-510zM627 0l-161 256v4l153 250h143l-157 -250v-2l99 -152h92v-248h-114v142h-55z" />
    <glyph glyph-name="uni049B" unicode="&#x49b;" horiz-adv-x="592" 
d="M203 0h-122v510h122v-510zM464 106h98v-248h-114v142h-53l-182 256v4l173 250h144l-178 -250v-2z" />
    <glyph glyph-name="uni04A3" unicode="&#x4a3;" horiz-adv-x="660" 
d="M622 -142h-114v142h-80v210h-225v-210h-122v510h122v-193h225v193h122v-404h72v-248z" />
    <glyph glyph-name="uni04AF" unicode="&#x4af;" horiz-adv-x="556" 
d="M217 -192v192l-207 510h139l129 -355h1l129 355h137l-206 -510v-192h-122z" />
    <glyph glyph-name="uni04B1" unicode="&#x4b1;" horiz-adv-x="556" 
d="M339 -192h-122v110h-129v106h119l-197 486h139l129 -365h1l129 365h137l-197 -486h120v-106h-129v-110z" />
    <glyph glyph-name="uni04B3" unicode="&#x4b3;" horiz-adv-x="597" 
d="M465 106h102v-248h-114v142h-57l-124 174h-1l-108 -174h-140l167 261l-177 249h143l121 -172h1l109 172h141l-169 -255z" />
    <glyph glyph-name="uni04B7" unicode="&#x4b7;" horiz-adv-x="585" 
d="M475 106h72v-248h-114v142h-80v139c-235 14 -302 78 -302 205v166h126v-143c0 -71 20 -108 176 -117v260h122v-404z" />
    <glyph glyph-name="uni04BB" unicode="&#x4bb;" horiz-adv-x="614" 
d="M538 0h-122v306c0 77 -44 113 -103 113c-46 0 -83 -23 -110 -57v-362h-122v750h122v-280h1c40 36 88 58 149 58c99 0 185 -58 185 -183v-345z" />
    <glyph glyph-name="uni04D9" unicode="&#x4d9;" horiz-adv-x="563" 
d="M62 475c48 34 116 53 189 53c158 0 273 -99 273 -273c0 -168 -97 -273 -248 -273c-132 0 -238 94 -238 243c0 15 1 41 3 58h354c-8 89 -71 138 -169 138c-65 0 -124 -28 -161 -66h-3v120zM166 183c3 -54 47 -94 112 -94c63 0 107 31 117 94h-229z" />
    <glyph glyph-name="uni04E3" unicode="&#x4e3;" horiz-adv-x="633" 
d="M552 0h-122v328h-1l-235 -337h-113v519h122v-329h1l234 338h114v-519zM491 646h-348v93h348v-93z" />
    <glyph glyph-name="uni04E9" unicode="&#x4e9;" horiz-adv-x="598" 
d="M565 255c0 -170 -111 -273 -267 -273c-152 0 -264 102 -264 273c0 170 110 273 266 273c152 0 265 -102 265 -273zM298 89c66 0 116 39 132 113h-263c16 -72 65 -113 131 -113zM300 421c-67 0 -117 -40 -133 -113h263c-15 71 -64 113 -130 113z" />
    <glyph glyph-name="uni04EF" unicode="&#x4ef;" horiz-adv-x="557" 
d="M454 646h-348v93h348v-93zM277 -193h-134l79 194l-214 509h139l138 -353h1l120 353h136z" />
    <glyph glyph-name="a.superior" unicode="&#xe000;" horiz-adv-x="376" 
d="M328 295h-87v24c-24 -20 -55 -36 -96 -36c-61 0 -112 39 -112 107c0 64 44 109 124 109c33 0 61 -9 82 -20v24c0 45 -37 63 -82 63c-39 0 -77 -17 -101 -41h-3v80c34 22 77 34 122 34c85 0 153 -40 153 -140v-204zM239 375v47c-16 9 -36 15 -58 15c-39 0 -60 -16 -60 -43
c0 -25 18 -43 55 -43c25 0 47 9 63 24z" />
    <glyph glyph-name="b.superior" unicode="&#xe001;" horiz-adv-x="406" 
d="M385 461c0 -112 -65 -178 -154 -178c-45 0 -75 15 -99 32l-79 -27h-2v494h89v-181c27 24 58 38 99 38c86 0 146 -68 146 -178zM291 461c0 64 -33 99 -81 99c-31 0 -54 -15 -70 -36v-132c15 -16 38 -30 67 -30c50 0 84 35 84 99z" />
    <glyph glyph-name="c.superior" unicode="&#xe002;" horiz-adv-x="308" 
d="M281 402v-87c-27 -20 -61 -32 -102 -32c-88 0 -158 64 -158 178c0 109 65 178 156 178c41 0 76 -12 102 -32v-87h-2c-15 22 -45 39 -79 39c-51 0 -84 -37 -84 -99c0 -59 33 -96 85 -96c32 0 63 15 80 38h2z" />
    <glyph glyph-name="d.superior" unicode="&#xe003;" horiz-adv-x="406" 
d="M355 295h-88v26h-1c-27 -23 -58 -38 -99 -38c-86 0 -146 69 -146 178c0 112 65 178 155 178c37 0 67 -11 89 -27h1v170h89v-487zM266 398v132c-16 16 -38 30 -67 30c-50 0 -85 -34 -85 -99c0 -63 34 -99 82 -99c30 0 54 15 70 36z" />
    <glyph glyph-name="e.superior" unicode="&#xe004;" horiz-adv-x="370" 
d="M328 317c-32 -21 -77 -34 -125 -34c-106 0 -182 65 -182 178c0 109 63 178 164 178c88 0 158 -58 158 -157c0 -10 0 -23 -1 -33h-228c7 -60 45 -94 107 -94c41 0 80 17 104 41h3v-79zM250 513c-3 38 -28 66 -66 66c-37 0 -63 -24 -69 -66h135z" />
    <glyph glyph-name="f.superior" unicode="&#xe005;" horiz-adv-x="237" 
d="M146 295h-89v255h-36v3l36 74v45c0 71 39 115 110 115c25 0 50 -5 71 -16v-78h-2c-14 12 -31 19 -48 19c-30 0 -42 -19 -42 -46v-39h75v-77h-75v-255z" />
    <glyph glyph-name="g.superior" unicode="&#xe006;" horiz-adv-x="396" 
d="M263 404v130c-17 16 -39 26 -63 26c-49 0 -84 -34 -84 -93c0 -58 34 -92 81 -92c27 0 50 10 66 29zM194 167c-45 0 -94 9 -129 33v80h2c31 -31 71 -44 113 -44c56 0 83 30 83 74v22h-1c-26 -24 -60 -35 -99 -35c-77 0 -142 57 -142 170c0 112 66 172 152 172
c41 0 73 -15 97 -32h1l78 27h2v-318c0 -98 -64 -149 -157 -149z" />
    <glyph glyph-name="h.superior" unicode="&#xe007;" horiz-adv-x="405" 
d="M357 295h-88v197c0 46 -26 68 -63 68c-27 0 -50 -15 -66 -36v-229h-89v487h89v-181c26 24 57 38 97 38c64 0 120 -38 120 -119v-225z" />
    <glyph glyph-name="i.superior" unicode="&#xe008;" horiz-adv-x="190" 
d="M140 295h-89v332h89v-332zM142 706h-93v76h93v-76z" />
    <glyph glyph-name="j.superior" unicode="&#xe009;" horiz-adv-x="190" 
d="M31 170c-26 0 -52 7 -71 18v68h2c12 -11 29 -18 46 -18c26 0 43 17 43 55v334h89v-339c0 -80 -44 -118 -109 -118zM142 706h-93v76h93v-76z" />
    <glyph glyph-name="k.superior" unicode="&#xe00a;" horiz-adv-x="374" 
d="M140 295h-89v487h89v-487zM364 295h-104l-114 166v4l109 162h101l-113 -162v-1z" />
    <glyph glyph-name="l.superior" unicode="&#xe00b;" horiz-adv-x="190" 
d="M140 295h-89v487h89v-487z" />
    <glyph glyph-name="m.superior" unicode="&#xe00c;" horiz-adv-x="623" 
d="M575 295h-89v197c0 46 -26 68 -62 68c-27 0 -51 -14 -70 -39c2 -9 3 -18 3 -29v-197h-88v197c0 46 -26 68 -63 68c-27 0 -50 -15 -66 -36v-229h-89v332h88v-26h1c26 24 57 38 98 38c42 0 80 -17 101 -51h1c37 35 71 51 116 51c62 0 119 -38 119 -119v-225z" />
    <glyph glyph-name="n.superior" unicode="&#xe00d;" horiz-adv-x="413" 
d="M364 295h-87v197c0 46 -28 68 -66 68c-31 0 -54 -15 -71 -36v-229h-89v332h88v-26h1c27 24 59 38 100 38c67 0 124 -38 124 -119v-225z" />
    <glyph glyph-name="o.superior" unicode="&#xe00e;" horiz-adv-x="394" 
d="M279 461c0 65 -33 101 -82 101c-50 0 -83 -36 -83 -101c0 -62 32 -101 83 -101s82 39 82 101zM373 461c0 -111 -75 -178 -176 -178s-176 67 -176 178c0 110 71 178 176 178c104 0 176 -68 176 -178z" />
    <glyph glyph-name="p.superior" unicode="&#xe00f;" horiz-adv-x="406" 
d="M385 461c0 -112 -65 -178 -154 -178c-38 0 -68 11 -91 27v-140h-89v457h88v-26h1c27 24 58 38 99 38c86 0 146 -68 146 -178zM291 461c0 64 -33 99 -81 99c-31 0 -54 -15 -70 -36v-132c15 -16 38 -30 67 -30c50 0 84 35 84 99z" />
    <glyph glyph-name="q.superior" unicode="&#xe010;" horiz-adv-x="406" 
d="M355 170h-89v151h-1c-26 -23 -57 -38 -98 -38c-86 0 -146 69 -146 178c0 112 65 178 155 178c44 0 73 -15 98 -32h1l78 27h2v-464zM266 398v132c-16 16 -38 30 -67 30c-50 0 -85 -34 -85 -99c0 -63 34 -99 82 -99c30 0 54 15 70 36z" />
    <glyph glyph-name="r.superior" unicode="&#xe011;" horiz-adv-x="270" 
d="M141 295h-89v332h85v-27h1c24 23 50 39 82 39c11 0 24 -2 34 -6v-88h-2c-13 9 -26 13 -41 13c-28 0 -48 -14 -70 -32v-231z" />
    <glyph glyph-name="s.superior" unicode="&#xe012;" horiz-adv-x="310" 
d="M275 389c0 -61 -41 -106 -127 -106c-45 0 -83 11 -110 29v79h2c25 -25 67 -39 101 -39c32 0 48 13 48 33c0 55 -149 26 -149 151c0 61 40 103 120 103c39 0 77 -10 103 -29v-79h-2c-24 25 -62 39 -93 39c-28 0 -41 -13 -41 -32c0 -53 148 -25 148 -149z" />
    <glyph glyph-name="t.superior" unicode="&#xe013;" horiz-adv-x="237" 
d="M146 295h-89v255h-36v3l36 74v99h89v-99h75v-77h-75v-255z" />
    <glyph glyph-name="u.superior" unicode="&#xe014;" horiz-adv-x="402" 
d="M354 627v-198c0 -90 -57 -146 -154 -146c-94 0 -152 55 -152 146v198h89v-195c0 -48 24 -70 64 -70c39 0 64 22 64 70v195h89z" />
    <glyph glyph-name="v.superior" unicode="&#xe015;" horiz-adv-x="370" 
d="M219 283h-67l-146 344h101l78 -214h1l78 214h100z" />
    <glyph glyph-name="w.superior" unicode="&#xe016;" horiz-adv-x="557" 
d="M420 283h-60l-81 181l-81 -181h-60l-129 344h99l67 -199h1l99 211h8l99 -211l67 199h99z" />
    <glyph glyph-name="x.superior" unicode="&#xe017;" horiz-adv-x="368" 
d="M361 295h-104l-73 112h-1l-67 -112h-101l105 169l-113 163h104l72 -111h1l68 111h101l-106 -163z" />
    <glyph glyph-name="y.superior" unicode="&#xe018;" horiz-adv-x="371" 
d="M193 170h-101l53 126l-140 331h101l81 -219h1l75 219h99z" />
    <glyph glyph-name="z.superior" unicode="&#xe019;" horiz-adv-x="333" 
d="M310 295h-295v6l144 248v1h-131v77h272v-6l-146 -248v-1h156v-77z" />
    <glyph glyph-name="grave" unicode="`" horiz-adv-x="500" 
d="M371 562h-106l-136 188h127z" />
    <glyph glyph-name="grave" unicode="&#x300;" horiz-adv-x="500" 
d="M371 562h-106l-136 188h127z" />
    <glyph glyph-name="grave" unicode="&#x2cb;" horiz-adv-x="500" 
d="M371 562h-106l-136 188h127z" />
    <glyph glyph-name="grave.cap" unicode="&#xe01a;" horiz-adv-x="500" 
d="M350 682h-105l-96 118h127z" />
    <glyph glyph-name="acute" unicode="&#xb4;" horiz-adv-x="500" 
d="M235 561h-106l119 189h123z" />
    <glyph glyph-name="acute" unicode="&#x301;" horiz-adv-x="500" 
d="M235 561h-106l119 189h123z" />
    <glyph glyph-name="acute" unicode="&#x2ca;" horiz-adv-x="500" 
d="M235 561h-106l119 189h123z" />
    <glyph glyph-name="acute.cap" unicode="&#xe01b;" horiz-adv-x="500" 
d="M254 682h-105l74 118h127z" />
    <glyph glyph-name="circumflex" unicode="&#x2c6;" horiz-adv-x="500" 
d="M439 562h-106l-82 111h-1l-83 -111h-106l141 193h96z" />
    <glyph glyph-name="circumflex" unicode="&#x302;" horiz-adv-x="500" 
d="M439 562h-106l-82 111h-1l-83 -111h-106l141 193h96z" />
    <glyph glyph-name="circumflex.cap" unicode="&#xe01c;" horiz-adv-x="500" 
d="M410 682h-105l-54 62h-1l-55 -62h-105l108 128h104z" />
    <glyph glyph-name="caron" unicode="&#x2c7;" horiz-adv-x="500" 
d="M298 556h-96l-141 194h106l82 -112h1l83 112h106z" />
    <glyph glyph-name="caron" unicode="&#x30c;" horiz-adv-x="500" 
d="M298 556h-96l-141 194h106l82 -112h1l83 112h106z" />
    <glyph glyph-name="caron.cap" unicode="&#xe01d;" horiz-adv-x="500" 
d="M302 677h-104l-108 128h105l54 -62h1l55 62h105z" />
    <glyph glyph-name="caronSlovak" unicode="&#x315;" horiz-adv-x="500" 
d="M261 551h-93l54 199h109z" />
    <glyph glyph-name="caronSlovak" unicode="&#xe01e;" horiz-adv-x="500" 
d="M261 551h-93l54 199h109z" />
    <glyph glyph-name="tilde" unicode="&#x2dc;" horiz-adv-x="500" 
d="M335 603c-60 0 -116 58 -159 58c-25 0 -31 -23 -42 -58h-76c15 89 39 147 107 147c60 0 116 -58 159 -58c25 0 31 23 42 58h76c-15 -90 -39 -147 -107 -147z" />
    <glyph glyph-name="tilde" unicode="&#x303;" horiz-adv-x="500" 
d="M335 603c-60 0 -116 58 -159 58c-25 0 -31 -23 -42 -58h-76c15 89 39 147 107 147c60 0 116 -58 159 -58c25 0 31 23 42 58h76c-15 -90 -39 -147 -107 -147z" />
    <glyph glyph-name="tilde.cap" unicode="&#xe01f;" horiz-adv-x="500" 
d="M321 696c-48 0 -98 42 -130 42c-25 0 -29 -18 -37 -42h-77c14 63 34 118 102 118c48 0 97 -42 130 -42c25 0 29 17 37 42h77c-14 -67 -34 -118 -102 -118z" />
    <glyph glyph-name="dieresis" unicode="&#xa8;" horiz-adv-x="500" 
d="M200 642h-120v108h120v-108zM420 642h-121v108h121v-108z" />
    <glyph glyph-name="dieresis" unicode="&#x308;" horiz-adv-x="500" 
d="M200 642h-120v108h120v-108zM420 642h-121v108h121v-108z" />
    <glyph glyph-name="dieresis.cap" unicode="&#xe020;" horiz-adv-x="500" 
d="M200 719h-120v95h120v-95zM420 719h-121v95h121v-95z" />
    <glyph glyph-name="macron" unicode="&#xaf;" horiz-adv-x="500" 
d="M424 646h-348v93h348v-93z" />
    <glyph glyph-name="macron" unicode="&#x304;" horiz-adv-x="500" 
d="M424 646h-348v93h348v-93z" />
    <glyph glyph-name="macron" unicode="&#x2c9;" horiz-adv-x="500" 
d="M424 646h-348v93h348v-93z" />
    <glyph glyph-name="macron.cap" unicode="&#xe021;" horiz-adv-x="500" 
d="M414 730h-328v84h328v-84z" />
    <glyph glyph-name="breve" unicode="&#x2d8;" horiz-adv-x="500" 
d="M250 587c-111 0 -167 69 -176 163h91c8 -49 38 -81 85 -81s77 32 85 81h91c-9 -94 -65 -163 -176 -163z" />
    <glyph glyph-name="breve" unicode="&#x306;" horiz-adv-x="500" 
d="M250 587c-111 0 -167 69 -176 163h91c8 -49 38 -81 85 -81s77 32 85 81h91c-9 -94 -65 -163 -176 -163z" />
    <glyph glyph-name="breve.cap" unicode="&#xe022;" horiz-adv-x="500" 
d="M250 696c-88 0 -148 43 -158 118h88c9 -27 31 -42 70 -42s61 15 69 42h89c-10 -75 -70 -118 -158 -118z" />
    <glyph glyph-name="ring" unicode="&#x2da;" horiz-adv-x="500" 
d="M374 674c0 -66 -57 -98 -125 -98c-69 0 -124 32 -124 98c0 65 57 97 126 97c68 0 123 -32 123 -97zM294 674c0 23 -15 38 -44 38c-30 0 -46 -15 -46 -38c0 -26 16 -40 46 -40c29 0 44 14 44 40z" />
    <glyph glyph-name="ring" unicode="&#x30a;" horiz-adv-x="500" 
d="M374 674c0 -66 -57 -98 -125 -98c-69 0 -124 32 -124 98c0 65 57 97 126 97c68 0 123 -32 123 -97zM294 674c0 23 -15 38 -44 38c-30 0 -46 -15 -46 -38c0 -26 16 -40 46 -40c29 0 44 14 44 40z" />
    <glyph glyph-name="ring.cap" unicode="&#xe023;" horiz-adv-x="500" 
d="M373 775c0 -63 -55 -93 -124 -93c-71 0 -123 30 -123 93c0 62 55 92 125 92c69 0 122 -30 122 -92zM298 775c0 22 -20 35 -48 35c-29 0 -50 -13 -50 -35c0 -23 21 -36 50 -36c28 0 48 13 48 36z" />
    <glyph glyph-name="hungarumlaut" unicode="&#x2dd;" horiz-adv-x="500" 
d="M140 561h-106l119 189h123zM330 561h-106l119 189h123z" />
    <glyph glyph-name="hungarumlaut" unicode="&#x30b;" horiz-adv-x="500" 
d="M140 561h-106l119 189h123zM330 561h-106l119 189h123z" />
    <glyph glyph-name="hungarumlaut.cap" unicode="&#xe024;" horiz-adv-x="500" 
d="M158 682h-106l74 118h127zM353 682h-106l74 118h127z" />
    <glyph glyph-name="dotaccent" unicode="&#x2d9;" horiz-adv-x="500" 
d="M315 642h-130v108h130v-108z" />
    <glyph glyph-name="dotaccent" unicode="&#x307;" horiz-adv-x="500" 
d="M315 642h-130v108h130v-108z" />
    <glyph glyph-name="dotaccent.cap" unicode="&#xe025;" horiz-adv-x="500" 
d="M315 719h-130v95h130v-95z" />
    <glyph glyph-name="cedilla" unicode="&#xb8;" horiz-adv-x="500" 
d="M361 -115c0 -47 -43 -78 -119 -78c-34 0 -72 4 -103 17v62h3c19 -11 47 -21 77 -21s43 9 43 23c0 22 -29 27 -82 30l22 82h87l-11 -41c47 -8 83 -27 83 -74z" />
    <glyph glyph-name="cedilla" unicode="&#x327;" horiz-adv-x="500" 
d="M361 -115c0 -47 -43 -78 -119 -78c-34 0 -72 4 -103 17v62h3c19 -11 47 -21 77 -21s43 9 43 23c0 22 -29 27 -82 30l22 82h87l-11 -41c47 -8 83 -27 83 -74z" />
    <glyph glyph-name="cedilla.fr" unicode="&#xe169;" horiz-adv-x="500" 
d="M264 -136h-115l98 136h104z" />
    <glyph glyph-name="ogonek" unicode="&#x2db;" horiz-adv-x="500" 
d="M353 -171c-29 -14 -66 -22 -100 -22c-74 0 -106 36 -106 78c0 44 32 82 82 124h83c-50 -46 -69 -70 -69 -95c0 -21 16 -32 41 -32c23 0 45 9 66 25h3v-78z" />
    <glyph glyph-name="ogonek" unicode="&#x328;" horiz-adv-x="500" 
d="M353 -171c-29 -14 -66 -22 -100 -22c-74 0 -106 36 -106 78c0 44 32 82 82 124h83c-50 -46 -69 -70 -69 -95c0 -21 16 -32 41 -32c23 0 45 9 66 25h3v-78z" />
    <glyph glyph-name="commaaccent" unicode="&#x326;" horiz-adv-x="500" 
d="M245 -193h-105l97 156h123z" />
    <glyph glyph-name="commaaccent.alt" unicode="&#x2bb;" horiz-adv-x="500" 
d="M262 594h-122l114 156h106z" />
    <glyph glyph-name="commaaccent.alt" unicode="&#xe026;" horiz-adv-x="500" 
d="M262 594h-122l114 156h106z" />
    <glyph glyph-name="commaaccent.alt" unicode="&#x312;" horiz-adv-x="500" 
d="M262 594h-122l114 156h106z" />
    <glyph glyph-name="breveCyr" unicode="&#xe08b;" horiz-adv-x="500" 
d="M250 587c-111 0 -167 69 -176 163h94c8 -49 35 -84 82 -84s74 35 82 84h94c-9 -94 -65 -163 -176 -163z" />
    <glyph glyph-name="breveCyr.cap" unicode="&#xe08d;" horiz-adv-x="500" 
d="M250 696c-88 0 -148 43 -158 118h91c7 -27 29 -45 67 -45s60 18 66 45h92c-10 -75 -70 -118 -158 -118z" />
    <glyph glyph-name="anoteleia" unicode="&#x387;" horiz-adv-x="274" 
d="M200 202h-126v131h126v-131z" />
    <glyph glyph-name="dieresistonos" unicode="&#x385;" horiz-adv-x="500" 
d="M156 597h-106v94h106v-94zM450 597h-106v94h106v-94zM282 561h-94l21 189h110z" />
    <glyph glyph-name="tonos" unicode="&#x384;" horiz-adv-x="500" 
d="M270 561h-91l31 189h110z" />
    <glyph glyph-name="uni037E" unicode="&#x37e;" horiz-adv-x="270" 
d="M198 379h-126v131h126v-131zM123 -138h-112l76 269h114v-5z" />
    <glyph glyph-name="comma" unicode="," horiz-adv-x="270" 
d="M133 -138h-112l76 269h114v-5z" />
    <glyph glyph-name="semicolon" unicode=";" horiz-adv-x="270" 
d="M198 379h-126v131h126v-131zM123 -138h-112l76 269h114v-5z" />
    <glyph glyph-name="colon" unicode=":" horiz-adv-x="270" 
d="M198 0h-126v131h126v-131zM198 379h-126v131h126v-131z" />
    <glyph glyph-name="period" unicode="." horiz-adv-x="270" 
d="M198 0h-126v131h126v-131z" />
    <glyph glyph-name="ellipsis" unicode="&#x2026;" horiz-adv-x="1000" 
d="M253 0h-126v131h126v-131zM563 0h-126v131h126v-131zM873 0h-126v131h126v-131z" />
    <glyph glyph-name="hyphen" unicode="-" horiz-adv-x="270" 
d="M262 211h-254v113h254v-113z" />
    <glyph glyph-name="hyphen.cap" unicode="&#xe027;" horiz-adv-x="270" 
d="M262 301h-254v113h254v-113z" />
    <glyph glyph-name="exclam" unicode="!" horiz-adv-x="295" 
d="M200 218h-105l-14 532h133zM207 0h-120v124h120v-124z" />
    <glyph glyph-name="exclamdown" unicode="&#xa1;" horiz-adv-x="295" 
d="M214 -240h-133l14 532h105zM208 386h-120v124h120v-124z" />
    <glyph glyph-name="exclamdown.cap" unicode="&#xe028;" horiz-adv-x="295" 
d="M214 -68h-133l14 532h105zM208 558h-120v124h120v-124z" />
    <glyph glyph-name="question" unicode="?" horiz-adv-x="507" 
d="M278 218h-104l-3 111c91 89 142 147 142 221c0 71 -51 98 -106 98c-59 0 -121 -24 -163 -67h-4v122c52 35 112 54 192 54c126 0 214 -66 214 -182c0 -104 -65 -180 -165 -277zM286 0h-120v124h120v-124z" />
    <glyph glyph-name="questiondown" unicode="&#xbf;" horiz-adv-x="507" 
d="M228 292h105l3 -111c-92 -88 -142 -147 -142 -221c0 -71 50 -98 105 -98c60 0 122 24 163 67h4v-122c-51 -35 -112 -54 -191 -54c-127 0 -215 66 -215 182c0 104 65 180 165 277zM221 510h119v-124h-119v124z" />
    <glyph glyph-name="questiondown.cap" horiz-adv-x="507" 
d="M228 464h105l3 -111c-92 -88 -142 -147 -142 -221c0 -71 50 -98 105 -98c60 0 122 24 163 67h4v-122c-51 -35 -112 -54 -191 -54c-127 0 -215 66 -215 182c0 104 65 180 165 277zM221 682h119v-124h-119v124z" />
    <glyph glyph-name="quoteleft" unicode="&#x2018;" horiz-adv-x="270" 
d="M149 413h-114v5l78 264h112z" />
    <glyph glyph-name="quoteright" unicode="&#x2019;" horiz-adv-x="270" 
d="M157 413h-112l76 269h114v-5z" />
    <glyph glyph-name="quotedblleft" unicode="&#x201c;" horiz-adv-x="462" 
d="M161 413h-114v5l78 264h112zM348 413h-114v5l78 264h112z" />
    <glyph glyph-name="quotedblright" unicode="&#x201d;" horiz-adv-x="462" 
d="M159 413h-112l76 269h114v-5zM347 413h-112l76 269h114v-5z" />
    <glyph glyph-name="quotesinglbase" unicode="&#x201a;" horiz-adv-x="270" 
d="M134 -138h-112l76 269h114v-5z" />
    <glyph glyph-name="quotedblbase" unicode="&#x201e;" horiz-adv-x="462" 
d="M146 -138h-112l76 269h114v-5zM333 -138h-112l76 269h114v-5z" />
    <glyph glyph-name="quotesingle" unicode="'" horiz-adv-x="270" 
d="M187 413h-105l-3 269h111z" />
    <glyph glyph-name="quotedbl" unicode="&#x22;" horiz-adv-x="460" 
d="M189 413h-105l-3 269h111zM375 413h-105l-3 269h111z" />
    <glyph glyph-name="guilsinglleft" unicode="&#x2039;" horiz-adv-x="310" 
d="M274 73h-112l-126 191v6l126 191h112l-120 -194z" />
    <glyph glyph-name="guilsinglright" unicode="&#x203a;" horiz-adv-x="310" 
d="M148 73h-112l120 194l-120 194h112l126 -191v-6z" />
    <glyph glyph-name="guilsinglleft.cap" unicode="&#xe02a;" horiz-adv-x="310" 
d="M274 158h-112l-126 191v6l126 191h112l-120 -194z" />
    <glyph glyph-name="guilsinglright.cap" unicode="&#xe02b;" horiz-adv-x="310" 
d="M148 158h-112l120 194l-120 194h112l126 -191v-6z" />
    <glyph glyph-name="guillemotleft" unicode="&#xab;" horiz-adv-x="499" 
d="M274 73h-112l-126 191v6l126 191h112l-120 -194zM463 73h-112l-126 191v6l126 191h112l-120 -194z" />
    <glyph glyph-name="guillemotright" unicode="&#xbb;" horiz-adv-x="499" 
d="M148 73h-112l120 194l-120 194h112l126 -191v-6zM337 73h-112l120 194l-120 194h112l126 -191v-6z" />
    <glyph glyph-name="guillemotleft.cap" unicode="&#xe02c;" horiz-adv-x="514" 
d="M274 158h-112l-126 191v6l126 191h112l-120 -194zM479 158h-112l-126 191v6l126 191h112l-120 -194z" />
    <glyph glyph-name="guillemotright.cap" unicode="&#xe02d;" horiz-adv-x="514" 
d="M148 158h-112l120 194l-120 194h112l126 -191v-6zM353 158h-112l120 194l-120 194h112l126 -191v-6z" />
    <glyph glyph-name="slash" unicode="/" horiz-adv-x="404" 
d="M115 0h-114l288 682h114z" />
    <glyph glyph-name="backslash" unicode="\" horiz-adv-x="404" 
d="M403 0h-114l-288 682h114z" />
    <glyph glyph-name="bar" unicode="|" horiz-adv-x="270" 
d="M185 -190h-100v980h100v-980z" />
    <glyph glyph-name="brokenbar" unicode="&#xa6;" horiz-adv-x="270" 
d="M185 391h-100v399h100v-399zM185 -190h-100v399h100v-399z" />
    <glyph glyph-name="endash" unicode="&#x2013;" 
d="M530 217h-520v101h520v-101z" />
    <glyph glyph-name="endash.cap" unicode="&#xe02e;" 
d="M530 302h-520v101h520v-101z" />
    <glyph glyph-name="underscore" unicode="_" 
d="M530 -193h-520v101h520v-101z" />
    <glyph glyph-name="emdash" unicode="&#x2014;" horiz-adv-x="1080" 
d="M1070 217h-1060v101h1060v-101z" />
    <glyph glyph-name="emdash.cap" unicode="&#xe02f;" horiz-adv-x="1080" 
d="M1070 302h-1060v101h1060v-101z" />
    <glyph glyph-name="bullet" unicode="&#x2022;" horiz-adv-x="412" 
d="M338 121h-264v295h264v-295z" />
    <glyph glyph-name="periodcentered" unicode="&#xb7;" horiz-adv-x="270" 
d="M198 202h-126v131h126v-131z" />
    <glyph glyph-name="periodcentered" unicode="&#x2219;" horiz-adv-x="270" 
d="M198 202h-126v131h126v-131z" />
    <glyph glyph-name="periodcentered.cap" unicode="&#xe031;" horiz-adv-x="270" 
d="M198 287h-126v131h126v-131z" />
    <glyph glyph-name="parenleft" unicode="(" horiz-adv-x="353" 
d="M341 -142h-118c-98 111 -158 259 -158 421s60 310 158 421h118c-97 -111 -157 -259 -157 -421s60 -310 157 -421z" />
    <glyph glyph-name="parenright" unicode=")" horiz-adv-x="353" 
d="M131 -142h-119c98 111 157 259 157 421s-59 310 -157 421h119c97 -111 157 -259 157 -421s-60 -310 -157 -421z" />
    <glyph glyph-name="parenleft.cap" unicode="&#xe032;" horiz-adv-x="353" 
d="M341 -92h-118c-98 111 -158 259 -158 421s60 310 158 421h118c-97 -111 -157 -259 -157 -421s60 -310 157 -421z" />
    <glyph glyph-name="parenright.cap" unicode="&#xe033;" horiz-adv-x="353" 
d="M131 -92h-119c98 111 157 259 157 421s-59 310 -157 421h119c97 -111 157 -259 157 -421s-60 -310 -157 -421z" />
    <glyph glyph-name="bracketleft" unicode="[" horiz-adv-x="352" 
d="M314 -142h-230v842h230v-99h-118v-644h118v-99z" />
    <glyph glyph-name="bracketright" unicode="]" horiz-adv-x="352" 
d="M38 700h230v-842h-230v99h118v644h-118v99z" />
    <glyph glyph-name="bracketleft.cap" unicode="&#xe034;" horiz-adv-x="352" 
d="M314 -92h-230v842h230v-99h-118v-644h118v-99z" />
    <glyph glyph-name="bracketright.cap" unicode="&#xe035;" horiz-adv-x="352" 
d="M38 750h230v-842h-230v99h118v644h-118v99z" />
    <glyph glyph-name="braceleft" unicode="{" horiz-adv-x="369" 
d="M336 -142c-176 0 -230 54 -230 204v154l-62 61v4l62 61v154c0 150 54 204 230 204v-99c-95 0 -118 -36 -118 -107v-156l-57 -59l57 -59v-156c0 -71 23 -107 118 -107v-99z" />
    <glyph glyph-name="braceright" unicode="}" horiz-adv-x="369" 
d="M33 700c175 0 230 -54 230 -204v-154l62 -61v-4l-62 -61v-154c0 -150 -55 -204 -230 -204v99c95 0 118 36 118 107v156l57 59l-57 59v156c0 71 -23 107 -118 107v99z" />
    <glyph glyph-name="braceleft.cap" unicode="&#xe036;" horiz-adv-x="369" 
d="M336 -92c-176 0 -230 54 -230 204v154l-62 61v4l62 61v154c0 150 54 204 230 204v-99c-95 0 -118 -36 -118 -107v-156l-57 -59l57 -59v-156c0 -71 23 -107 118 -107v-99z" />
    <glyph glyph-name="braceright.cap" unicode="&#xe037;" horiz-adv-x="369" 
d="M33 750c175 0 230 -54 230 -204v-154l62 -61v-4l-62 -61v-154c0 -150 -55 -204 -230 -204v99c95 0 118 36 118 107v156l57 59l-57 59v156c0 71 -23 107 -118 107v99z" />
    <glyph glyph-name="asterisk" unicode="*" horiz-adv-x="548" 
d="M448 282l-72 -58l-102 136l-102 -136l-72 58l102 136l-165 60l32 87l159 -59v176h92v-176l159 59l32 -87l-166 -60z" />
    <glyph glyph-name="dagger" unicode="&#x2020;" horiz-adv-x="548" 
d="M330 0h-112v428h-147v100h147v154h112v-154h147v-100h-147v-428z" />
    <glyph glyph-name="daggerdbl" unicode="&#x2021;" horiz-adv-x="548" 
d="M330 0h-112v154h-147v100h147v174h-147v100h147v154h112v-154h147v-100h-147v-174h147v-100h-147v-154z" />
    <glyph glyph-name="section" unicode="&#xa7;" horiz-adv-x="548" 
d="M499 274c0 -91 -49 -146 -115 -170v-1c37 -20 70 -46 70 -106c0 -90 -63 -157 -190 -157c-68 0 -125 16 -165 44v112h3c37 -40 99 -61 152 -61c52 0 79 23 79 58c0 67 -79 63 -146 94c-85 26 -139 88 -139 187c0 89 48 145 114 170v1c-34 19 -63 46 -63 101
c0 90 60 154 180 154c59 0 115 -16 155 -45v-111h-3c-36 39 -93 61 -141 61s-68 -23 -68 -56c0 -58 63 -64 126 -85c91 -21 151 -88 151 -190zM370 274c0 57 -34 98 -95 98c-57 0 -98 -32 -98 -98c0 -58 34 -99 95 -99c57 0 98 32 98 99z" />
    <glyph glyph-name="paragraph" unicode="&#xb6;" horiz-adv-x="604" 
d="M509 -142h-123v354c-242 23 -338 107 -338 256c0 147 108 214 244 214h217v-824z" />
    <glyph glyph-name="at" unicode="@" horiz-adv-x="891" 
d="M448 137c40 0 71 18 93 45v187c-21 21 -52 37 -89 37c-70 0 -117 -48 -117 -135c0 -86 45 -134 113 -134zM488 -160c-260 0 -445 152 -445 430c0 271 174 430 402 430c225 0 404 -134 404 -385c0 -168 -80 -262 -220 -262h-81v34h-1c-34 -31 -77 -50 -131 -50
c-112 0 -194 89 -194 234c0 148 87 234 205 234c58 0 99 -19 130 -42h1l86 33h5v-360c71 0 110 67 110 172c0 210 -133 309 -311 309c-179 0 -313 -125 -313 -347c0 -218 140 -342 358 -342c109 0 203 25 267 80h4v-101c-64 -42 -171 -67 -276 -67z" />
    <glyph glyph-name="at.cap" unicode="&#xe038;" horiz-adv-x="891" 
d="M448 215c40 0 71 18 93 45v187c-21 21 -52 37 -89 37c-70 0 -117 -48 -117 -135c0 -86 45 -134 113 -134zM488 -82c-260 0 -445 152 -445 430c0 271 174 430 402 430c225 0 404 -134 404 -385c0 -168 -80 -262 -220 -262h-81v34h-1c-34 -31 -77 -50 -131 -50
c-112 0 -194 89 -194 234c0 148 87 234 205 234c58 0 99 -19 130 -42h1l86 33h5v-360c71 0 110 67 110 172c0 210 -133 309 -311 309c-179 0 -313 -125 -313 -347c0 -218 140 -342 358 -342c109 0 203 25 267 80h4v-101c-64 -42 -171 -67 -276 -67z" />
    <glyph glyph-name="copyright" unicode="&#xa9;" horiz-adv-x="782" 
d="M399 126c-105 0 -186 77 -186 215c0 130 74 214 184 214c49 0 92 -15 124 -38v-94h-2c-24 28 -64 47 -105 47c-68 0 -110 -49 -110 -129s42 -131 111 -131c42 0 81 19 106 46h2v-92c-33 -24 -74 -38 -124 -38zM389 -18c-191 0 -346 130 -346 359c0 227 152 359 350 359
c191 0 346 -131 346 -359c0 -227 -152 -359 -350 -359zM387 45c155 0 279 98 279 296c0 190 -117 296 -271 296s-279 -97 -279 -296c0 -190 117 -296 271 -296z" />
    <glyph glyph-name="registered" unicode="&#xae;" horiz-adv-x="782" 
d="M335 136h-88v408h148c85 0 145 -41 145 -124c0 -58 -24 -91 -91 -115v-2l128 -167h-103l-132 192v3c84 13 110 37 110 78c0 36 -29 59 -73 59h-44v-332zM389 -18c-191 0 -346 130 -346 359c0 227 152 359 350 359c191 0 346 -131 346 -359c0 -227 -152 -359 -350 -359z
M387 45c155 0 279 98 279 296c0 190 -117 296 -271 296s-279 -97 -279 -296c0 -190 117 -296 271 -296z" />
    <glyph glyph-name="published" unicode="&#x2117;" horiz-adv-x="782" 
d="M358 136h-88v408h141c83 0 146 -44 146 -129c0 -89 -60 -140 -199 -155v-124zM358 337c82 3 111 33 111 70c0 39 -29 59 -70 59h-41v-129zM389 -18c-191 0 -346 130 -346 359c0 227 152 359 350 359c191 0 346 -131 346 -359c0 -227 -152 -359 -350 -359zM387 45
c155 0 279 98 279 296c0 190 -117 296 -271 296s-279 -97 -279 -296c0 -190 117 -296 271 -296z" />
    <glyph glyph-name="published" unicode="&#xe039;" horiz-adv-x="782" 
d="M358 136h-88v408h141c83 0 146 -44 146 -129c0 -89 -60 -140 -199 -155v-124zM358 337c82 3 111 33 111 70c0 39 -29 59 -70 59h-41v-129zM389 -18c-191 0 -346 130 -346 359c0 227 152 359 350 359c191 0 346 -131 346 -359c0 -227 -152 -359 -350 -359zM387 45
c155 0 279 98 279 296c0 190 -117 296 -271 296s-279 -97 -279 -296c0 -190 117 -296 271 -296z" />
    <glyph glyph-name="trademark" unicode="&#x2122;" horiz-adv-x="871" 
d="M212 274h-87v323h-108v85h304v-85h-109v-323zM826 274h-89l-19 232h-1l-111 -242h-6l-112 242h-1l-19 -232h-88l36 413h70l117 -262h1l115 262h71z" />
    <glyph glyph-name="ordfeminine" unicode="&#xaa;" horiz-adv-x="376" 
d="M328 295h-87v24c-24 -20 -55 -36 -96 -36c-61 0 -112 39 -112 107c0 64 44 109 124 109c33 0 61 -9 82 -20v24c0 45 -37 63 -82 63c-39 0 -77 -17 -101 -41h-3v80c34 22 77 34 122 34c85 0 153 -40 153 -140v-204zM328 134h-279v81h279v-81zM239 375v47
c-16 9 -36 15 -58 15c-39 0 -60 -16 -60 -43c0 -25 18 -43 55 -43c25 0 47 9 63 24z" />
    <glyph glyph-name="ordmasculine" unicode="&#xba;" horiz-adv-x="394" 
d="M336 134h-279v81h279v-81zM279 461c0 61 -32 98 -81 98c-50 0 -84 -35 -84 -98c0 -61 33 -99 82 -99s83 36 83 99zM373 461c0 -110 -73 -178 -177 -178c-101 0 -175 67 -175 178c0 110 72 178 177 178c101 0 175 -67 175 -178z" />
    <glyph glyph-name="numero" unicode="&#x2116;" horiz-adv-x="1159" 
d="M1101 134h-279v81h279v-81zM1044 461c0 61 -32 98 -81 98c-50 0 -84 -35 -84 -98c0 -61 33 -99 82 -99s83 36 83 99zM1138 461c0 -110 -73 -178 -177 -178c-101 0 -175 67 -175 178c0 110 72 178 177 178c101 0 175 -67 175 -178zM672 -9h-104l-345 438h-1v-429h-129v633
l-31 43v6h134l346 -446h1v446h129v-691z" />
    <glyph glyph-name="numbersign" unicode="#" horiz-adv-x="548" 
d="M390 198l-24 -198h-85l24 198h-98l-24 -198h-86l23 198h-91v75h100l17 137h-93v75h102l24 197h85l-24 -197h99l24 197h85l-23 -197h94v-75h-103l-17 -137h96v-75h-105zM313 273l17 137h-98l-17 -137h98z" />
    <glyph glyph-name="Euro" unicode="&#x20ac;" horiz-adv-x="539" 
d="M507 37c-41 -35 -100 -55 -159 -55c-108 0 -206 58 -236 235h-80v98h71v57h-71v98h81c30 165 121 230 233 230c64 0 118 -19 158 -55v-121h-4c-29 41 -75 70 -134 70c-68 0 -110 -39 -129 -124h215v-98h-226c-1 -11 -1 -21 -1 -32v-25h227v-98h-216
c18 -87 61 -129 131 -129c54 0 100 25 136 70h4v-121z" />
    <glyph glyph-name="dollar" unicode="$" horiz-adv-x="507" 
d="M303 -142h-107v126c-62 6 -110 24 -150 53v124h4c34 -39 91 -61 146 -68v207c-75 34 -147 83 -147 203c0 88 41 172 156 192v129h107v-128c50 -7 93 -26 129 -51v-120h-4c-34 33 -75 54 -125 62v-197c75 -35 149 -84 149 -205c0 -96 -52 -175 -158 -196v-131zM354 177
c0 34 -21 56 -51 74v-150c34 13 51 38 51 76zM157 509c0 -32 19 -53 48 -70v143c-33 -12 -48 -37 -48 -73z" />
    <glyph glyph-name="cent" unicode="&#xa2;" horiz-adv-x="527" 
d="M381 -142h-106v126c-141 13 -235 113 -235 286c0 166 92 273 235 286v126h106v-133c37 -9 72 -24 99 -44v-131h-4c-23 31 -56 55 -95 66v-341c40 11 73 36 98 67h4v-131c-28 -22 -64 -36 -102 -45v-132zM168 270c0 -92 38 -152 107 -171v342c-68 -18 -107 -76 -107 -171z
" />
    <glyph glyph-name="sterling" unicode="&#xa3;" horiz-adv-x="548" 
d="M489 0h-446v108h99l-19 174h-80v108h68l-5 50c-2 21 -4 41 -4 63c0 113 80 197 222 197c62 0 127 -18 175 -53v-134h-3c-36 44 -98 75 -160 75c-70 0 -106 -45 -106 -105c0 -17 2 -39 4 -55l4 -38h198v-108h-186l19 -174h220v-108z" />
    <glyph glyph-name="florin" unicode="&#x192;" horiz-adv-x="544" 
d="M242 0h-125v283h-73v107h73v97c0 139 85 213 224 213c62 0 125 -18 173 -53v-134h-4c-40 47 -94 75 -156 75c-77 0 -112 -48 -112 -116v-82h207v-107h-207v-283z" />
    <glyph glyph-name="yen" unicode="&#xa5;" horiz-adv-x="548" 
d="M348 0h-125v142h-180v98h180v57h-180v98h137l-148 287h137l116 -257h1l108 257h131l-138 -287h127v-98h-166v-57h166v-98h-166v-142z" />
    <glyph glyph-name="zero.slash" unicode="&#xe03a;" horiz-adv-x="608" 
d="M564 341c0 -259 -120 -359 -260 -359c-45 0 -88 11 -125 32l-18 -32h-116l60 104c-38 58 -61 141 -61 255c0 260 120 359 260 359c45 0 87 -10 125 -33l18 33h115l-58 -106c37 -57 60 -140 60 -253zM436 341c0 176 -53 244 -132 244s-131 -68 -131 -244s52 -244 131 -244
s132 68 132 244z" />
    <glyph glyph-name="zero" unicode="0" horiz-adv-x="608" 
d="M564 341c0 -259 -120 -359 -260 -359c-141 0 -260 101 -260 359c0 260 120 359 260 359c141 0 260 -100 260 -359zM436 341c0 176 -53 244 -132 244s-131 -68 -131 -244s52 -244 131 -244s132 68 132 244z" />
    <glyph glyph-name="one" unicode="1" horiz-adv-x="405" 
d="M317 0h-126v552l-153 -46h-3v119l279 75h3v-700z" />
    <glyph glyph-name="two" unicode="2" horiz-adv-x="548" 
d="M521 0h-481v87c223 187 280 274 280 376c0 81 -46 127 -112 127c-59 0 -113 -31 -151 -77h-3v131c48 34 106 56 178 56c125 0 223 -77 223 -223c0 -159 -93 -246 -221 -368v-1h287v-108z" />
    <glyph glyph-name="three" unicode="3" horiz-adv-x="533" 
d="M490 174c0 -124 -97 -192 -235 -192c-71 0 -140 17 -194 52v130h3c42 -46 113 -73 170 -73c72 0 126 32 126 101c0 58 -45 94 -125 94h-97v108h105c59 22 76 60 76 98c0 62 -45 98 -110 98c-54 0 -105 -28 -141 -72h-3v131c44 29 105 51 173 51c122 0 213 -70 213 -187
c0 -74 -36 -127 -95 -161v-1c73 -18 134 -77 134 -177z" />
    <glyph glyph-name="four" unicode="4" horiz-adv-x="548" 
d="M533 142h-92v-142h-126v142h-297v98l327 460h96v-450h92v-108zM318 250v254h-1l-176 -253v-1h177z" />
    <glyph glyph-name="five" unicode="5" horiz-adv-x="523" 
d="M483 207c0 -147 -104 -225 -241 -225c-71 0 -137 17 -188 51v130h4c41 -46 106 -73 166 -73c74 0 130 38 130 116c0 72 -54 117 -149 117c-47 0 -95 -12 -135 -32h-3l61 391h332v-110h-241l-26 -154c20 4 49 8 78 8c123 0 212 -87 212 -219z" />
    <glyph glyph-name="six" unicode="6" horiz-adv-x="574" 
d="M535 203c0 -146 -108 -221 -247 -221c-147 0 -248 80 -248 221c0 54 13 93 40 135l220 344h150v-2l-177 -272l1 -1c17 4 35 7 55 7c111 0 206 -83 206 -211zM405 203c0 70 -42 119 -117 119c-69 0 -119 -38 -119 -119c0 -71 41 -119 117 -119c68 0 119 38 119 119z" />
    <glyph glyph-name="seven" unicode="7" horiz-adv-x="548" 
d="M212 1h-137v2l275 562v1h-318v117h500v-8z" />
    <glyph glyph-name="eight" unicode="8" horiz-adv-x="563" 
d="M524 188c0 -131 -98 -206 -242 -206c-146 0 -243 75 -243 206c0 84 43 145 113 175v1c-56 28 -89 79 -89 151c0 117 88 185 219 185c130 0 218 -68 218 -185c0 -71 -34 -122 -89 -151v-1c70 -29 113 -90 113 -175zM394 192c0 65 -40 108 -112 108
c-73 0 -114 -43 -114 -108s40 -108 114 -108c71 0 112 43 112 108zM381 504c0 56 -35 94 -99 94s-101 -38 -101 -94s36 -96 101 -96c63 0 99 40 99 96z" />
    <glyph glyph-name="nine" unicode="9" horiz-adv-x="574" 
d="M274 0h-150v2l177 272v1c-17 -5 -35 -7 -55 -7c-112 0 -206 82 -206 211c0 146 107 221 247 221c146 0 248 -80 248 -221c0 -55 -13 -93 -62 -169zM406 479c0 71 -42 119 -117 119c-69 0 -120 -38 -120 -119c0 -70 42 -119 117 -119c69 0 120 38 120 119z" />
    <glyph glyph-name="numbersign.LT" unicode="&#xe14d;" 
d="M386 198l-24 -198h-85l24 198h-98l-24 -198h-86l23 198h-91v75h100l17 137h-93v75h102l24 197h85l-24 -197h99l24 197h85l-23 -197h94v-75h-103l-17 -137h96v-75h-105zM309 273l17 137h-98l-17 -137h98z" />
    <glyph glyph-name="Euro.LT" unicode="&#xe03b;" 
d="M507 37c-41 -35 -100 -55 -159 -55c-108 0 -206 58 -236 235h-80v98h71v57h-71v98h81c30 165 121 230 233 230c64 0 118 -19 158 -55v-121h-4c-29 41 -75 70 -134 70c-68 0 -110 -39 -129 -124h215v-98h-226c-1 -11 -1 -21 -1 -32v-25h227v-98h-216
c18 -87 61 -129 131 -129c54 0 100 25 136 70h4v-121z" />
    <glyph glyph-name="dollar.LT" unicode="&#xe03c;" 
d="M322 -142h-107v126c-62 6 -110 24 -150 53v124h4c34 -39 91 -61 146 -68v207c-75 34 -147 83 -147 203c0 88 41 172 156 192v129h107v-128c50 -7 93 -26 129 -51v-120h-4c-34 33 -75 54 -125 62v-197c75 -35 149 -84 149 -205c0 -96 -52 -175 -158 -196v-131zM373 177
c0 34 -21 56 -51 74v-150c34 13 51 38 51 76zM176 509c0 -32 19 -53 48 -70v143c-33 -12 -48 -37 -48 -73z" />
    <glyph glyph-name="cent.LT" unicode="&#xe03d;" 
d="M386 -142h-106v126c-141 13 -235 113 -235 286c0 166 92 273 235 286v126h106v-133c37 -9 72 -24 99 -44v-131h-4c-23 31 -56 55 -95 66v-341c40 11 73 36 98 67h4v-131c-28 -22 -64 -36 -102 -45v-132zM173 270c0 -92 38 -152 107 -171v342c-68 -18 -107 -76 -107 -171z
" />
    <glyph glyph-name="sterling.LT" unicode="&#xe03e;" 
d="M485 0h-446v108h99l-19 174h-80v108h68l-5 50c-2 21 -4 41 -4 63c0 113 80 197 222 197c62 0 127 -18 175 -53v-134h-3c-36 44 -98 75 -160 75c-70 0 -106 -45 -106 -105c0 -17 2 -39 4 -55l4 -38h198v-108h-186l19 -174h220v-108z" />
    <glyph glyph-name="florin.LT" unicode="&#xe03f;" 
d="M233 0h-125v283h-73v107h73v97c0 139 85 213 224 213c62 0 125 -18 173 -53v-134h-4c-40 47 -94 75 -156 75c-77 0 -112 -48 -112 -116v-82h207v-107h-207v-283z" />
    <glyph glyph-name="yen.LT" unicode="&#xe040;" 
d="M344 0h-125v142h-180v98h180v57h-180v98h137l-148 287h137l116 -257h1l108 257h131l-138 -287h127v-98h-166v-57h166v-98h-166v-142z" />
    <glyph glyph-name="zero.slash.LT" unicode="&#xe4b2;" 
d="M514 341c0 -258 -112 -359 -244 -359c-41 0 -79 10 -113 29l-16 -29h-116l58 102c-36 58 -58 142 -58 257c0 260 110 359 245 359c40 0 78 -10 112 -30l17 30h116l-58 -104c35 -58 57 -141 57 -255zM385 341c0 176 -48 244 -115 244c-71 0 -116 -68 -116 -244
s45 -244 116 -244c67 0 115 68 115 244z" />
    <glyph glyph-name="zero.LT" unicode="&#xe041;" 
d="M514 341c0 -258 -112 -359 -244 -359c-135 0 -245 101 -245 359c0 260 110 359 245 359c132 0 244 -99 244 -359zM385 341c0 176 -48 244 -115 244c-71 0 -116 -68 -116 -244s45 -244 116 -244c67 0 115 68 115 244z" />
    <glyph glyph-name="one.LT" unicode="&#xe042;" 
d="M380 0h-126v552l-153 -46h-3v119l279 75h3v-700z" />
    <glyph glyph-name="two.LT" unicode="&#xe043;" 
d="M517 0h-481v87c223 187 280 274 280 376c0 81 -46 127 -112 127c-59 0 -113 -31 -151 -77h-3v131c48 34 106 56 178 56c125 0 223 -77 223 -223c0 -159 -93 -246 -221 -368v-1h287v-108z" />
    <glyph glyph-name="three.LT" unicode="&#xe044;" 
d="M497 174c0 -124 -97 -192 -235 -192c-71 0 -140 17 -194 52v130h3c42 -46 113 -73 170 -73c72 0 126 32 126 101c0 58 -45 94 -125 94h-97v108h105c59 22 76 60 76 98c0 62 -45 98 -110 98c-54 0 -105 -28 -141 -72h-3v131c44 29 105 51 173 51c122 0 213 -70 213 -187
c0 -74 -36 -127 -95 -161v-1c73 -18 134 -77 134 -177z" />
    <glyph glyph-name="four.LT" unicode="&#xe045;" 
d="M529 142h-92v-142h-126v142h-297v98l327 460h96v-450h92v-108zM314 250v254h-1l-176 -253v-1h177z" />
    <glyph glyph-name="five.LT" unicode="&#xe046;" 
d="M494 207c0 -147 -104 -225 -241 -225c-71 0 -137 17 -188 51v130h4c41 -46 106 -73 166 -73c74 0 130 38 130 116c0 72 -54 117 -149 117c-47 0 -95 -12 -135 -32h-3l61 391h332v-110h-241l-26 -154c20 4 49 8 78 8c123 0 212 -87 212 -219z" />
    <glyph glyph-name="six.LT" unicode="&#xe047;" 
d="M518 203c0 -146 -108 -221 -247 -221c-147 0 -248 80 -248 221c0 54 13 93 40 135l220 344h150v-2l-177 -272l1 -1c17 4 35 7 55 7c111 0 206 -83 206 -211zM388 203c0 70 -42 119 -117 119c-69 0 -119 -38 -119 -119c0 -71 41 -119 117 -119c68 0 119 38 119 119z" />
    <glyph glyph-name="seven.LT" unicode="&#xe048;" 
d="M208 1h-137v2l275 562v1h-318v117h500v-8z" />
    <glyph glyph-name="eight.LT" unicode="&#xe049;" 
d="M512 188c0 -131 -98 -206 -242 -206c-146 0 -243 75 -243 206c0 84 43 145 113 175v1c-56 28 -89 79 -89 151c0 117 88 185 219 185c130 0 218 -68 218 -185c0 -71 -34 -122 -89 -151v-1c70 -29 113 -90 113 -175zM382 192c0 65 -40 108 -112 108
c-73 0 -114 -43 -114 -108s40 -108 114 -108c71 0 112 43 112 108zM369 504c0 56 -35 94 -99 94s-101 -38 -101 -94s36 -96 101 -96c63 0 99 40 99 96z" />
    <glyph glyph-name="nine.LT" unicode="&#xe04a;" 
d="M257 0h-150v2l177 272v1c-17 -5 -35 -7 -55 -7c-112 0 -206 82 -206 211c0 146 107 221 247 221c146 0 248 -80 248 -221c0 -55 -13 -93 -62 -169zM389 479c0 71 -42 119 -117 119c-69 0 -120 -38 -120 -119c0 -70 42 -119 117 -119c69 0 120 38 120 119z" />
    <glyph glyph-name="numbersign.OP" unicode="&#xe151;" horiz-adv-x="548" 
d="M389 148l-23 -148h-85l22 148h-98l-22 -148h-86l22 148h-90v75h101l15 94h-92v75h103l23 148h85l-23 -148h99l23 148h85l-22 -148h93v-75h-104l-15 -94h95v-75h-106zM315 223l14 94h-99l-14 -94h99z" />
    <glyph glyph-name="Euro.OP" unicode="&#xe05b;" horiz-adv-x="539" 
d="M32 293v98h89c36 108 121 167 225 167c61 0 120 -19 158 -52v-117h-4c-30 43 -78 68 -137 68c-53 0 -91 -24 -114 -66h203v-98h-226c-1 -8 -1 -15 -1 -23v-18h227v-98h-204c22 -45 62 -71 118 -71c54 0 102 22 137 68h4v-117c-38 -33 -99 -52 -159 -52
c-101 0 -193 56 -229 172h-87v98h71v41h-71z" />
    <glyph glyph-name="dollar.OP" unicode="&#xe05c;" horiz-adv-x="512" 
d="M461 147c0 -85 -56 -144 -158 -160v-129h-107v126c-62 5 -115 21 -150 47v116h3c40 -40 92 -63 147 -70v152c-75 21 -147 58 -147 165c0 80 47 145 156 160v128h107v-127c51 -6 99 -22 130 -46v-115h-4c-37 36 -79 57 -126 66v-144c75 -22 149 -60 149 -169zM355 143
c0 29 -21 44 -52 56v-116c36 11 52 33 52 60zM155 400c0 -27 20 -42 50 -54v110c-36 -10 -50 -31 -50 -56z" />
    <glyph glyph-name="cent.OP" unicode="&#xe05d;" horiz-adv-x="527" 
d="M381 -142h-106v126c-141 13 -235 113 -235 286c0 166 92 273 235 286v126h106v-133c37 -9 72 -24 99 -44v-131h-4c-23 31 -56 55 -95 66v-341c40 11 73 36 98 67h4v-131c-28 -22 -64 -36 -102 -45v-132zM168 270c0 -92 38 -152 107 -171v342c-68 -18 -107 -76 -107 -171z
" />
    <glyph glyph-name="sterling.OP" unicode="&#xe05e;" horiz-adv-x="548" 
d="M436 192h-187l12 -84h228v-108h-446v108h92l-12 84h-80v100h65l-1 12c-2 18 -5 38 -5 57c0 113 80 197 222 197c59 0 127 -18 175 -53v-134h-3c-43 46 -102 75 -161 75c-68 0 -106 -37 -106 -92c0 -16 2 -32 5 -51l1 -11h201v-100z" />
    <glyph glyph-name="florin.OP" unicode="&#xe05f;" horiz-adv-x="544" 
d="M237 0h-125v184h-73v108h73v53c0 139 85 213 224 213c62 0 125 -18 173 -53v-131h-4c-36 44 -91 74 -156 74c-77 0 -112 -47 -112 -109v-47h207v-108h-207v-184z" />
    <glyph glyph-name="yen.OP" unicode="&#xe060;" horiz-adv-x="548" 
d="M39 204v98h130l-141 238h137l115 -208h1l109 208h130l-131 -238h120v-98h-166v-41h166v-98h-166v-65h-125v65h-179v98h179v41h-179z" />
    <glyph glyph-name="zero.slash.OP" unicode="&#xe4b1;" horiz-adv-x="608" 
d="M564 270c0 -189 -120 -288 -260 -288c-44 0 -86 10 -123 29l-20 -29h-116l62 89c-39 47 -63 114 -63 199c0 190 119 288 260 288c44 0 86 -10 123 -29l20 29h115l-62 -89c39 -48 64 -114 64 -199zM435 270c0 110 -55 173 -131 173s-131 -63 -131 -173
c0 -107 53 -173 131 -173c79 0 131 66 131 173z" />
    <glyph glyph-name="zero.OP" unicode="&#xe061;" horiz-adv-x="608" 
d="M564 270c0 -189 -120 -288 -260 -288c-141 0 -260 99 -260 288c0 190 119 288 260 288c140 0 260 -98 260 -288zM435 270c0 110 -55 173 -131 173s-131 -63 -131 -173c0 -107 53 -173 131 -173c79 0 131 66 131 173z" />
    <glyph glyph-name="one.OP" unicode="&#xe062;" horiz-adv-x="405" 
d="M317 0h-126v410l-153 -46h-3v119l279 75h3v-558z" />
    <glyph glyph-name="two.OP" unicode="&#xe063;" horiz-adv-x="548" 
d="M521 0h-481v87c226 136 285 194 285 271c0 59 -49 90 -113 90c-60 0 -115 -35 -155 -77h-3v131c48 34 106 56 178 56c129 0 223 -70 223 -184s-82 -176 -194 -265v-1h260v-108z" />
    <glyph glyph-name="three.OP" unicode="&#xe064;" horiz-adv-x="533" 
d="M490 32c0 -124 -97 -192 -235 -192c-71 0 -140 17 -194 52v130h3c42 -46 113 -73 170 -73c72 0 126 32 126 101c0 58 -45 94 -125 94h-97v108h105c59 22 76 60 76 98c0 62 -45 98 -110 98c-54 0 -105 -28 -141 -72h-3v131c44 29 105 51 173 51c122 0 213 -70 213 -187
c0 -74 -36 -127 -95 -161v-1c73 -18 134 -77 134 -177z" />
    <glyph glyph-name="four.OP" unicode="&#xe065;" horiz-adv-x="548" 
d="M533 0h-92v-142h-126v142h-297v98l327 460h96v-450h92v-108zM318 108v254h-1l-176 -253v-1h177z" />
    <glyph glyph-name="five.OP" unicode="&#xe066;" horiz-adv-x="523" 
d="M483 65c0 -147 -104 -225 -241 -225c-71 0 -137 17 -188 51v130h4c41 -46 106 -73 166 -73c74 0 130 38 130 116c0 72 -54 117 -149 117c-47 0 -95 -12 -135 -32h-3l61 391h332v-110h-241l-26 -154c20 4 49 8 78 8c123 0 212 -87 212 -219z" />
    <glyph glyph-name="six.OP" unicode="&#xe067;" horiz-adv-x="574" 
d="M535 203c0 -146 -108 -221 -247 -221c-147 0 -248 80 -248 221c0 54 13 93 40 135l220 344h150v-2l-177 -272l1 -1c17 4 35 7 55 7c111 0 206 -83 206 -211zM405 203c0 70 -42 119 -117 119c-69 0 -119 -38 -119 -119c0 -71 41 -119 117 -119c68 0 119 38 119 119z" />
    <glyph glyph-name="seven.OP" unicode="&#xe068;" horiz-adv-x="548" 
d="M212 -142h-137v2l275 562v1h-318v117h500v-8z" />
    <glyph glyph-name="eight.OP" unicode="&#xe069;" horiz-adv-x="563" 
d="M524 188c0 -131 -98 -206 -242 -206c-146 0 -243 75 -243 206c0 84 43 145 113 175v1c-56 28 -89 79 -89 151c0 117 88 185 219 185c130 0 218 -68 218 -185c0 -71 -34 -122 -89 -151v-1c70 -29 113 -90 113 -175zM394 192c0 65 -40 108 -112 108
c-73 0 -114 -43 -114 -108s40 -108 114 -108c71 0 112 43 112 108zM381 504c0 56 -35 94 -99 94s-101 -38 -101 -94s36 -96 101 -96c63 0 99 40 99 96z" />
    <glyph glyph-name="nine.OP" unicode="&#xe06a;" horiz-adv-x="574" 
d="M274 -142h-150v2l177 272v1c-17 -5 -35 -7 -55 -7c-112 0 -206 82 -206 211c0 146 107 221 247 221c146 0 248 -80 248 -221c0 -55 -13 -93 -62 -169zM406 337c0 71 -42 119 -117 119c-69 0 -120 -38 -120 -119c0 -70 42 -119 117 -119c69 0 120 38 120 119z" />
    <glyph glyph-name="numbersign.OT" unicode="&#xe14f;" 
d="M385 148l-23 -148h-85l22 148h-98l-22 -148h-86l22 148h-90v75h101l15 94h-92v75h103l23 148h85l-23 -148h99l23 148h85l-22 -148h93v-75h-104l-15 -94h95v-75h-106zM311 223l14 94h-99l-14 -94h99z" />
    <glyph glyph-name="Euro.OT" unicode="&#xe04b;" 
d="M32 293v98h89c36 108 121 167 225 167c61 0 120 -19 158 -52v-117h-4c-30 43 -78 68 -137 68c-53 0 -91 -24 -114 -66h203v-98h-226c-1 -8 -1 -15 -1 -23v-18h227v-98h-204c22 -45 62 -71 118 -71c54 0 102 22 137 68h4v-117c-38 -33 -99 -52 -159 -52
c-101 0 -193 56 -229 172h-87v98h71v41h-71z" />
    <glyph glyph-name="dollar.OT" unicode="&#xe04c;" 
d="M480 147c0 -85 -56 -144 -158 -160v-129h-107v126c-62 5 -115 21 -150 47v116h3c40 -40 92 -63 147 -70v152c-75 21 -147 58 -147 165c0 80 47 145 156 160v128h107v-127c51 -6 99 -22 130 -46v-115h-4c-37 36 -79 57 -126 66v-144c75 -22 149 -60 149 -169zM374 143
c0 29 -21 44 -52 56v-116c36 11 52 33 52 60zM174 400c0 -27 20 -42 50 -54v110c-36 -10 -50 -31 -50 -56z" />
    <glyph glyph-name="cent.OT" unicode="&#xe04d;" 
d="M386 -142h-106v126c-141 13 -235 113 -235 286c0 166 92 273 235 286v126h106v-133c37 -9 72 -24 99 -44v-131h-4c-23 31 -56 55 -95 66v-341c40 11 73 36 98 67h4v-131c-28 -22 -64 -36 -102 -45v-132zM173 270c0 -92 38 -152 107 -171v342c-68 -18 -107 -76 -107 -171z
" />
    <glyph glyph-name="sterling.OT" unicode="&#xe04e;" 
d="M432 192h-187l12 -84h228v-108h-446v108h92l-12 84h-80v100h65l-1 12c-2 18 -5 38 -5 57c0 113 80 197 222 197c59 0 127 -18 175 -53v-134h-3c-43 46 -102 75 -161 75c-68 0 -106 -37 -106 -92c0 -16 2 -32 5 -51l1 -11h201v-100z" />
    <glyph glyph-name="florin.OT" unicode="&#xe04f;" 
d="M233 0h-125v184h-73v108h73v53c0 139 85 213 224 213c62 0 125 -18 173 -53v-131h-4c-36 44 -91 74 -156 74c-77 0 -112 -47 -112 -109v-47h207v-108h-207v-184z" />
    <glyph glyph-name="yen.OT" unicode="&#xe050;" 
d="M35 204v98h130l-141 238h137l115 -208h1l109 208h130l-131 -238h120v-98h-166v-41h166v-98h-166v-65h-125v65h-179v98h179v41h-179z" />
    <glyph glyph-name="zero.slash.OT" unicode="&#xe08e;" 
d="M514 270c0 -189 -110 -288 -244 -288c-40 0 -78 9 -111 26l-18 -26h-116l60 87c-37 48 -60 115 -60 201c0 190 111 288 245 288c39 0 77 -9 110 -26l18 26h116l-60 -87c37 -48 60 -115 60 -201zM386 270c0 110 -47 173 -116 173c-70 0 -116 -63 -116 -173
c0 -107 45 -173 116 -173s116 66 116 173z" />
    <glyph glyph-name="zero.OT" unicode="&#xe051;" 
d="M514 270c0 -189 -110 -288 -244 -288s-245 99 -245 288c0 190 111 288 245 288s244 -98 244 -288zM386 270c0 110 -47 173 -116 173c-70 0 -116 -63 -116 -173c0 -107 45 -173 116 -173s116 66 116 173z" />
    <glyph glyph-name="one.OT" unicode="&#xe052;" 
d="M380 0h-126v410l-153 -46h-3v119l279 75h3v-558z" />
    <glyph glyph-name="two.OT" unicode="&#xe053;" 
d="M517 0h-481v87c226 136 285 194 285 271c0 59 -49 90 -113 90c-60 0 -115 -35 -155 -77h-3v131c48 34 106 56 178 56c129 0 223 -70 223 -184s-82 -176 -194 -265v-1h260v-108z" />
    <glyph glyph-name="three.OT" unicode="&#xe054;" 
d="M497 32c0 -124 -97 -192 -235 -192c-71 0 -140 17 -194 52v130h3c42 -46 113 -73 170 -73c72 0 126 32 126 101c0 58 -45 94 -125 94h-97v108h105c59 22 76 60 76 98c0 62 -45 98 -110 98c-54 0 -105 -28 -141 -72h-3v131c44 29 105 51 173 51c122 0 213 -70 213 -187
c0 -74 -36 -127 -95 -161v-1c73 -18 134 -77 134 -177z" />
    <glyph glyph-name="four.OT" unicode="&#xe055;" 
d="M529 0h-92v-142h-126v142h-297v98l327 460h96v-450h92v-108zM314 108v254h-1l-176 -253v-1h177z" />
    <glyph glyph-name="five.OT" unicode="&#xe056;" 
d="M494 65c0 -147 -104 -225 -241 -225c-71 0 -137 17 -188 51v130h4c41 -46 106 -73 166 -73c74 0 130 38 130 116c0 72 -54 117 -149 117c-47 0 -95 -12 -135 -32h-3l61 391h332v-110h-241l-26 -154c20 4 49 8 78 8c123 0 212 -87 212 -219z" />
    <glyph glyph-name="six.OT" unicode="&#xe057;" 
d="M518 203c0 -146 -108 -221 -247 -221c-147 0 -248 80 -248 221c0 54 13 93 40 135l220 344h150v-2l-177 -272l1 -1c17 4 35 7 55 7c111 0 206 -83 206 -211zM388 203c0 70 -42 119 -117 119c-69 0 -119 -38 -119 -119c0 -71 41 -119 117 -119c68 0 119 38 119 119z" />
    <glyph glyph-name="seven.OT" unicode="&#xe058;" 
d="M208 -142h-137v2l275 562v1h-318v117h500v-8z" />
    <glyph glyph-name="eight.OT" unicode="&#xe059;" 
d="M512 188c0 -131 -98 -206 -242 -206c-146 0 -243 75 -243 206c0 84 43 145 113 175v1c-56 28 -89 79 -89 151c0 117 88 185 219 185c130 0 218 -68 218 -185c0 -71 -34 -122 -89 -151v-1c70 -29 113 -90 113 -175zM382 192c0 65 -40 108 -112 108
c-73 0 -114 -43 -114 -108s40 -108 114 -108c71 0 112 43 112 108zM369 504c0 56 -35 94 -99 94s-101 -38 -101 -94s36 -96 101 -96c63 0 99 40 99 96z" />
    <glyph glyph-name="nine.OT" unicode="&#xe05a;" 
d="M257 -142h-150v2l177 272v1c-17 -5 -35 -7 -55 -7c-112 0 -206 82 -206 211c0 146 107 221 247 221c146 0 248 -80 248 -221c0 -55 -13 -93 -62 -169zM389 337c0 71 -42 119 -117 119c-69 0 -120 -38 -120 -119c0 -70 42 -119 117 -119c69 0 120 38 120 119z" />
    <glyph glyph-name="zerosuperior" unicode="&#x2070;" horiz-adv-x="361" 
d="M348 517c0 -168 -78 -234 -168 -234s-168 66 -168 234c0 169 78 233 168 233s168 -64 168 -233zM255 517c0 114 -32 149 -75 149s-74 -34 -74 -149c0 -109 29 -151 74 -151s75 41 75 151z" />
    <glyph glyph-name="onesuperior" unicode="&#xb9;" horiz-adv-x="361" 
d="M258 295h-91v348l-101 -28h-2v86l192 49h2v-455z" />
    <glyph glyph-name="twosuperior" unicode="&#xb2;" horiz-adv-x="361" 
d="M344 295h-317v65c146 118 179 173 179 234c0 49 -29 77 -71 77c-37 0 -71 -18 -97 -43h-2v86c32 21 69 36 117 36c82 0 148 -50 148 -145c0 -100 -60 -154 -137 -231v-1h180v-78z" />
    <glyph glyph-name="threesuperior" unicode="&#xb3;" horiz-adv-x="361" 
d="M331 408c0 -80 -62 -125 -154 -125c-49 0 -93 11 -130 34v87h3c27 -26 74 -43 111 -43c44 0 76 20 76 61c0 34 -27 55 -75 55h-65v78h68c34 13 45 35 45 58c0 36 -26 58 -66 58c-36 0 -68 -17 -92 -42h-2v88c30 19 70 33 115 33c81 0 140 -45 140 -122
c0 -48 -22 -83 -66 -105v-1c53 -10 92 -50 92 -114z" />
    <glyph glyph-name="foursuperior" unicode="&#x2074;" horiz-adv-x="361" 
d="M350 387h-57v-92h-92v92h-187v67l207 296h72v-291h57v-72zM204 459v153h-1l-103 -152v-1h104z" />
    <glyph glyph-name="fivesuperior" unicode="&#x2075;" horiz-adv-x="361" 
d="M329 431c0 -96 -69 -148 -161 -148c-46 0 -90 12 -123 34v87h2c27 -26 70 -43 110 -43c44 0 78 23 78 70c0 42 -34 70 -93 70c-31 0 -61 -7 -87 -20h-2l40 257h221v-79h-155l-16 -93c13 5 26 8 38 8c84 0 148 -51 148 -143z" />
    <glyph glyph-name="sixsuperior" unicode="&#x2076;" horiz-adv-x="361" 
d="M344 428c0 -95 -69 -145 -164 -145c-96 0 -163 53 -163 145c0 35 8 61 25 88l142 222h110v-1l-113 -173v-1c15 4 34 4 51 2c66 -13 112 -61 112 -137zM251 428c0 43 -26 72 -70 72c-41 0 -71 -24 -71 -72c0 -42 25 -71 69 -71c42 0 72 23 72 71z" />
    <glyph glyph-name="sevensuperior" unicode="&#x2077;" horiz-adv-x="361" 
d="M148 296h-99v1l172 356h-200v86h332v-6z" />
    <glyph glyph-name="eightsuperior" unicode="&#x2078;" horiz-adv-x="361" 
d="M341 418c0 -86 -65 -135 -162 -135c-96 0 -160 49 -160 135c0 54 27 93 71 113v1c-35 19 -55 51 -55 97c0 77 58 121 144 121c88 0 146 -44 146 -121c0 -46 -21 -78 -55 -97v-1c44 -19 71 -59 71 -113zM247 424c0 38 -24 65 -68 65c-42 0 -66 -27 -66 -65
c0 -39 23 -67 66 -67s68 28 68 67zM240 619c0 33 -22 57 -61 57c-37 0 -59 -24 -59 -57c0 -34 21 -59 59 -59c39 0 61 25 61 59z" />
    <glyph glyph-name="ninesuperior" unicode="&#x2079;" horiz-adv-x="361" 
d="M177 295h-109v1l112 173v1c-15 -4 -33 -3 -51 -2c-66 13 -112 62 -112 137c0 96 70 145 164 145c96 0 163 -52 163 -145c0 -36 -10 -65 -31 -98zM251 605c0 42 -25 71 -70 71c-40 0 -70 -22 -70 -71c0 -42 24 -72 69 -72c41 0 71 24 71 72z" />
    <glyph glyph-name="plussuperior" unicode="&#x207a;" horiz-adv-x="361" 
d="M214 331h-68v124h-120v68h120v123h68v-123h120v-68h-120v-124z" />
    <glyph glyph-name="minussuperior" unicode="&#x207b;" horiz-adv-x="361" 
d="M334 455h-308v68h308v-68z" />
    <glyph glyph-name="equalsuperior" unicode="&#x207c;" horiz-adv-x="361" 
d="M334 382h-308v67h308v-67zM334 530h-308v68h308v-68z" />
    <glyph glyph-name="parenleftsuperior" unicode="&#x207d;" horiz-adv-x="235" 
d="M228 218h-86c-63 72 -101 168 -101 273c0 106 38 202 101 274h86c-62 -72 -101 -168 -101 -274c0 -105 39 -201 101 -273z" />
    <glyph glyph-name="parenrightsuperior" unicode="&#x207e;" horiz-adv-x="235" 
d="M92 218h-85c62 72 101 168 101 273c0 106 -39 202 -101 274h85c64 -72 102 -168 102 -274c0 -105 -38 -201 -102 -273z" />
    <glyph glyph-name="zeroinferior" unicode="&#x2080;" horiz-adv-x="361" 
d="M348 127c0 -168 -78 -234 -168 -234s-168 66 -168 234c0 169 78 233 168 233s168 -64 168 -233zM255 127c0 114 -32 149 -75 149s-74 -34 -74 -149c0 -109 29 -151 74 -151s75 41 75 151z" />
    <glyph glyph-name="oneinferior" unicode="&#x2081;" horiz-adv-x="361" 
d="M258 -95h-91v348l-101 -28h-2v86l192 49h2v-455z" />
    <glyph glyph-name="twoinferior" unicode="&#x2082;" horiz-adv-x="361" 
d="M344 -95h-317v65c146 118 179 173 179 234c0 49 -29 77 -71 77c-37 0 -71 -18 -97 -43h-2v86c32 21 69 36 117 36c82 0 148 -50 148 -145c0 -100 -60 -154 -137 -231v-1h180v-78z" />
    <glyph glyph-name="threeinferior" unicode="&#x2083;" horiz-adv-x="361" 
d="M331 18c0 -80 -62 -125 -154 -125c-49 0 -93 11 -130 34v87h3c27 -26 74 -43 111 -43c44 0 76 20 76 61c0 34 -27 55 -75 55h-65v78h68c34 13 45 35 45 58c0 36 -26 58 -66 58c-36 0 -68 -17 -92 -42h-2v88c30 19 70 33 115 33c81 0 140 -45 140 -122
c0 -48 -22 -83 -66 -105v-1c53 -10 92 -50 92 -114z" />
    <glyph glyph-name="fourinferior" unicode="&#x2084;" horiz-adv-x="361" 
d="M350 -3h-57v-92h-92v92h-187v67l207 296h72v-291h57v-72zM204 69v153h-1l-103 -152v-1h104z" />
    <glyph glyph-name="fiveinferior" unicode="&#x2085;" horiz-adv-x="361" 
d="M329 41c0 -96 -69 -148 -161 -148c-46 0 -90 12 -123 34v87h2c27 -26 70 -43 110 -43c44 0 78 23 78 70c0 42 -34 70 -93 70c-31 0 -61 -7 -87 -20h-2l40 257h221v-79h-155l-16 -93c13 5 26 8 38 8c84 0 148 -51 148 -143z" />
    <glyph glyph-name="sixinferior" unicode="&#x2086;" horiz-adv-x="361" 
d="M344 38c0 -95 -69 -145 -164 -145c-96 0 -163 53 -163 145c0 35 8 61 25 88l142 222h110v-1l-113 -173v-1c15 4 34 4 51 2c66 -13 112 -61 112 -137zM251 38c0 43 -26 72 -70 72c-41 0 -71 -24 -71 -72c0 -42 25 -71 69 -71c42 0 72 23 72 71z" />
    <glyph glyph-name="seveninferior" unicode="&#x2087;" horiz-adv-x="361" 
d="M148 -94h-99v1l172 356h-200v86h332v-6z" />
    <glyph glyph-name="eightinferior" unicode="&#x2088;" horiz-adv-x="361" 
d="M341 28c0 -86 -65 -135 -162 -135c-96 0 -160 49 -160 135c0 54 27 93 71 113v1c-35 19 -55 51 -55 97c0 77 58 121 144 121c88 0 146 -44 146 -121c0 -46 -21 -78 -55 -97v-1c44 -19 71 -59 71 -113zM247 34c0 38 -24 65 -68 65c-42 0 -66 -27 -66 -65
c0 -39 23 -67 66 -67s68 28 68 67zM240 229c0 33 -22 57 -61 57c-37 0 -59 -24 -59 -57c0 -34 21 -59 59 -59c39 0 61 25 61 59z" />
    <glyph glyph-name="nineinferior" unicode="&#x2089;" horiz-adv-x="361" 
d="M177 -95h-109v1l112 173v1c-15 -4 -33 -3 -51 -2c-66 13 -112 62 -112 137c0 96 70 145 164 145c96 0 163 -52 163 -145c0 -36 -10 -65 -31 -98zM251 215c0 42 -25 71 -70 71c-40 0 -70 -22 -70 -71c0 -42 24 -72 69 -72c41 0 71 24 71 72z" />
    <glyph glyph-name="plusinferior" unicode="&#xe06b;" horiz-adv-x="361" 
d="M214 -59h-68v124h-120v68h120v123h68v-123h120v-68h-120v-124z" />
    <glyph glyph-name="minusinferior" unicode="&#xe06c;" horiz-adv-x="361" 
d="M334 65h-308v68h308v-68z" />
    <glyph glyph-name="equalinferior" unicode="&#xe06d;" horiz-adv-x="361" 
d="M334 -8h-308v67h308v-67zM334 140h-308v68h308v-68z" />
    <glyph glyph-name="parenleftinferior" unicode="&#x208d;" horiz-adv-x="235" 
d="M228 -172h-86c-63 72 -101 168 -101 273c0 106 38 202 101 274h86c-62 -72 -101 -168 -101 -274c0 -105 39 -201 101 -273z" />
    <glyph glyph-name="parenrightinferior" unicode="&#x208e;" horiz-adv-x="235" 
d="M92 -172h-85c62 72 101 168 101 273c0 106 -39 202 -101 274h85c64 -72 102 -168 102 -274c0 -105 -38 -201 -102 -273z" />
    <glyph glyph-name="zero.numr" unicode="&#xe06e;" horiz-adv-x="361" 
d="M348 461c0 -168 -78 -234 -168 -234s-168 66 -168 234c0 169 78 233 168 233s168 -64 168 -233zM255 461c0 114 -32 149 -75 149s-74 -34 -74 -149c0 -109 29 -151 74 -151s75 41 75 151z" />
    <glyph glyph-name="one.numr" unicode="&#xe06f;" horiz-adv-x="361" 
d="M258 239h-91v348l-101 -28h-2v86l192 49h2v-455z" />
    <glyph glyph-name="two.numr" unicode="&#xe070;" horiz-adv-x="361" 
d="M344 239h-317v65c146 118 179 173 179 234c0 49 -29 77 -71 77c-37 0 -71 -18 -97 -43h-2v86c32 21 69 36 117 36c82 0 148 -50 148 -145c0 -100 -60 -154 -137 -231v-1h180v-78z" />
    <glyph glyph-name="three.numr" unicode="&#xe071;" horiz-adv-x="361" 
d="M331 352c0 -80 -62 -125 -154 -125c-49 0 -93 11 -130 34v87h3c27 -26 74 -43 111 -43c44 0 76 20 76 61c0 34 -27 55 -75 55h-65v78h68c34 13 45 35 45 58c0 36 -26 58 -66 58c-36 0 -68 -17 -92 -42h-2v88c30 19 70 33 115 33c81 0 140 -45 140 -122
c0 -48 -22 -83 -66 -105v-1c53 -10 92 -50 92 -114z" />
    <glyph glyph-name="four.numr" unicode="&#xe072;" horiz-adv-x="361" 
d="M350 331h-57v-92h-92v92h-187v67l207 296h72v-291h57v-72zM204 403v153h-1l-103 -152v-1h104z" />
    <glyph glyph-name="five.numr" unicode="&#xe073;" horiz-adv-x="361" 
d="M329 375c0 -96 -69 -148 -161 -148c-46 0 -90 12 -123 34v87h2c27 -26 70 -43 110 -43c44 0 78 23 78 70c0 42 -34 70 -93 70c-31 0 -61 -7 -87 -20h-2l40 257h221v-79h-155l-16 -93c13 5 26 8 38 8c84 0 148 -51 148 -143z" />
    <glyph glyph-name="six.numr" unicode="&#xe074;" horiz-adv-x="361" 
d="M344 372c0 -95 -69 -145 -164 -145c-96 0 -163 53 -163 145c0 35 8 61 25 88l142 222h110v-1l-113 -173v-1c15 4 34 4 51 2c66 -13 112 -61 112 -137zM251 372c0 43 -26 72 -70 72c-41 0 -71 -24 -71 -72c0 -42 25 -71 69 -71c42 0 72 23 72 71z" />
    <glyph glyph-name="seven.numr" unicode="&#xe075;" horiz-adv-x="361" 
d="M148 240h-99v1l172 356h-200v86h332v-6z" />
    <glyph glyph-name="eight.numr" unicode="&#xe076;" horiz-adv-x="361" 
d="M341 362c0 -86 -65 -135 -162 -135c-96 0 -160 49 -160 135c0 54 27 93 71 113v1c-35 19 -55 51 -55 97c0 77 58 121 144 121c88 0 146 -44 146 -121c0 -46 -21 -78 -55 -97v-1c44 -19 71 -59 71 -113zM247 368c0 38 -24 65 -68 65c-42 0 -66 -27 -66 -65
c0 -39 23 -67 66 -67s68 28 68 67zM240 563c0 33 -22 57 -61 57c-37 0 -59 -24 -59 -57c0 -34 21 -59 59 -59c39 0 61 25 61 59z" />
    <glyph glyph-name="nine.numr" unicode="&#xe077;" horiz-adv-x="361" 
d="M177 239h-109v1l112 173v1c-15 -4 -33 -3 -51 -2c-66 13 -112 62 -112 137c0 96 70 145 164 145c96 0 163 -52 163 -145c0 -36 -10 -65 -31 -98zM251 549c0 42 -25 71 -70 71c-40 0 -70 -22 -70 -71c0 -42 24 -72 69 -72c41 0 71 24 71 72z" />
    <glyph glyph-name="zero.dnom" unicode="&#xe078;" horiz-adv-x="361" 
d="M348 222c0 -168 -78 -234 -168 -234s-168 66 -168 234c0 169 78 233 168 233s168 -64 168 -233zM255 222c0 114 -32 149 -75 149s-74 -34 -74 -149c0 -109 29 -151 74 -151s75 41 75 151z" />
    <glyph glyph-name="one.dnom" unicode="&#xe079;" horiz-adv-x="361" 
d="M258 0h-91v348l-101 -28h-2v86l192 49h2v-455z" />
    <glyph glyph-name="two.dnom" unicode="&#xe07a;" horiz-adv-x="361" 
d="M344 0h-317v65c146 118 179 173 179 234c0 49 -29 77 -71 77c-37 0 -71 -18 -97 -43h-2v86c32 21 69 36 117 36c82 0 148 -50 148 -145c0 -100 -60 -154 -137 -231v-1h180v-78z" />
    <glyph glyph-name="three.dnom" unicode="&#xe07b;" horiz-adv-x="361" 
d="M331 113c0 -80 -62 -125 -154 -125c-49 0 -93 11 -130 34v87h3c27 -26 74 -43 111 -43c44 0 76 20 76 61c0 34 -27 55 -75 55h-65v78h68c34 13 45 35 45 58c0 36 -26 58 -66 58c-36 0 -68 -17 -92 -42h-2v88c30 19 70 33 115 33c81 0 140 -45 140 -122
c0 -48 -22 -83 -66 -105v-1c53 -10 92 -50 92 -114z" />
    <glyph glyph-name="four.dnom" unicode="&#xe07c;" horiz-adv-x="361" 
d="M350 92h-57v-92h-92v92h-187v67l207 296h72v-291h57v-72zM204 164v153h-1l-103 -152v-1h104z" />
    <glyph glyph-name="five.dnom" unicode="&#xe07d;" horiz-adv-x="361" 
d="M329 136c0 -96 -69 -148 -161 -148c-46 0 -90 12 -123 34v87h2c27 -26 70 -43 110 -43c44 0 78 23 78 70c0 42 -34 70 -93 70c-31 0 -61 -7 -87 -20h-2l40 257h221v-79h-155l-16 -93c13 5 26 8 38 8c84 0 148 -51 148 -143z" />
    <glyph glyph-name="six.dnom" unicode="&#xe07e;" horiz-adv-x="361" 
d="M344 133c0 -95 -69 -145 -164 -145c-96 0 -163 53 -163 145c0 35 8 61 25 88l142 222h110v-1l-113 -173v-1c15 4 34 4 51 2c66 -13 112 -61 112 -137zM251 133c0 43 -26 72 -70 72c-41 0 -71 -24 -71 -72c0 -42 25 -71 69 -71c42 0 72 23 72 71z" />
    <glyph glyph-name="seven.dnom" unicode="&#xe07f;" horiz-adv-x="361" 
d="M148 1h-99v1l172 356h-200v86h332v-6z" />
    <glyph glyph-name="eight.dnom" unicode="&#xe080;" horiz-adv-x="361" 
d="M341 123c0 -86 -65 -135 -162 -135c-96 0 -160 49 -160 135c0 54 27 93 71 113v1c-35 19 -55 51 -55 97c0 77 58 121 144 121c88 0 146 -44 146 -121c0 -46 -21 -78 -55 -97v-1c44 -19 71 -59 71 -113zM247 129c0 38 -24 65 -68 65c-42 0 -66 -27 -66 -65
c0 -39 23 -67 66 -67s68 28 68 67zM240 324c0 33 -22 57 -61 57c-37 0 -59 -24 -59 -57c0 -34 21 -59 59 -59c39 0 61 25 61 59z" />
    <glyph glyph-name="nine.dnom" unicode="&#xe081;" horiz-adv-x="361" 
d="M177 0h-109v1l112 173v1c-15 -4 -33 -3 -51 -2c-66 13 -112 62 -112 137c0 96 70 145 164 145c96 0 163 -52 163 -145c0 -36 -10 -65 -31 -98zM251 310c0 42 -25 71 -70 71c-40 0 -70 -22 -70 -71c0 -42 24 -72 69 -72c41 0 71 24 71 72z" />
    <glyph glyph-name="fraction" unicode="&#x2044;" horiz-adv-x="179" 
d="M-38 0h-97l352 682h97z" />
    <glyph glyph-name="fraction.osf" unicode="&#xe53f;" horiz-adv-x="208" 
d="M-9 0h-98l280 540h97z" />
    <glyph glyph-name="onehalf" unicode="&#xbd;" horiz-adv-x="871" 
d="M854 0h-317v65c146 118 179 173 179 234c0 49 -29 77 -71 77c-37 0 -71 -18 -97 -43h-2v86c32 21 69 36 117 36c82 0 148 -50 148 -145c0 -100 -60 -154 -137 -231v-1h180v-78zM258 239h-91v348l-101 -28h-2v86l192 49h2v-455zM293 0h-97l352 682h97z" />
    <glyph glyph-name="onequarter" unicode="&#xbc;" horiz-adv-x="820" 
d="M809 92h-57v-92h-92v92h-187v67l207 296h72v-291h57v-72zM663 164v153h-1l-103 -152v-1h104zM258 239h-91v348l-101 -28h-2v86l192 49h2v-455zM293 0h-97l352 682h97z" />
    <glyph glyph-name="threequarters" unicode="&#xbe;" horiz-adv-x="841" 
d="M830 92h-57v-92h-92v92h-187v67l207 296h72v-291h57v-72zM684 164v153h-1l-103 -152v-1h104zM331 352c0 -80 -62 -125 -154 -125c-49 0 -93 11 -130 34v87h3c27 -26 74 -43 111 -43c44 0 76 20 76 61c0 34 -27 55 -75 55h-65v78h68c34 13 45 35 45 58c0 36 -26 58 -66 58
c-36 0 -68 -17 -92 -42h-2v88c30 19 70 33 115 33c81 0 140 -45 140 -122c0 -48 -22 -83 -66 -105v-1c53 -10 92 -50 92 -114zM313 0h-97l352 682h97z" />
    <glyph glyph-name="percent" unicode="%" horiz-adv-x="871" 
d="M348 461c0 -168 -78 -234 -168 -234s-168 66 -168 234c0 169 78 233 168 233s168 -64 168 -233zM255 461c0 114 -32 149 -75 149s-74 -34 -74 -149c0 -109 29 -151 74 -151s75 41 75 151zM858 222c0 -168 -78 -234 -168 -234s-168 66 -168 234c0 169 78 233 168 233
s168 -64 168 -233zM765 222c0 114 -32 149 -75 149s-74 -34 -74 -149c0 -109 29 -151 74 -151s75 41 75 151zM308 0h-97l352 682h97z" />
    <glyph glyph-name="perthousand" unicode="&#x2030;" horiz-adv-x="1232" 
d="M348 461c0 -168 -78 -234 -168 -234s-168 66 -168 234c0 169 78 233 168 233s168 -64 168 -233zM255 461c0 114 -32 149 -75 149s-74 -34 -74 -149c0 -109 29 -151 74 -151s75 41 75 151zM858 222c0 -168 -78 -234 -168 -234s-168 66 -168 234c0 169 78 233 168 233
s168 -64 168 -233zM765 222c0 114 -32 149 -75 149s-74 -34 -74 -149c0 -109 29 -151 74 -151s75 41 75 151zM1219 222c0 -168 -78 -234 -168 -234s-168 66 -168 234c0 169 78 233 168 233s168 -64 168 -233zM1126 222c0 114 -32 149 -75 149s-74 -34 -74 -149
c0 -109 29 -151 74 -151s75 41 75 151zM308 0h-97l352 682h97z" />
    <glyph glyph-name="percent.of" unicode="&#xe08f;" horiz-adv-x="901" 
d="M285 388c0 65 -33 101 -82 101c-50 0 -83 -36 -83 -101c0 -62 32 -101 83 -101s82 39 82 101zM379 388c0 -111 -75 -178 -176 -178s-176 67 -176 178c0 110 71 178 176 178c104 0 176 -68 176 -178zM780 159c0 65 -33 101 -82 101c-50 0 -83 -36 -83 -101
c0 -62 32 -101 83 -101s82 39 82 101zM874 159c0 -111 -75 -178 -176 -178s-176 67 -176 178c0 110 71 178 176 178c104 0 176 -68 176 -178zM355 0h-98l280 540h97z" />
    <glyph glyph-name="perthousand.of" unicode="&#xe090;" horiz-adv-x="1284" 
d="M285 388c0 65 -33 101 -82 101c-50 0 -83 -36 -83 -101c0 -62 32 -101 83 -101s82 39 82 101zM379 388c0 -111 -75 -178 -176 -178s-176 67 -176 178c0 110 71 178 176 178c104 0 176 -68 176 -178zM780 159c0 65 -33 101 -82 101c-50 0 -83 -36 -83 -101
c0 -62 32 -101 83 -101s82 39 82 101zM874 159c0 -111 -75 -178 -176 -178s-176 67 -176 178c0 110 71 178 176 178c104 0 176 -68 176 -178zM1164 159c0 65 -33 101 -82 101c-50 0 -83 -36 -83 -101c0 -62 32 -101 83 -101s82 39 82 101zM1258 159
c0 -111 -75 -178 -176 -178s-176 67 -176 178c0 110 71 178 176 178c104 0 176 -68 176 -178zM355 0h-98l280 540h97z" />
    <glyph glyph-name="plus" unicode="+" 
d="M317 54h-94v182h-175v91h175v183h93v-183h176v-91h-175v-182z" />
    <glyph glyph-name="minus" unicode="&#x2212;" 
d="M492 236h-444v91h444v-91z" />
    <glyph glyph-name="plusminus" unicode="&#xb1;" 
d="M492 70h-444v91h444v-91zM316 202h-92v127h-176v90h175v137h92v-137h177v-90h-176v-127z" />
    <glyph glyph-name="multiply" unicode="&#xd7;" 
d="M471 145l-65 -65l-137 136l-137 -136l-64 63l137 138l-137 136l65 65l136 -136l138 137l65 -64l-138 -138z" />
    <glyph glyph-name="divide" unicode="&#xf7;" 
d="M492 236h-444v91h444v-91zM327 410h-115v115h115v-115zM327 39h-115v114h115v-114z" />
    <glyph glyph-name="equal" unicode="=" 
d="M492 131h-444v90h444v-90zM492 344h-444v91h444v-91z" />
    <glyph glyph-name="notequal" unicode="&#x2260;" 
d="M492 131h-218l-39 -93h-86l39 93h-140v90h180l51 123h-231v91h271l40 99h86l-41 -99h88v-91h-127l-52 -123h179v-90z" />
    <glyph glyph-name="asciitilde" unicode="~" 
d="M484 261c-28 -31 -67 -52 -111 -52c-72 0 -138 61 -204 61c-49 0 -82 -25 -113 -60v99c29 30 68 51 112 51c72 0 138 -60 203 -60c50 0 83 24 113 59v-98z" />
    <glyph glyph-name="approxequal" unicode="&#x2248;" 
d="M484 371c-28 -31 -67 -52 -111 -52c-72 0 -138 60 -204 60c-49 0 -82 -24 -113 -59v97c29 31 68 52 112 52c72 0 138 -60 203 -60c50 0 83 25 113 60v-98zM484 157c-28 -31 -67 -52 -111 -52c-72 0 -138 60 -204 60c-49 0 -82 -24 -113 -59v98c29 30 68 52 112 52
c72 0 138 -61 203 -61c50 0 83 25 113 60v-98z" />
    <glyph glyph-name="asciicircum" unicode="^" 
d="M481 195h-107l-103 295h-2l-105 -295h-105l166 414h90z" />
    <glyph glyph-name="less" unicode="&#x3c;" 
d="M491 71l-442 165v90l442 167v-105l-310 -105v-2l310 -106v-104z" />
    <glyph glyph-name="greater" unicode="&#x3e;" 
d="M491 236l-442 -165v104l310 106v2l-310 105v105l442 -167v-90z" />
    <glyph glyph-name="lessequal" unicode="&#x2264;" 
d="M492 70h-444v91h444v-91zM492 203l-444 125v92l444 125v-92l-317 -78v-2l317 -77v-93z" />
    <glyph glyph-name="greaterequal" unicode="&#x2265;" 
d="M492 328l-444 -125v93l317 77v2l-317 78v92l444 -125v-92zM492 70h-444v91h444v-91z" />
    <glyph glyph-name="logicalnot" unicode="&#xac;" 
d="M492 173h-92v169h-352v91h444v-260z" />
    <glyph glyph-name="currency" unicode="&#xa4;" 
d="M429 284c0 -27 -8 -52 -21 -73l63 -63l-65 -64l-63 62c-21 -13 -46 -21 -73 -21s-53 9 -74 21l-64 -63l-64 64l64 65c-12 21 -20 45 -20 72s8 51 20 72l-64 65l65 65l64 -64c21 13 46 21 73 21s52 -8 73 -21l64 65l65 -65l-65 -64c14 -22 22 -47 22 -74zM347 284
c0 44 -33 82 -78 82c-44 0 -77 -38 -77 -82s33 -82 77 -82c45 0 78 38 78 82z" />
    <glyph glyph-name="infinity" unicode="&#x221e;" horiz-adv-x="649" 
d="M623 284c0 -110 -67 -170 -143 -170c-62 0 -112 36 -152 105h-2c-34 -61 -80 -105 -152 -105c-96 0 -148 70 -148 170c0 89 54 164 148 164c72 0 114 -48 149 -106h1c38 59 74 106 149 106c97 0 150 -71 150 -164zM534 283c0 42 -25 71 -66 71c-40 0 -62 -33 -83 -73
c19 -41 43 -73 82 -73c40 0 67 26 67 75zM180 208c43 0 66 30 86 74c-23 43 -46 73 -86 73c-39 0 -64 -33 -64 -72c0 -47 26 -75 64 -75z" />
    <glyph glyph-name="lozenge" unicode="&#x25ca;" 
d="M513 283l-243 -264l-243 264l243 265zM402 283l-132 145l-133 -145l133 -144z" />
    <glyph glyph-name="Delta" unicode="&#x2206;" horiz-adv-x="686" 
d="M673 0h-660l273 700h113zM487 121l-146 404h-1l-147 -404h294z" />
    <glyph glyph-name="Omega" unicode="&#x2126;" horiz-adv-x="763" 
d="M713 0h-293v103c98 75 147 148 147 261c0 138 -76 215 -185 215c-110 0 -185 -77 -185 -215c0 -113 48 -186 146 -261v-103h-293v121h118v1c-64 67 -106 148 -106 273c0 192 136 305 320 305c183 0 320 -113 320 -305c0 -125 -43 -206 -106 -273v-1h117v-121z" />
    <glyph glyph-name="partialdiff" unicode="&#x2202;" horiz-adv-x="572" 
d="M44 203c0 128 95 211 206 211c20 0 38 -3 55 -7l1 1l-177 272v2h150l220 -344c27 -42 40 -81 40 -135c0 -141 -101 -221 -248 -221c-139 0 -247 75 -247 221zM174 203c0 -81 51 -119 119 -119c76 0 117 48 117 119c0 81 -50 119 -119 119c-75 0 -117 -49 -117 -119z" />
    <glyph glyph-name="integral" unicode="&#x222b;" horiz-adv-x="300" 
d="M50 -193c-38 0 -77 11 -105 28v97h3c19 -19 46 -30 72 -30c40 0 69 27 69 89v593c0 105 56 173 162 173c36 0 73 -7 104 -25v-108h-3c-20 18 -46 29 -73 29c-48 0 -68 -33 -68 -78v-591c0 -118 -63 -177 -161 -177z" />
    <glyph glyph-name="radical" unicode="&#x221a;" horiz-adv-x="652" 
d="M418 0h-183l-131 455h-80v97h188l118 -438h5l160 568h133z" />
    <glyph glyph-name="summation" unicode="&#x2211;" horiz-adv-x="635" 
d="M587 -193h-549v8l266 434v1l-251 424v8h513v-129h-281v-1l180 -298v-8l-194 -309v-1h316v-129z" />
    <glyph glyph-name="product" unicode="&#x220f;" horiz-adv-x="760" 
d="M667 -193h-129v746h-316v-746h-129v875h574v-875z" />
    <glyph glyph-name="mu" unicode="&#xb5;" horiz-adv-x="618" 
d="M538 0h-116v40h-1c-30 -32 -75 -58 -122 -58c-48 0 -87 16 -109 52h-2c7 -67 12 -129 15 -183l-120 -44h-2v703h122v-304c0 -82 46 -115 106 -115c45 0 84 22 107 68v351h122v-510z" />
    <glyph glyph-name="degree" unicode="&#xb0;" horiz-adv-x="339" 
d="M311 566c0 -77 -56 -130 -141 -130c-84 0 -142 53 -142 130c0 76 57 129 142 129s141 -53 141 -129zM228 566c0 43 -23 69 -58 69s-58 -26 -58 -69c0 -44 23 -69 58 -69s58 25 58 69z" />
    <glyph glyph-name="litre" unicode="&#x2113;" horiz-adv-x="548" 
d="M490 19c-43 -24 -96 -37 -159 -37c-94 0 -168 53 -208 162c-30 -11 -57 -19 -79 -25v106c19 4 37 9 55 15c-5 35 -8 74 -8 116c0 213 78 344 224 344c112 0 178 -72 178 -185c0 -127 -73 -245 -248 -321c19 -63 54 -105 120 -105c43 0 91 18 121 46h4v-116zM225 386
c0 -30 0 -59 2 -88c90 53 145 121 145 222c0 70 -24 99 -58 99c-53 0 -89 -66 -89 -233z" />
    <glyph glyph-name="estimated" unicode="&#x212e;" horiz-adv-x="828" 
d="M615 172h101c-60 -123 -176 -190 -301 -190c-197 0 -336 143 -336 358c0 217 140 360 335 360c204 0 332 -153 333 -387h-526v-137c38 -71 108 -113 193 -113c92 0 160 47 201 109zM416 619c-90 0 -157 -42 -195 -111v-118h384v118c-39 69 -107 111 -189 111z" />
    <glyph glyph-name="ampersand" unicode="&#x26;" horiz-adv-x="731" 
d="M330 -18c-187 0 -289 73 -289 205c0 92 56 154 142 181v1c-62 31 -97 80 -97 153c0 101 77 178 221 178c65 0 121 -16 165 -42v-124h-4c-37 37 -88 57 -142 57c-65 0 -109 -34 -109 -89c0 -51 37 -88 96 -88h29v-108h-82c-58 -17 -89 -54 -89 -105
c0 -77 56 -111 160 -111c101 0 158 36 158 112c0 52 -31 88 -83 104v3l32 105h252v-108h-133v-1c35 -30 62 -72 62 -125c0 -127 -101 -198 -289 -198z" />
    <glyph glyph-name="c_t" unicode="&#xe08c;" horiz-adv-x="826" 
d="M683 0h-122v403h-52v5l52 102v44c0 57 -42 100 -128 100c-88 0 -130 -40 -130 -96c0 -13 2 -25 6 -36c48 -3 84 -16 119 -45v-131h-3c-22 35 -73 74 -134 74c-78 0 -129 -64 -129 -166c0 -98 53 -165 140 -165c50 0 98 31 126 74h3v-130c-41 -32 -94 -51 -158 -51
c-132 0 -239 97 -239 273c0 142 71 237 174 264c-7 16 -13 39 -13 62c0 105 83 176 242 176s246 -75 246 -198v-49h118v-107h-118v-403z" />
    <glyph glyph-name="s_t" unicode="&#xfb06;" horiz-adv-x="814" 
d="M671 0h-122v403h-51v5l51 102v44c0 57 -41 100 -128 100c-88 0 -129 -40 -129 -96c0 -13 1 -24 5 -35c37 -7 72 -20 99 -40v-122h-3c-36 42 -94 67 -143 67c-46 0 -67 -22 -67 -50c0 -89 231 -48 231 -238c0 -91 -62 -158 -189 -158c-68 0 -124 16 -165 45v121h3
c37 -43 101 -66 155 -66s77 23 77 52c0 90 -233 49 -233 239c0 77 44 136 132 151c-6 16 -11 37 -11 57c0 105 83 176 242 176s246 -75 246 -198v-49h118v-107h-118v-403z" />
    <glyph glyph-name="T_h" unicode="&#xe099;" horiz-adv-x="1115" 
d="M1039 0h-122v306c0 77 -44 113 -104 113c-45 0 -82 -23 -110 -57v-362h-122v561h-237v-561h-129v561h-185v121h673v-212h1c40 36 89 58 150 58c99 0 185 -58 185 -183v-345z" />
    <glyph glyph-name="A.alt" unicode="&#xe352;" horiz-adv-x="686" 
d="M668 0h-142l-58 132h-256l-57 -132h-137l319 700h12zM420 246l-79 182h-2l-79 -182h160z" />
    <glyph glyph-name="M.alt" unicode="&#xe3f2;" horiz-adv-x="881" 
d="M807 0h-130l-26 306h-1l-205 -324h-9l-207 325h-1l-24 -307h-130l56 700h11l299 -486h1l299 486h11z" />
    <glyph glyph-name="N.alt" unicode="&#xe3f3;" horiz-adv-x="765" 
d="M672 -18h-11l-438 431h-1v-413h-129v633l-36 43v6h112l373 -386h1v386h129v-700z" />
    <glyph glyph-name="V.alt" unicode="&#xe3f6;" horiz-adv-x="661" 
d="M336 -18h-11l-315 700h143l180 -408h1l179 408h138z" />
    <glyph glyph-name="W.alt" unicode="&#xe3f7;" horiz-adv-x="987" 
d="M675 -18h-11l-170 387h-1l-170 -387h-11l-294 700h141l165 -394h1l110 237l-64 157h136l161 -387h1l160 387h140z" />
    <glyph glyph-name="Agrave.alt" unicode="&#xe353;" horiz-adv-x="676" 
d="M668 0h-142l-58 132h-256l-57 -132h-137l311 682h-37l-96 118h127l74 -118h-40zM420 246l-79 182h-2l-79 -182h160z" />
    <glyph glyph-name="Aacute.alt" unicode="&#xe354;" horiz-adv-x="676" 
d="M384 682h-27l311 -682h-142l-58 132h-256l-57 -132h-137l311 682h-50l74 118h127zM420 246l-79 182h-2l-79 -182h160z" />
    <glyph glyph-name="Acircumflex.alt" unicode="&#xe355;" horiz-adv-x="676" 
d="M668 0h-142l-58 132h-256l-57 -132h-137l319 700h12zM420 246l-79 182h-2l-79 -182h160zM498 682h-105l-54 62h-1l-55 -62h-105l108 128h104z" />
    <glyph glyph-name="Atilde.alt" unicode="&#xe356;" horiz-adv-x="676" 
d="M409 696c-48 0 -98 42 -130 42c-25 0 -29 -18 -37 -42h-77c14 63 34 118 102 118c48 0 97 -42 130 -42c25 0 29 17 37 42h77c-14 -67 -34 -118 -102 -118zM668 0h-142l-58 132h-256l-57 -132h-137l319 700h12zM420 246l-79 182h-2l-79 -182h160z" />
    <glyph glyph-name="Adieresis.alt" unicode="&#xe357;" horiz-adv-x="676" 
d="M288 719h-120v95h120v-95zM508 719h-121v95h121v-95zM668 0h-142l-58 132h-256l-57 -132h-137l319 700h12zM420 246l-79 182h-2l-79 -182h160z" />
    <glyph glyph-name="Amacron.alt" unicode="&#xe358;" horiz-adv-x="676" 
d="M502 730h-328v84h328v-84zM668 0h-142l-58 132h-256l-57 -132h-137l319 700h12zM420 246l-79 182h-2l-79 -182h160z" />
    <glyph glyph-name="Abreve.alt" unicode="&#xe359;" horiz-adv-x="676" 
d="M668 0h-142l-58 132h-256l-57 -132h-137l317 696c-87 1 -145 44 -155 118h88c9 -27 31 -42 70 -42s61 15 69 42h89c-10 -72 -65 -114 -146 -118zM420 246l-79 182h-2l-79 -182h160z" />
    <glyph glyph-name="Aring.alt" unicode="&#xe35a;" horiz-adv-x="676" 
d="M461 775c0 -57 -45 -87 -104 -92l311 -683h-142l-58 132h-256l-57 -132h-137l311 682c-67 2 -115 32 -115 93c0 62 55 92 125 92c69 0 122 -30 122 -92zM420 246l-79 182h-2l-79 -182h160zM386 775c0 22 -20 35 -48 35c-29 0 -50 -13 -50 -35c0 -23 21 -36 50 -36
c28 0 48 13 48 36z" />
    <glyph glyph-name="Aringacute.alt" unicode="&#xe35b;" horiz-adv-x="676" 
d="M461 775c0 -57 -45 -87 -104 -92l311 -683h-142l-58 132h-256l-57 -132h-137l311 682c-67 2 -115 32 -115 93c0 47 32 77 79 87l65 103h127l-87 -107c38 -13 63 -41 63 -83zM420 246l-79 182h-2l-79 -182h160zM386 775c0 22 -20 35 -48 35c-29 0 -50 -13 -50 -35
c0 -23 21 -36 50 -36c28 0 48 13 48 36z" />
    <glyph glyph-name="Aogonek.alt" unicode="&#xe35c;" horiz-adv-x="676" 
d="M656 -171c-29 -14 -66 -22 -100 -22c-74 0 -106 36 -106 78s29 79 75 118l-57 129h-256l-57 -132h-137l319 700h12l319 -700h-63c-43 -40 -59 -62 -59 -86c0 -21 16 -32 41 -32c23 0 45 9 66 25h3v-78zM420 246l-79 182h-2l-79 -182h160z" />
    <glyph glyph-name="Nacute.alt" unicode="&#xe542;" horiz-adv-x="765" 
d="M672 -18h-11l-438 431h-1v-413h-129v633l-36 43v6h112l373 -386h1v386h129v-700zM417 682h-105l74 118h127z" />
    <glyph glyph-name="Ncaron.alt" unicode="&#xe543;" horiz-adv-x="765" 
d="M672 -18h-11l-438 431h-1v-413h-129v633l-36 43v6h112l373 -386h1v386h129v-700zM434 677h-104l-108 128h105l54 -62h1l55 62h105z" />
    <glyph glyph-name="Ntilde.alt" unicode="&#xe544;" horiz-adv-x="765" 
d="M672 -18h-11l-438 431h-1v-413h-129v633l-36 43v6h112l373 -386h1v386h129v-700zM448 696c-48 0 -98 42 -130 42c-25 0 -29 -18 -37 -42h-77c14 63 34 118 102 118c48 0 97 -42 130 -42c25 0 29 17 37 42h77c-14 -67 -34 -118 -102 -118z" />
    <glyph glyph-name="Ncommaaccent.alt" unicode="&#xe545;" horiz-adv-x="765" 
d="M672 -18h-11l-438 431h-1v-413h-129v633l-36 43v6h112l373 -386h1v386h129v-700zM357 -193h-105l97 156h123z" />
    <glyph glyph-name="Wgrave.alt" unicode="&#xe546;" horiz-adv-x="987" 
d="M675 -18h-11l-170 387h-1l-170 -387h-11l-294 700h141l165 -394h1l110 237l-64 157h55l-96 118h127l74 -118h-24l161 -387h1l160 387h140z" />
    <glyph glyph-name="Wacute.alt" unicode="&#xe547;" horiz-adv-x="987" 
d="M675 -18h-11l-170 387h-1l-170 -387h-11l-294 700h141l165 -394h1l110 237l-64 157h53l74 118h127l-96 -118h-22l161 -387h1l160 387h140z" />
    <glyph glyph-name="Wcircumflex.alt" unicode="&#xe548;" horiz-adv-x="987" 
d="M638 682h-105l-54 62h-1l-55 -62h84l161 -387h1l160 387h140l-294 -700h-11l-170 387h-1l-170 -387h-11l-294 700h141l165 -394h1l110 237l-64 157h-53l108 128h104z" />
    <glyph glyph-name="Wdieresis.alt" unicode="&#xe549;" horiz-adv-x="987" 
d="M438 719h-120v95h120v-95zM658 719h-121v95h121v-95zM675 -18h-11l-170 387h-1l-170 -387h-11l-294 700h141l165 -394h1l110 237l-64 157h136l161 -387h1l160 387h140z" />
    <glyph glyph-name="a.alt" unicode="&#xe0ae;" horiz-adv-x="610" 
d="M408 148v223c-25 27 -61 48 -107 48c-82 0 -136 -58 -136 -164c0 -105 53 -164 131 -164c49 0 85 24 112 57zM530 0h-122v40h-1c-41 -36 -87 -58 -150 -58c-130 0 -221 104 -221 273c0 172 98 273 234 273c68 0 112 -23 148 -50h1l108 40h3v-518z" />
    <glyph glyph-name="a.alt" unicode="&#xe54a;" horiz-adv-x="610" 
d="M408 148v223c-25 27 -61 48 -107 48c-82 0 -136 -58 -136 -164c0 -105 53 -164 131 -164c49 0 85 24 112 57zM530 0h-122v40h-1c-41 -36 -87 -58 -150 -58c-130 0 -221 104 -221 273c0 172 98 273 234 273c68 0 112 -23 148 -50h1l108 40h3v-518z" />
    <glyph glyph-name="j.alt" unicode="&#xe54b;" horiz-adv-x="283" 
d="M207 642h-130v108h130v-108zM203 -157l-119 -36h-3v703h122v-667z" />
    <glyph glyph-name="v.alt" unicode="&#xe54c;" horiz-adv-x="556" 
d="M284 -18h-12l-262 528h139l129 -270h1l129 270h137z" />
    <glyph glyph-name="w.alt" unicode="&#xe54d;" horiz-adv-x="846" 
d="M598 -18h-12l-162 302h-1l-164 -302h-12l-232 528h137l115 -266h1l150 284h11l149 -283h1l115 265h136z" />
    <glyph glyph-name="agrave.alt" unicode="&#xe1b8;" horiz-adv-x="610" 
d="M408 148v223c-25 27 -61 48 -107 48c-82 0 -136 -58 -136 -164c0 -105 53 -164 131 -164c49 0 85 24 112 57zM530 0h-122v40h-1c-41 -36 -87 -58 -150 -58c-130 0 -221 104 -221 273c0 172 98 273 234 273c68 0 112 -23 148 -50h1l108 40h3v-518zM378 562h-106l-136 188
h127z" />
    <glyph glyph-name="aacute.alt" unicode="&#xe1b9;" horiz-adv-x="610" 
d="M372 561h-106l119 189h123zM408 148v223c-25 27 -61 48 -107 48c-82 0 -136 -58 -136 -164c0 -105 53 -164 131 -164c49 0 85 24 112 57zM530 0h-122v40h-1c-41 -36 -87 -58 -150 -58c-130 0 -221 104 -221 273c0 172 98 273 234 273c68 0 112 -23 148 -50h1l108 40h3
v-518z" />
    <glyph glyph-name="acircumflex.alt" unicode="&#xe1ba;" horiz-adv-x="610" 
d="M500 562h-106l-82 111h-1l-83 -111h-106l141 193h96zM408 148v223c-25 27 -61 48 -107 48c-82 0 -136 -58 -136 -164c0 -105 53 -164 131 -164c49 0 85 24 112 57zM530 0h-122v40h-1c-41 -36 -87 -58 -150 -58c-130 0 -221 104 -221 273c0 172 98 273 234 273
c68 0 112 -23 148 -50h1l108 40h3v-518z" />
    <glyph glyph-name="atilde.alt" unicode="&#xe1bb;" horiz-adv-x="610" 
d="M408 148v223c-25 27 -61 48 -107 48c-82 0 -136 -58 -136 -164c0 -105 53 -164 131 -164c49 0 85 24 112 57zM530 0h-122v40h-1c-41 -36 -87 -58 -150 -58c-130 0 -221 104 -221 273c0 172 98 273 234 273c68 0 112 -23 148 -50h1l108 40h3v-518zM393 603
c-60 0 -116 58 -159 58c-25 0 -31 -23 -42 -58h-76c15 89 39 147 107 147c60 0 116 -58 159 -58c25 0 31 23 42 58h76c-15 -90 -39 -147 -107 -147z" />
    <glyph glyph-name="adieresis.alt" unicode="&#xe1bc;" horiz-adv-x="610" 
d="M252 642h-120v108h120v-108zM472 642h-121v108h121v-108zM408 148v223c-25 27 -61 48 -107 48c-82 0 -136 -58 -136 -164c0 -105 53 -164 131 -164c49 0 85 24 112 57zM530 0h-122v40h-1c-41 -36 -87 -58 -150 -58c-130 0 -221 104 -221 273c0 172 98 273 234 273
c68 0 112 -23 148 -50h1l108 40h3v-518z" />
    <glyph glyph-name="amacron.alt" unicode="&#xe1bd;" horiz-adv-x="610" 
d="M408 148v223c-25 27 -61 48 -107 48c-82 0 -136 -58 -136 -164c0 -105 53 -164 131 -164c49 0 85 24 112 57zM530 0h-122v40h-1c-41 -36 -87 -58 -150 -58c-130 0 -221 104 -221 273c0 172 98 273 234 273c68 0 112 -23 148 -50h1l108 40h3v-518zM491 646h-348v93h348
v-93z" />
    <glyph glyph-name="abreve.alt" unicode="&#xe1be;" horiz-adv-x="610" 
d="M408 148v223c-25 27 -61 48 -107 48c-82 0 -136 -58 -136 -164c0 -105 53 -164 131 -164c49 0 85 24 112 57zM530 0h-122v40h-1c-41 -36 -87 -58 -150 -58c-130 0 -221 104 -221 273c0 172 98 273 234 273c68 0 112 -23 148 -50h1l108 40h3v-518zM307 587
c-111 0 -167 69 -176 163h91c8 -49 38 -81 85 -81s77 32 85 81h91c-9 -94 -65 -163 -176 -163z" />
    <glyph glyph-name="aring.alt" unicode="&#xe1bf;" horiz-adv-x="610" 
d="M437 674c0 -66 -57 -98 -125 -98c-69 0 -124 32 -124 98c0 65 57 97 126 97c68 0 123 -32 123 -97zM357 674c0 23 -15 38 -44 38c-30 0 -46 -15 -46 -38c0 -26 16 -40 46 -40c29 0 44 14 44 40zM408 148v223c-25 27 -61 48 -107 48c-82 0 -136 -58 -136 -164
c0 -105 53 -164 131 -164c49 0 85 24 112 57zM530 0h-122v40h-1c-41 -36 -87 -58 -150 -58c-130 0 -221 104 -221 273c0 172 98 273 234 273c68 0 112 -23 148 -50h1l108 40h3v-518z" />
    <glyph glyph-name="aringacute.alt" unicode="&#xe1c0;" horiz-adv-x="610" 
d="M360 802h-106l119 189h123zM436 674c0 -66 -57 -98 -125 -98c-69 0 -124 32 -124 98c0 65 57 97 126 97c68 0 123 -32 123 -97zM356 674c0 23 -15 38 -44 38c-30 0 -46 -15 -46 -38c0 -26 16 -40 46 -40c29 0 44 14 44 40zM408 148v223c-25 27 -61 48 -107 48
c-82 0 -136 -58 -136 -164c0 -105 53 -164 131 -164c49 0 85 24 112 57zM530 0h-122v40h-1c-41 -36 -87 -58 -150 -58c-130 0 -221 104 -221 273c0 172 98 273 234 273c68 0 112 -23 148 -50h1l108 40h3v-518z" />
    <glyph glyph-name="aogonek.alt" unicode="&#xe1c1;" horiz-adv-x="610" 
d="M543 -171c-29 -14 -66 -22 -100 -22c-74 0 -106 36 -106 78c0 41 27 77 71 115v40h-1c-41 -36 -87 -58 -150 -58c-130 0 -221 104 -221 273c0 172 98 273 234 273c68 0 112 -23 148 -50h1l108 40h3v-518h-38c-43 -40 -59 -62 -59 -86c0 -21 16 -32 41 -32
c23 0 45 9 66 25h3v-78zM408 148v223c-25 27 -61 48 -107 48c-82 0 -136 -58 -136 -164c0 -105 53 -164 131 -164c49 0 85 24 112 57z" />
    <glyph glyph-name="ij.alt" unicode="&#xe54e;" horiz-adv-x="566" 
d="M486 -157l-119 -36h-3v703h122v-667zM203 0h-122v510h122v-510zM490 642h-130v108h130v-108zM207 642h-130v108h130v-108z" />
    <glyph glyph-name="jcircumflex.alt" unicode="&#xe54f;" horiz-adv-x="283" 
d="M203 -157l-119 -36h-3v703h122v-667zM331 562h-106l-82 111h-1l-82 -111h-106l141 193h95z" />
    <glyph glyph-name="wgrave.alt" unicode="&#xe550;" horiz-adv-x="846" 
d="M598 -18h-12l-162 302h-1l-164 -302h-12l-232 528h137l115 -266h1l150 284h11l149 -283h1l115 265h136zM477 562h-106l-136 188h127z" />
    </font>
</defs>
</svg>
