<?xml version="1.0" standalone="no"?>
<!DOCTYPE svg PUBLIC "-//W3C//DTD SVG 1.1//EN" "http://www.w3.org/Graphics/SVG/1.1/DTD/svg11.dtd" >
<svg xmlns="http://www.w3.org/2000/svg" xmlns:xlink="http://www.w3.org/1999/xlink" version="1.1">
<metadata>
Created by FontForge 20141024 at Thu Sep 17 07:44:49 2015
 By Jimmy Warting
Singulier, designed by Jean Francois Porchez in 2010, is an exclusive sanserif typeface available in 6 weights, with Latin, Greek and Cyrillic scripts support designed solely and exclusively for YSL Beaute. More details at typofonderie.com. OpenType features include: pointed glyphs such A via Stylistic set 1/Titling alternates; rounded a via Stylistic set 3/Stylistic set Alternates; Dingbats via Stylistic set 4/Ornaments.
</metadata>
<defs>
<font id="Singulier-Light" horiz-adv-x="540" >
  <font-face 
    font-family="Singulier Light"
    font-weight="300"
    font-stretch="normal"
    units-per-em="1000"
    panose-1="2 11 3 3 5 6 3 6 2 4"
    ascent="800"
    descent="-200"
    x-height="503"
    cap-height="682"
    bbox="-145 -254 1142 998"
    underline-thickness="48"
    underline-position="-121"
    stemh="53"
    stemv="62"
    unicode-range="U+000D-FB06"
  />
<missing-glyph horiz-adv-x="250" 
 />
    <glyph glyph-name="f_b" unicode="fb" horiz-adv-x="855" 
d="M813 252c0 -173 -103 -270 -244 -270c-63 0 -114 20 -151 47h-1l-51 -32h-3v665c-26 25 -61 42 -104 42c-62 0 -105 -35 -105 -101v-100h126v-53h-126v-450h-58v450h-38v4l38 49v103c0 97 61 151 154 151c48 0 84 -11 117 -36h1l50 32h3v-292h1c41 37 94 60 159 60
c131 0 232 -96 232 -269zM751 252c0 134 -74 216 -184 216c-60 0 -109 -26 -146 -67v-314c34 -31 83 -51 138 -51c116 0 192 78 192 216z" />
    <glyph glyph-name="f_f_b" unicode="ffb" horiz-adv-x="1122" 
d="M1080 252c0 -173 -103 -270 -244 -270c-63 0 -114 20 -151 47h-1l-51 -32h-3v665c-26 25 -61 42 -104 42c-62 0 -105 -35 -105 -101v-100h126v-53h-126v-450h-58v450h-209v-450h-58v450h-38v4l38 49v103c0 97 62 151 163 151c51 0 99 -11 143 -44c26 28 66 44 115 44
c48 0 84 -11 117 -36h1l50 32h3v-292h1c41 37 94 60 159 60c131 0 232 -96 232 -269zM1018 252c0 134 -74 216 -184 216c-61 0 -109 -26 -146 -67v-314c34 -31 83 -51 138 -51c116 0 192 78 192 216zM363 503v103c0 24 4 45 12 61c-32 29 -74 39 -111 39
c-67 0 -110 -33 -110 -103v-100h209z" />
    <glyph glyph-name="f_f" unicode="ff" horiz-adv-x="521" 
d="M421 0h-58v450h-209v-450h-58v450h-38v4l38 49v103c0 97 62 151 163 151c50 0 96 -10 138 -43c21 27 52 43 96 43c29 0 58 -7 82 -25v-60h-3c-18 19 -44 32 -71 32c-58 0 -80 -44 -80 -101v-100h126v-53h-126v-450zM363 503v103c0 23 4 45 10 63c-31 27 -73 37 -109 37
c-67 0 -110 -33 -110 -103v-100h209z" />
    <glyph glyph-name="f_h" unicode="fh" horiz-adv-x="856" 
d="M760 0h-58v321c0 101 -61 147 -139 147c-56 0 -104 -24 -142 -67v-401h-58v662c-26 25 -61 42 -104 42c-62 0 -105 -35 -105 -101v-100h126v-53h-126v-450h-58v450h-38v4l38 49v103c0 97 61 151 154 151c48 0 84 -11 117 -36h1l50 32h3v-292h1c41 37 95 60 154 60
c101 0 184 -58 184 -183v-338z" />
    <glyph glyph-name="f_f_h" unicode="ffh" horiz-adv-x="1123" 
d="M1027 0h-58v321c0 101 -61 147 -139 147c-56 0 -104 -24 -142 -67v-401h-58v662c-26 25 -61 42 -104 42c-62 0 -105 -35 -105 -101v-100h126v-53h-126v-450h-58v450h-209v-450h-58v450h-38v4l38 49v103c0 97 62 151 163 151c51 0 99 -11 143 -44c26 28 66 44 115 44
c48 0 84 -11 117 -36h1l50 32h3v-292h1c41 37 95 60 154 60c101 0 184 -58 184 -183v-338zM363 503v103c0 24 4 44 12 61c-32 29 -74 39 -111 39c-67 0 -110 -33 -110 -103v-100h209z" />
    <glyph glyph-name="fi" unicode="fi" horiz-adv-x="511" 
d="M421 0h-58v450h-209v-450h-58v450h-38v4l38 49v103c0 100 67 151 175 151c54 0 107 -11 154 -44v-64h-4c-36 40 -93 55 -143 55c-79 0 -124 -34 -124 -103v-98h267v-503z" />
    <glyph glyph-name="f_f_i" unicode="ffi" horiz-adv-x="778" 
d="M688 0h-58v450h-209v-450h-58v450h-209v-450h-58v450h-38v4l38 49v103c0 97 62 151 163 151c53 0 101 -11 145 -45c30 29 76 45 134 45c54 0 107 -11 154 -44v-64h-4c-36 40 -93 55 -143 55c-79 0 -124 -34 -124 -103v-98h267v-503zM363 503v103c0 24 4 44 12 61
c-32 29 -74 39 -111 39c-67 0 -110 -33 -110 -103v-100h209z" />
    <glyph glyph-name="f_j" unicode="fj" horiz-adv-x="511" 
d="M291 -193c-34 0 -67 12 -88 29v60h3c19 -22 47 -36 76 -36c44 0 81 30 81 107v483h-209v-450h-58v450h-38v4l38 49v103c0 100 67 151 175 151c54 0 107 -11 154 -44v-64h-4c-36 40 -93 55 -143 55c-79 0 -124 -34 -124 -103v-98h267v-538c0 -100 -51 -158 -130 -158z" />
    <glyph glyph-name="f_f_j" unicode="ffj" horiz-adv-x="778" 
d="M558 -193c-34 0 -67 12 -88 29v60h3c19 -22 48 -36 76 -36c46 0 81 32 81 108v482h-209v-450h-58v450h-209v-450h-58v450h-38v4l38 49v103c0 97 62 151 163 151c53 0 101 -11 145 -45c30 29 76 45 134 45c54 0 107 -11 154 -44v-64h-4c-36 40 -93 55 -143 55
c-79 0 -124 -34 -124 -103v-98h267v-537c0 -102 -51 -159 -130 -159zM363 503v103c0 24 4 44 12 61c-32 29 -74 39 -111 39c-67 0 -110 -33 -110 -103v-100h209z" />
    <glyph glyph-name="f_k" unicode="fk" horiz-adv-x="747" 
d="M421 0h-58v662c-26 25 -61 42 -104 42c-62 0 -105 -35 -105 -101v-100h126v-53h-126v-450h-58v450h-38v4l38 49v103c0 97 61 151 154 151c48 0 84 -11 117 -36h1l50 32h3v-753zM729 0h-74l-220 253v4l212 246h69l-212 -245v-2z" />
    <glyph glyph-name="f_f_k" unicode="ffk" horiz-adv-x="1014" 
d="M688 0h-58v662c-26 25 -61 42 -104 42c-62 0 -105 -35 -105 -101v-100h126v-53h-126v-450h-58v450h-209v-450h-58v450h-38v4l38 49v103c0 97 62 151 163 151c51 0 99 -11 143 -44c26 28 66 44 115 44c48 0 84 -11 117 -36h1l50 32h3v-753zM996 0h-74l-220 253v4l212 246
h69l-213 -245v-2zM363 503v103c0 24 4 44 12 61c-32 29 -74 39 -111 39c-67 0 -110 -33 -110 -103v-100h209z" />
    <glyph glyph-name="fl" unicode="fl" horiz-adv-x="511" 
d="M421 0h-58v662c-26 25 -61 42 -104 42c-62 0 -105 -35 -105 -101v-100h126v-53h-126v-450h-58v450h-38v4l38 49v103c0 97 61 151 154 151c48 0 84 -11 117 -36h1l50 32h3v-753z" />
    <glyph glyph-name="f_f_l" unicode="ffl" horiz-adv-x="778" 
d="M688 0h-58v662c-26 25 -61 42 -104 42c-62 0 -105 -35 -105 -101v-100h126v-53h-126v-450h-58v450h-209v-450h-58v450h-38v4l38 49v103c0 97 62 151 163 151c51 0 99 -11 143 -44c26 28 66 44 115 44c48 0 84 -11 117 -36h1l50 32h3v-753zM363 503v103c0 24 4 44 12 61
c-32 29 -74 39 -111 39c-67 0 -110 -33 -110 -103v-100h209z" />
    <glyph glyph-name="f_t" unicode="ft" horiz-adv-x="575" 
d="M421 0h-58v450h-209v-450h-58v450h-38v4l38 49v103c0 86 40 151 128 151c30 0 57 -7 81 -25v-59h-3c-18 18 -43 31 -69 31c-57 0 -79 -44 -79 -102v-99h209v152h58v-152h126v-53h-126v-450z" />
    <glyph glyph-name="f_f_t" unicode="fft" horiz-adv-x="842" 
d="M688 0h-58v450h-209v-450h-58v450h-209v-450h-58v450h-38v4l38 49v103c0 97 62 151 163 151c49 0 96 -11 138 -42c21 26 52 42 94 42c30 0 57 -7 81 -25v-59h-3c-18 18 -43 31 -69 31c-57 0 -79 -44 -79 -102v-99h209v152h58v-152h126v-53h-126v-450zM363 503v103
c0 23 4 44 10 63c-32 27 -73 37 -109 37c-67 0 -110 -33 -110 -103v-100h209z" />
    <glyph glyph-name=".notdef" horiz-adv-x="250" 
 />
    <glyph glyph-name=".null" horiz-adv-x="0" 
 />
    <glyph glyph-name=".null" horiz-adv-x="0" 
 />
    <glyph glyph-name="CR" unicode="&#xd;" horiz-adv-x="0" 
 />
    <glyph glyph-name="space" unicode=" " horiz-adv-x="270" 
 />
    <glyph glyph-name="space" unicode="&#xa0;" horiz-adv-x="270" 
 />
    <glyph glyph-name="nbspace" unicode="&#xe030;" 
 />
    <glyph glyph-name="A" unicode="A" horiz-adv-x="653" 
d="M635 0h-69l-97 242h-288l-97 -242h-66l284 700h48zM448 298l-122 306h-1l-122 -306h245z" />
    <glyph glyph-name="B" unicode="B" horiz-adv-x="599" 
d="M527 184c0 -127 -90 -184 -245 -184h-178v682h169c128 0 215 -63 215 -174c0 -75 -38 -128 -102 -159v-1c75 -16 141 -71 141 -164zM463 191c0 81 -67 125 -167 125h-130v-260h116c116 0 181 42 181 135zM424 501c0 76 -60 125 -156 125h-102v-256h149
c80 26 109 68 109 131z" />
    <glyph glyph-name="C" unicode="C" horiz-adv-x="615" 
d="M558 139v-79c-53 -49 -125 -78 -206 -78c-167 0 -301 125 -301 359c0 231 131 359 297 359c82 0 153 -29 206 -78v-79h-4c-46 63 -118 98 -193 98c-145 0 -240 -115 -240 -300s97 -300 242 -300c82 0 152 40 195 98h4z" />
    <glyph glyph-name="D" unicode="D" horiz-adv-x="704" 
d="M653 341c0 -230 -160 -341 -348 -341h-201v682h201c187 0 348 -111 348 -341zM589 341c0 187 -124 282 -283 282h-140v-564h140c159 0 283 94 283 282z" />
    <glyph glyph-name="E" unicode="E" horiz-adv-x="538" 
d="M464 0h-360v682h334v-59h-272v-242h262v-59h-262v-263h298v-59z" />
    <glyph glyph-name="F" unicode="F" horiz-adv-x="486" 
d="M166 0h-62v682h334v-59h-272v-265h262v-59h-262v-299z" />
    <glyph glyph-name="G" unicode="G" horiz-adv-x="696" 
d="M356 -18c-165 0 -305 122 -305 359c0 234 148 359 318 359c94 0 167 -34 222 -83v-75h-3c-59 66 -127 99 -214 99c-143 0 -257 -105 -257 -301c0 -200 106 -301 239 -301c121 0 222 69 224 253h-248v3l37 56h275c1 -5 1 -36 1 -40c0 -242 -140 -329 -289 -329z" />
    <glyph glyph-name="H" unicode="H" horiz-adv-x="747" 
d="M643 0h-62v323h-415v-323h-62v682h62v-300h415v300h62v-682z" />
    <glyph glyph-name="I" unicode="I" horiz-adv-x="270" 
d="M166 0h-62v682h62v-682z" />
    <glyph glyph-name="J" unicode="J" horiz-adv-x="406" 
d="M158 -18c-37 0 -75 12 -100 35v69h4c24 -30 56 -45 88 -45c65 0 100 47 100 132v450h-195v3l37 56h219v-517c0 -109 -48 -183 -153 -183z" />
    <glyph glyph-name="K" unicode="K" horiz-adv-x="585" 
d="M166 0h-62v682h62v-682zM563 0h-78l-300 343v3l290 336h76l-291 -336v-2z" />
    <glyph glyph-name="L" unicode="L" horiz-adv-x="476" 
d="M444 0h-340v682h62v-623h278v-59z" />
    <glyph glyph-name="M" unicode="M" horiz-adv-x="864" 
d="M773 0h-63l-45 533h-1l-230 -551h-5l-230 552h-1l-44 -534h-63l60 697h45l236 -579h1l235 579h45z" />
    <glyph glyph-name="N" unicode="N" horiz-adv-x="749" 
d="M645 -15h-46l-432 569h-1v-554h-62v646l-24 31v5h69l433 -573h1v573h62v-697z" />
    <glyph glyph-name="O" unicode="O" horiz-adv-x="734" 
d="M683 341c0 -236 -150 -359 -316 -359c-164 0 -316 122 -316 359c0 236 150 359 317 359c164 0 315 -122 315 -359zM618 341c0 197 -114 300 -250 300s-251 -102 -251 -300c0 -197 114 -301 250 -301c135 0 251 103 251 301z" />
    <glyph glyph-name="P" unicode="P" horiz-adv-x="569" 
d="M513 475c0 -123 -78 -224 -347 -243v-232h-62v682h171c130 0 238 -66 238 -207zM449 472c0 97 -74 152 -176 152h-107v-333c218 11 283 91 283 181z" />
    <glyph glyph-name="Q" unicode="Q" horiz-adv-x="734" 
d="M683 341c0 -214 -123 -333 -267 -354l168 -180h-76l-160 176c-155 9 -297 129 -297 358c0 236 150 359 317 359c164 0 315 -122 315 -359zM618 341c0 197 -114 300 -250 300s-251 -102 -251 -300c0 -197 114 -300 250 -300c135 0 251 102 251 300z" />
    <glyph glyph-name="R" unicode="R" horiz-adv-x="608" 
d="M580 0h-81l-314 307v4c203 29 252 85 252 173c0 84 -65 140 -174 140h-97v-624h-62v682h165c137 0 233 -68 233 -192c0 -106 -55 -173 -211 -210v-2z" />
    <glyph glyph-name="S" unicode="S" horiz-adv-x="534" 
d="M470 165c0 -102 -75 -183 -207 -183c-72 0 -142 23 -188 70v75h3c46 -59 112 -88 183 -88c91 0 147 48 147 122c0 189 -330 121 -330 360c0 93 60 179 195 179c65 0 128 -23 173 -70v-74h-3c-42 57 -106 87 -168 87c-88 0 -134 -50 -134 -117c0 -187 329 -117 329 -361z
" />
    <glyph glyph-name="T" unicode="T" horiz-adv-x="516" 
d="M289 -1h-61v623h-198v59h457v-59h-198v-623z" />
    <glyph glyph-name="U" unicode="U" horiz-adv-x="644" 
d="M322 -18c-136 0 -228 75 -228 217v483h62v-472c0 -115 64 -169 165 -169s166 54 166 169v472h62v-483c0 -142 -92 -217 -227 -217z" />
    <glyph glyph-name="V" unicode="V" horiz-adv-x="624" 
d="M335 -18h-45l-277 700h69l231 -598h1l230 598h67z" />
    <glyph glyph-name="W" unicode="W" horiz-adv-x="946" 
d="M673 -18h-46l-154 437h-1l-153 -437h-45l-248 700h68l206 -583h1l143 408l-61 175h66l200 -583h1l205 583h65z" />
    <glyph glyph-name="X" unicode="X" horiz-adv-x="644" 
d="M607 0h-77l-214 300h-1l-194 -300h-76l228 348l-236 334h75l206 -292h1l196 292h75l-228 -338z" />
    <glyph glyph-name="Y" unicode="Y" horiz-adv-x="567" 
d="M315 0h-62v290l-244 392h75l200 -329h1l199 329h73l-242 -393v-289z" />
    <glyph glyph-name="Z" unicode="Z" horiz-adv-x="623" 
d="M565 0h-511v5l381 617v1h-356v59h464v-5l-382 -617v-1h404v-59z" />
    <glyph glyph-name="Agrave" unicode="&#xc0;" horiz-adv-x="653" 
d="M635 0h-69l-97 242h-288l-97 -242h-66l279 689l-86 111h66l67 -100h6zM448 298l-122 306h-1l-122 -306h245z" />
    <glyph glyph-name="Aacute" unicode="&#xc1;" horiz-adv-x="653" 
d="M635 0h-69l-97 242h-288l-97 -242h-66l284 700h7l67 100h66l-87 -112zM448 298l-122 306h-1l-122 -306h245z" />
    <glyph glyph-name="Acircumflex" unicode="&#xc2;" horiz-adv-x="653" 
d="M635 0h-69l-97 242h-288l-97 -242h-66l284 700h48zM448 298l-122 306h-1l-122 -306h245zM440 682h-53l-60 79h-1l-61 -79h-53l94 128h40z" />
    <glyph glyph-name="Atilde" unicode="&#xc3;" horiz-adv-x="653" 
d="M635 0h-69l-97 242h-288l-97 -242h-66l284 700h48zM448 298l-122 306h-1l-122 -306h245zM388 704c-42 0 -89 58 -120 58c-29 0 -36 -23 -49 -58h-43c21 61 39 101 88 101c42 0 89 -58 120 -58c29 0 36 23 49 58h43c-21 -63 -39 -101 -88 -101z" />
    <glyph glyph-name="Adieresis" unicode="&#xc4;" horiz-adv-x="653" 
d="M635 0h-69l-97 242h-288l-97 -242h-66l284 700h48zM448 298l-122 306h-1l-122 -306h245zM258 742h-63v63h63v-63zM456 742h-63v63h63v-63z" />
    <glyph glyph-name="Amacron" unicode="&#x100;" horiz-adv-x="653" 
d="M635 0h-69l-97 242h-288l-97 -242h-66l284 700h48zM448 298l-122 306h-1l-122 -306h245zM467 760h-282v45h282v-45z" />
    <glyph glyph-name="Abreve" unicode="&#x102;" horiz-adv-x="653" 
d="M635 0h-69l-97 242h-288l-97 -242h-66l284 700h48zM448 298l-122 306h-1l-122 -306h245zM326 704c-77 0 -125 39 -135 101h44c11 -39 41 -58 91 -58s80 19 90 58h45c-10 -62 -58 -101 -135 -101z" />
    <glyph glyph-name="Aring" unicode="&#xc5;" horiz-adv-x="653" 
d="M426 769c0 -47 -32 -75 -70 -84l279 -685h-69l-97 242h-288l-97 -242h-66l278 685c-40 9 -71 36 -71 84c0 57 49 85 101 85c51 0 100 -28 100 -85zM448 298l-122 306h-1l-122 -306h245zM385 769c0 34 -27 52 -59 52c-33 0 -61 -18 -61 -52c0 -36 28 -54 61 -54
c32 0 59 18 59 54z" />
    <glyph glyph-name="Aringacute" unicode="&#x1fa;" horiz-adv-x="653" 
d="M426 769c0 -47 -32 -75 -70 -84l279 -685h-69l-97 242h-288l-97 -242h-66l278 685c-40 9 -71 36 -71 84c0 49 36 77 80 83l70 104h66l-83 -106c37 -10 68 -36 68 -81zM448 298l-122 306h-1l-122 -306h245zM385 769c0 34 -27 52 -59 52c-33 0 -61 -18 -61 -52
c0 -36 28 -54 61 -54c32 0 59 18 59 54z" />
    <glyph glyph-name="Aogonek" unicode="&#x104;" horiz-adv-x="653" 
d="M659 -167c-22 -16 -53 -26 -84 -26c-57 0 -87 33 -87 73c0 43 31 79 78 120l-97 242h-288l-97 -242h-66l284 700h48l285 -700h-26c-49 -47 -72 -74 -72 -107c0 -29 20 -45 49 -45c26 0 49 9 70 30h3v-45zM448 298l-122 306h-1l-122 -306h245z" />
    <glyph glyph-name="AE" unicode="&#xc6;" horiz-adv-x="906" 
d="M833 0h-360v296h-207l-184 -296h-72l422 682h375v-59h-272v-261h262v-59h-262v-244h298v-59zM471 631l-172 -276h174v276h-2z" />
    <glyph glyph-name="AEacute" unicode="&#x1fc;" horiz-adv-x="906" 
d="M528 682h-53l79 118h66zM833 0h-360v296h-207l-184 -296h-72l422 682h375v-59h-272v-261h262v-59h-262v-244h298v-59zM471 631l-172 -276h174v276h-2z" />
    <glyph glyph-name="Cacute" unicode="&#x106;" horiz-adv-x="615" 
d="M558 139v-79c-53 -49 -125 -78 -206 -78c-167 0 -301 125 -301 359c0 222 121 349 278 358l68 101h66l-80 -102c67 -7 126 -34 171 -76v-79h-4c-46 63 -118 98 -193 98c-145 0 -240 -115 -240 -300s97 -300 242 -300c82 0 152 40 195 98h4z" />
    <glyph glyph-name="Ccircumflex" unicode="&#x108;" horiz-adv-x="615" 
d="M464 682h-9c37 -14 71 -34 99 -60v-79h-4c-46 63 -118 98 -193 98c-145 0 -240 -115 -240 -300s97 -300 242 -300c82 0 152 40 195 98h4v-79c-53 -49 -125 -78 -206 -78c-167 0 -301 125 -301 359c0 180 80 298 194 341h-9l94 128h40zM348 700c18 0 35 -2 52 -5l-49 66
h-1l-50 -65c15 2 31 4 48 4z" />
    <glyph glyph-name="Ccaron" unicode="&#x10c;" horiz-adv-x="615" 
d="M558 139v-79c-53 -49 -125 -78 -206 -78c-167 0 -301 125 -301 359c0 215 113 340 263 357l-76 104h53l60 -80h1l61 80h53l-77 -105c65 -8 121 -35 165 -75v-79h-4c-46 63 -118 98 -193 98c-145 0 -240 -115 -240 -300s97 -300 242 -300c82 0 152 40 195 98h4z" />
    <glyph glyph-name="Cdotaccent" unicode="&#x10a;" horiz-adv-x="615" 
d="M380 742h-66v63h66v-63zM558 139v-79c-53 -49 -125 -78 -206 -78c-167 0 -301 125 -301 359c0 231 131 359 297 359c82 0 153 -29 206 -78v-79h-4c-46 63 -118 98 -193 98c-145 0 -240 -115 -240 -300s97 -300 242 -300c82 0 152 40 195 98h4z" />
    <glyph glyph-name="Ccedilla" unicode="&#xc7;" horiz-adv-x="615" 
d="M439 -122c0 -47 -45 -71 -101 -71c-28 0 -56 4 -83 17v39h3c17 -11 41 -21 72 -21c39 0 58 13 58 37c0 34 -37 41 -90 44l16 61c-149 17 -263 141 -263 357c0 231 131 359 297 359c82 0 153 -29 206 -78v-79h-4c-46 63 -118 98 -193 98c-145 0 -240 -115 -240 -300
s97 -300 242 -300c82 0 152 40 195 98h4v-79c-52 -48 -122 -77 -201 -78l-9 -32c49 -6 91 -21 91 -72z" />
    <glyph glyph-name="Ccedilla.fr" unicode="&#xe16a;" horiz-adv-x="615" 
d="M305 -124h-58l75 108c-153 14 -271 137 -271 357c0 231 131 359 297 359c82 0 153 -29 206 -78v-79h-4c-46 63 -118 98 -193 98c-145 0 -240 -115 -240 -300s97 -300 242 -300c82 0 152 40 195 98h4v-79c-47 -43 -108 -70 -178 -76z" />
    <glyph glyph-name="Dcaron" unicode="&#x10e;" horiz-adv-x="704" 
d="M653 341c0 -230 -160 -341 -348 -341h-201v682h172l-88 120h53l60 -80h1l61 80h53l-89 -121c178 -8 326 -119 326 -340zM589 341c0 187 -124 282 -283 282h-140v-564h140c159 0 283 94 283 282z" />
    <glyph glyph-name="Dcroat" unicode="&#x110;" horiz-adv-x="704" 
d="M653 341c0 -230 -160 -341 -348 -341h-201v326h-104v51h104v305h201c187 0 348 -111 348 -341zM589 341c0 187 -124 282 -283 282h-140v-246h205v-51h-205v-267h140c159 0 283 94 283 282z" />
    <glyph glyph-name="Egrave" unicode="&#xc8;" horiz-adv-x="538" 
d="M464 0h-360v682h151l-92 118h66l79 -118h130v-59h-272v-242h262v-59h-262v-263h298v-59z" />
    <glyph glyph-name="Eacute" unicode="&#xc9;" horiz-adv-x="538" 
d="M464 0h-360v682h137l79 118h66l-92 -118h144v-59h-272v-242h262v-59h-262v-263h298v-59z" />
    <glyph glyph-name="Ecircumflex" unicode="&#xca;" horiz-adv-x="538" 
d="M383 682h55v-59h-272v-242h262v-59h-262v-263h298v-59h-360v682h51l94 128h40zM269 761l-61 -79h122l-60 79h-1z" />
    <glyph glyph-name="Ecaron" unicode="&#x11a;" horiz-adv-x="538" 
d="M464 0h-360v682h139l-88 120h53l60 -80h1l61 80h53l-88 -120h143v-59h-272v-242h262v-59h-262v-263h298v-59z" />
    <glyph glyph-name="Edieresis" unicode="&#xcb;" horiz-adv-x="538" 
d="M201 742h-63v63h63v-63zM399 742h-63v63h63v-63zM464 0h-360v682h334v-59h-272v-242h262v-59h-262v-263h298v-59z" />
    <glyph glyph-name="Emacron" unicode="&#x112;" horiz-adv-x="538" 
d="M411 760h-282v45h282v-45zM464 0h-360v682h334v-59h-272v-242h262v-59h-262v-263h298v-59z" />
    <glyph glyph-name="Ebreve" unicode="&#x114;" horiz-adv-x="538" 
d="M269 704c-77 0 -125 39 -135 101h44c11 -39 41 -58 91 -58s80 19 90 58h45c-10 -62 -58 -101 -135 -101zM464 0h-360v682h334v-59h-272v-242h262v-59h-262v-263h298v-59z" />
    <glyph glyph-name="Edotaccent" unicode="&#x116;" horiz-adv-x="538" 
d="M302 742h-66v63h66v-63zM464 0h-360v682h334v-59h-272v-242h262v-59h-262v-263h298v-59z" />
    <glyph glyph-name="Eogonek" unicode="&#x118;" horiz-adv-x="538" 
d="M464 0h-50c-49 -47 -72 -74 -72 -107c0 -29 20 -45 49 -45c26 0 49 9 70 30h3v-45c-22 -16 -53 -26 -84 -26c-57 0 -87 33 -87 73c0 43 31 79 78 120h-267v682h334v-59h-272v-242h262v-59h-262v-263h298v-59z" />
    <glyph glyph-name="fi.cap" unicode="&#xe09f;" horiz-adv-x="758" 
d="M652 0h-62v682h62v-682zM166 0h-62v682h334v-59h-272v-265h262v-59h-262v-299z" />
    <glyph glyph-name="fl.cap" unicode="&#xe0a0;" horiz-adv-x="962" 
d="M930 0h-340v682h62v-623h278v-59zM166 0h-62v682h334v-59h-272v-265h262v-59h-262v-299z" />
    <glyph glyph-name="Gcircumflex" unicode="&#x11c;" horiz-adv-x="696" 
d="M356 -18c-165 0 -305 122 -305 359c0 183 90 299 211 341h-10l94 128h40l94 -128c43 -14 80 -38 111 -65v-75h-3c-59 66 -127 99 -214 99c-143 0 -257 -105 -257 -301c0 -200 106 -301 239 -301c121 0 222 69 224 253h-248v3l37 56h275c1 -5 1 -36 1 -40
c0 -242 -140 -329 -289 -329zM369 700c16 0 31 -1 46 -3l-48 64h-1l-51 -65c18 3 36 4 54 4z" />
    <glyph glyph-name="Gbreve" unicode="&#x11e;" horiz-adv-x="696" 
d="M364 704c-77 0 -125 39 -135 101h44c11 -39 41 -58 91 -58s80 19 90 58h45c-10 -62 -58 -101 -135 -101zM356 -18c-165 0 -305 122 -305 359c0 234 148 359 318 359c94 0 167 -34 222 -83v-75h-3c-59 66 -127 99 -214 99c-143 0 -257 -105 -257 -301
c0 -200 106 -301 239 -301c121 0 222 69 224 253h-248v3l37 56h275c1 -5 1 -36 1 -40c0 -242 -140 -329 -289 -329z" />
    <glyph glyph-name="Gdotaccent" unicode="&#x120;" horiz-adv-x="696" 
d="M395 742h-66v63h66v-63zM356 -18c-165 0 -305 122 -305 359c0 234 148 359 318 359c94 0 167 -34 222 -83v-75h-3c-59 66 -127 99 -214 99c-143 0 -257 -105 -257 -301c0 -200 106 -301 239 -301c121 0 222 69 224 253h-248v3l37 56h275c1 -5 1 -36 1 -40
c0 -242 -140 -329 -289 -329z" />
    <glyph glyph-name="Gcommaaccent" unicode="&#x122;" horiz-adv-x="696" 
d="M280 -193h-55l104 156h65zM356 -18c-165 0 -305 122 -305 359c0 234 148 359 318 359c94 0 167 -34 222 -83v-75h-3c-59 66 -127 99 -214 99c-143 0 -257 -105 -257 -301c0 -200 106 -301 239 -301c121 0 222 69 224 253h-248v3l37 56h275c1 -5 1 -36 1 -40
c0 -242 -140 -329 -289 -329z" />
    <glyph glyph-name="Hcircumflex" unicode="&#x124;" horiz-adv-x="747" 
d="M647 0h-62v323h-415v-323h-62v682h62v-300h415v300h62v-682zM491 682h-53l-60 79h-1l-61 -79h-53l94 128h40z" />
    <glyph glyph-name="Hbar" unicode="&#x126;" horiz-adv-x="747" 
d="M647 0h-62v324h-415v-324h-62v510h-108v51h108v121h62v-121h415v121h62v-121h101v-51h-101v-510zM170 383h415v127h-415v-127z" />
    <glyph glyph-name="Igrave" unicode="&#xcc;" horiz-adv-x="271" 
d="M162 682h4v-682h-62v682h5l-92 118h66z" />
    <glyph glyph-name="Iacute" unicode="&#xcd;" horiz-adv-x="271" 
d="M162 682h4v-682h-62v682h5l79 118h66z" />
    <glyph glyph-name="Icircumflex" unicode="&#xce;" horiz-adv-x="271" 
d="M166 0h-62v682h62v-682zM250 682h-53l-60 79h-1l-61 -79h-53l94 128h40z" />
    <glyph glyph-name="Itilde" unicode="&#x128;" horiz-adv-x="271" 
d="M166 0h-62v682h62v-682zM198 704c-42 0 -89 58 -120 58c-29 0 -36 -23 -49 -58h-43c21 61 39 101 88 101c42 0 89 -58 120 -58c29 0 36 23 49 58h43c-21 -63 -39 -101 -88 -101z" />
    <glyph glyph-name="Idieresis" unicode="&#xcf;" horiz-adv-x="271" 
d="M166 0h-62v682h62v-682zM69 742h-63v63h63v-63zM267 742h-63v63h63v-63z" />
    <glyph glyph-name="Imacron" unicode="&#x12a;" horiz-adv-x="271" 
d="M166 0h-62v682h62v-682zM277 760h-282v45h282v-45z" />
    <glyph glyph-name="Ibreve" unicode="&#x12c;" horiz-adv-x="271" 
d="M166 0h-62v682h62v-682zM136 704c-77 0 -125 39 -135 101h44c11 -39 41 -58 91 -58s80 19 90 58h45c-10 -62 -58 -101 -135 -101z" />
    <glyph glyph-name="Idotaccent" unicode="&#x130;" horiz-adv-x="271" 
d="M166 0h-62v682h62v-682zM168 742h-66v63h66v-63z" />
    <glyph glyph-name="Iogonek" unicode="&#x12e;" horiz-adv-x="271" 
d="M203 -167c-22 -16 -53 -26 -84 -26c-57 0 -87 33 -87 73c0 43 31 79 78 120h-6v682h62v-682h-13c-49 -47 -72 -74 -72 -107c0 -29 20 -45 49 -45c26 0 49 9 70 30h3v-45z" />
    <glyph glyph-name="IJ" unicode="&#x132;" horiz-adv-x="677" 
d="M166 0h-62v682h62v-682zM429 -18c-37 0 -75 12 -100 35v69h4c24 -30 56 -45 88 -45c65 0 100 47 100 132v450h-195v3l37 56h219v-517c0 -109 -48 -183 -153 -183z" />
    <glyph glyph-name="Jcircumflex" unicode="&#x134;" horiz-adv-x="406" 
d="M305 682h6v-517c0 -109 -48 -183 -153 -183c-37 0 -75 12 -100 35v69h4c24 -30 56 -45 88 -45c65 0 100 47 100 132v450h-195v3l37 56h-15l94 128h40zM191 761l-61 -79h122l-60 79h-1z" />
    <glyph glyph-name="Kcommaaccent" unicode="&#x136;" horiz-adv-x="585" 
d="M248 -193h-55l104 156h65zM166 0h-62v682h62v-682zM563 0h-78l-300 343v3l290 336h76l-291 -336v-2z" />
    <glyph glyph-name="Lacute" unicode="&#x139;" horiz-adv-x="476" 
d="M162 682h-53l79 118h66zM444 0h-340v682h62v-623h278v-59z" />
    <glyph glyph-name="Lcaron" unicode="&#x13d;" horiz-adv-x="476" 
d="M274 551h-48l54 199h57zM444 0h-340v682h62v-623h278v-59z" />
    <glyph glyph-name="Lcommaaccent" unicode="&#x13b;" horiz-adv-x="476" 
d="M209 -193h-55l104 156h65zM444 0h-340v682h62v-623h278v-59z" />
    <glyph glyph-name="Lslash" unicode="&#x141;" horiz-adv-x="476" 
d="M444 0h-340v275l-104 -50v57l104 51v349h62v-319l203 98v-58l-203 -98v-246h278v-59z" />
    <glyph glyph-name="Ldot" unicode="&#x13f;" horiz-adv-x="485" 
d="M444 0h-340v682h62v-622h278v-60zM411 316h-69v81h69v-81z" />
    <glyph glyph-name="Nacute" unicode="&#x143;" horiz-adv-x="749" 
d="M398 682h-53l79 118h66zM645 -15h-46l-432 569h-1v-554h-62v646l-24 31v5h69l433 -573h1v573h62v-697z" />
    <glyph glyph-name="Ncaron" unicode="&#x147;" horiz-adv-x="749" 
d="M394 674h-40l-94 128h53l60 -80h1l61 80h53zM645 -15h-46l-432 569h-1v-554h-62v646l-24 31v5h69l433 -573h1v573h62v-697z" />
    <glyph glyph-name="Ntilde" unicode="&#xd1;" horiz-adv-x="749" 
d="M434 704c-42 0 -89 58 -120 58c-29 0 -36 -23 -49 -58h-43c21 61 39 101 88 101c42 0 89 -58 120 -58c29 0 36 23 49 58h43c-21 -63 -39 -101 -88 -101zM645 -15h-46l-432 569h-1v-554h-62v646l-24 31v5h69l433 -573h1v573h62v-697z" />
    <glyph glyph-name="Ncommaaccent" unicode="&#x145;" horiz-adv-x="749" 
d="M318 -193h-55l104 156h65zM645 -15h-46l-432 569h-1v-554h-62v646l-24 31v5h69l433 -573h1v573h62v-697z" />
    <glyph glyph-name="Ograve" unicode="&#xd2;" horiz-adv-x="734" 
d="M683 341c0 -236 -150 -359 -316 -359c-164 0 -316 122 -316 359c0 219 129 340 281 357l-79 102h66l67 -101c157 -9 297 -130 297 -358zM618 341c0 197 -114 300 -250 300s-251 -102 -251 -300c0 -197 114 -301 250 -301c135 0 251 103 251 301z" />
    <glyph glyph-name="Oacute" unicode="&#xd3;" horiz-adv-x="734" 
d="M683 341c0 -236 -150 -359 -316 -359c-164 0 -316 122 -316 359c0 226 138 349 296 358l68 101h66l-80 -102c151 -16 282 -137 282 -357zM618 341c0 197 -114 300 -250 300s-251 -102 -251 -300c0 -197 114 -301 250 -301c135 0 251 103 251 301z" />
    <glyph glyph-name="Ocircumflex" unicode="&#xd4;" horiz-adv-x="734" 
d="M481 682h-8c118 -42 210 -157 210 -341c0 -236 -150 -359 -316 -359c-164 0 -316 122 -316 359c0 183 91 299 210 341h-8l94 128h40zM618 341c0 197 -114 300 -250 300s-251 -102 -251 -300c0 -197 114 -301 250 -301c135 0 251 103 251 301zM368 700c16 0 33 -1 49 -4
l-49 65h-1l-50 -65c16 3 34 4 51 4z" />
    <glyph glyph-name="Otilde" unicode="&#xd5;" horiz-adv-x="734" 
d="M431 704c-42 0 -89 58 -120 58c-29 0 -36 -23 -49 -58h-43c21 61 39 101 88 101c42 0 89 -58 120 -58c29 0 36 23 49 58h43c-21 -63 -39 -101 -88 -101zM683 341c0 -236 -150 -359 -316 -359c-164 0 -316 122 -316 359c0 236 150 359 317 359c164 0 315 -122 315 -359z
M618 341c0 197 -114 300 -250 300s-251 -102 -251 -300c0 -197 114 -301 250 -301c135 0 251 103 251 301z" />
    <glyph glyph-name="Odieresis" unicode="&#xd6;" horiz-adv-x="734" 
d="M299 742h-63v63h63v-63zM497 742h-63v63h63v-63zM683 341c0 -236 -150 -359 -316 -359c-164 0 -316 122 -316 359c0 236 150 359 317 359c164 0 315 -122 315 -359zM618 341c0 197 -114 300 -250 300s-251 -102 -251 -300c0 -197 114 -301 250 -301
c135 0 251 103 251 301z" />
    <glyph glyph-name="Omacron" unicode="&#x14c;" horiz-adv-x="734" 
d="M508 760h-282v45h282v-45zM683 341c0 -236 -150 -359 -316 -359c-164 0 -316 122 -316 359c0 236 150 359 317 359c164 0 315 -122 315 -359zM618 341c0 197 -114 300 -250 300s-251 -102 -251 -300c0 -197 114 -301 250 -301c135 0 251 103 251 301z" />
    <glyph glyph-name="Obreve" unicode="&#x14e;" horiz-adv-x="734" 
d="M367 704c-77 0 -125 39 -135 101h44c11 -39 41 -58 91 -58s80 19 90 58h45c-10 -62 -58 -101 -135 -101zM683 341c0 -236 -150 -359 -316 -359c-164 0 -316 122 -316 359c0 236 150 359 317 359c164 0 315 -122 315 -359zM618 341c0 197 -114 300 -250 300
s-251 -102 -251 -300c0 -197 114 -301 250 -301c135 0 251 103 251 301z" />
    <glyph glyph-name="Ohungarumlaut" unicode="&#x150;" horiz-adv-x="734" 
d="M683 341c0 -236 -150 -359 -316 -359c-164 0 -316 122 -316 359c0 183 91 299 210 341h-4l79 118h66l-79 -103c15 2 30 3 45 3c18 0 35 -2 53 -5l70 105h66l-89 -116c121 -41 215 -156 215 -343zM618 341c0 197 -114 300 -250 300s-251 -102 -251 -300
c0 -197 114 -301 250 -301c135 0 251 103 251 301z" />
    <glyph glyph-name="Oslash" unicode="&#xd8;" horiz-adv-x="734" 
d="M116 -18h-65l83 105c-51 60 -83 145 -83 254c0 236 150 359 317 359c71 0 141 -24 196 -70l55 70h64l-82 -106c50 -60 82 -144 82 -253c0 -236 -150 -359 -316 -359c-72 0 -142 23 -197 69zM618 341c0 86 -22 154 -58 203l-352 -444c44 -39 99 -58 159 -58
c135 0 251 101 251 299zM117 341c0 -86 22 -154 57 -203l352 444c-44 38 -99 58 -158 58c-136 0 -251 -101 -251 -299z" />
    <glyph glyph-name="Oslashacute" unicode="&#x1fe;" horiz-adv-x="734" 
d="M116 -18h-65l83 105c-51 60 -83 145 -83 254c0 226 138 349 296 358l68 101h66l-80 -102c60 -6 116 -29 163 -68l55 70h64l-82 -106c50 -60 82 -144 82 -253c0 -236 -150 -359 -316 -359c-72 0 -142 23 -197 69zM618 341c0 86 -22 154 -58 203l-352 -444
c44 -39 99 -58 159 -58c135 0 251 101 251 299zM117 341c0 -86 22 -154 57 -203l352 444c-44 38 -99 58 -158 58c-136 0 -251 -101 -251 -299z" />
    <glyph glyph-name="OE" unicode="&#x152;" horiz-adv-x="973" 
d="M899 0h-353v47c-52 -44 -118 -65 -185 -65c-159 0 -310 122 -310 359c0 236 150 359 311 359c67 0 133 -22 184 -66v48h327v-59h-272v-242h262v-59h-262v-263h298v-59zM540 114v453c-45 49 -107 74 -172 74c-136 0 -251 -102 -251 -300c0 -197 114 -300 250 -300
c65 0 127 25 173 73z" />
    <glyph glyph-name="Racute" unicode="&#x154;" horiz-adv-x="608" 
d="M284 682c129 -5 218 -73 218 -192c0 -106 -55 -173 -211 -210v-2l289 -278h-81l-314 307v4c203 29 252 85 252 173c0 84 -65 140 -174 140h-97v-624h-62v682h127l79 118h66z" />
    <glyph glyph-name="Rcaron" unicode="&#x158;" horiz-adv-x="608" 
d="M580 0h-81l-314 307v4c203 29 252 85 252 173c0 84 -65 140 -174 140h-97v-624h-62v682h143l-88 120h53l60 -80h1l61 80h53l-89 -121c121 -9 204 -76 204 -191c0 -106 -55 -173 -211 -210v-2z" />
    <glyph glyph-name="Rcommaaccent" unicode="&#x156;" horiz-adv-x="608" 
d="M251 -193h-55l104 156h65zM580 0h-81l-314 307v4c203 29 252 85 252 173c0 84 -65 140 -174 140h-97v-624h-62v682h165c137 0 233 -68 233 -192c0 -106 -55 -173 -211 -210v-2z" />
    <glyph glyph-name="germandbls.cap" unicode="&#xe0aa;" horiz-adv-x="1068" 
d="M470 165c0 -102 -75 -183 -207 -183c-72 0 -142 23 -188 70v75h3c46 -59 112 -88 183 -88c91 0 147 48 147 122c0 189 -330 121 -330 360c0 93 60 179 195 179c65 0 128 -23 173 -70v-74h-3c-42 57 -106 87 -168 87c-88 0 -134 -50 -134 -117c0 -187 329 -117 329 -361z
M1004 165c0 -102 -75 -183 -207 -183c-72 0 -142 23 -188 70v75h3c46 -59 112 -88 183 -88c91 0 147 48 147 122c0 189 -330 121 -330 360c0 93 60 179 195 179c65 0 128 -23 173 -70v-74h-3c-42 57 -106 87 -168 87c-88 0 -134 -50 -134 -117c0 -187 329 -117 329 -361z
" />
    <glyph glyph-name="Sacute" unicode="&#x15a;" horiz-adv-x="534" 
d="M470 165c0 -102 -75 -183 -207 -183c-72 0 -142 23 -188 70v75h3c46 -59 112 -88 183 -88c91 0 147 48 147 122c0 189 -330 121 -330 360c0 86 52 166 167 177l68 102h66l-79 -102c55 -5 107 -28 146 -68v-74h-3c-42 57 -106 87 -168 87c-88 0 -134 -50 -134 -117
c0 -187 329 -117 329 -361z" />
    <glyph glyph-name="Scircumflex" unicode="&#x15c;" horiz-adv-x="534" 
d="M385 682h-16c28 -12 55 -29 77 -52v-74h-3c-42 57 -106 87 -168 87c-88 0 -134 -50 -134 -117c0 -187 329 -117 329 -361c0 -102 -75 -183 -207 -183c-72 0 -142 23 -188 70v75h3c46 -59 112 -88 183 -88c91 0 147 48 147 122c0 189 -330 121 -330 360
c0 67 31 131 100 161h-21l94 128h40zM273 700c16 0 32 -2 48 -5l-49 66h-1l-51 -66c16 3 33 5 53 5z" />
    <glyph glyph-name="Scaron" unicode="&#x160;" horiz-adv-x="534" 
d="M470 165c0 -102 -75 -183 -207 -183c-72 0 -142 23 -188 70v75h3c46 -59 112 -88 183 -88c91 0 147 48 147 122c0 189 -330 121 -330 360c0 83 48 161 156 176l-77 105h53l60 -80h1l61 80h53l-77 -104c52 -7 101 -30 138 -68v-74h-3c-42 57 -106 87 -168 87
c-88 0 -134 -50 -134 -117c0 -187 329 -117 329 -361z" />
    <glyph glyph-name="Scedilla" unicode="&#x15e;" horiz-adv-x="534" 
d="M355 -122c0 -47 -45 -71 -101 -71c-28 0 -56 4 -83 17v39h3c17 -11 41 -21 72 -21c39 0 58 13 58 37c0 34 -37 41 -90 44l15 61c-60 6 -115 28 -154 68v75h3c46 -59 112 -88 183 -88c91 0 147 48 147 122c0 189 -330 121 -330 360c0 93 60 179 195 179
c65 0 128 -23 173 -70v-74h-3c-42 57 -106 87 -168 87c-88 0 -134 -50 -134 -117c0 -187 329 -117 329 -361c0 -100 -71 -179 -197 -183l-9 -32c49 -6 91 -21 91 -72z" />
    <glyph glyph-name="Scommaaccent" unicode="&#x218;" horiz-adv-x="534" 
d="M190 -193h-55l104 156h65zM470 165c0 -102 -75 -183 -207 -183c-72 0 -142 23 -188 70v75h3c46 -59 112 -88 183 -88c91 0 147 48 147 122c0 189 -330 121 -330 360c0 93 60 179 195 179c65 0 128 -23 173 -70v-74h-3c-42 57 -106 87 -168 87c-88 0 -134 -50 -134 -117
c0 -187 329 -117 329 -361z" />
    <glyph glyph-name="Tcaron" unicode="&#x164;" horiz-adv-x="517" 
d="M289 -1h-61v623h-198v59h203l-89 121h53l60 -80h1l61 80h53l-89 -121h204v-59h-198v-623z" />
    <glyph glyph-name="Tcommaaccent" unicode="&#x162;" horiz-adv-x="517" 
d="M178 -193h-55l104 156h65zM289 -1h-61v623h-198v59h457v-59h-198v-623z" />
    <glyph glyph-name="Tcommaaccent" unicode="&#x21a;" horiz-adv-x="517" 
d="M178 -193h-55l104 156h65zM289 -1h-61v623h-198v59h457v-59h-198v-623z" />
    <glyph glyph-name="Tbar" unicode="&#x166;" horiz-adv-x="517" 
d="M289 0h-61v293h-138v51h138v279h-198v59h457v-59h-198v-279h138v-51h-138v-293z" />
    <glyph glyph-name="Ugrave" unicode="&#xd9;" horiz-adv-x="644" 
d="M350 682h-53l-92 118h66zM322 -18c-136 0 -228 75 -228 217v483h62v-472c0 -115 64 -169 165 -169s166 54 166 169v472h62v-483c0 -142 -92 -217 -227 -217z" />
    <glyph glyph-name="Uacute" unicode="&#xda;" horiz-adv-x="644" 
d="M339 682h-53l79 118h66zM322 -18c-136 0 -228 75 -228 217v483h62v-472c0 -115 64 -169 165 -169s166 54 166 169v472h62v-483c0 -142 -92 -217 -227 -217z" />
    <glyph glyph-name="Ucircumflex" unicode="&#xdb;" horiz-adv-x="644" 
d="M322 -18c-136 0 -228 75 -228 217v483h62v-472c0 -115 64 -169 165 -169s166 54 166 169v472h62v-483c0 -142 -92 -217 -227 -217zM434 682h-53l-60 79h-1l-61 -79h-53l94 128h40z" />
    <glyph glyph-name="Utilde" unicode="&#x168;" horiz-adv-x="644" 
d="M385 704c-42 0 -89 58 -120 58c-29 0 -36 -23 -49 -58h-43c21 61 39 101 88 101c42 0 89 -58 120 -58c29 0 36 23 49 58h43c-21 -63 -39 -101 -88 -101zM322 -18c-136 0 -228 75 -228 217v483h62v-472c0 -115 64 -169 165 -169s166 54 166 169v472h62v-483
c0 -142 -92 -217 -227 -217z" />
    <glyph glyph-name="Udieresis" unicode="&#xdc;" horiz-adv-x="644" 
d="M253 742h-63v63h63v-63zM451 742h-63v63h63v-63zM322 -18c-136 0 -228 75 -228 217v483h62v-472c0 -115 64 -169 165 -169s166 54 166 169v472h62v-483c0 -142 -92 -217 -227 -217z" />
    <glyph glyph-name="Umacron" unicode="&#x16a;" horiz-adv-x="644" 
d="M462 760h-282v45h282v-45zM322 -18c-136 0 -228 75 -228 217v483h62v-472c0 -115 64 -169 165 -169s166 54 166 169v472h62v-483c0 -142 -92 -217 -227 -217z" />
    <glyph glyph-name="Ubreve" unicode="&#x16c;" horiz-adv-x="644" 
d="M321 704c-77 0 -125 39 -135 101h44c11 -39 41 -58 91 -58s80 19 90 58h45c-10 -62 -58 -101 -135 -101zM322 -18c-136 0 -228 75 -228 217v483h62v-472c0 -115 64 -169 165 -169s166 54 166 169v472h62v-483c0 -142 -92 -217 -227 -217z" />
    <glyph glyph-name="Uring" unicode="&#x16e;" horiz-adv-x="644" 
d="M322 -18c-136 0 -228 75 -228 217v483h62v-472c0 -115 64 -169 165 -169s166 54 166 169v472h62v-483c0 -142 -92 -217 -227 -217zM422 769c0 -59 -49 -87 -100 -87c-53 0 -101 28 -101 87c0 57 49 85 101 85c51 0 100 -28 100 -85zM381 769c0 34 -27 52 -59 52
c-33 0 -61 -18 -61 -52c0 -36 28 -54 61 -54c32 0 59 18 59 54z" />
    <glyph glyph-name="Uhungarumlaut" unicode="&#x170;" horiz-adv-x="644" 
d="M322 -18c-136 0 -228 75 -228 217v483h62v-472c0 -115 64 -169 165 -169s166 54 166 169v472h62v-483c0 -142 -92 -217 -227 -217zM258 682h-55l79 118h66zM413 682h-55l79 118h66z" />
    <glyph glyph-name="Uogonek" unicode="&#x172;" horiz-adv-x="644" 
d="M416 -167c-22 -16 -53 -26 -84 -26c-57 0 -87 33 -87 73c0 37 23 68 59 103c-126 6 -210 80 -210 216v483h62v-472c0 -115 64 -169 165 -169s166 54 166 169v472h62v-483c0 -133 -80 -206 -200 -216c-38 -37 -55 -62 -55 -90c0 -29 20 -45 49 -45c26 0 49 9 70 30h3v-45z
" />
    <glyph glyph-name="Wgrave" unicode="&#x1e80;" horiz-adv-x="946" 
d="M673 -18h-46l-154 437h-1l-153 -437h-45l-248 700h68l206 -583h1l143 408l-61 175h48l-92 118h66l79 -118h-35l200 -583h1l205 583h65z" />
    <glyph glyph-name="Wacute" unicode="&#x1e82;" horiz-adv-x="946" 
d="M673 -18h-46l-154 437h-1l-153 -437h-45l-248 700h68l206 -583h1l143 408l-61 175h43l79 118h66l-92 -118h-30l200 -583h1l205 583h65z" />
    <glyph glyph-name="Wcircumflex" unicode="&#x174;" horiz-adv-x="946" 
d="M569 682h-53l-60 79h-1l-61 -79h55l200 -583h1l205 583h65l-247 -700h-46l-154 437h-1l-153 -437h-45l-248 700h68l206 -583h1l143 408l-61 175h-42l94 128h40z" />
    <glyph glyph-name="Wdieresis" unicode="&#x1e84;" horiz-adv-x="946" 
d="M403 742h-63v63h63v-63zM601 742h-63v63h63v-63zM673 -18h-46l-154 437h-1l-153 -437h-45l-248 700h68l206 -583h1l143 408l-61 175h66l200 -583h1l205 583h65z" />
    <glyph glyph-name="Ygrave" unicode="&#x1ef2;" horiz-adv-x="567" 
d="M315 0h-62v290l-244 392h75l200 -329h1l199 329h73l-242 -393v-289zM314 682h-53l-92 118h66z" />
    <glyph glyph-name="Yacute" unicode="&#xdd;" horiz-adv-x="567" 
d="M315 0h-62v290l-244 392h75l200 -329h1l199 329h73l-242 -393v-289zM306 682h-53l79 118h66z" />
    <glyph glyph-name="Ycircumflex" unicode="&#x176;" horiz-adv-x="567" 
d="M315 0h-62v290l-244 392h75l200 -329h1l199 329h73l-242 -393v-289zM398 682h-53l-60 79h-1l-61 -79h-53l94 128h40z" />
    <glyph glyph-name="Ydieresis" unicode="&#x178;" horiz-adv-x="567" 
d="M315 0h-62v290l-244 392h75l200 -329h1l199 329h73l-242 -393v-289zM216 742h-63v63h63v-63zM414 742h-63v63h63v-63z" />
    <glyph glyph-name="Zacute" unicode="&#x179;" horiz-adv-x="623" 
d="M323 682h220v-5l-382 -617v-1h404v-59h-511v5l381 617v1h-356v59h191l79 118h66z" />
    <glyph glyph-name="Zcaron" unicode="&#x17d;" horiz-adv-x="623" 
d="M565 0h-511v5l381 617v1h-356v59h206l-88 120h53l60 -80h1l61 80h53l-88 -120h206v-5l-382 -617v-1h404v-59z" />
    <glyph glyph-name="Zdotaccent" unicode="&#x17b;" horiz-adv-x="623" 
d="M332 742h-66v63h66v-63zM565 0h-511v5l381 617v1h-356v59h464v-5l-382 -617v-1h404v-59z" />
    <glyph glyph-name="Eng" unicode="&#x14a;" horiz-adv-x="749" 
d="M497 -193c-37 0 -74 12 -97 35v61h4c22 -26 54 -39 86 -39c58 0 94 44 94 121v15l-417 552h-1v-552h-62v646l-24 31v5h69l433 -575h1v575h62v-697c0 -111 -53 -178 -148 -178z" />
    <glyph glyph-name="Eth" unicode="&#xd0;" horiz-adv-x="704" 
d="M653 341c0 -230 -160 -341 -348 -341h-201v326h-104v51h104v305h201c187 0 348 -111 348 -341zM589 341c0 187 -124 282 -283 282h-140v-246h205v-51h-205v-267h140c159 0 283 94 283 282z" />
    <glyph glyph-name="Thorn" unicode="&#xde;" horiz-adv-x="569" 
d="M513 415c0 -123 -78 -224 -347 -243v-172h-62v682h62v-60h109c130 0 238 -66 238 -207zM449 412c0 97 -74 152 -176 152h-107v-333c218 11 283 91 283 181z" />
    <glyph glyph-name="a" unicode="a" horiz-adv-x="528" 
d="M443 0h-56v42h-1c-40 -37 -93 -60 -156 -60c-98 0 -169 61 -169 155c0 98 68 162 187 162c52 0 100 -14 137 -35v62c0 102 -63 142 -141 142c-63 0 -118 -31 -149 -71h-3v64c42 38 100 60 162 60c108 0 189 -61 189 -189v-332zM385 98v114c-33 22 -79 37 -128 37
c-86 0 -136 -39 -136 -107c0 -60 42 -108 126 -108c54 0 102 24 138 64z" />
    <glyph glyph-name="b" unicode="b" horiz-adv-x="582" 
d="M540 252c0 -173 -103 -270 -244 -270c-63 0 -114 20 -151 47h-1l-51 -32h-3v753h58v-289h1c41 37 94 60 159 60c131 0 232 -96 232 -269zM478 252c0 134 -74 216 -184 216c-61 0 -109 -26 -146 -67v-314c34 -31 83 -51 138 -51c116 0 192 78 192 216z" />
    <glyph glyph-name="c" unicode="c" horiz-adv-x="467" 
d="M423 108v-67c-40 -37 -93 -59 -155 -59c-124 0 -227 94 -227 270c0 173 99 269 225 269c61 0 114 -20 154 -58v-68h-3c-29 41 -81 73 -143 73c-104 0 -171 -83 -171 -217c0 -133 69 -216 176 -216c61 0 112 32 141 73h3z" />
    <glyph glyph-name="d" unicode="d" horiz-adv-x="582" 
d="M492 0h-57v43h-1c-42 -38 -95 -61 -160 -61c-130 0 -232 97 -232 270c0 172 104 269 244 269c60 0 111 -18 147 -43h1v272h58v-750zM434 103v313c-34 31 -83 52 -137 52c-117 0 -193 -79 -193 -216c0 -135 74 -216 184 -216c61 0 110 25 146 67z" />
    <glyph glyph-name="e" unicode="e" horiz-adv-x="535" 
d="M461 42c-44 -38 -105 -60 -172 -60c-139 0 -248 94 -248 270c0 173 99 269 228 269c121 0 215 -92 215 -229c0 -12 0 -28 -1 -42h-379c2 -141 79 -215 195 -215c69 0 126 30 159 71h3v-64zM423 301c-1 97 -65 167 -154 167s-153 -61 -164 -167h318z" />
    <glyph glyph-name="f" unicode="f" horiz-adv-x="308" 
d="M154 0h-58v450h-38v4l38 49v103c0 86 40 151 130 151c29 0 58 -7 82 -25v-60h-3c-18 19 -44 32 -71 32c-58 0 -80 -44 -80 -101v-100h126v-53h-126v-450z" />
    <glyph glyph-name="g" unicode="g" horiz-adv-x="566" 
d="M422 114v304c-34 31 -82 50 -131 50c-112 0 -186 -77 -186 -207c0 -127 73 -207 178 -207c58 0 106 24 139 60zM280 -194c-60 0 -126 18 -171 60v64h3c42 -49 101 -72 164 -72c108 0 146 67 146 153v46h-1c-37 -34 -91 -57 -154 -57c-124 0 -225 91 -225 261
c0 168 102 260 237 260c57 0 109 -20 147 -47h1l50 32h3v-492c0 -141 -79 -208 -200 -208z" />
    <glyph glyph-name="h" unicode="h" horiz-adv-x="572" 
d="M487 0h-58v321c0 101 -61 147 -139 147c-56 0 -104 -24 -142 -67v-401h-58v750h58v-289h1c41 37 94 60 154 60c101 0 184 -58 184 -183v-338z" />
    <glyph glyph-name="i" unicode="i" horiz-adv-x="238" 
d="M148 0h-58v503h58v-503zM152 683h-66v67h66v-67z" />
    <glyph glyph-name="j" unicode="j" horiz-adv-x="238" 
d="M18 -193c-34 0 -67 12 -88 29v60h3c19 -22 48 -36 76 -36c46 0 81 32 81 107v536h58v-537c0 -102 -51 -159 -130 -159zM152 683h-66v67h66v-67z" />
    <glyph glyph-name="k" unicode="k" horiz-adv-x="474" 
d="M148 0h-58v750h58v-750zM456 0h-74l-220 253v4l212 246h71l-213 -246v-2z" />
    <glyph glyph-name="l" unicode="l" horiz-adv-x="238" 
d="M148 0h-58v750h58v-750z" />
    <glyph glyph-name="m" unicode="m" horiz-adv-x="910" 
d="M825 0h-58v321c0 101 -60 147 -139 147c-53 0 -105 -22 -150 -78c6 -19 9 -40 9 -64v-326h-58v321c0 101 -61 147 -139 147c-56 0 -104 -24 -142 -67v-401h-58v503h57v-43h1c42 38 95 61 155 61c68 0 128 -27 159 -82h1c58 60 117 82 179 82c100 0 183 -58 183 -183v-338
z" />
    <glyph glyph-name="n" unicode="n" horiz-adv-x="584" 
d="M499 0h-58v321c0 101 -63 147 -145 147c-62 0 -110 -24 -148 -67v-401h-58v503h57v-43h1c42 38 97 61 161 61c105 0 190 -58 190 -183v-338z" />
    <glyph glyph-name="o" unicode="o" horiz-adv-x="566" 
d="M463 252c0 136 -75 216 -180 216c-104 0 -180 -79 -180 -216s75 -217 180 -217c104 0 180 79 180 217zM525 252c0 -174 -108 -270 -242 -270s-242 95 -242 270c0 174 108 269 242 269s242 -95 242 -269z" />
    <glyph glyph-name="p" unicode="p" horiz-adv-x="582" 
d="M540 252c0 -173 -103 -270 -244 -270c-60 0 -111 18 -147 44h-1v-219h-58v696h57v-43h1c42 38 95 61 160 61c131 0 232 -96 232 -269zM478 252c0 134 -74 216 -184 216c-61 0 -109 -26 -146 -67v-314c34 -31 83 -51 138 -51c116 0 192 78 192 216z" />
    <glyph glyph-name="q" unicode="q" horiz-adv-x="582" 
d="M492 -193h-58v236h-1c-41 -38 -94 -61 -159 -61c-130 0 -232 97 -232 270c0 172 104 269 244 269c64 0 114 -20 152 -47h1l50 32h3v-699zM434 103v313c-34 31 -83 52 -137 52c-117 0 -193 -79 -193 -216c0 -135 74 -216 184 -216c61 0 110 25 146 67z" />
    <glyph glyph-name="r" unicode="r" horiz-adv-x="365" 
d="M152 0h-58v503h56v-44h1c38 36 80 62 132 62c19 0 37 -3 54 -9v-61h-3c-18 10 -37 15 -58 15c-49 0 -86 -29 -124 -65v-401z" />
    <glyph glyph-name="s" unicode="s" horiz-adv-x="437" 
d="M372 122c0 -80 -55 -140 -161 -140c-59 0 -109 17 -144 52v65h3c33 -44 86 -66 141 -66c63 0 103 34 103 85c0 137 -245 84 -245 267c0 75 48 136 150 136c50 0 100 -17 135 -52v-65h-3c-31 40 -79 67 -130 67c-62 0 -94 -35 -94 -82c0 -135 245 -79 245 -267z" />
    <glyph glyph-name="t" unicode="t" horiz-adv-x="308" 
d="M154 0h-58v450h-38v4l38 49v152h58v-152h126v-53h-126v-450z" />
    <glyph glyph-name="u" unicode="u" horiz-adv-x="566" 
d="M481 503v-329c0 -123 -79 -192 -199 -192c-118 0 -197 68 -197 192v329h58v-322c0 -99 52 -146 140 -146c87 0 140 47 140 146v322h58z" />
    <glyph glyph-name="v" unicode="v" horiz-adv-x="494" 
d="M266 -18h-39l-214 521h66l168 -426h1l168 426h64z" />
    <glyph glyph-name="w" unicode="w" horiz-adv-x="790" 
d="M583 -18h-36l-152 401h-1l-151 -401h-36l-185 521h65l141 -408h1l164 426h5l163 -425h1l142 407h64z" />
    <glyph glyph-name="x" unicode="x" horiz-adv-x="488" 
d="M471 0h-72l-159 213h-1l-144 -213h-69l175 256l-183 247h70l155 -209h1l145 209h70l-177 -250z" />
    <glyph glyph-name="y" unicode="y" horiz-adv-x="496" 
d="M212 -193h-63l76 194l-216 502h66l179 -425h1l156 425h64z" />
    <glyph glyph-name="z" unicode="z" horiz-adv-x="462" 
d="M424 0h-389v5l278 444v1h-259v53h357v-5l-279 -444v-1h292v-53z" />
    <glyph glyph-name="agrave" unicode="&#xe0;" horiz-adv-x="528" 
d="M443 0h-56v42h-1c-40 -37 -93 -60 -156 -60c-98 0 -169 61 -169 155c0 98 68 162 187 162c52 0 100 -14 137 -35v62c0 102 -63 142 -141 142c-63 0 -118 -31 -149 -71h-3v64c42 38 100 60 162 60c108 0 189 -61 189 -189v-332zM385 98v114c-33 22 -79 37 -128 37
c-86 0 -136 -39 -136 -107c0 -60 42 -108 126 -108c54 0 102 24 138 64zM290 555h-55l-141 195h66z" />
    <glyph glyph-name="aacute" unicode="&#xe1;" horiz-adv-x="528" 
d="M443 0h-56v42h-1c-40 -37 -93 -60 -156 -60c-98 0 -169 61 -169 155c0 98 68 162 187 162c52 0 100 -14 137 -35v62c0 102 -63 142 -141 142c-63 0 -118 -31 -149 -71h-3v64c42 38 100 60 162 60c108 0 189 -61 189 -189v-332zM385 98v114c-33 22 -79 37 -128 37
c-86 0 -136 -39 -136 -107c0 -60 42 -108 126 -108c54 0 102 24 138 64zM284 554h-54l131 196h65z" />
    <glyph glyph-name="acircumflex" unicode="&#xe2;" horiz-adv-x="528" 
d="M443 0h-56v42h-1c-40 -37 -93 -60 -156 -60c-98 0 -169 61 -169 155c0 98 68 162 187 162c52 0 100 -14 137 -35v62c0 102 -63 142 -141 142c-63 0 -118 -31 -149 -71h-3v64c42 38 100 60 162 60c108 0 189 -61 189 -189v-332zM385 98v114c-33 22 -79 37 -128 37
c-86 0 -136 -39 -136 -107c0 -60 42 -108 126 -108c54 0 102 24 138 64zM422 555h-54l-105 149h-1l-106 -149h-54l141 203h38z" />
    <glyph glyph-name="atilde" unicode="&#xe3;" horiz-adv-x="528" 
d="M443 0h-56v42h-1c-40 -37 -93 -60 -156 -60c-98 0 -169 61 -169 155c0 98 68 162 187 162c52 0 100 -14 137 -35v62c0 102 -63 142 -141 142c-63 0 -118 -31 -149 -71h-3v64c42 38 100 60 162 60c108 0 189 -61 189 -189v-332zM385 98v114c-33 22 -79 37 -128 37
c-86 0 -136 -39 -136 -107c0 -60 42 -108 126 -108c54 0 102 24 138 64zM339 622c-56 0 -103 81 -149 81c-29 0 -42 -27 -60 -81h-42c23 87 50 128 99 128c56 0 103 -81 149 -81c29 0 42 27 60 81h42c-23 -87 -50 -128 -99 -128z" />
    <glyph glyph-name="adieresis" unicode="&#xe4;" horiz-adv-x="528" 
d="M443 0h-56v42h-1c-40 -37 -93 -60 -156 -60c-98 0 -169 61 -169 155c0 98 68 162 187 162c52 0 100 -14 137 -35v62c0 102 -63 142 -141 142c-63 0 -118 -31 -149 -71h-3v64c42 38 100 60 162 60c108 0 189 -61 189 -189v-332zM385 98v114c-33 22 -79 37 -128 37
c-86 0 -136 -39 -136 -107c0 -60 42 -108 126 -108c54 0 102 24 138 64zM194 683h-63v67h63v-67zM392 683h-63v67h63v-67z" />
    <glyph glyph-name="amacron" unicode="&#x101;" horiz-adv-x="528" 
d="M443 0h-56v42h-1c-40 -37 -93 -60 -156 -60c-98 0 -169 61 -169 155c0 98 68 162 187 162c52 0 100 -14 137 -35v62c0 102 -63 142 -141 142c-63 0 -118 -31 -149 -71h-3v64c42 38 100 60 162 60c108 0 189 -61 189 -189v-332zM385 98v114c-33 22 -79 37 -128 37
c-86 0 -136 -39 -136 -107c0 -60 42 -108 126 -108c54 0 102 24 138 64zM413 685h-302v47h302v-47z" />
    <glyph glyph-name="abreve" unicode="&#x103;" horiz-adv-x="528" 
d="M443 0h-56v42h-1c-40 -37 -93 -60 -156 -60c-98 0 -169 61 -169 155c0 98 68 162 187 162c52 0 100 -14 137 -35v62c0 102 -63 142 -141 142c-63 0 -118 -31 -149 -71h-3v64c42 38 100 60 162 60c108 0 189 -61 189 -189v-332zM385 98v114c-33 22 -79 37 -128 37
c-86 0 -136 -39 -136 -107c0 -60 42 -108 126 -108c54 0 102 24 138 64zM264 596c-94 0 -147 67 -157 154h45c12 -66 50 -108 112 -108s100 42 112 108h45c-10 -87 -63 -154 -157 -154z" />
    <glyph glyph-name="aring" unicode="&#xe5;" horiz-adv-x="528" 
d="M443 0h-56v42h-1c-40 -37 -93 -60 -156 -60c-98 0 -169 61 -169 155c0 98 68 162 187 162c52 0 100 -14 137 -35v62c0 102 -63 142 -141 142c-63 0 -118 -31 -149 -71h-3v64c42 38 100 60 162 60c108 0 189 -61 189 -189v-332zM385 98v114c-33 22 -79 37 -128 37
c-86 0 -136 -39 -136 -107c0 -60 42 -108 126 -108c54 0 102 24 138 64zM370 671c0 -64 -51 -95 -105 -95c-56 0 -106 31 -106 95c0 62 51 93 106 93c54 0 105 -31 105 -93zM327 671c0 37 -27 59 -62 59c-36 0 -65 -22 -65 -59c0 -40 29 -62 65 -62c35 0 62 22 62 62z" />
    <glyph glyph-name="aringacute" unicode="&#x1fb;" horiz-adv-x="528" 
d="M443 0h-56v42h-1c-40 -37 -93 -60 -156 -60c-98 0 -169 61 -169 155c0 98 68 162 187 162c52 0 100 -14 137 -35v62c0 102 -63 142 -141 142c-63 0 -118 -31 -149 -71h-3v64c42 38 100 60 162 60c108 0 189 -61 189 -189v-332zM385 98v114c-33 22 -79 37 -128 37
c-86 0 -136 -39 -136 -107c0 -60 42 -108 126 -108c54 0 102 24 138 64zM284 802h-54l131 196h65zM369 671c0 -64 -51 -95 -105 -95c-56 0 -106 31 -106 95c0 62 51 93 106 93c54 0 105 -31 105 -93zM326 671c0 37 -27 59 -62 59c-36 0 -65 -22 -65 -59c0 -40 29 -62 65 -62
c35 0 62 22 62 62z" />
    <glyph glyph-name="aogonek" unicode="&#x105;" horiz-adv-x="528" 
d="M480 -167c-22 -16 -53 -26 -84 -26c-57 0 -87 33 -87 73c0 43 31 79 78 120v42h-1c-40 -37 -93 -60 -156 -60c-98 0 -169 61 -169 155c0 98 68 162 187 162c52 0 100 -14 137 -35v62c0 102 -63 142 -141 142c-63 0 -118 -31 -149 -71h-3v64c42 38 100 60 162 60
c108 0 189 -61 189 -189v-332h-13c-49 -47 -72 -74 -72 -107c0 -29 20 -45 49 -45c26 0 49 9 70 30h3v-45zM385 98v114c-33 22 -79 37 -128 37c-86 0 -136 -39 -136 -107c0 -60 42 -108 126 -108c54 0 102 24 138 64z" />
    <glyph glyph-name="ae" unicode="&#xe6;" horiz-adv-x="874" 
d="M628 -18c-81 0 -151 32 -194 94h-2c-61 -73 -134 -94 -202 -94c-98 0 -169 61 -169 155c0 98 68 162 187 162c52 0 100 -14 137 -35v62c0 103 -63 142 -141 142c-63 0 -118 -31 -149 -71h-3v64c42 38 100 60 162 60c84 0 145 -40 168 -115h1c35 75 104 115 185 115
c121 0 215 -92 215 -228c0 -13 0 -29 -1 -43h-379c1 -139 79 -216 195 -216c70 0 126 31 159 71h3v-63c-44 -38 -104 -60 -172 -60zM248 34c63 0 122 28 162 82c-12 27 -21 59 -23 95c-33 22 -80 38 -128 38c-87 0 -138 -38 -138 -108c0 -60 41 -107 127 -107zM763 301
c-2 98 -66 167 -156 167c-88 0 -151 -60 -163 -167h319z" />
    <glyph glyph-name="aeacute" unicode="&#x1fd;" horiz-adv-x="874" 
d="M451 554h-54l131 196h65zM628 -18c-81 0 -151 32 -194 94h-2c-61 -73 -134 -94 -202 -94c-98 0 -169 61 -169 155c0 98 68 162 187 162c52 0 100 -14 137 -35v62c0 103 -63 142 -141 142c-63 0 -118 -31 -149 -71h-3v64c42 38 100 60 162 60c84 0 145 -40 168 -115h1
c35 75 104 115 185 115c121 0 215 -92 215 -228c0 -13 0 -29 -1 -43h-379c1 -139 79 -216 195 -216c70 0 126 31 159 71h3v-63c-44 -38 -104 -60 -172 -60zM248 34c63 0 122 28 162 82c-12 27 -21 59 -23 95c-33 22 -80 38 -128 38c-87 0 -138 -38 -138 -108
c0 -60 41 -107 127 -107zM763 301c-2 98 -66 167 -156 167c-88 0 -151 -60 -163 -167h319z" />
    <glyph glyph-name="cacute" unicode="&#x107;" horiz-adv-x="467" 
d="M280 554h-54l131 196h65zM423 108v-67c-40 -37 -93 -59 -155 -59c-124 0 -227 94 -227 270c0 173 99 269 225 269c61 0 114 -20 154 -58v-68h-3c-29 41 -81 73 -143 73c-104 0 -171 -83 -171 -217c0 -133 69 -216 176 -216c61 0 112 32 141 73h3z" />
    <glyph glyph-name="ccircumflex" unicode="&#x109;" horiz-adv-x="467" 
d="M423 555h-54l-105 149h-1l-106 -149h-54l141 203h38zM423 108v-67c-40 -37 -93 -59 -155 -59c-124 0 -227 94 -227 270c0 173 99 269 225 269c61 0 114 -20 154 -58v-68h-3c-29 41 -81 73 -143 73c-104 0 -171 -83 -171 -217c0 -133 69 -216 176 -216c61 0 112 32 141 73
h3z" />
    <glyph glyph-name="ccaron" unicode="&#x10d;" horiz-adv-x="467" 
d="M271 547h-38l-141 203h54l105 -149h1l106 149h54zM423 108v-67c-40 -37 -93 -59 -155 -59c-124 0 -227 94 -227 270c0 173 99 269 225 269c61 0 114 -20 154 -58v-68h-3c-29 41 -81 73 -143 73c-104 0 -171 -83 -171 -217c0 -133 69 -216 176 -216c61 0 112 32 141 73h3z
" />
    <glyph glyph-name="cdotaccent" unicode="&#x10b;" horiz-adv-x="467" 
d="M423 108v-67c-40 -37 -93 -59 -155 -59c-124 0 -227 94 -227 270c0 173 99 269 225 269c61 0 114 -20 154 -58v-68h-3c-29 41 -81 73 -143 73c-104 0 -171 -83 -171 -217c0 -133 69 -216 176 -216c61 0 112 32 141 73h3zM287 683h-66v67h66v-67z" />
    <glyph glyph-name="ccedilla" unicode="&#xe7;" horiz-adv-x="467" 
d="M354 -122c0 -47 -45 -71 -101 -71c-28 0 -56 4 -83 17v39h3c17 -11 41 -21 72 -21c39 0 58 13 58 37c0 34 -37 41 -90 44l16 63c-106 17 -188 109 -188 266c0 173 99 269 225 269c61 0 114 -20 154 -58v-68h-3c-29 41 -81 73 -143 73c-104 0 -171 -83 -171 -217
c0 -133 69 -216 176 -216c61 0 112 32 141 73h3v-67c-39 -36 -91 -58 -151 -59l-9 -32c49 -6 91 -21 91 -72z" />
    <glyph glyph-name="ccedilla.fr" unicode="&#xe16b;" horiz-adv-x="467" 
d="M222 -124h-58l75 108c-111 13 -198 105 -198 268c0 173 99 269 225 269c61 0 114 -20 154 -58v-68h-3c-29 41 -81 73 -143 73c-104 0 -171 -83 -171 -217c0 -133 69 -216 176 -216c61 0 112 32 141 73h3v-67c-34 -31 -76 -51 -126 -57z" />
    <glyph glyph-name="dcaron" unicode="&#x10f;" horiz-adv-x="663" 
d="M600 551h-48l54 199h57zM492 0h-57v43h-1c-42 -38 -95 -61 -160 -61c-130 0 -232 97 -232 270c0 172 104 269 244 269c60 0 111 -18 147 -43h1v272h58v-750zM434 103v313c-34 31 -83 52 -137 52c-117 0 -193 -79 -193 -216c0 -135 74 -216 184 -216c61 0 110 25 146 67z
" />
    <glyph glyph-name="dcroat" unicode="&#x111;" horiz-adv-x="582" 
d="M492 0h-57v43h-1c-42 -38 -95 -61 -160 -61c-130 0 -232 97 -232 270c0 172 104 269 244 269c60 0 111 -18 147 -43h1v126h-194v48h194v98h58v-98h90v-48h-90v-604zM434 103v313c-34 31 -83 52 -137 52c-117 0 -193 -79 -193 -216c0 -135 74 -216 184 -216
c61 0 110 25 146 67z" />
    <glyph glyph-name="egrave" unicode="&#xe8;" horiz-adv-x="535" 
d="M461 42c-44 -38 -105 -60 -172 -60c-139 0 -248 94 -248 270c0 173 99 269 228 269c121 0 215 -92 215 -229c0 -12 0 -28 -1 -42h-379c2 -141 79 -215 195 -215c69 0 126 30 159 71h3v-64zM423 301c-1 97 -65 167 -154 167s-153 -61 -164 -167h318zM288 555h-55l-141 195
h66z" />
    <glyph glyph-name="eacute" unicode="&#xe9;" horiz-adv-x="535" 
d="M287 554h-54l131 196h65zM461 42c-44 -38 -105 -60 -172 -60c-139 0 -248 94 -248 270c0 173 99 269 228 269c121 0 215 -92 215 -229c0 -12 0 -28 -1 -42h-379c2 -141 79 -215 195 -215c69 0 126 30 159 71h3v-64zM423 301c-1 97 -65 167 -154 167s-153 -61 -164 -167
h318z" />
    <glyph glyph-name="ecircumflex" unicode="&#xea;" horiz-adv-x="535" 
d="M427 555h-54l-105 149h-1l-106 -149h-54l141 203h38zM461 42c-44 -38 -105 -60 -172 -60c-139 0 -248 94 -248 270c0 173 99 269 228 269c121 0 215 -92 215 -229c0 -12 0 -28 -1 -42h-379c2 -141 79 -215 195 -215c69 0 126 30 159 71h3v-64zM423 301
c-1 97 -65 167 -154 167s-153 -61 -164 -167h318z" />
    <glyph glyph-name="ecaron" unicode="&#x11b;" horiz-adv-x="535" 
d="M286 547h-38l-141 203h54l105 -149h1l106 149h54zM461 42c-44 -38 -105 -60 -172 -60c-139 0 -248 94 -248 270c0 173 99 269 228 269c121 0 215 -92 215 -229c0 -12 0 -28 -1 -42h-379c2 -141 79 -215 195 -215c69 0 126 30 159 71h3v-64zM423 301
c-1 97 -65 167 -154 167s-153 -61 -164 -167h318z" />
    <glyph glyph-name="edieresis" unicode="&#xeb;" horiz-adv-x="535" 
d="M200 683h-63v67h63v-67zM398 683h-63v67h63v-67zM461 42c-44 -38 -105 -60 -172 -60c-139 0 -248 94 -248 270c0 173 99 269 228 269c121 0 215 -92 215 -229c0 -12 0 -28 -1 -42h-379c2 -141 79 -215 195 -215c69 0 126 30 159 71h3v-64zM423 301
c-1 97 -65 167 -154 167s-153 -61 -164 -167h318z" />
    <glyph glyph-name="emacron" unicode="&#x113;" horiz-adv-x="535" 
d="M461 42c-44 -38 -105 -60 -172 -60c-139 0 -248 94 -248 270c0 173 99 269 228 269c121 0 215 -92 215 -229c0 -12 0 -28 -1 -42h-379c2 -141 79 -215 195 -215c69 0 126 30 159 71h3v-64zM423 301c-1 97 -65 167 -154 167s-153 -61 -164 -167h318zM418 685h-302v47h302
v-47z" />
    <glyph glyph-name="ebreve" unicode="&#x115;" horiz-adv-x="535" 
d="M461 42c-44 -38 -105 -60 -172 -60c-139 0 -248 94 -248 270c0 173 99 269 228 269c121 0 215 -92 215 -229c0 -12 0 -28 -1 -42h-379c2 -141 79 -215 195 -215c69 0 126 30 159 71h3v-64zM423 301c-1 97 -65 167 -154 167s-153 -61 -164 -167h318zM267 596
c-94 0 -147 67 -157 154h45c12 -66 50 -108 112 -108s100 42 112 108h45c-10 -87 -63 -154 -157 -154z" />
    <glyph glyph-name="edotaccent" unicode="&#x117;" horiz-adv-x="535" 
d="M461 42c-44 -38 -105 -60 -172 -60c-139 0 -248 94 -248 270c0 173 99 269 228 269c121 0 215 -92 215 -229c0 -12 0 -28 -1 -42h-379c2 -141 79 -215 195 -215c69 0 126 30 159 71h3v-64zM423 301c-1 97 -65 167 -154 167s-153 -61 -164 -167h318zM300 683h-66v67h66
v-67z" />
    <glyph glyph-name="eogonek" unicode="&#x119;" horiz-adv-x="535" 
d="M461 -167c-22 -16 -53 -26 -84 -26c-57 0 -87 33 -87 72c0 36 29 74 67 114c-21 -8 -44 -11 -68 -11c-139 0 -248 94 -248 270c0 173 99 269 228 269c121 0 215 -92 215 -229c0 -12 0 -28 -1 -42h-379c2 -141 79 -215 195 -215c69 0 126 30 159 71h3v-64
c-46 -34 -122 -108 -122 -151c0 -27 20 -43 49 -43c26 0 49 9 70 30h3v-45zM423 301c-1 97 -64 167 -155 167c-88 0 -152 -60 -163 -167h318z" />
    <glyph glyph-name="gcircumflex" unicode="&#x11d;" horiz-adv-x="566" 
d="M446 555h-54l-105 149h-1l-106 -149h-54l141 203h38zM422 114v304c-34 31 -82 50 -131 50c-112 0 -186 -77 -186 -207c0 -127 73 -207 178 -207c58 0 106 24 139 60zM280 -194c-60 0 -126 18 -171 60v64h3c42 -49 101 -72 164 -72c108 0 146 67 146 153v46h-1
c-37 -34 -91 -57 -154 -57c-124 0 -225 91 -225 261c0 168 102 260 237 260c57 0 109 -20 147 -47h1l50 32h3v-492c0 -141 -79 -208 -200 -208z" />
    <glyph glyph-name="gbreve" unicode="&#x11f;" horiz-adv-x="566" 
d="M422 114v304c-34 31 -82 50 -131 50c-112 0 -186 -77 -186 -207c0 -127 73 -207 178 -207c58 0 106 24 139 60zM280 -194c-60 0 -126 18 -171 60v64h3c42 -49 101 -72 164 -72c108 0 146 67 146 153v46h-1c-37 -34 -91 -57 -154 -57c-124 0 -225 91 -225 261
c0 168 102 260 237 260c57 0 109 -20 147 -47h1l50 32h3v-492c0 -141 -79 -208 -200 -208zM286 596c-94 0 -147 67 -157 154h45c12 -66 50 -108 112 -108s100 42 112 108h45c-10 -87 -63 -154 -157 -154z" />
    <glyph glyph-name="gdotaccent" unicode="&#x121;" horiz-adv-x="566" 
d="M422 114v304c-34 31 -82 50 -131 50c-112 0 -186 -77 -186 -207c0 -127 73 -207 178 -207c58 0 106 24 139 60zM280 -194c-60 0 -126 18 -171 60v64h3c42 -49 101 -72 164 -72c108 0 146 67 146 153v46h-1c-37 -34 -91 -57 -154 -57c-124 0 -225 91 -225 261
c0 168 102 260 237 260c57 0 109 -20 147 -47h1l50 32h3v-492c0 -141 -79 -208 -200 -208zM319 683h-66v67h66v-67z" />
    <glyph glyph-name="gcommaaccent" unicode="&#x123;" horiz-adv-x="566" 
d="M314 594h-65l114 156h55zM422 114v304c-34 31 -82 50 -131 50c-112 0 -186 -77 -186 -207c0 -127 73 -207 178 -207c58 0 106 24 139 60zM280 -194c-60 0 -126 18 -171 60v64h3c42 -49 101 -72 164 -72c108 0 146 67 146 153v46h-1c-37 -34 -91 -57 -154 -57
c-124 0 -225 91 -225 261c0 168 102 260 237 260c57 0 109 -20 147 -47h1l50 32h3v-492c0 -141 -79 -208 -200 -208z" />
    <glyph glyph-name="hcircumflex" unicode="&#x125;" horiz-adv-x="572" 
d="M279 770h-54l-105 149h-1l-106 -149h-54l141 203h38zM487 0h-58v321c0 101 -61 147 -139 147c-56 0 -104 -24 -142 -67v-401h-58v750h58v-289h1c41 37 94 60 154 60c101 0 184 -58 184 -183v-338z" />
    <glyph glyph-name="hbar" unicode="&#x127;" horiz-adv-x="572" 
d="M487 0h-58v321c0 101 -61 147 -139 147c-56 0 -104 -24 -142 -67v-401h-58v604h-90v48h90v98h58v-98h209v-48h-209v-143h1c41 37 94 60 154 60c101 0 184 -58 184 -183v-338z" />
    <glyph glyph-name="igrave" unicode="&#xec;" horiz-adv-x="238" 
d="M148 0h-58v503h58v-503zM143 555h-55l-141 195h66z" />
    <glyph glyph-name="iacute" unicode="&#xed;" horiz-adv-x="238" 
d="M148 0h-58v503h58v-503zM148 554h-54l131 196h65z" />
    <glyph glyph-name="icircumflex" unicode="&#xee;" horiz-adv-x="238" 
d="M148 0h-58v503h58v-503zM279 555h-54l-105 149h-1l-106 -149h-54l141 203h38z" />
    <glyph glyph-name="itilde" unicode="&#x129;" horiz-adv-x="238" 
d="M148 0h-58v503h58v-503zM195 622c-56 0 -103 81 -149 81c-29 0 -42 -27 -60 -81h-42c23 87 50 128 99 128c56 0 103 -81 149 -81c29 0 42 27 60 81h42c-23 -87 -50 -128 -99 -128z" />
    <glyph glyph-name="idieresis" unicode="&#xef;" horiz-adv-x="238" 
d="M148 0h-58v503h58v-503zM52 683h-63v67h63v-67zM250 683h-63v67h63v-67z" />
    <glyph glyph-name="imacron" unicode="&#x12b;" horiz-adv-x="238" 
d="M148 0h-58v503h58v-503zM270 685h-302v47h302v-47z" />
    <glyph glyph-name="ibreve" unicode="&#x12d;" horiz-adv-x="238" 
d="M148 0h-58v503h58v-503zM119 596c-94 0 -147 67 -157 154h45c12 -66 50 -108 112 -108s100 42 112 108h45c-10 -87 -63 -154 -157 -154z" />
    <glyph glyph-name="iogonek" unicode="&#x12f;" horiz-adv-x="238" 
d="M187 -167c-22 -16 -53 -26 -84 -26c-57 0 -87 33 -87 73c0 43 31 79 78 120h-4v503h58v-503h-11c-49 -47 -72 -74 -72 -107c0 -29 20 -45 49 -45c26 0 49 9 70 30h3v-45zM152 683h-66v67h66v-67z" />
    <glyph glyph-name="dotlessi" unicode="&#x131;" horiz-adv-x="238" 
d="M148 0h-58v503h58v-503z" />
    <glyph glyph-name="i.TRK" unicode="&#xe08a;" horiz-adv-x="238" 
d="M148 0h-58v503h58v-503zM152 683h-66v67h66v-67z" />
    <glyph glyph-name="ij" unicode="&#x133;" horiz-adv-x="477" 
d="M256 -193c-34 0 -67 12 -88 29v60h3c19 -22 48 -36 76 -36c46 0 81 32 81 107v536h58v-537c0 -102 -51 -159 -130 -159zM148 0h-58v503h58v-503zM390 683h-66v67h66v-67zM152 683h-66v67h66v-67z" />
    <glyph glyph-name="jcircumflex" unicode="&#x135;" horiz-adv-x="238" 
d="M18 -193c-34 0 -67 13 -88 30v54h3c19 -22 47 -35 76 -35c44 0 81 32 81 111v536h58v-538c0 -100 -51 -158 -130 -158zM279 555h-54l-105 149h-1l-106 -149h-54l141 203h38z" />
    <glyph glyph-name="kcommaaccent" unicode="&#x137;" horiz-adv-x="474" 
d="M184 -193h-55l104 156h65zM148 0h-58v750h58v-750zM456 0h-74l-220 253v4l212 246h71l-213 -246v-2z" />
    <glyph glyph-name="lacute" unicode="&#x13a;" horiz-adv-x="238" 
d="M145 770h-54l131 196h65zM148 0h-58v750h58v-750z" />
    <glyph glyph-name="lcaron" unicode="&#x13e;" horiz-adv-x="314" 
d="M256 551h-48l54 199h57zM148 0h-58v750h58v-750z" />
    <glyph glyph-name="lcommaaccent" unicode="&#x13c;" horiz-adv-x="238" 
d="M39 -193h-55l104 156h65zM148 0h-58v750h58v-750z" />
    <glyph glyph-name="lslash" unicode="&#x142;" horiz-adv-x="238" 
d="M148 0h-58v408l-90 -43v53l90 43v289h58v-261l90 44v-54l-90 -43v-436z" />
    <glyph glyph-name="ldot" unicode="&#x140;" horiz-adv-x="313" 
d="M148 0h-58v750h58v-750zM305 224h-68v81h68v-81z" />
    <glyph glyph-name="nacute" unicode="&#x144;" horiz-adv-x="584" 
d="M323 554h-54l131 196h65zM499 0h-58v321c0 101 -63 147 -145 147c-62 0 -110 -24 -148 -67v-401h-58v503h57v-43h1c42 38 97 61 161 61c105 0 190 -58 190 -183v-338z" />
    <glyph glyph-name="ncaron" unicode="&#x148;" horiz-adv-x="584" 
d="M311 547h-38l-141 203h54l105 -149h1l106 149h54zM499 0h-58v321c0 101 -63 147 -145 147c-62 0 -110 -24 -148 -67v-401h-58v503h57v-43h1c42 38 97 61 161 61c105 0 190 -58 190 -183v-338z" />
    <glyph glyph-name="ntilde" unicode="&#xf1;" horiz-adv-x="584" 
d="M499 0h-58v321c0 101 -63 147 -145 147c-62 0 -110 -24 -148 -67v-401h-58v503h57v-43h1c42 38 97 61 161 61c105 0 190 -58 190 -183v-338zM372 622c-56 0 -103 81 -149 81c-29 0 -42 -27 -60 -81h-42c23 87 50 128 99 128c56 0 103 -81 149 -81c29 0 42 27 60 81h42
c-23 -87 -50 -128 -99 -128z" />
    <glyph glyph-name="ncommaaccent" unicode="&#x146;" horiz-adv-x="584" 
d="M230 -193h-55l104 156h65zM499 0h-58v321c0 101 -63 147 -145 147c-62 0 -110 -24 -148 -67v-401h-58v503h57v-43h1c42 38 97 61 161 61c105 0 190 -58 190 -183v-338z" />
    <glyph glyph-name="ograve" unicode="&#xf2;" horiz-adv-x="566" 
d="M463 252c0 136 -75 216 -180 216c-104 0 -180 -79 -180 -216s75 -217 180 -217c104 0 180 79 180 217zM525 252c0 -174 -108 -270 -242 -270s-242 95 -242 270c0 174 108 269 242 269s242 -95 242 -269zM309 555h-55l-141 195h66z" />
    <glyph glyph-name="oacute" unicode="&#xf3;" horiz-adv-x="566" 
d="M307 554h-54l131 196h65zM463 252c0 136 -75 216 -180 216c-104 0 -180 -79 -180 -216s75 -217 180 -217c104 0 180 79 180 217zM525 252c0 -174 -108 -270 -242 -270s-242 95 -242 270c0 174 108 269 242 269s242 -95 242 -269z" />
    <glyph glyph-name="ocircumflex" unicode="&#xf4;" horiz-adv-x="566" 
d="M443 555h-54l-105 149h-1l-106 -149h-54l141 203h38zM463 252c0 136 -75 216 -180 216c-104 0 -180 -79 -180 -216s75 -217 180 -217c104 0 180 79 180 217zM525 252c0 -174 -108 -270 -242 -270s-242 95 -242 270c0 174 108 269 242 269s242 -95 242 -269z" />
    <glyph glyph-name="otilde" unicode="&#xf5;" horiz-adv-x="566" 
d="M463 252c0 136 -75 216 -180 216c-104 0 -180 -79 -180 -216s75 -217 180 -217c104 0 180 79 180 217zM525 252c0 -174 -108 -270 -242 -270s-242 95 -242 270c0 174 108 269 242 269s242 -95 242 -269zM359 622c-56 0 -103 81 -149 81c-29 0 -42 -27 -60 -81h-42
c23 87 50 128 99 128c56 0 103 -81 149 -81c29 0 42 27 60 81h42c-23 -87 -50 -128 -99 -128z" />
    <glyph glyph-name="odieresis" unicode="&#xf6;" horiz-adv-x="566" 
d="M215 683h-63v67h63v-67zM413 683h-63v67h63v-67zM463 252c0 136 -75 216 -180 216c-104 0 -180 -79 -180 -216s75 -217 180 -217c104 0 180 79 180 217zM525 252c0 -174 -108 -270 -242 -270s-242 95 -242 270c0 174 108 269 242 269s242 -95 242 -269z" />
    <glyph glyph-name="omacron" unicode="&#x14d;" horiz-adv-x="566" 
d="M434 685h-302v47h302v-47zM463 252c0 136 -75 216 -180 216c-104 0 -180 -79 -180 -216s75 -217 180 -217c104 0 180 79 180 217zM525 252c0 -174 -108 -270 -242 -270s-242 95 -242 270c0 174 108 269 242 269s242 -95 242 -269z" />
    <glyph glyph-name="obreve" unicode="&#x14f;" horiz-adv-x="566" 
d="M463 252c0 136 -75 216 -180 216c-104 0 -180 -79 -180 -216s75 -217 180 -217c104 0 180 79 180 217zM525 252c0 -174 -108 -270 -242 -270s-242 95 -242 270c0 174 108 269 242 269s242 -95 242 -269zM283 596c-94 0 -147 67 -157 154h45c12 -66 50 -108 112 -108
s100 42 112 108h45c-10 -87 -63 -154 -157 -154z" />
    <glyph glyph-name="ohungarumlaut" unicode="&#x151;" horiz-adv-x="566" 
d="M238 554h-55l131 196h65zM391 554h-54l131 196h65zM463 252c0 136 -75 216 -180 216c-104 0 -180 -79 -180 -216s75 -217 180 -217c104 0 180 79 180 217zM525 252c0 -174 -108 -270 -242 -270s-242 95 -242 270c0 174 108 269 242 269s242 -95 242 -269z" />
    <glyph glyph-name="oslash" unicode="&#xf8;" horiz-adv-x="566" 
d="M103 -18h-62l61 79c-38 46 -61 110 -61 191c0 174 108 269 242 269c54 0 104 -16 145 -46l35 46h62l-62 -80c39 -45 62 -109 62 -189c0 -174 -108 -270 -242 -270c-55 0 -105 16 -145 46zM463 252c0 58 -13 105 -37 141l-253 -320c29 -25 67 -38 110 -38
c104 0 180 79 180 217zM103 252c0 -58 13 -106 37 -142l253 320c-30 25 -68 38 -110 38c-104 0 -180 -79 -180 -216z" />
    <glyph glyph-name="oslashacute" unicode="&#x1ff;" horiz-adv-x="566" 
d="M103 -18h-62l61 79c-38 46 -61 110 -61 191c0 174 108 269 242 269c54 0 104 -16 145 -46l35 46h62l-62 -80c39 -45 62 -109 62 -189c0 -174 -108 -270 -242 -270c-55 0 -105 16 -145 46zM463 252c0 58 -13 105 -37 141l-253 -320c29 -25 67 -38 110 -38
c104 0 180 79 180 217zM103 252c0 -58 13 -106 37 -142l253 320c-30 25 -68 38 -110 38c-104 0 -180 -79 -180 -216zM307 554h-54l131 196h65z" />
    <glyph glyph-name="oe" unicode="&#x153;" horiz-adv-x="955" 
d="M881 42c-45 -38 -105 -60 -172 -60c-98 0 -182 49 -217 145h-1c-34 -94 -115 -145 -208 -145c-134 0 -242 95 -242 270c0 174 108 269 242 269c93 0 172 -50 206 -142h1c32 94 109 142 199 142c121 0 215 -92 215 -228c0 -13 0 -29 -2 -43h-379c3 -142 81 -215 195 -215
c70 0 126 30 159 70h4v-63zM463 252c0 135 -75 215 -180 215c-104 0 -180 -79 -180 -215s75 -216 180 -216c104 0 180 79 180 216zM843 301c-1 97 -65 167 -155 167c-88 0 -152 -61 -163 -167h318z" />
    <glyph glyph-name="racute" unicode="&#x155;" horiz-adv-x="365" 
d="M223 554h-54l131 196h65zM152 0h-58v503h56v-44h1c38 36 80 62 132 62c19 0 37 -3 54 -9v-61h-3c-18 10 -37 15 -58 15c-49 0 -86 -29 -124 -65v-401z" />
    <glyph glyph-name="rcaron" unicode="&#x159;" horiz-adv-x="365" 
d="M227 547h-38l-141 203h54l105 -149h1l106 149h54zM152 0h-58v503h56v-44h1c38 36 80 62 132 62c19 0 37 -3 54 -9v-61h-3c-18 10 -37 15 -58 15c-49 0 -86 -29 -124 -65v-401z" />
    <glyph glyph-name="rcommaaccent" unicode="&#x157;" horiz-adv-x="365" 
d="M48 -193h-55l104 156h65zM152 0h-58v503h56v-44h1c38 36 80 62 132 62c19 0 37 -3 54 -9v-61h-3c-18 10 -37 15 -58 15c-49 0 -86 -29 -124 -65v-401z" />
    <glyph glyph-name="sacute" unicode="&#x15b;" horiz-adv-x="437" 
d="M235 554h-54l131 196h65zM372 122c0 -80 -55 -140 -161 -140c-59 0 -109 17 -144 52v65h3c33 -44 86 -66 141 -66c63 0 103 34 103 85c0 137 -245 84 -245 267c0 75 48 136 150 136c50 0 100 -17 135 -52v-65h-3c-31 40 -79 67 -130 67c-62 0 -94 -35 -94 -82
c0 -135 245 -79 245 -267z" />
    <glyph glyph-name="scircumflex" unicode="&#x15d;" horiz-adv-x="437" 
d="M379 555h-54l-105 149h-1l-106 -149h-54l141 203h38zM372 122c0 -80 -55 -140 -161 -140c-59 0 -109 17 -144 52v65h3c33 -44 86 -66 141 -66c63 0 103 34 103 85c0 137 -245 84 -245 267c0 75 48 136 150 136c50 0 100 -17 135 -52v-65h-3c-31 40 -79 67 -130 67
c-62 0 -94 -35 -94 -82c0 -135 245 -79 245 -267z" />
    <glyph glyph-name="scaron" unicode="&#x161;" horiz-adv-x="437" 
d="M236 547h-38l-141 203h54l105 -149h1l106 149h54zM372 122c0 -80 -55 -140 -161 -140c-59 0 -109 17 -144 52v65h3c33 -44 86 -66 141 -66c63 0 103 34 103 85c0 137 -245 84 -245 267c0 75 48 136 150 136c50 0 100 -17 135 -52v-65h-3c-31 40 -79 67 -130 67
c-62 0 -94 -35 -94 -82c0 -135 245 -79 245 -267z" />
    <glyph glyph-name="scedilla" unicode="&#x15f;" horiz-adv-x="437" 
d="M309 -122c0 -47 -45 -71 -101 -71c-28 0 -56 4 -83 17v39h3c17 -11 41 -21 72 -21c39 0 58 13 58 37c0 34 -37 41 -90 44l15 60c-47 5 -87 21 -116 51v65h3c33 -44 86 -66 141 -66c63 0 103 34 103 85c0 137 -245 84 -245 267c0 75 48 136 150 136c50 0 100 -17 135 -52
v-65h-3c-31 40 -79 67 -130 67c-62 0 -94 -35 -94 -82c0 -135 245 -79 245 -267c0 -76 -50 -133 -145 -139l-9 -33c49 -6 91 -21 91 -72z" />
    <glyph glyph-name="scommaaccent" unicode="&#x219;" horiz-adv-x="437" 
d="M151 -193h-55l104 156h65zM372 122c0 -80 -55 -140 -161 -140c-59 0 -109 17 -144 52v65h3c33 -44 86 -66 141 -66c63 0 103 34 103 85c0 137 -245 84 -245 267c0 75 48 136 150 136c50 0 100 -17 135 -52v-65h-3c-31 40 -79 67 -130 67c-62 0 -94 -35 -94 -82
c0 -135 245 -79 245 -267z" />
    <glyph glyph-name="germandbls" unicode="&#xdf;" horiz-adv-x="581" 
d="M357 -18c-60 0 -110 17 -145 52v65h3c34 -44 87 -66 140 -66c64 0 105 33 105 85c0 139 -246 83 -246 268c0 165 205 124 205 236c0 55 -49 82 -122 82c-83 0 -143 -38 -143 -118v-586h-58v450h-38v4l38 49v89c0 100 76 165 201 165c110 0 183 -46 183 -132
c0 -148 -208 -106 -208 -234c0 -141 245 -78 245 -270c0 -79 -55 -139 -160 -139z" />
    <glyph glyph-name="tcaron" unicode="&#x165;" horiz-adv-x="326" 
d="M262 551h-48l54 199h57zM154 0h-58v450h-38v4l38 49v152h58v-152h126v-53h-126v-450z" />
    <glyph glyph-name="tcommaaccent" unicode="&#x163;" horiz-adv-x="308" 
d="M48 -193h-55l104 156h65zM154 0h-58v450h-38v4l38 49v152h58v-152h126v-53h-126v-450z" />
    <glyph glyph-name="tcommaaccent" unicode="&#x21b;" horiz-adv-x="308" 
d="M48 -193h-55l104 156h65zM154 0h-58v450h-38v4l38 49v152h58v-152h126v-53h-126v-450z" />
    <glyph glyph-name="tbar" unicode="&#x167;" horiz-adv-x="308" 
d="M154 0h-58v227h-69v48h69v175h-38v4l38 49v152h58v-152h126v-53h-126v-175h106v-48h-106v-227z" />
    <glyph glyph-name="ugrave" unicode="&#xf9;" horiz-adv-x="566" 
d="M481 503v-329c0 -123 -79 -192 -199 -192c-118 0 -197 68 -197 192v329h58v-322c0 -99 52 -146 140 -146c87 0 140 47 140 146v322h58zM310 555h-55l-141 195h66z" />
    <glyph glyph-name="uacute" unicode="&#xfa;" horiz-adv-x="566" 
d="M303 554h-54l131 196h65zM481 503v-329c0 -123 -79 -192 -199 -192c-118 0 -197 68 -197 192v329h58v-322c0 -99 52 -146 140 -146c87 0 140 47 140 146v322h58z" />
    <glyph glyph-name="ucircumflex" unicode="&#xfb;" horiz-adv-x="566" 
d="M443 555h-54l-105 149h-1l-106 -149h-54l141 203h38zM481 503v-329c0 -123 -79 -192 -199 -192c-118 0 -197 68 -197 192v329h58v-322c0 -99 52 -146 140 -146c87 0 140 47 140 146v322h58z" />
    <glyph glyph-name="utilde" unicode="&#x169;" horiz-adv-x="566" 
d="M481 503v-329c0 -123 -79 -192 -199 -192c-118 0 -197 68 -197 192v329h58v-322c0 -99 52 -146 140 -146c87 0 140 47 140 146v322h58zM360 622c-56 0 -103 81 -149 81c-29 0 -42 -27 -60 -81h-42c23 87 50 128 99 128c56 0 103 -81 149 -81c29 0 42 27 60 81h42
c-23 -87 -50 -128 -99 -128z" />
    <glyph glyph-name="udieresis" unicode="&#xfc;" horiz-adv-x="566" 
d="M215 683h-63v67h63v-67zM413 683h-63v67h63v-67zM481 503v-329c0 -123 -79 -192 -199 -192c-118 0 -197 68 -197 192v329h58v-322c0 -99 52 -146 140 -146c87 0 140 47 140 146v322h58z" />
    <glyph glyph-name="umacron" unicode="&#x16b;" horiz-adv-x="566" 
d="M481 503v-329c0 -123 -79 -192 -199 -192c-118 0 -197 68 -197 192v329h58v-322c0 -99 52 -146 140 -146c87 0 140 47 140 146v322h58zM434 685h-302v47h302v-47z" />
    <glyph glyph-name="ubreve" unicode="&#x16d;" horiz-adv-x="566" 
d="M481 503v-329c0 -123 -79 -192 -199 -192c-118 0 -197 68 -197 192v329h58v-322c0 -99 52 -146 140 -146c87 0 140 47 140 146v322h58zM283 596c-94 0 -147 67 -157 154h45c12 -66 50 -108 112 -108s100 42 112 108h45c-10 -87 -63 -154 -157 -154z" />
    <glyph glyph-name="uring" unicode="&#x16f;" horiz-adv-x="566" 
d="M388 671c0 -64 -51 -95 -105 -95c-56 0 -106 31 -106 95c0 62 51 93 106 93c54 0 105 -31 105 -93zM345 671c0 37 -27 59 -62 59c-36 0 -65 -22 -65 -59c0 -40 29 -62 65 -62c35 0 62 22 62 62zM481 503v-329c0 -123 -79 -192 -199 -192c-118 0 -197 68 -197 192v329h58
v-322c0 -99 52 -146 140 -146c87 0 140 47 140 146v322h58z" />
    <glyph glyph-name="uhungarumlaut" unicode="&#x171;" horiz-adv-x="566" 
d="M481 503v-329c0 -123 -79 -192 -199 -192c-118 0 -197 68 -197 192v329h58v-322c0 -99 52 -146 140 -146c87 0 140 47 140 146v322h58zM230 554h-55l131 196h65zM383 554h-54l131 196h65z" />
    <glyph glyph-name="uogonek" unicode="&#x173;" horiz-adv-x="566" 
d="M481 503v-329c0 -110 -63 -176 -161 -189c-38 -38 -56 -63 -56 -92s20 -45 49 -45c26 0 49 9 70 30h3v-45c-22 -16 -53 -26 -84 -26c-57 0 -87 33 -87 73c0 37 23 68 59 102c-114 3 -189 71 -189 192v329h58v-322c0 -99 52 -146 140 -146c87 0 140 47 140 146v322h58z
" />
    <glyph glyph-name="wgrave" unicode="&#x1e81;" horiz-adv-x="790" 
d="M583 -18h-36l-152 401h-1l-151 -401h-36l-185 521h65l141 -408h1l164 426h5l163 -425h1l142 407h64zM423 555h-55l-141 195h66z" />
    <glyph glyph-name="wacute" unicode="&#x1e83;" horiz-adv-x="790" 
d="M423 554h-54l131 196h65zM583 -18h-36l-152 401h-1l-151 -401h-36l-185 521h65l141 -408h1l164 426h5l163 -425h1l142 407h64z" />
    <glyph glyph-name="wcircumflex" unicode="&#x175;" horiz-adv-x="790" 
d="M555 555h-54l-105 149h-1l-106 -149h-54l141 203h38zM583 -18h-36l-152 401h-1l-151 -401h-36l-185 521h65l141 -408h1l164 426h5l163 -425h1l142 407h64z" />
    <glyph glyph-name="wdieresis" unicode="&#x1e85;" horiz-adv-x="790" 
d="M327 683h-63v67h63v-67zM525 683h-63v67h63v-67zM583 -18h-36l-152 401h-1l-151 -401h-36l-185 521h65l141 -408h1l164 426h5l163 -425h1l142 407h64z" />
    <glyph glyph-name="ygrave" unicode="&#x1ef3;" horiz-adv-x="496" 
d="M212 -193h-63l76 194l-216 502h66l179 -425h1l156 425h64zM276 555h-55l-141 195h66z" />
    <glyph glyph-name="yacute" unicode="&#xfd;" horiz-adv-x="496" 
d="M212 -193h-63l76 194l-216 502h66l179 -425h1l156 425h64zM278 554h-54l131 196h65z" />
    <glyph glyph-name="ycircumflex" unicode="&#x177;" horiz-adv-x="496" 
d="M212 -193h-63l76 194l-216 502h66l179 -425h1l156 425h64zM408 555h-54l-105 149h-1l-106 -149h-54l141 203h38z" />
    <glyph glyph-name="ydieresis" unicode="&#xff;" horiz-adv-x="496" 
d="M212 -193h-63l76 194l-216 502h66l179 -425h1l156 425h64zM181 683h-63v67h63v-67zM379 683h-63v67h63v-67z" />
    <glyph glyph-name="zacute" unicode="&#x17a;" horiz-adv-x="462" 
d="M254 554h-54l131 196h65zM424 0h-389v5l278 444v1h-259v53h357v-5l-279 -444v-1h292v-53z" />
    <glyph glyph-name="zcaron" unicode="&#x17e;" horiz-adv-x="462" 
d="M248 547h-38l-141 203h54l105 -149h1l106 149h54zM424 0h-389v5l278 444v1h-259v53h357v-5l-279 -444v-1h292v-53z" />
    <glyph glyph-name="zdotaccent" unicode="&#x17c;" horiz-adv-x="462" 
d="M424 0h-389v5l278 444v1h-259v53h357v-5l-279 -444v-1h292v-53zM262 683h-66v67h66v-67z" />
    <glyph glyph-name="eng" unicode="&#x14b;" horiz-adv-x="584" 
d="M370 -193c-34 0 -66 12 -86 29v58h3c18 -20 45 -34 73 -34c44 0 81 32 81 109v352c0 101 -63 147 -145 147c-62 0 -110 -24 -148 -67v-401h-58v503h57v-43h1c42 38 97 61 161 61c105 0 190 -58 190 -183v-372c0 -100 -51 -159 -129 -159z" />
    <glyph glyph-name="eth" unicode="&#xf0;" horiz-adv-x="566" 
d="M445 656l-103 -26l121 -184c40 -60 62 -117 62 -195c0 -173 -108 -269 -242 -269s-242 95 -242 269c0 163 99 264 231 264c30 0 61 -5 87 -18l-77 117l-141 -35v51l112 28l-58 90v2h68l50 -77l132 33v-50zM463 251c0 135 -75 212 -180 212c-104 0 -180 -76 -180 -212
c0 -135 75 -215 180 -215c104 0 180 79 180 215z" />
    <glyph glyph-name="thorn" unicode="&#xfe;" horiz-adv-x="582" 
d="M478 252c0 134 -74 216 -184 216c-61 0 -109 -26 -146 -67v-314c34 -31 83 -51 138 -51c116 0 192 78 192 216zM540 252c0 -173 -103 -270 -244 -270c-60 0 -111 18 -147 44h-1v-219h-58v943h58v-289h1c41 37 94 60 159 60c131 0 232 -96 232 -269z" />
    <glyph glyph-name="Alpha" unicode="&#x391;" horiz-adv-x="653" 
d="M635 0h-69l-97 242h-288l-97 -242h-66l284 700h48zM448 298l-122 306h-1l-122 -306h245z" />
    <glyph glyph-name="Beta" unicode="&#x392;" horiz-adv-x="599" 
d="M527 184c0 -127 -90 -184 -245 -184h-178v682h169c128 0 215 -63 215 -174c0 -75 -38 -128 -102 -159v-1c75 -16 141 -71 141 -164zM463 191c0 81 -67 125 -167 125h-130v-260h116c116 0 181 42 181 135zM424 501c0 76 -60 125 -156 125h-102v-256h149
c80 26 109 68 109 131z" />
    <glyph glyph-name="Gamma" unicode="&#x393;" horiz-adv-x="474" 
d="M166 0h-62v682h340v-60h-278v-622z" />
    <glyph glyph-name="uni0394" unicode="&#x394;" horiz-adv-x="653" 
d="M635 0h-617l284 700h48zM544 59l-218 546h-1l-219 -546h438z" />
    <glyph glyph-name="Epsilon" unicode="&#x395;" horiz-adv-x="538" 
d="M464 0h-360v682h334v-59h-272v-242h262v-59h-262v-263h298v-59z" />
    <glyph glyph-name="Zeta" unicode="&#x396;" horiz-adv-x="623" 
d="M565 0h-511v5l381 617v1h-356v59h464v-5l-382 -617v-1h404v-59z" />
    <glyph glyph-name="Eta" unicode="&#x397;" horiz-adv-x="747" 
d="M643 0h-62v323h-415v-323h-62v682h62v-300h415v300h62v-682z" />
    <glyph glyph-name="Theta" unicode="&#x398;" horiz-adv-x="734" 
d="M683 341c0 -236 -150 -359 -316 -359c-164 0 -316 122 -316 359c0 236 150 359 317 359c164 0 315 -122 315 -359zM618 341c0 197 -114 300 -250 300s-251 -102 -251 -300c0 -197 114 -300 250 -300c135 0 251 102 251 300zM515 312h-296v59h296v-59z" />
    <glyph glyph-name="Iota" unicode="&#x399;" horiz-adv-x="270" 
d="M166 0h-62v682h62v-682z" />
    <glyph glyph-name="Kappa" unicode="&#x39a;" horiz-adv-x="585" 
d="M166 0h-62v682h62v-682zM563 0h-78l-300 343v3l290 336h77l-292 -336v-2z" />
    <glyph glyph-name="Lambda" unicode="&#x39b;" horiz-adv-x="641" 
d="M623 0h-70l-233 594h-1l-232 -594h-69l280 700h45z" />
    <glyph glyph-name="Mu" unicode="&#x39c;" horiz-adv-x="864" 
d="M773 0h-63l-45 533h-1l-230 -551h-5l-230 552h-1l-44 -534h-63l60 697h45l236 -579h1l235 579h45z" />
    <glyph glyph-name="Nu" unicode="&#x39d;" horiz-adv-x="749" 
d="M645 -15h-46l-432 569h-1v-554h-62v646l-24 31v5h69l433 -573h1v573h62v-697z" />
    <glyph glyph-name="Xi" unicode="&#x39e;" horiz-adv-x="615" 
d="M549 0h-483v59h483v-59zM525 623h-435v59h435v-59zM513 322h-411v59h411v-59z" />
    <glyph glyph-name="Omicron" unicode="&#x39f;" horiz-adv-x="734" 
d="M683 341c0 -236 -150 -359 -316 -359c-164 0 -316 122 -316 359c0 236 150 359 317 359c164 0 315 -122 315 -359zM618 341c0 197 -114 300 -250 300s-251 -102 -251 -300c0 -197 114 -300 250 -300c135 0 251 102 251 300z" />
    <glyph glyph-name="Pi" unicode="&#x3a0;" horiz-adv-x="729" 
d="M625 0h-62v623h-397v-623h-62v682h521v-682z" />
    <glyph glyph-name="Rho" unicode="&#x3a1;" horiz-adv-x="569" 
d="M513 475c0 -123 -78 -224 -347 -243v-232h-62v682h171c130 0 238 -66 238 -207zM449 472c0 97 -74 152 -176 152h-107v-333c218 11 283 91 283 181z" />
    <glyph glyph-name="Sigma" unicode="&#x3a3;" horiz-adv-x="557" 
d="M510 0h-482v5l261 346v1l-250 325v5h451v-59h-335v-1l211 -268v-5l-222 -289v-1h366v-59z" />
    <glyph glyph-name="Tau" unicode="&#x3a4;" horiz-adv-x="517" 
d="M289 0h-61v623h-198v59h457v-59h-198v-623z" />
    <glyph glyph-name="Upsilon" unicode="&#x3a5;" horiz-adv-x="567" 
d="M315 0h-62v290l-244 392h75l200 -329h1l199 329h73l-242 -393v-289z" />
    <glyph glyph-name="Phi" unicode="&#x3a6;" horiz-adv-x="756" 
d="M410 -15h-62v63c-163 6 -298 105 -298 293c0 187 134 285 298 292v64h62v-64c163 -7 296 -106 296 -292c0 -187 -133 -286 -296 -293v-63zM349 105v471c-137 -5 -233 -89 -233 -235c0 -147 97 -231 233 -236zM409 105c135 6 232 89 232 236c0 146 -97 230 -232 235v-471z
" />
    <glyph glyph-name="Chi" unicode="&#x3a7;" horiz-adv-x="644" 
d="M607 0h-77l-214 300h-1l-194 -300h-76l228 348l-236 334h75l206 -292h1l196 292h75l-228 -338z" />
    <glyph glyph-name="Psi" unicode="&#x3a8;" horiz-adv-x="752" 
d="M407 0h-62v141c-174 4 -264 75 -264 249v292h62v-293c0 -129 62 -188 202 -190v483h62v-483c140 2 202 61 202 190v293h62v-292c0 -174 -91 -245 -264 -249v-141z" />
    <glyph glyph-name="uni03A9" unicode="&#x3a9;" horiz-adv-x="738" 
d="M685 0h-276v36c137 91 201 200 201 333c0 178 -106 272 -241 272s-241 -94 -241 -272c0 -133 64 -242 201 -333v-36h-276v58h167v1c-96 78 -157 180 -157 320c0 211 142 321 306 321s307 -110 307 -321c0 -140 -62 -242 -157 -320v-1h166v-58z" />
    <glyph glyph-name="Alphatonos" unicode="&#x386;" horiz-adv-x="658" 
d="M110 486h-47l36 196h57zM640 0h-69l-97 242h-288l-97 -242h-66l284 700h48zM453 298l-122 306h-1l-122 -306h245z" />
    <glyph glyph-name="Epsilontonos" unicode="&#x388;" horiz-adv-x="562" 
d="M26 486h-47l36 196h57zM488 0h-360v682h334v-59h-272v-242h262v-59h-262v-263h298v-59z" />
    <glyph glyph-name="Etatonos" unicode="&#x389;" horiz-adv-x="772" 
d="M26 486h-47l36 196h57zM667 0h-62v323h-415v-323h-62v682h62v-300h415v300h62v-682z" />
    <glyph glyph-name="Iotadieresis" unicode="&#x3aa;" horiz-adv-x="271" 
d="M166 0h-62v682h62v-682zM69 742h-63v63h63v-63zM267 742h-63v63h63v-63z" />
    <glyph glyph-name="Iotatonos" unicode="&#x38a;" horiz-adv-x="295" 
d="M26 486h-47l36 196h57zM190 0h-62v682h62v-682z" />
    <glyph glyph-name="Omicrontonos" unicode="&#x38c;" horiz-adv-x="752" 
d="M26 486h-47l36 196h57zM701 341c0 -236 -150 -359 -316 -359c-164 0 -316 122 -316 359c0 236 150 359 317 359c164 0 315 -122 315 -359zM636 341c0 197 -114 300 -250 300s-251 -102 -251 -300c0 -197 114 -300 250 -300c135 0 251 102 251 300z" />
    <glyph glyph-name="Upsilondieresis" unicode="&#x3ab;" horiz-adv-x="566" 
d="M314 0h-62v290l-244 392h75l200 -329h1l199 329h73l-242 -393v-289zM216 742h-63v63h63v-63zM414 742h-63v63h63v-63z" />
    <glyph glyph-name="Upsilontonos" unicode="&#x38e;" horiz-adv-x="642" 
d="M26 486h-47l36 196h57zM391 0h-62v290l-244 392h75l200 -329h1l199 329h73l-242 -393v-289z" />
    <glyph glyph-name="Omegatonos" unicode="&#x38f;" horiz-adv-x="754" 
d="M701 0h-276v36c137 91 201 200 201 333c0 178 -106 272 -241 272s-241 -94 -241 -272c0 -133 64 -242 201 -333v-36h-276v58h167v1c-96 78 -157 180 -157 320c0 211 142 321 306 321s307 -110 307 -321c0 -140 -62 -242 -157 -320v-1h166v-58zM35 486h-47l36 196h57z" />
    <glyph glyph-name="alpha" unicode="&#x3b1;" horiz-adv-x="574" 
d="M426 103v313c-33 31 -80 52 -134 52c-114 0 -188 -79 -188 -216c0 -135 72 -216 179 -216c60 0 107 25 143 67zM484 0h-57v43h-1c-41 -38 -93 -61 -157 -61c-128 0 -227 97 -227 270c0 172 101 269 239 269c63 0 112 -20 148 -47h1l51 32h3v-506z" />
    <glyph glyph-name="beta" unicode="&#x3b2;" horiz-adv-x="573" 
d="M524 209c0 -149 -97 -227 -216 -227c-66 0 -119 19 -154 44h-1v-185l-55 -34h-3v776c0 109 58 174 185 174c105 0 192 -57 192 -178c0 -82 -38 -130 -109 -172v-1c77 -12 161 -67 161 -197zM462 213c0 113 -77 158 -177 158h-69v54h79c86 36 115 82 115 149
c0 79 -51 130 -130 130c-97 0 -127 -50 -127 -123v-494c35 -33 86 -51 146 -51c87 0 163 57 163 177z" />
    <glyph glyph-name="gamma" unicode="&#x3b3;" horiz-adv-x="470" 
d="M260 -160l-55 -33h-2c0 145 -11 193 -69 357l-121 339h65l102 -294c20 -58 33 -96 43 -131h1l15 43c41 119 86 246 163 382h64c-91 -156 -144 -310 -197 -446l-22 -56c10 -51 13 -95 13 -161z" />
    <glyph glyph-name="delta" unicode="&#x3b4;" horiz-adv-x="563" 
d="M522 236c0 -160 -108 -254 -241 -254c-132 0 -240 94 -240 253c0 118 58 196 190 270c-74 44 -104 75 -104 137c0 70 53 115 155 115c64 0 122 -14 173 -52v-66h-3c-41 45 -101 67 -165 67c-79 0 -101 -31 -101 -65c0 -41 27 -65 101 -106l52 -30
c104 -59 183 -131 183 -269zM460 236c0 111 -63 174 -147 221l-32 18c-132 -69 -178 -143 -178 -239c0 -124 75 -201 179 -201c102 0 178 77 178 201z" />
    <glyph glyph-name="epsilon" unicode="&#x3b5;" horiz-adv-x="449" 
d="M49 132c0 71 45 117 105 134v1c-49 21 -78 60 -78 118c0 83 64 136 168 136c65 0 115 -19 148 -53v-65h-3c-35 47 -81 68 -137 68c-75 0 -112 -40 -112 -93c0 -56 50 -93 113 -93h85v-51h-140c-59 -14 -87 -50 -87 -98c0 -67 59 -103 132 -103c62 0 118 22 150 67h3v-65
c-34 -35 -92 -53 -163 -53c-109 0 -184 54 -184 150z" />
    <glyph glyph-name="zeta" unicode="&#x3b6;" horiz-adv-x="448" 
d="M399 -142h-60c18 34 28 59 28 85c0 16 -4 28 -14 37c-43 38 -178 -1 -263 94c-30 33 -49 80 -49 142c0 172 106 294 287 480v1h-256v53h360v-31c-231 -227 -329 -341 -329 -499c0 -47 15 -82 37 -108c68 -79 201 -44 260 -87c19 -13 27 -34 27 -64
c0 -32 -11 -68 -28 -103z" />
    <glyph glyph-name="eta" unicode="&#x3b7;" horiz-adv-x="584" 
d="M499 -193h-58v514c0 101 -63 147 -145 147c-62 0 -110 -24 -148 -67v-401h-58v503h57v-43h1c42 38 97 61 161 61c105 0 190 -58 190 -183v-531z" />
    <glyph glyph-name="theta" unicode="&#x3b8;" horiz-adv-x="532" 
d="M486 341c0 -255 -97 -359 -220 -359c-119 0 -220 104 -220 359c0 257 100 359 220 359c125 0 220 -102 220 -359zM266 646c-86 0 -154 -82 -159 -280h317c-5 197 -69 280 -158 280zM266 35c89 0 153 83 158 278h-317c6 -195 74 -278 159 -278z" />
    <glyph glyph-name="iota" unicode="&#x3b9;" horiz-adv-x="238" 
d="M148 0h-58v503h58v-503z" />
    <glyph glyph-name="kappa" unicode="&#x3ba;" horiz-adv-x="474" 
d="M148 0h-58v503h58v-503zM456 0h-74l-220 253v4l212 246h71l-213 -246v-2z" />
    <glyph glyph-name="lambda" unicode="&#x3bb;" horiz-adv-x="493" 
d="M480 0h-65l-151 426h-1l-184 -426h-66l222 502c-38 101 -71 170 -126 248h67c48 -74 87 -156 121 -250z" />
    <glyph glyph-name="uni03BC" unicode="&#x3bc;" horiz-adv-x="577" 
d="M487 0h-56v43h-1c-38 -36 -91 -61 -145 -61c-63 0 -116 22 -143 75h-1c4 -84 6 -155 7 -216l-55 -34h-3v696h58v-321c0 -105 62 -146 140 -146c55 0 104 23 141 70v397h58v-503z" />
    <glyph glyph-name="nu" unicode="&#x3bd;" horiz-adv-x="485" 
d="M253 -18h-37l-203 521h67l159 -431h1c64 123 127 281 169 431h62c-48 -184 -133 -361 -218 -521z" />
    <glyph glyph-name="xi" unicode="&#x3be;" horiz-adv-x="458" 
d="M411 -142h-60c17 34 27 59 27 85c0 18 -5 30 -16 39c-47 33 -179 0 -262 92c-29 32 -49 78 -49 139c0 99 62 170 158 191v1c-56 25 -116 77 -116 172c0 108 77 180 191 180c73 0 116 -24 153 -57v-65h-3c-39 49 -84 72 -140 72c-79 0 -138 -47 -138 -137
c0 -100 88 -145 165 -145h61v-53h-133c-81 -16 -136 -71 -136 -155c0 -47 14 -81 38 -107c72 -78 205 -43 261 -85c18 -14 26 -34 26 -63c0 -34 -11 -71 -27 -104z" />
    <glyph glyph-name="omicron" unicode="&#x3bf;" horiz-adv-x="566" 
d="M463 252c0 136 -75 216 -180 216c-104 0 -180 -79 -180 -216s75 -217 180 -217c104 0 180 79 180 217zM525 252c0 -174 -108 -270 -242 -270s-242 95 -242 270c0 174 108 269 242 269s242 -95 242 -269z" />
    <glyph glyph-name="pi" unicode="&#x3c0;" horiz-adv-x="606" 
d="M474 0h-58v450h-209c-2 -164 -13 -306 -28 -450h-58c15 148 25 297 28 450h-135v4l39 49h531v-53h-110v-450z" />
    <glyph glyph-name="rho" unicode="&#x3c1;" horiz-adv-x="577" 
d="M535 252c0 -173 -104 -270 -245 -270c-60 0 -110 18 -146 44h-1v-219h-58v474c0 155 75 240 214 240s236 -96 236 -269zM473 252c0 129 -65 217 -176 217c-99 0 -154 -61 -154 -189v-193c33 -31 82 -51 137 -51c117 0 193 78 193 216z" />
    <glyph glyph-name="sigma1" unicode="&#x3c2;" horiz-adv-x="437" 
d="M330 -19c-40 34 -161 3 -238 96c-34 41 -51 97 -51 174c0 175 96 270 213 270c60 0 108 -22 147 -59v-66h-3c-28 40 -74 72 -137 72c-91 0 -158 -82 -158 -216c0 -62 14 -109 41 -141c70 -83 181 -43 237 -87c17 -15 25 -34 25 -63c0 -33 -11 -69 -28 -103h-60
c18 36 27 59 27 85c0 17 -3 30 -15 38z" />
    <glyph glyph-name="sigma" unicode="&#x3c3;" horiz-adv-x="577" 
d="M521 232c0 -157 -107 -250 -240 -250c-132 0 -240 94 -240 255c0 182 113 266 274 266h240v-53h-150c83 -59 116 -128 116 -218zM460 237c0 91 -38 152 -130 213h-14c-126 0 -213 -68 -213 -213c0 -124 75 -203 179 -203c103 0 178 78 178 203z" />
    <glyph glyph-name="tau" unicode="&#x3c4;" horiz-adv-x="424" 
d="M241 0h-58v450h-155v53h367v-53h-154v-450z" />
    <glyph glyph-name="upsilon" unicode="&#x3c5;" horiz-adv-x="568" 
d="M409 503h60c9 -79 16 -154 16 -243c0 -165 -54 -278 -211 -278c-115 0 -189 73 -189 195v326h58v-319c0 -98 50 -149 133 -149c125 0 151 102 151 223c0 87 -7 164 -18 245z" />
    <glyph glyph-name="phi" unicode="&#x3c6;" horiz-adv-x="705" 
d="M324 34v436c-124 -1 -221 -74 -221 -218c0 -143 98 -216 221 -218zM663 252c0 -176 -132 -266 -282 -269v-176h-58v176c-149 3 -282 93 -282 269s130 265 282 268v230h58v-230c152 -3 282 -92 282 -268zM601 252c0 144 -97 217 -221 218v-436c123 2 221 75 221 218z" />
    <glyph glyph-name="chi" unicode="&#x3c7;" horiz-adv-x="478" 
d="M465 -193h-66l-159 301h-1l-151 -301h-65l176 347l-186 349h67l159 -303h1l153 303h66l-177 -350z" />
    <glyph glyph-name="psi" unicode="&#x3c8;" horiz-adv-x="751" 
d="M404 -193h-58v176c-160 4 -261 68 -261 244v276h58v-277c0 -124 62 -189 203 -190v714h58v-714c142 2 205 70 205 223c0 85 -6 162 -16 244h58c9 -79 16 -154 16 -243c0 -202 -97 -273 -263 -277v-176z" />
    <glyph glyph-name="omega" unicode="&#x3c9;" horiz-adv-x="758" 
d="M518 -18c-66 0 -117 35 -138 86h-2c-21 -51 -72 -86 -137 -86c-122 0 -176 121 -176 254c0 103 19 183 71 267h65c-55 -84 -74 -161 -74 -266c0 -106 34 -202 120 -202c64 0 103 46 103 130v195h58v-195c0 -84 40 -130 104 -130c86 0 120 96 120 202
c0 105 -19 182 -74 266h64c53 -84 71 -164 71 -267c0 -133 -54 -254 -175 -254z" />
    <glyph glyph-name="alphatonos" unicode="&#x3ac;" horiz-adv-x="574" 
d="M316 554h-47l36 196h57zM426 103v313c-33 31 -80 52 -134 52c-114 0 -188 -79 -188 -216c0 -135 72 -216 179 -216c60 0 107 25 143 67zM484 0h-57v43h-1c-41 -38 -93 -61 -157 -61c-128 0 -227 97 -227 270c0 172 101 269 239 269c63 0 112 -20 148 -47h1l51 32h3v-506z
" />
    <glyph glyph-name="epsilontonos" unicode="&#x3ad;" horiz-adv-x="449" 
d="M273 554h-47l36 196h57zM49 132c0 71 45 117 105 134v1c-49 21 -78 60 -78 118c0 83 64 136 168 136c65 0 115 -19 148 -53v-65h-3c-35 47 -81 68 -137 68c-75 0 -112 -40 -112 -93c0 -56 50 -93 113 -93h85v-51h-140c-59 -14 -87 -50 -87 -98c0 -67 59 -103 132 -103
c62 0 118 22 150 67h3v-65c-34 -35 -92 -53 -163 -53c-109 0 -184 54 -184 150z" />
    <glyph glyph-name="etatonos" unicode="&#x3ae;" horiz-adv-x="584" 
d="M326 554h-47l36 196h57zM499 -193h-58v514c0 101 -63 147 -145 147c-62 0 -110 -24 -148 -67v-401h-58v503h57v-43h1c42 38 97 61 161 61c105 0 190 -58 190 -183v-531z" />
    <glyph glyph-name="iotadieresis" unicode="&#x3ca;" horiz-adv-x="238" 
d="M148 0h-58v503h58v-503zM52 683h-63v67h63v-67zM250 683h-63v67h63v-67z" />
    <glyph glyph-name="iotadieresistonos" unicode="&#x390;" horiz-adv-x="238" 
d="M148 0h-58v503h58v-503zM143 554h-48l25 196h58zM51 602h-58v62h58v-62zM274 602h-58v62h58v-62z" />
    <glyph glyph-name="iotatonos" unicode="&#x3af;" horiz-adv-x="238" 
d="M148 0h-58v503h58v-503zM145 554h-47l36 196h57z" />
    <glyph glyph-name="omicrontonos" unicode="&#x3cc;" horiz-adv-x="566" 
d="M301 554h-47l36 196h57zM463 252c0 136 -75 216 -180 216c-104 0 -180 -79 -180 -216s75 -217 180 -217c104 0 180 79 180 217zM525 252c0 -174 -108 -270 -242 -270s-242 95 -242 270c0 174 108 269 242 269s242 -95 242 -269z" />
    <glyph glyph-name="upsilondieresis" unicode="&#x3cb;" horiz-adv-x="568" 
d="M215 683h-63v67h63v-67zM413 683h-63v67h63v-67zM409 503h60c9 -79 16 -154 16 -243c0 -165 -54 -278 -211 -278c-115 0 -189 73 -189 195v326h58v-319c0 -98 50 -149 133 -149c125 0 151 102 151 223c0 87 -7 164 -18 245z" />
    <glyph glyph-name="upsilondieresistonos" unicode="&#x3b0;" horiz-adv-x="568" 
d="M204 602h-58v62h58v-62zM427 602h-58v62h58v-62zM296 554h-48l25 196h58zM409 503h60c9 -79 16 -154 16 -243c0 -165 -54 -278 -211 -278c-115 0 -189 73 -189 195v326h58v-319c0 -98 50 -149 133 -149c125 0 151 102 151 223c0 87 -7 164 -18 245z" />
    <glyph glyph-name="upsilontonos" unicode="&#x3cd;" horiz-adv-x="568" 
d="M302 554h-47l36 196h57zM409 503h60c9 -79 16 -154 16 -243c0 -165 -54 -278 -211 -278c-115 0 -189 73 -189 195v326h58v-319c0 -98 50 -149 133 -149c125 0 151 102 151 223c0 87 -7 164 -18 245z" />
    <glyph glyph-name="omegatonos" unicode="&#x3ce;" horiz-adv-x="758" 
d="M404 554h-47l36 196h57zM518 -18c-66 0 -117 35 -138 86h-2c-21 -51 -72 -86 -137 -86c-122 0 -176 121 -176 254c0 103 19 183 71 267h65c-55 -84 -74 -161 -74 -266c0 -106 34 -202 120 -202c64 0 103 46 103 130v195h58v-195c0 -84 40 -130 104 -130
c86 0 120 96 120 202c0 105 -19 182 -74 266h64c53 -84 71 -164 71 -267c0 -133 -54 -254 -175 -254z" />
    <glyph glyph-name="uni0410" unicode="&#x410;" horiz-adv-x="653" 
d="M635 0h-69l-97 242h-288l-97 -242h-66l284 700h48zM447 298l-121 306h-1l-122 -306h244z" />
    <glyph glyph-name="uni0411" unicode="&#x411;" horiz-adv-x="590" 
d="M527 203c0 -141 -91 -203 -248 -203h-175v682h353v-59h-291v-222h113c153 0 248 -62 248 -198zM463 203c0 97 -68 139 -182 139h-115v-284h115c118 0 182 46 182 145z" />
    <glyph glyph-name="uni0412" unicode="&#x412;" horiz-adv-x="599" 
d="M527 184c0 -127 -90 -184 -245 -184h-178v682h169c128 0 215 -63 215 -174c0 -75 -38 -128 -102 -159v-1c75 -16 141 -71 141 -164zM463 191c0 81 -67 125 -167 125h-130v-260h116c116 0 181 42 181 135zM424 501c0 76 -60 125 -156 125h-102v-256h149
c80 26 109 68 109 131z" />
    <glyph glyph-name="uni0413" unicode="&#x413;" horiz-adv-x="474" 
d="M166 0h-62v682h340v-59h-278v-623z" />
    <glyph glyph-name="uni0414" unicode="&#x414;" horiz-adv-x="702" 
d="M649 -142h-58v142h-504v-142h-59v201h63c60 94 88 173 98 321l19 302h370v-623h71v-201zM517 59v565h-251l-16 -252c-10 -151 -41 -231 -91 -313h358z" />
    <glyph glyph-name="uni0415" unicode="&#x415;" horiz-adv-x="538" 
d="M464 0h-360v682h334v-59h-272v-242h262v-59h-262v-263h298v-59z" />
    <glyph glyph-name="uni0416" unicode="&#x416;" horiz-adv-x="859" 
d="M99 0h-78l284 344v2l-273 336h77l270 -336v-3zM460 0h-62v682h62v-682zM837 0h-77l-281 343v3l271 336h76l-272 -336v-2z" />
    <glyph glyph-name="uni0417" unicode="&#x417;" horiz-adv-x="556" 
d="M254 -18c-72 0 -129 15 -179 54v70h3c40 -45 105 -69 171 -69c95 0 171 44 171 143c0 87 -65 133 -172 133h-98v57h120c87 31 111 84 111 137c0 88 -61 138 -147 138c-62 0 -114 -27 -152 -69h-3v70c43 35 98 54 162 54c119 0 204 -69 204 -186c0 -76 -39 -132 -103 -165
v-1c68 -14 142 -69 142 -174c0 -131 -102 -192 -230 -192z" />
    <glyph glyph-name="uni0418" unicode="&#x418;" horiz-adv-x="747" 
d="M643 0h-62v583h-1l-427 -598h-49v697h62v-583h1l427 598h49v-697z" />
    <glyph glyph-name="uni0419" unicode="&#x419;" horiz-adv-x="747" 
d="M377 704c-77 0 -125 39 -135 101h47c9 -39 39 -60 88 -60c50 0 79 21 87 60h48c-10 -62 -58 -101 -135 -101zM643 0h-62v583h-1l-427 -598h-49v697h62v-583h1l427 598h49v-697z" />
    <glyph glyph-name="uni041A" unicode="&#x41a;" horiz-adv-x="585" 
d="M166 0h-62v682h62v-682zM563 0h-78l-300 343v3l290 336h77l-292 -336v-2z" />
    <glyph glyph-name="uni041B" unicode="&#x41b;" horiz-adv-x="684" 
d="M573 0h-62v623h-250l-18 -266c-18 -270 -82 -362 -213 -367v60c110 0 141 130 153 327l20 305h370v-682z" />
    <glyph glyph-name="uni041C" unicode="&#x41c;" horiz-adv-x="864" 
d="M773 0h-63l-45 533h-1l-230 -551h-5l-230 552h-1l-44 -534h-63l60 697h45l236 -579h1l235 579h45z" />
    <glyph glyph-name="uni041D" unicode="&#x41d;" horiz-adv-x="747" 
d="M643 0h-62v324h-415v-324h-62v682h62v-299h415v299h62v-682z" />
    <glyph glyph-name="uni041E" unicode="&#x41e;" horiz-adv-x="734" 
d="M683 341c0 -236 -150 -359 -316 -359c-164 0 -316 122 -316 359c0 236 150 359 317 359c164 0 315 -122 315 -359zM618 341c0 197 -114 300 -250 300s-251 -102 -251 -300c0 -197 114 -300 250 -300c135 0 251 102 251 300z" />
    <glyph glyph-name="uni041F" unicode="&#x41f;" horiz-adv-x="737" 
d="M633 0h-62v623h-405v-623h-62v682h529v-682z" />
    <glyph glyph-name="uni0420" unicode="&#x420;" horiz-adv-x="569" 
d="M513 475c0 -123 -78 -224 -347 -243v-232h-62v682h171c130 0 238 -66 238 -207zM449 472c0 97 -74 152 -176 152h-107v-333c218 11 283 91 283 181z" />
    <glyph glyph-name="uni0421" unicode="&#x421;" horiz-adv-x="615" 
d="M558 139v-79c-53 -49 -125 -78 -206 -78c-167 0 -301 125 -301 359c0 231 131 359 297 359c82 0 153 -29 206 -78v-79h-4c-46 63 -118 98 -193 98c-145 0 -240 -115 -240 -300s97 -300 242 -300c82 0 152 40 195 98h4z" />
    <glyph glyph-name="uni0422" unicode="&#x422;" horiz-adv-x="517" 
d="M289 0h-61v623h-198v59h457v-59h-198v-623z" />
    <glyph glyph-name="uni0423" unicode="&#x423;" horiz-adv-x="552" 
d="M232 0h-66l84 189l-237 493h71l198 -422h1l189 422h66z" />
    <glyph glyph-name="uni0424" unicode="&#x424;" horiz-adv-x="756" 
d="M410 -15h-62v63c-163 6 -298 105 -298 293c0 187 134 285 298 292v64h62v-64c163 -7 296 -106 296 -292c0 -187 -133 -286 -296 -293v-63zM349 105v471c-137 -5 -233 -90 -233 -235c0 -146 97 -231 233 -236zM409 105c135 6 232 91 232 236s-97 230 -232 235v-471z" />
    <glyph glyph-name="uni0425" unicode="&#x425;" horiz-adv-x="644" 
d="M607 0h-77l-214 300h-1l-194 -300h-76l228 348l-236 334h75l206 -292h1l196 292h75l-228 -338z" />
    <glyph glyph-name="uni0426" unicode="&#x426;" horiz-adv-x="747" 
d="M694 -142h-58v142h-532v682h62v-623h395v623h62v-623h71v-201z" />
    <glyph glyph-name="uni0427" unicode="&#x427;" horiz-adv-x="606" 
d="M502 0h-62v237c-340 17 -379 106 -379 248v197h62v-195c0 -116 42 -180 317 -191v386h62v-682z" />
    <glyph glyph-name="uni0428" unicode="&#x428;" horiz-adv-x="987" 
d="M883 0h-779v682h62v-623h297v623h61v-623h297v623h62v-682z" />
    <glyph glyph-name="uni0429" unicode="&#x429;" horiz-adv-x="1007" 
d="M954 -142h-58v142h-792v682h62v-623h297v623h61v-623h297v623h62v-623h71v-201z" />
    <glyph glyph-name="uni042A" unicode="&#x42a;" horiz-adv-x="704" 
d="M651 206c0 -143 -93 -206 -248 -206h-175v623h-198v59h259v-275h114c151 0 248 -62 248 -201zM587 206c0 99 -69 143 -185 143h-113v-290h113c119 0 185 47 185 147z" />
    <glyph glyph-name="uni042B" unicode="&#x42b;" horiz-adv-x="770" 
d="M509 205c0 -142 -93 -205 -250 -205h-155v682h62v-276h93c153 0 250 -63 250 -201zM445 205c0 98 -69 142 -184 142h-95v-289h95c118 0 184 47 184 147zM666 0h-62v682h62v-682z" />
    <glyph glyph-name="uni042C" unicode="&#x42c;" horiz-adv-x="581" 
d="M527 206c0 -143 -93 -206 -248 -206h-175v682h62v-274h113c151 0 248 -63 248 -202zM463 206c0 99 -69 143 -184 143h-113v-290h113c119 0 184 47 184 147z" />
    <glyph glyph-name="uni042D" unicode="&#x42d;" horiz-adv-x="657" 
d="M291 -18c-93 0 -164 32 -217 83v74h3c57 -65 125 -98 212 -98c138 0 249 99 250 281h-411v59h411c-7 168 -118 260 -249 260c-87 0 -153 -32 -209 -97h-3v73c53 50 123 83 216 83c166 0 312 -123 312 -359c0 -239 -150 -359 -315 -359z" />
    <glyph glyph-name="uni042E" unicode="&#x42e;" horiz-adv-x="984" 
d="M616 -18c-158 0 -307 114 -314 342h-136v-324h-62v682h62v-299h137c18 213 163 317 314 317c164 0 316 -122 316 -359c0 -236 -150 -359 -317 -359zM616 41c136 0 251 102 251 300c0 197 -114 300 -250 300c-135 0 -251 -102 -251 -300c0 -197 114 -300 250 -300z" />
    <glyph glyph-name="uni042F" unicode="&#x42f;" horiz-adv-x="589" 
d="M497 0h-61v624h-98c-108 0 -174 -56 -174 -140c0 -88 49 -144 251 -173v-4l-294 -307h-79l269 278v2c-156 37 -211 104 -211 210c0 124 95 192 233 192h164v-682z" />
    <glyph glyph-name="uni0403" unicode="&#x403;" horiz-adv-x="474" 
d="M293 682h-53l79 118h66zM166 0h-62v682h340v-59h-278v-623z" />
    <glyph glyph-name="uni0490" unicode="&#x490;" horiz-adv-x="474" 
d="M166 0h-62v682h282v140h58v-199h-278v-623z" />
    <glyph glyph-name="uni0402" unicode="&#x402;" horiz-adv-x="703" 
d="M424 7v59c17 -6 33 -8 50 -8c60 0 112 41 112 137c0 106 -64 144 -173 144h-123v-339h-62v623h-198v59h543v-59h-283v-226h119c133 0 241 -47 241 -201c0 -140 -90 -196 -172 -196c-19 0 -38 1 -54 7z" />
    <glyph glyph-name="uni0404" unicode="&#x404;" horiz-adv-x="657" 
d="M366 -18c-164 0 -315 120 -315 359c0 236 147 359 313 359c92 0 162 -33 216 -83v-73h-3c-57 65 -123 97 -209 97c-132 0 -243 -92 -250 -260h411v-59h-411c1 -182 112 -281 251 -281c87 0 155 33 212 98h3v-74c-54 -51 -125 -83 -218 -83z" />
    <glyph glyph-name="uni0405" unicode="&#x405;" horiz-adv-x="534" 
d="M470 165c0 -102 -75 -183 -207 -183c-72 0 -142 23 -188 70v76h3c46 -59 112 -88 183 -88c91 0 147 47 147 121c0 189 -330 121 -330 360c0 93 60 179 195 179c65 0 128 -23 173 -70v-75h-3c-42 58 -106 87 -168 87c-88 0 -134 -49 -134 -116c0 -187 329 -117 329 -361z
" />
    <glyph glyph-name="uni0400" unicode="&#x400;" horiz-adv-x="538" 
d="M464 0h-360v682h151l-92 118h66l79 -118h130v-59h-272v-242h262v-59h-262v-263h298v-59z" />
    <glyph glyph-name="uni0401" unicode="&#x401;" horiz-adv-x="538" 
d="M201 742h-63v63h63v-63zM399 742h-63v63h63v-63zM464 0h-360v682h334v-59h-272v-242h262v-59h-262v-263h298v-59z" />
    <glyph glyph-name="uni0406" unicode="&#x406;" horiz-adv-x="270" 
d="M166 0h-62v682h62v-682z" />
    <glyph glyph-name="uni0407" unicode="&#x407;" horiz-adv-x="271" 
d="M166 0h-62v682h62v-682zM69 742h-63v63h63v-63zM267 742h-63v63h63v-63z" />
    <glyph glyph-name="uni0408" unicode="&#x408;" horiz-adv-x="406" 
d="M158 -18c-37 0 -75 12 -100 35v69h4c24 -30 56 -45 88 -45c65 0 100 47 100 132v450h-195v3l37 56h219v-517c0 -109 -48 -183 -153 -183z" />
    <glyph glyph-name="uni040D" unicode="&#x40d;" horiz-adv-x="747" 
d="M404 682h-53l-92 118h66zM643 0h-62v583h-1l-427 -598h-49v697h62v-583h1l427 598h49v-697z" />
    <glyph glyph-name="uni040C" unicode="&#x40c;" horiz-adv-x="585" 
d="M324 682h-53l79 118h66zM166 0h-62v682h62v-682zM563 0h-78l-300 343v3l290 336h77l-292 -336v-2z" />
    <glyph glyph-name="uni0409" unicode="&#x409;" horiz-adv-x="931" 
d="M877 205c0 -142 -93 -205 -249 -205h-172v623h-195l-18 -266c-18 -270 -82 -362 -213 -367v60c110 0 141 130 153 327l20 305h314v-276h111c152 0 249 -64 249 -201zM813 205c0 97 -69 142 -184 142h-112v-289h112c119 0 184 47 184 147z" />
    <glyph glyph-name="uni040A" unicode="&#x40a;" horiz-adv-x="989" 
d="M936 194c0 -135 -94 -194 -250 -194h-172v324h-348v-324h-62v682h62v-299h348v299h62v-299h110c153 0 250 -60 250 -189zM872 194c0 89 -69 131 -184 131h-112v-267h112c118 0 184 43 184 136z" />
    <glyph glyph-name="uni040B" unicode="&#x40b;" horiz-adv-x="712" 
d="M652 0h-61v189c0 102 -70 148 -188 148h-114v-337h-61v623h-198v59h490v-59h-231v-228h118c151 0 245 -63 245 -199v-196z" />
    <glyph glyph-name="uni040E" unicode="&#x40e;" horiz-adv-x="552" 
d="M281 704c-77 0 -125 39 -135 101h47c9 -39 39 -60 88 -60c50 0 79 21 87 60h48c-10 -62 -58 -101 -135 -101zM232 0h-66l84 189l-237 493h71l198 -422h1l189 422h66z" />
    <glyph glyph-name="uni040F" unicode="&#x40f;" horiz-adv-x="737" 
d="M633 0h-235v-142h-59v142h-235v682h62v-623h405v623h62v-682z" />
    <glyph glyph-name="uni0462" unicode="&#x462;" horiz-adv-x="702" 
d="M649 203c0 -139 -94 -203 -250 -203h-172v553h-197v59h197v70h62v-70h238v-59h-238v-152h110c153 0 250 -64 250 -198zM585 203c0 96 -68 140 -183 140h-113v-285h113c119 0 183 46 183 145z" />
    <glyph glyph-name="uni0472" unicode="&#x472;" horiz-adv-x="734" 
d="M683 341c0 -236 -150 -359 -316 -359c-164 0 -316 122 -316 359c0 236 150 359 317 359c164 0 315 -122 315 -359zM367 41c130 0 243 95 250 281h-500c7 -185 118 -281 250 -281zM368 641c-127 0 -235 -89 -249 -260h497c-15 171 -122 260 -248 260z" />
    <glyph glyph-name="uni0474" unicode="&#x474;" horiz-adv-x="627" 
d="M335 -18h-45l-277 700h69l231 -598h1l123 339c42 119 69 189 118 259h68c-53 -76 -84 -154 -128 -269z" />
    <glyph glyph-name="uni0492" unicode="&#x492;" horiz-adv-x="474" 
d="M166 0h-62v310h-104v59h104v313h340v-59h-278v-254h178v-59h-178v-310z" />
    <glyph glyph-name="uni0496" unicode="&#x496;" horiz-adv-x="887" 
d="M99 0h-78l284 344v2l-275 336h79l270 -336v-3zM460 0h-62v682h62v-682zM795 58h79v-200h-58v142h-56l-281 343v3l271 336h78l-274 -336v-2z" />
    <glyph glyph-name="uni049A" unicode="&#x49a;" horiz-adv-x="612" 
d="M166 0h-62v682h62v-682zM518 58h80v-200h-58v142h-55l-300 343v3l290 336h75l-290 -336v-2z" />
    <glyph glyph-name="uni04A2" unicode="&#x4a2;" horiz-adv-x="767" 
d="M643 58h71v-200h-58v142h-75v324h-415v-324h-62v682h62v-299h415v299h62v-624z" />
    <glyph glyph-name="uni04AE" unicode="&#x4ae;" horiz-adv-x="567" 
d="M315 0h-62v290l-244 392h75l200 -329h1l199 329h73l-242 -393v-289z" />
    <glyph glyph-name="uni04B0" unicode="&#x4b0;" horiz-adv-x="570" 
d="M316 0h-61v253h-130v51h122l-236 378h75l200 -329h1l199 329h73l-235 -378h128v-51h-136v-253z" />
    <glyph glyph-name="uni04B2" unicode="&#x4b2;" horiz-adv-x="658" 
d="M567 58h77v-200h-58v142h-56l-214 300h-1l-194 -300h-76l228 348l-236 334h75l206 -292h1l196 292h75l-228 -338z" />
    <glyph glyph-name="uni04B6" unicode="&#x4b6;" horiz-adv-x="625" 
d="M573 -142h-59v142h-74v237c-340 17 -379 106 -379 248v197h62v-195c0 -116 42 -180 317 -191v386h61v-624h72v-200z" />
    <glyph glyph-name="uni04BA" unicode="&#x4ba;" horiz-adv-x="588" 
d="M529 0h-62v200c0 102 -69 148 -187 148h-114v-348h-62v683h62v-276h117c152 0 246 -64 246 -200v-207z" />
    <glyph glyph-name="uni04C0" unicode="&#x4c0;" horiz-adv-x="270" 
d="M166 0h-62v682h62v-682z" />
    <glyph glyph-name="uni04D8" unicode="&#x4d8;" horiz-adv-x="735" 
d="M112 620c58 51 138 80 228 80c184 0 330 -125 330 -359c0 -231 -132 -359 -303 -359c-161 0 -286 122 -286 304c0 17 0 36 1 53h513c-4 200 -112 302 -268 302c-92 0 -167 -40 -211 -97h-4v76zM155 280c2 -145 87 -239 213 -239c117 0 209 90 224 239h-437z" />
    <glyph glyph-name="uni04E2" unicode="&#x4e2;" horiz-adv-x="747" 
d="M518 760h-282v45h282v-45zM643 0h-62v583h-1l-427 -598h-49v697h62v-583h1l427 598h49v-697z" />
    <glyph glyph-name="uni04E8" unicode="&#x4e8;" horiz-adv-x="734" 
d="M683 341c0 -236 -150 -359 -316 -359c-164 0 -316 122 -316 359c0 236 150 359 317 359c164 0 315 -122 315 -359zM367 41c130 0 243 95 250 281h-500c7 -185 118 -281 250 -281zM368 641c-127 0 -235 -89 -249 -260h497c-15 171 -122 260 -248 260z" />
    <glyph glyph-name="uni04EE" unicode="&#x4ee;" horiz-adv-x="552" 
d="M422 760h-282v45h282v-45zM232 0h-66l84 189l-237 493h71l198 -422h1l189 422h66z" />
    <glyph glyph-name="uni0430" unicode="&#x430;" horiz-adv-x="528" 
d="M443 0h-56v42h-1c-40 -37 -93 -60 -156 -60c-98 0 -169 61 -169 155c0 98 68 162 187 162c52 0 100 -14 137 -35v62c0 102 -63 142 -141 142c-63 0 -118 -31 -149 -71h-3v64c42 38 100 60 162 60c108 0 189 -61 189 -189v-332zM385 98v114c-33 22 -79 37 -128 37
c-86 0 -136 -39 -136 -107c0 -60 42 -108 126 -108c54 0 102 24 138 64z" />
    <glyph glyph-name="uni0431" unicode="&#x431;" horiz-adv-x="575" 
d="M534 252c0 -174 -106 -270 -241 -270c-147 0 -242 110 -242 317c0 66 5 147 28 221c27 94 67 150 156 177c94 28 185 9 252 60h3v-61c-64 -39 -156 -31 -232 -52c-99 -28 -129 -112 -145 -239h2c34 70 101 111 184 111c127 0 235 -89 235 -264zM472 250
c0 135 -75 212 -179 212c-121 0 -179 -102 -179 -195c0 -124 56 -231 179 -231c104 0 179 80 179 214z" />
    <glyph glyph-name="uni0432" unicode="&#x432;" horiz-adv-x="516" 
d="M461 136c0 -94 -66 -136 -180 -136h-191v503h184c95 0 159 -47 159 -129c0 -55 -28 -93 -80 -115v-1c61 -11 108 -54 108 -122zM399 141c0 59 -48 88 -121 88h-130v-178h121c82 0 130 26 130 90zM370 369c0 52 -43 84 -111 84h-111v-176h143c55 19 79 48 79 92z" />
    <glyph glyph-name="uni0433" unicode="&#x433;" horiz-adv-x="422" 
d="M148 0h-58v503h303v-53h-245v-450z" />
    <glyph glyph-name="uni0434" unicode="&#x434;" horiz-adv-x="561" 
d="M515 -142h-55v142h-393v-142h-55v195h51c44 70 66 124 73 234l13 216h302v-450h64v-195zM393 53v397h-190l-12 -175c-7 -106 -30 -163 -66 -222h268z" />
    <glyph glyph-name="uni0435" unicode="&#x435;" horiz-adv-x="535" 
d="M461 42c-44 -38 -105 -60 -172 -60c-139 0 -248 94 -248 270c0 173 99 269 228 269c121 0 215 -92 215 -229c0 -12 0 -28 -1 -42h-379c2 -141 79 -215 195 -215c69 0 126 30 159 71h3v-64zM423 301c-1 97 -65 167 -154 167s-153 -61 -164 -167h318z" />
    <glyph glyph-name="uni0436" unicode="&#x436;" horiz-adv-x="668" 
d="M91 0h-73l204 255v2l-192 246h69l192 -246v-4zM363 0h-58v503h58v-503zM650 0h-73l-200 253v4l192 246h71l-193 -246v-2z" />
    <glyph glyph-name="uni0437" unicode="&#x437;" horiz-adv-x="448" 
d="M398 130c0 -96 -82 -148 -187 -148c-72 0 -126 17 -161 52v66h3c32 -44 87 -67 147 -67c83 0 135 38 135 102c0 63 -45 99 -129 99h-98v51h117c59 21 80 55 80 96c0 53 -44 90 -110 90c-55 0 -101 -19 -138 -68h-3v65c33 34 83 53 149 53c97 0 165 -49 165 -134
c0 -56 -27 -93 -79 -120v-1c61 -15 109 -57 109 -136z" />
    <glyph glyph-name="uni0438" unicode="&#x438;" horiz-adv-x="590" 
d="M499 0h-58v415h-1l-303 -430h-47v518h58v-415h1l304 430h46v-518z" />
    <glyph glyph-name="uni0439" unicode="&#x439;" horiz-adv-x="590" 
d="M301 596c-94 0 -147 67 -157 154h48c11 -66 47 -111 109 -111s98 45 109 111h48c-10 -87 -63 -154 -157 -154zM499 0h-58v415h-1l-303 -430h-47v518h58v-415h1l304 430h46v-518z" />
    <glyph glyph-name="uni043A" unicode="&#x43a;" horiz-adv-x="474" 
d="M148 0h-58v503h58v-503zM456 0h-74l-220 253v4l212 246h71l-212 -246v-2z" />
    <glyph glyph-name="uni043B" unicode="&#x43b;" horiz-adv-x="536" 
d="M446 0h-58v450h-188l-13 -184c-14 -194 -61 -276 -170 -276v52c82 0 106 94 115 240l14 221h300v-503z" />
    <glyph glyph-name="uni043C" unicode="&#x43c;" horiz-adv-x="670" 
d="M599 0h-58l-32 380h-1l-171 -394h-5l-169 395h-1l-32 -381h-58l44 518h47l173 -410h1l170 410h47z" />
    <glyph glyph-name="uni043D" unicode="&#x43d;" horiz-adv-x="589" 
d="M499 0h-58v234h-293v-234h-58v503h58v-216h293v216h58v-503z" />
    <glyph glyph-name="uni043E" unicode="&#x43e;" horiz-adv-x="566" 
d="M463 252c0 136 -75 216 -180 216c-104 0 -180 -79 -180 -216s75 -217 180 -217c104 0 180 79 180 217zM525 252c0 -174 -108 -270 -242 -270s-242 95 -242 270c0 174 108 269 242 269s242 -95 242 -269z" />
    <glyph glyph-name="uni043F" unicode="&#x43f;" horiz-adv-x="579" 
d="M489 0h-58v450h-283v-450h-58v503h399v-503z" />
    <glyph glyph-name="uni0440" unicode="&#x440;" horiz-adv-x="582" 
d="M540 252c0 -173 -103 -270 -244 -270c-60 0 -111 18 -147 44h-1v-219h-58v696h57v-43h1c42 38 95 61 160 61c131 0 232 -96 232 -269zM478 252c0 134 -74 216 -184 216c-61 0 -109 -26 -146 -67v-314c34 -31 83 -51 138 -51c116 0 192 78 192 216z" />
    <glyph glyph-name="uni0441" unicode="&#x441;" horiz-adv-x="467" 
d="M423 108v-67c-40 -37 -93 -59 -155 -59c-124 0 -227 94 -227 270c0 173 99 269 225 269c61 0 114 -20 154 -58v-68h-3c-29 41 -81 73 -143 73c-104 0 -171 -83 -171 -217c0 -133 69 -216 176 -216c61 0 112 32 141 73h3z" />
    <glyph glyph-name="uni0442" unicode="&#x442;" horiz-adv-x="415" 
d="M236 0h-58v450h-150v53h358v-53h-150v-450z" />
    <glyph glyph-name="uni0443" unicode="&#x443;" horiz-adv-x="496" 
d="M212 -193h-63l76 194l-216 502h66l179 -425h1l156 425h64z" />
    <glyph glyph-name="uni0444" unicode="&#x444;" horiz-adv-x="732" 
d="M690 252c0 -150 -69 -270 -207 -270c-36 0 -61 6 -88 15v-190h-58v190c-27 -8 -55 -15 -88 -15c-138 0 -207 120 -207 270c0 149 69 269 207 269c36 0 61 -6 88 -15v244h58v-244c27 11 55 15 88 15c138 0 207 -120 207 -269zM337 51v401c-25 10 -49 16 -76 16
c-101 0 -157 -87 -157 -216c0 -130 56 -216 157 -216c27 0 51 5 76 15zM628 252c0 129 -55 216 -157 216c-26 0 -51 -6 -76 -16v-401c25 -10 50 -15 76 -15c102 0 157 86 157 216z" />
    <glyph glyph-name="uni0445" unicode="&#x445;" horiz-adv-x="488" 
d="M471 0h-72l-158 214h-1l-145 -214h-69l175 255l-183 248h70l154 -210h1l147 210h69l-177 -249z" />
    <glyph glyph-name="uni0446" unicode="&#x446;" horiz-adv-x="578" 
d="M533 -142h-55v142h-388v503h58v-450h271v450h58v-450h56v-195z" />
    <glyph glyph-name="uni0447" unicode="&#x447;" horiz-adv-x="497" 
d="M406 0h-58v168c-251 13 -299 79 -299 183v152h59v-139c0 -83 31 -130 240 -140v279h58v-503z" />
    <glyph glyph-name="uni0448" unicode="&#x448;" horiz-adv-x="835" 
d="M745 0h-655v503h58v-450h241v450h58v-450h240v450h58v-503z" />
    <glyph glyph-name="uni0449" unicode="&#x449;" horiz-adv-x="855" 
d="M809 -142h-55v142h-664v503h58v-450h241v450h58v-450h240v450h58v-450h64v-195z" />
    <glyph glyph-name="uni044A" unicode="&#x44a;" horiz-adv-x="563" 
d="M454 154c0 60 -41 98 -123 98h-109v-201h101c95 0 131 39 131 103zM516 153c0 -102 -66 -153 -181 -153h-171v450h-136v53h194v-201h127c108 0 167 -60 167 -149z" />
    <glyph glyph-name="uni044B" unicode="&#x44b;" horiz-adv-x="650" 
d="M423 153c0 -102 -67 -153 -181 -153h-152v503h58v-202h107c106 0 168 -59 168 -148zM361 153c0 62 -42 98 -123 98h-90v-200h82c87 0 131 34 131 102zM560 0h-58v503h58v-503z" />
    <glyph glyph-name="uni044C" unicode="&#x44c;" horiz-adv-x="489" 
d="M442 153c0 -100 -67 -153 -181 -153h-171v503h58v-201h124c108 0 170 -61 170 -149zM380 153c0 63 -44 99 -123 99h-109v-201h101c87 0 131 34 131 102z" />
    <glyph glyph-name="uni044D" unicode="&#x44d;" horiz-adv-x="513" 
d="M225 -18c-65 0 -124 21 -168 59v66h3c33 -43 87 -72 161 -72c112 0 188 75 189 199h-305v51h305c-7 113 -80 183 -187 183c-76 0 -127 -30 -159 -72h-3v66c41 39 95 59 168 59c134 0 242 -96 242 -269c0 -170 -103 -270 -246 -270z" />
    <glyph glyph-name="uni044E" unicode="&#x44e;" horiz-adv-x="768" 
d="M485 -18c-127 0 -233 87 -240 252h-97v-234h-58v503h58v-216h98c14 152 116 234 239 234c134 0 242 -95 242 -269s-108 -270 -242 -270zM485 35c104 0 180 79 180 217c0 136 -75 216 -180 216c-104 0 -180 -79 -180 -216s75 -217 180 -217z" />
    <glyph glyph-name="uni044F" unicode="&#x44f;" horiz-adv-x="497" 
d="M407 0h-58v451h-102c-78 0 -126 -33 -126 -93c0 -66 43 -104 212 -126v-3l-229 -229h-77l212 205v2c-135 24 -182 79 -182 156c0 92 71 140 173 140h177v-503z" />
    <glyph glyph-name="uni0453" unicode="&#x453;" horiz-adv-x="422" 
d="M266 554h-54l131 196h65zM148 0h-58v503h303v-53h-245v-450z" />
    <glyph glyph-name="uni0491" unicode="&#x491;" horiz-adv-x="422" 
d="M148 0h-58v503h249v142h54v-195h-245v-450z" />
    <glyph glyph-name="uni0452" unicode="&#x452;" horiz-adv-x="572" 
d="M429 -30v351c0 101 -61 147 -139 147c-56 0 -104 -24 -142 -67v-401h-58v604h-90v48h90v98h58v-98h209v-48h-209v-143h1c41 37 94 60 154 60c101 0 184 -58 184 -183v-373c0 -100 -51 -158 -128 -158c-25 0 -49 6 -68 15v55h3c15 -12 36 -18 55 -18c44 0 80 32 80 111z
" />
    <glyph glyph-name="uni0454" unicode="&#x454;" horiz-adv-x="513" 
d="M288 -18c-143 0 -247 100 -247 270c0 173 108 269 242 269c73 0 127 -20 169 -59v-66h-3c-32 42 -84 72 -160 72c-107 0 -180 -70 -186 -183h305v-51h-305c0 -124 77 -199 189 -199c74 0 127 29 161 72h3v-66c-44 -38 -103 -59 -168 -59z" />
    <glyph glyph-name="uni0455" unicode="&#x455;" horiz-adv-x="437" 
d="M372 122c0 -80 -55 -140 -161 -140c-59 0 -109 17 -144 52v65h3c33 -44 86 -66 141 -66c63 0 103 34 103 85c0 137 -245 84 -245 267c0 75 48 136 150 136c50 0 100 -17 135 -52v-65h-3c-31 40 -79 67 -130 67c-62 0 -94 -35 -94 -82c0 -135 245 -79 245 -267z" />
    <glyph glyph-name="uni0450" unicode="&#x450;" horiz-adv-x="535" 
d="M461 42c-44 -38 -105 -60 -172 -60c-139 0 -248 94 -248 270c0 173 99 269 228 269c121 0 215 -92 215 -229c0 -12 0 -28 -1 -42h-379c2 -141 79 -215 195 -215c69 0 126 30 159 71h3v-64zM423 301c-1 97 -65 167 -154 167s-153 -61 -164 -167h318zM315 555h-55l-141 195
h66z" />
    <glyph glyph-name="uni0451" unicode="&#x451;" horiz-adv-x="535" 
d="M200 683h-63v67h63v-67zM398 683h-63v67h63v-67zM461 42c-44 -38 -105 -60 -172 -60c-139 0 -248 94 -248 270c0 173 99 269 228 269c121 0 215 -92 215 -229c0 -12 0 -28 -1 -42h-379c2 -141 79 -215 195 -215c69 0 126 30 159 71h3v-64zM423 301
c-1 97 -65 167 -154 167s-153 -61 -164 -167h318z" />
    <glyph glyph-name="uni0456" unicode="&#x456;" horiz-adv-x="238" 
d="M148 0h-58v503h58v-503zM152 683h-66v67h66v-67z" />
    <glyph glyph-name="uni0457" unicode="&#x457;" horiz-adv-x="238" 
d="M148 0h-58v503h58v-503zM52 683h-63v67h63v-67zM250 683h-63v67h63v-67z" />
    <glyph glyph-name="uni0458" unicode="&#x458;" horiz-adv-x="238" 
d="M18 -193c-34 0 -67 12 -88 29v60h3c19 -22 48 -36 76 -36c46 0 81 32 81 107v536h58v-537c0 -102 -51 -159 -130 -159zM152 683h-66v67h66v-67z" />
    <glyph glyph-name="uni045D" unicode="&#x45d;" horiz-adv-x="590" 
d="M499 0h-58v415h-1l-303 -430h-47v518h58v-415h1l304 430h46v-518zM338 555h-55l-141 195h66z" />
    <glyph glyph-name="uni045C" unicode="&#x45c;" horiz-adv-x="474" 
d="M280 554h-54l131 196h65zM148 0h-58v503h58v-503zM456 0h-74l-220 253v4l212 246h71l-212 -246v-2z" />
    <glyph glyph-name="uni0459" unicode="&#x459;" horiz-adv-x="731" 
d="M684 152c0 -101 -68 -152 -183 -152h-150v450h-151l-13 -184c-14 -191 -61 -273 -170 -273v53c82 0 106 92 115 236l14 221h263v-204h105c107 0 170 -57 170 -147zM622 152c0 61 -41 97 -123 97h-90v-198h82c94 0 131 39 131 101z" />
    <glyph glyph-name="uni045A" unicode="&#x45a;" horiz-adv-x="778" 
d="M731 147c0 -94 -66 -147 -181 -147h-151v234h-251v-234h-58v503h58v-216h251v216h58v-213h107c106 0 167 -60 167 -143zM669 147c0 56 -40 92 -122 92h-90v-188h81c95 0 131 39 131 96z" />
    <glyph glyph-name="uni045B" unicode="&#x45b;" horiz-adv-x="572" 
d="M487 0h-58v321c0 101 -61 147 -139 147c-56 0 -104 -24 -142 -67v-401h-58v604h-90v48h90v98h58v-98h209v-48h-209v-143h1c41 37 94 60 154 60c101 0 184 -58 184 -183v-338z" />
    <glyph glyph-name="uni045E" unicode="&#x45e;" horiz-adv-x="496" 
d="M253 596c-94 0 -147 67 -157 154h48c11 -66 47 -111 109 -111s98 45 109 111h48c-10 -87 -63 -154 -157 -154zM212 -193h-63l76 194l-216 502h66l179 -425h1l156 425h64z" />
    <glyph glyph-name="uni045F" unicode="&#x45f;" horiz-adv-x="579" 
d="M317 -142h-55v142h-172v503h58v-450h283v450h58v-503h-172v-142z" />
    <glyph glyph-name="uni0463" unicode="&#x463;" horiz-adv-x="569" 
d="M522 150c0 -98 -66 -150 -181 -150h-168v454h-145v49h145v180h58v-180h197v-49h-197v-158h124c106 0 167 -58 167 -146zM460 150c0 61 -41 96 -122 96h-107v-195h98c94 0 131 38 131 99z" />
    <glyph glyph-name="uni0473" unicode="&#x473;" horiz-adv-x="566" 
d="M525 252c0 -174 -108 -270 -242 -270s-242 95 -242 270c0 174 108 269 242 269s242 -95 242 -269zM283 468c-97 0 -170 -69 -179 -190h358c-9 120 -81 190 -179 190zM283 36c97 0 169 68 179 189h-358c9 -121 81 -189 179 -189z" />
    <glyph glyph-name="uni0475" unicode="&#x475;" horiz-adv-x="494" 
d="M266 -18h-39l-214 521h66l168 -426h1l87 237c22 62 43 133 84 189h67c-46 -62 -70 -133 -97 -202z" />
    <glyph glyph-name="uni0493" unicode="&#x493;" horiz-adv-x="422" 
d="M148 0h-58v217h-76v50h76v236h303v-53h-245v-183h131v-50h-131v-217z" />
    <glyph glyph-name="uni0497" unicode="&#x497;" horiz-adv-x="722" 
d="M91 0h-73l204 255v2l-192 246h69l192 -246v-4zM363 0h-58v503h58v-503zM577 0l-200 253v4l192 246h70l-192 -246v-2l165 -203h73v-194h-56v142h-52z" />
    <glyph glyph-name="uni049B" unicode="&#x49b;" horiz-adv-x="525" 
d="M148 0h-58v503h58v-503zM413 52h76v-194h-57v142h-50l-220 253v4l212 246h71l-213 -246v-2z" />
    <glyph glyph-name="uni04A3" unicode="&#x4a3;" horiz-adv-x="609" 
d="M563 -142h-57v142h-65v234h-293v-234h-58v503h58v-216h293v216h58v-451h64v-194z" />
    <glyph glyph-name="uni04AF" unicode="&#x4af;" horiz-adv-x="494" 
d="M218 -192v192l-205 503h66l168 -427h1l168 427h64l-204 -503v-192h-58z" />
    <glyph glyph-name="uni04B1" unicode="&#x4b1;" horiz-adv-x="494" 
d="M276 -192h-58v147h-134v53h130l-201 495h66l168 -431h1l168 431h64l-201 -495h132v-53h-135v-147z" />
    <glyph glyph-name="uni04B3" unicode="&#x4b3;" horiz-adv-x="546" 
d="M432 52h77v-194h-57v142h-53l-159 213h-1l-144 -213h-69l176 256l-184 247h70l155 -209h1l146 209h69l-178 -250z" />
    <glyph glyph-name="uni04B7" unicode="&#x4b7;" horiz-adv-x="517" 
d="M407 52h64v-194h-57v142h-65v168c-251 13 -299 79 -299 183v152h60v-139c0 -83 30 -130 239 -140v279h58v-451z" />
    <glyph glyph-name="uni04BB" unicode="&#x4bb;" horiz-adv-x="572" 
d="M487 0h-58v321c0 101 -61 147 -139 147c-56 0 -104 -24 -142 -67v-401h-58v750h58v-289h1c41 37 94 60 154 60c101 0 184 -58 184 -183v-338z" />
    <glyph glyph-name="uni04D9" unicode="&#x4d9;" horiz-adv-x="535" 
d="M66 462c44 38 105 59 172 59c138 0 247 -94 247 -269c0 -174 -98 -270 -227 -270c-121 0 -215 93 -215 229c0 12 0 28 1 42h379c-3 141 -80 215 -195 215c-70 0 -126 -30 -159 -70h-3v64zM103 202c1 -96 65 -167 156 -167c88 0 151 60 163 167h-319z" />
    <glyph glyph-name="uni04E3" unicode="&#x4e3;" horiz-adv-x="590" 
d="M499 0h-58v415h-1l-303 -430h-47v518h58v-415h1l304 430h46v-518zM447 685h-302v47h302v-47z" />
    <glyph glyph-name="uni04E9" unicode="&#x4e9;" horiz-adv-x="566" 
d="M525 252c0 -174 -108 -270 -242 -270s-242 95 -242 270c0 174 108 269 242 269s242 -95 242 -269zM283 468c-97 0 -170 -69 -179 -190h358c-9 120 -81 190 -179 190zM283 36c97 0 169 68 179 189h-358c9 -121 81 -189 179 -189z" />
    <glyph glyph-name="uni04EF" unicode="&#x4ef;" horiz-adv-x="496" 
d="M400 685h-302v47h302v-47zM212 -193h-63l76 194l-216 502h66l179 -425h1l156 425h64z" />
    <glyph glyph-name="a.superior" unicode="&#xe000;" horiz-adv-x="349" 
d="M295 295h-46v27c-25 -23 -60 -39 -101 -39c-63 0 -110 40 -110 102c0 63 44 106 122 106c34 0 65 -9 88 -23v38c0 64 -40 89 -90 89c-40 0 -76 -20 -97 -45h-3v47c30 24 68 38 109 38c72 0 128 -40 128 -127v-213zM248 358v75c-20 13 -48 23 -77 23
c-54 0 -85 -26 -85 -68c0 -38 26 -67 78 -67c33 0 62 14 84 37z" />
    <glyph glyph-name="b.superior" unicode="&#xe001;" horiz-adv-x="383" 
d="M357 458c0 -111 -67 -175 -157 -175c-43 0 -75 14 -99 31l-41 -22h-2v490h47v-187c27 25 60 40 103 40c84 0 149 -64 149 -177zM307 458c0 84 -45 134 -113 134c-38 0 -68 -16 -89 -43v-190c20 -20 50 -33 85 -33c70 0 117 48 117 132z" />
    <glyph glyph-name="c.superior" unicode="&#xe002;" horiz-adv-x="305" 
d="M276 371v-51c-26 -23 -61 -37 -100 -37c-83 0 -150 61 -150 175c0 113 65 177 148 177c40 0 74 -14 100 -37v-51h-2c-17 25 -49 45 -89 45c-65 0 -108 -50 -108 -134c0 -82 43 -131 109 -131c39 0 72 18 90 44h2z" />
    <glyph glyph-name="d.superior" unicode="&#xe003;" horiz-adv-x="383" 
d="M326 295h-46v28h-1c-27 -24 -61 -40 -103 -40c-86 0 -150 64 -150 175c0 112 67 177 158 177c38 0 70 -12 94 -29h1v176h47v-487zM279 368v191c-22 20 -51 33 -85 33c-72 0 -119 -48 -119 -134c0 -82 46 -132 114 -132c37 0 68 16 90 42z" />
    <glyph glyph-name="e.superior" unicode="&#xe004;" horiz-adv-x="352" 
d="M305 321c-30 -24 -70 -38 -114 -38c-93 0 -165 62 -165 175s64 177 150 177c81 0 144 -59 144 -150c0 -8 0 -18 -1 -27h-244c3 -88 51 -135 124 -135c44 0 81 19 103 45h3v-47zM271 495c-2 61 -40 105 -95 105c-54 0 -92 -38 -100 -105h195z" />
    <glyph glyph-name="f.superior" unicode="&#xe005;" horiz-adv-x="207" 
d="M109 295h-47v286h-28v2l28 40v63c0 58 28 101 88 101c21 0 41 -5 57 -16v-45h-2c-12 12 -29 20 -46 20c-36 0 -50 -27 -50 -62v-61h80v-42h-80v-286z" />
    <glyph glyph-name="g.superior" unicode="&#xe006;" horiz-adv-x="373" 
d="M272 375v186c-21 19 -51 31 -81 31c-69 0 -114 -47 -114 -128c0 -77 44 -126 109 -126c35 0 66 14 86 37zM184 169c-40 0 -84 11 -114 37v47h2c28 -32 66 -46 107 -46c68 0 93 41 93 97v29h-1c-24 -23 -59 -37 -100 -37c-79 0 -145 58 -145 168s66 171 154 171
c37 0 71 -14 95 -31h1l41 22h2v-319c0 -94 -53 -138 -135 -138z" />
    <glyph glyph-name="h.superior" unicode="&#xe007;" horiz-adv-x="378" 
d="M324 295h-47v206c0 62 -37 91 -86 91c-34 0 -64 -16 -86 -43v-254h-47v487h47v-187c26 25 60 40 99 40c66 0 120 -39 120 -119v-221z" />
    <glyph glyph-name="i.superior" unicode="&#xe008;" horiz-adv-x="161" 
d="M105 295h-47v328h47v-328zM107 733h-52v49h52v-49z" />
    <glyph glyph-name="j.superior" unicode="&#xe009;" horiz-adv-x="161" 
d="M15 170c-23 0 -45 8 -59 19v40h1c13 -13 31 -21 49 -21c29 0 52 20 52 69v346h47v-348c0 -68 -36 -105 -90 -105zM107 733h-52v49h52v-49z" />
    <glyph glyph-name="k.superior" unicode="&#xe00a;" horiz-adv-x="320" 
d="M105 295h-47v487h47v-487zM308 295h-57l-138 165v2l133 161h54l-134 -161v-1z" />
    <glyph glyph-name="l.superior" unicode="&#xe00b;" horiz-adv-x="161" 
d="M105 295h-47v487h47v-487z" />
    <glyph glyph-name="m.superior" unicode="&#xe00c;" horiz-adv-x="598" 
d="M544 295h-47v206c0 62 -37 91 -86 91c-33 0 -65 -15 -92 -48c3 -12 5 -25 5 -40v-209h-47v206c0 62 -37 91 -86 91c-34 0 -64 -16 -86 -43v-254h-47v328h46v-28h1c26 25 60 40 100 40c44 0 82 -18 103 -54c37 39 75 54 117 54c64 0 119 -39 119 -119v-221z" />
    <glyph glyph-name="n.superior" unicode="&#xe00d;" horiz-adv-x="386" 
d="M331 295h-46v206c0 62 -39 91 -89 91c-39 0 -68 -16 -91 -43v-254h-47v328h46v-28h1c27 25 61 40 103 40c68 0 123 -39 123 -119v-221z" />
    <glyph glyph-name="o.superior" unicode="&#xe00e;" horiz-adv-x="373" 
d="M296 458c0 85 -45 133 -110 133c-64 0 -111 -48 -111 -133c0 -82 46 -132 111 -132s110 50 110 132zM347 458c0 -112 -72 -175 -161 -175s-160 63 -160 175c0 114 69 177 160 177c90 0 161 -63 161 -177z" />
    <glyph glyph-name="p.superior" unicode="&#xe00f;" horiz-adv-x="383" 
d="M357 458c0 -111 -67 -175 -157 -175c-40 0 -72 12 -95 29v-142h-47v453h46v-28h1c27 25 60 40 103 40c84 0 149 -64 149 -177zM307 458c0 84 -45 134 -113 134c-38 0 -68 -16 -89 -43v-190c20 -20 50 -33 85 -33c70 0 117 48 117 132z" />
    <glyph glyph-name="q.superior" unicode="&#xe010;" horiz-adv-x="383" 
d="M326 170h-47v153h-1c-26 -24 -60 -40 -102 -40c-86 0 -150 64 -150 175c0 112 67 177 158 177c41 0 73 -14 98 -31h1l41 22h2v-456zM279 368v191c-22 20 -51 33 -85 33c-72 0 -119 -48 -119 -134c0 -82 46 -132 114 -132c37 0 68 16 90 42z" />
    <glyph glyph-name="r.superior" unicode="&#xe011;" horiz-adv-x="243" 
d="M106 295h-47v328h45v-28h1c25 23 52 40 86 40c11 0 24 -2 34 -6v-49h-2c-11 8 -24 11 -37 11c-32 0 -55 -18 -80 -40v-256z" />
    <glyph glyph-name="s.superior" unicode="&#xe012;" horiz-adv-x="289" 
d="M248 376c0 -53 -37 -93 -109 -93c-39 0 -73 12 -97 34v47h2c23 -28 59 -42 94 -42c39 0 64 21 64 52c0 84 -158 48 -158 170c0 50 33 91 102 91c33 0 67 -11 90 -34v-47h-2c-21 27 -54 42 -85 42c-40 0 -59 -21 -59 -51c0 -81 158 -45 158 -169z" />
    <glyph glyph-name="t.superior" unicode="&#xe013;" horiz-adv-x="207" 
d="M109 295h-47v286h-28v2l28 40v99h47v-99h80v-42h-80v-286z" />
    <glyph glyph-name="u.superior" unicode="&#xe014;" horiz-adv-x="375" 
d="M320 623v-211c0 -82 -52 -129 -133 -129c-80 0 -133 47 -133 129v211h47v-207c0 -61 33 -90 86 -90c54 0 86 29 86 90v207h47z" />
    <glyph glyph-name="v.superior" unicode="&#xe015;" horiz-adv-x="330" 
d="M182 283h-33l-140 340h53l103 -266h1l103 266h52z" />
    <glyph glyph-name="w.superior" unicode="&#xe016;" horiz-adv-x="521" 
d="M386 283h-29l-96 250h-1l-95 -250h-30l-122 340h52l88 -257h1l105 269h4l104 -269h1l88 257h52z" />
    <glyph glyph-name="x.superior" unicode="&#xe017;" horiz-adv-x="326" 
d="M316 295h-56l-98 135h-1l-89 -135h-55l112 166l-119 162h57l95 -132h1l90 132h55l-114 -162z" />
    <glyph glyph-name="y.superior" unicode="&#xe018;" horiz-adv-x="332" 
d="M148 170h-52l50 126l-140 327h53l109 -266h1l97 266h53z" />
    <glyph glyph-name="z.superior" unicode="&#xe019;" horiz-adv-x="306" 
d="M281 295h-259v3l174 282v1h-162v42h239v-4l-176 -281v-1h184v-42z" />
    <glyph glyph-name="grave" unicode="`" horiz-adv-x="500" 
d="M348 555h-55l-141 195h66z" />
    <glyph glyph-name="grave" unicode="&#x300;" horiz-adv-x="500" 
d="M348 555h-55l-141 195h66z" />
    <glyph glyph-name="grave" unicode="&#x2cb;" horiz-adv-x="500" 
d="M348 555h-55l-141 195h66z" />
    <glyph glyph-name="grave.cap" unicode="&#xe01a;" horiz-adv-x="500" 
d="M322 682h-53l-92 118h66z" />
    <glyph glyph-name="acute" unicode="&#xb4;" horiz-adv-x="500" 
d="M206 554h-54l131 196h65z" />
    <glyph glyph-name="acute" unicode="&#x301;" horiz-adv-x="500" 
d="M206 554h-54l131 196h65z" />
    <glyph glyph-name="acute" unicode="&#x2ca;" horiz-adv-x="500" 
d="M206 554h-54l131 196h65z" />
    <glyph glyph-name="acute.cap" unicode="&#xe01b;" horiz-adv-x="500" 
d="M230 682h-53l79 118h66z" />
    <glyph glyph-name="circumflex" unicode="&#x2c6;" horiz-adv-x="500" 
d="M410 555h-54l-105 149h-1l-106 -149h-54l141 203h38z" />
    <glyph glyph-name="circumflex" unicode="&#x302;" horiz-adv-x="500" 
d="M410 555h-54l-105 149h-1l-106 -149h-54l141 203h38z" />
    <glyph glyph-name="circumflex.cap" unicode="&#xe01c;" horiz-adv-x="500" 
d="M364 682h-53l-60 79h-1l-61 -79h-53l94 128h40z" />
    <glyph glyph-name="caron" unicode="&#x2c7;" horiz-adv-x="500" 
d="M269 547h-38l-141 203h54l105 -149h1l106 149h54z" />
    <glyph glyph-name="caron" unicode="&#x30c;" horiz-adv-x="500" 
d="M269 547h-38l-141 203h54l105 -149h1l106 149h54z" />
    <glyph glyph-name="caron.cap" unicode="&#xe01d;" horiz-adv-x="500" 
d="M270 674h-40l-94 128h53l60 -80h1l61 80h53z" />
    <glyph glyph-name="caronSlovak" unicode="&#x315;" horiz-adv-x="500" 
d="M242 551h-48l54 199h57z" />
    <glyph glyph-name="caronSlovak" unicode="&#xe01e;" horiz-adv-x="500" 
d="M242 551h-48l54 199h57z" />
    <glyph glyph-name="tilde" unicode="&#x2dc;" horiz-adv-x="500" 
d="M326 622c-56 0 -103 81 -149 81c-29 0 -42 -27 -60 -81h-42c23 87 50 128 99 128c56 0 103 -81 149 -81c29 0 42 27 60 81h42c-23 -87 -50 -128 -99 -128z" />
    <glyph glyph-name="tilde" unicode="&#x303;" horiz-adv-x="500" 
d="M326 622c-56 0 -103 81 -149 81c-29 0 -42 -27 -60 -81h-42c23 87 50 128 99 128c56 0 103 -81 149 -81c29 0 42 27 60 81h42c-23 -87 -50 -128 -99 -128z" />
    <glyph glyph-name="tilde.cap" unicode="&#xe01f;" horiz-adv-x="500" 
d="M312 704c-42 0 -89 58 -120 58c-29 0 -36 -23 -49 -58h-43c21 61 39 101 88 101c42 0 89 -58 120 -58c29 0 36 23 49 58h43c-21 -63 -39 -101 -88 -101z" />
    <glyph glyph-name="dieresis" unicode="&#xa8;" horiz-adv-x="500" 
d="M182 683h-63v67h63v-67zM380 683h-63v67h63v-67z" />
    <glyph glyph-name="dieresis" unicode="&#x308;" horiz-adv-x="500" 
d="M182 683h-63v67h63v-67zM380 683h-63v67h63v-67z" />
    <glyph glyph-name="dieresis.cap" unicode="&#xe020;" horiz-adv-x="500" 
d="M182 742h-63v63h63v-63zM380 742h-63v63h63v-63z" />
    <glyph glyph-name="macron" unicode="&#xaf;" horiz-adv-x="500" 
d="M401 685h-302v47h302v-47z" />
    <glyph glyph-name="macron" unicode="&#x304;" horiz-adv-x="500" 
d="M401 685h-302v47h302v-47z" />
    <glyph glyph-name="macron" unicode="&#x2c9;" horiz-adv-x="500" 
d="M401 685h-302v47h302v-47z" />
    <glyph glyph-name="macron.cap" unicode="&#xe021;" horiz-adv-x="500" 
d="M391 760h-282v45h282v-45z" />
    <glyph glyph-name="breve" unicode="&#x2d8;" horiz-adv-x="500" 
d="M250 596c-94 0 -147 67 -157 154h45c12 -66 50 -108 112 -108s100 42 112 108h45c-10 -87 -63 -154 -157 -154z" />
    <glyph glyph-name="breve" unicode="&#x306;" horiz-adv-x="500" 
d="M250 596c-94 0 -147 67 -157 154h45c12 -66 50 -108 112 -108s100 42 112 108h45c-10 -87 -63 -154 -157 -154z" />
    <glyph glyph-name="breve.cap" unicode="&#xe022;" horiz-adv-x="500" 
d="M250 704c-77 0 -125 39 -135 101h44c11 -39 41 -58 91 -58s80 19 90 58h45c-10 -62 -58 -101 -135 -101z" />
    <glyph glyph-name="ring" unicode="&#x2da;" horiz-adv-x="500" 
d="M355 671c0 -64 -51 -95 -105 -95c-56 0 -106 31 -106 95c0 62 51 93 106 93c54 0 105 -31 105 -93zM312 671c0 37 -27 59 -62 59c-36 0 -65 -22 -65 -59c0 -40 29 -62 65 -62c35 0 62 22 62 62z" />
    <glyph glyph-name="ring" unicode="&#x30a;" horiz-adv-x="500" 
d="M355 671c0 -64 -51 -95 -105 -95c-56 0 -106 31 -106 95c0 62 51 93 106 93c54 0 105 -31 105 -93zM312 671c0 37 -27 59 -62 59c-36 0 -65 -22 -65 -59c0 -40 29 -62 65 -62c35 0 62 22 62 62z" />
    <glyph glyph-name="ring.cap" unicode="&#xe023;" horiz-adv-x="500" 
d="M350 769c0 -59 -49 -87 -100 -87c-53 0 -101 28 -101 87c0 57 49 85 101 85c51 0 100 -28 100 -85zM309 769c0 34 -27 52 -59 52c-33 0 -61 -18 -61 -52c0 -36 28 -54 61 -54c32 0 59 18 59 54z" />
    <glyph glyph-name="hungarumlaut" unicode="&#x2dd;" horiz-adv-x="500" 
d="M130 554h-55l131 196h65zM283 554h-54l131 196h65z" />
    <glyph glyph-name="hungarumlaut" unicode="&#x30b;" horiz-adv-x="500" 
d="M130 554h-55l131 196h65zM283 554h-54l131 196h65z" />
    <glyph glyph-name="hungarumlaut.cap" unicode="&#xe024;" horiz-adv-x="500" 
d="M155 682h-55l79 118h66zM310 682h-55l79 118h66z" />
    <glyph glyph-name="dotaccent" unicode="&#x2d9;" horiz-adv-x="500" 
d="M283 683h-66v67h66v-67z" />
    <glyph glyph-name="dotaccent" unicode="&#x307;" horiz-adv-x="500" 
d="M283 683h-66v67h66v-67z" />
    <glyph glyph-name="dotaccent.cap" unicode="&#xe025;" horiz-adv-x="500" 
d="M283 742h-66v63h66v-63z" />
    <glyph glyph-name="cedilla" unicode="&#xb8;" horiz-adv-x="500" 
d="M342 -122c0 -47 -45 -71 -101 -71c-28 0 -56 4 -83 17v39h3c17 -11 41 -21 72 -21c39 0 58 13 58 37c0 34 -37 41 -90 44l20 77h44l-14 -50c49 -6 91 -21 91 -72z" />
    <glyph glyph-name="cedilla" unicode="&#x327;" horiz-adv-x="500" 
d="M342 -122c0 -47 -45 -71 -101 -71c-28 0 -56 4 -83 17v39h3c17 -11 41 -21 72 -21c39 0 58 13 58 37c0 34 -37 41 -90 44l20 77h44l-14 -50c49 -6 91 -21 91 -72z" />
    <glyph glyph-name="cedilla.fr" unicode="&#xe169;" horiz-adv-x="500" 
d="M235 -124h-58l87 124h58z" />
    <glyph glyph-name="ogonek" unicode="&#x2db;" horiz-adv-x="500" 
d="M335 -167c-22 -16 -53 -26 -84 -26c-57 0 -87 33 -87 73c0 44 33 80 82 123h43c-52 -49 -76 -77 -76 -110c0 -29 20 -45 49 -45c26 0 49 9 70 30h3v-45z" />
    <glyph glyph-name="ogonek" unicode="&#x328;" horiz-adv-x="500" 
d="M335 -167c-22 -16 -53 -26 -84 -26c-57 0 -87 33 -87 73c0 44 33 80 82 123h43c-52 -49 -76 -77 -76 -110c0 -29 20 -45 49 -45c26 0 49 9 70 30h3v-45z" />
    <glyph glyph-name="commaaccent" unicode="&#x326;" horiz-adv-x="500" 
d="M220 -193h-55l104 156h65z" />
    <glyph glyph-name="commaaccent.alt" unicode="&#x2bb;" horiz-adv-x="500" 
d="M230 594h-65l114 156h55z" />
    <glyph glyph-name="commaaccent.alt" unicode="&#xe026;" horiz-adv-x="500" 
d="M230 594h-65l114 156h55z" />
    <glyph glyph-name="commaaccent.alt" unicode="&#x312;" horiz-adv-x="500" 
d="M230 594h-65l114 156h55z" />
    <glyph glyph-name="breveCyr" unicode="&#xe08b;" horiz-adv-x="500" 
d="M250 596c-94 0 -147 67 -157 154h48c11 -66 47 -111 109 -111s98 45 109 111h48c-10 -87 -63 -154 -157 -154z" />
    <glyph glyph-name="breveCyr.cap" unicode="&#xe08d;" horiz-adv-x="500" 
d="M250 704c-77 0 -125 39 -135 101h47c9 -39 39 -60 88 -60c50 0 79 21 87 60h48c-10 -62 -58 -101 -135 -101z" />
    <glyph glyph-name="anoteleia" unicode="&#x387;" horiz-adv-x="258" 
d="M163 224h-68v81h68v-81z" />
    <glyph glyph-name="dieresistonos" unicode="&#x385;" horiz-adv-x="500" 
d="M167 602h-58v62h58v-62zM390 602h-58v62h58v-62zM259 554h-48l25 196h58z" />
    <glyph glyph-name="tonos" unicode="&#x384;" horiz-adv-x="500" 
d="M250 554h-47l36 196h57z" />
    <glyph glyph-name="uni037E" unicode="&#x37e;" horiz-adv-x="270" 
d="M169 422h-68v81h68v-81zM102 -138h-54l71 219h55v-5z" />
    <glyph glyph-name="comma" unicode="," horiz-adv-x="268" 
d="M105 -138h-53l70 219h56v-5z" />
    <glyph glyph-name="semicolon" unicode=";" horiz-adv-x="270" 
d="M169 422h-68v81h68v-81zM102 -138h-54l71 219h55v-5z" />
    <glyph glyph-name="colon" unicode=":" horiz-adv-x="270" 
d="M169 0h-68v81h68v-81zM169 422h-68v81h68v-81z" />
    <glyph glyph-name="period" unicode="." horiz-adv-x="270" 
d="M169 0h-68v81h68v-81z" />
    <glyph glyph-name="ellipsis" unicode="&#x2026;" horiz-adv-x="1000" 
d="M231 0h-68v81h68v-81zM534 0h-68v81h68v-81zM837 0h-68v81h68v-81z" />
    <glyph glyph-name="hyphen" unicode="-" horiz-adv-x="270" 
d="M254 237h-238v55h238v-55z" />
    <glyph glyph-name="hyphen.cap" unicode="&#xe027;" horiz-adv-x="270" 
d="M254 327h-238v55h238v-55z" />
    <glyph glyph-name="exclam" unicode="!" horiz-adv-x="265" 
d="M157 197h-49l-8 553h65zM164 0h-64v76h64v-76z" />
    <glyph glyph-name="exclamdown" unicode="&#xa1;" horiz-adv-x="265" 
d="M165 -247h-65l8 554h49zM165 427h-64v76h64v-76z" />
    <glyph glyph-name="exclamdown.cap" unicode="&#xe028;" horiz-adv-x="265" 
d="M165 -68h-65l8 554h49zM165 606h-64v76h64v-76z" />
    <glyph glyph-name="question" unicode="?" horiz-adv-x="476" 
d="M237 197h-50l-1 114c95 100 159 170 159 265c0 93 -64 127 -131 127c-60 0 -123 -22 -163 -69h-4v64c46 40 104 59 175 59c107 0 187 -57 187 -173c0 -111 -75 -189 -171 -289zM245 0h-64v76h64v-76z" />
    <glyph glyph-name="questiondown" unicode="&#xbf;" horiz-adv-x="476" 
d="M239 307h49l2 -115c-96 -99 -159 -169 -159 -265c0 -93 64 -127 131 -127c60 0 122 22 163 70h4v-65c-46 -40 -105 -59 -175 -59c-108 0 -187 58 -187 173c0 111 74 189 170 290zM231 503h64v-76h-64v76z" />
    <glyph glyph-name="questiondown.cap" horiz-adv-x="476" 
d="M239 486h49l2 -115c-96 -99 -159 -169 -159 -265c0 -93 64 -127 131 -127c60 0 122 22 163 70h4v-65c-46 -40 -105 -59 -175 -59c-108 0 -187 58 -187 173c0 111 74 189 170 290zM231 682h64v-76h-64v76z" />
    <glyph glyph-name="quoteleft" unicode="&#x2018;" horiz-adv-x="270" 
d="M126 463h-56v5l73 214h53z" />
    <glyph glyph-name="quoteright" unicode="&#x2019;" horiz-adv-x="270" 
d="M127 463h-53l70 219h56v-5z" />
    <glyph glyph-name="quotedblleft" unicode="&#x201c;" horiz-adv-x="407" 
d="M123 463h-56v5l73 214h53zM272 463h-56v5l73 214h53z" />
    <glyph glyph-name="quotedblright" unicode="&#x201d;" horiz-adv-x="407" 
d="M121 463h-53l70 219h56v-5zM270 463h-53l70 219h56v-5z" />
    <glyph glyph-name="quotesinglbase" unicode="&#x201a;" horiz-adv-x="270" 
d="M119 -138h-53l71 219h55v-5z" />
    <glyph glyph-name="quotedblbase" unicode="&#x201e;" horiz-adv-x="407" 
d="M116 -138h-53l71 219h55v-5zM265 -138h-53l71 219h55v-5z" />
    <glyph glyph-name="quotesingle" unicode="'" horiz-adv-x="270" 
d="M158 463h-47l-3 219h53z" />
    <glyph glyph-name="quotedbl" unicode="&#x22;" horiz-adv-x="406" 
d="M152 463h-47l-3 219h53zM301 463h-47l-3 219h53z" />
    <glyph glyph-name="guilsinglleft" unicode="&#x2039;" horiz-adv-x="287" 
d="M242 70h-55l-142 191v6l142 191h55l-136 -194z" />
    <glyph glyph-name="guilsinglright" unicode="&#x203a;" horiz-adv-x="287" 
d="M100 70h-55l136 194l-136 194h55l142 -191v-6z" />
    <glyph glyph-name="guilsinglleft.cap" unicode="&#xe02a;" horiz-adv-x="287" 
d="M242 158h-55l-142 191v6l142 191h55l-136 -194z" />
    <glyph glyph-name="guilsinglright.cap" unicode="&#xe02b;" horiz-adv-x="287" 
d="M100 158h-55l136 194l-136 194h55l142 -191v-6z" />
    <glyph glyph-name="guillemotleft" unicode="&#xab;" horiz-adv-x="437" 
d="M242 70h-55l-142 191v6l142 191h55l-136 -194zM392 70h-55l-142 191v6l142 191h55l-136 -194z" />
    <glyph glyph-name="guillemotright" unicode="&#xbb;" horiz-adv-x="437" 
d="M100 70h-55l136 194l-136 194h55l142 -191v-6zM250 70h-55l136 194l-136 194h55l142 -191v-6z" />
    <glyph glyph-name="guillemotleft.cap" unicode="&#xe02c;" horiz-adv-x="462" 
d="M242 158h-55l-142 191v6l142 191h55l-136 -194zM417 158h-55l-142 191v6l142 191h55l-136 -194z" />
    <glyph glyph-name="guillemotright.cap" unicode="&#xe02d;" horiz-adv-x="462" 
d="M100 158h-55l136 194l-136 194h55l142 -191v-6zM275 158h-55l136 194l-136 194h55l142 -191v-6z" />
    <glyph glyph-name="slash" unicode="/" horiz-adv-x="348" 
d="M58 0h-56l288 682h56z" />
    <glyph glyph-name="backslash" unicode="\" horiz-adv-x="348" 
d="M346 0h-56l-288 682h56z" />
    <glyph glyph-name="bar" unicode="|" horiz-adv-x="270" 
d="M159 -190h-48v980h48v-980z" />
    <glyph glyph-name="brokenbar" unicode="&#xa6;" horiz-adv-x="270" 
d="M159 404h-48v386h48v-386zM159 -190h-48v386h48v-386z" />
    <glyph glyph-name="endash" unicode="&#x2013;" 
d="M530 240h-520v49h520v-49z" />
    <glyph glyph-name="endash.cap" unicode="&#xe02e;" 
d="M530 328h-520v49h520v-49z" />
    <glyph glyph-name="underscore" unicode="_" 
d="M530 -193h-520v48h520v-48z" />
    <glyph glyph-name="emdash" unicode="&#x2014;" horiz-adv-x="1080" 
d="M1070 240h-1060v49h1060v-49z" />
    <glyph glyph-name="emdash.cap" unicode="&#xe02f;" horiz-adv-x="1080" 
d="M1070 328h-1060v49h1060v-49z" />
    <glyph glyph-name="bullet" unicode="&#x2022;" horiz-adv-x="389" 
d="M295 140h-200v251h200v-251z" />
    <glyph glyph-name="periodcentered" unicode="&#xb7;" horiz-adv-x="270" 
d="M169 224h-68v81h68v-81z" />
    <glyph glyph-name="periodcentered" unicode="&#x2219;" horiz-adv-x="270" 
d="M169 224h-68v81h68v-81z" />
    <glyph glyph-name="periodcentered.cap" unicode="&#xe031;" horiz-adv-x="270" 
d="M169 312h-68v81h68v-81z" />
    <glyph glyph-name="parenleft" unicode="(" horiz-adv-x="318" 
d="M298 -142h-58c-101 111 -162 259 -162 421s61 310 162 421h58c-100 -111 -161 -259 -161 -421s61 -310 161 -421z" />
    <glyph glyph-name="parenright" unicode=")" horiz-adv-x="318" 
d="M78 -142h-59c101 111 162 259 162 421s-61 310 -162 421h59c101 -111 162 -259 162 -421s-61 -310 -162 -421z" />
    <glyph glyph-name="parenleft.cap" unicode="&#xe032;" horiz-adv-x="318" 
d="M298 -92h-58c-101 111 -162 259 -162 421s61 310 162 421h58c-100 -111 -161 -259 -161 -421s61 -310 161 -421z" />
    <glyph glyph-name="parenright.cap" unicode="&#xe033;" horiz-adv-x="318" 
d="M78 -92h-59c101 111 162 259 162 421s-61 310 -162 421h59c101 -111 162 -259 162 -421s-61 -310 -162 -421z" />
    <glyph glyph-name="bracketleft" unicode="[" horiz-adv-x="317" 
d="M277 -142h-182v842h182v-48h-127v-746h127v-48z" />
    <glyph glyph-name="bracketright" unicode="]" horiz-adv-x="317" 
d="M40 700h182v-842h-182v48h127v746h-127v48z" />
    <glyph glyph-name="bracketleft.cap" unicode="&#xe034;" horiz-adv-x="317" 
d="M277 -92h-182v842h182v-48h-127v-746h127v-48z" />
    <glyph glyph-name="bracketright.cap" unicode="&#xe035;" horiz-adv-x="317" 
d="M40 750h182v-842h-182v48h127v746h-127v48z" />
    <glyph glyph-name="braceleft" unicode="{" horiz-adv-x="323" 
d="M291 -142c-124 0 -182 42 -182 163v208l-55 48v4l55 48v208c0 121 58 163 182 163v-48c-99 0 -127 -41 -127 -115v-212l-51 -46l51 -46v-212c0 -74 28 -115 127 -115v-48z" />
    <glyph glyph-name="braceright" unicode="}" horiz-adv-x="323" 
d="M32 700c124 0 182 -42 182 -163v-208l55 -48v-4l-55 -48v-208c0 -121 -58 -163 -182 -163v48c99 0 127 41 127 115v212l51 46l-51 46v212c0 74 -28 115 -127 115v48z" />
    <glyph glyph-name="braceleft.cap" unicode="&#xe036;" horiz-adv-x="323" 
d="M291 -92c-124 0 -182 42 -182 163v208l-55 48v4l55 48v208c0 121 58 163 182 163v-48c-99 0 -127 -41 -127 -115v-212l-51 -46l51 -46v-212c0 -74 28 -115 127 -115v-48z" />
    <glyph glyph-name="braceright.cap" unicode="&#xe037;" horiz-adv-x="323" 
d="M32 750c124 0 182 -42 182 -163v-208l55 -48v-4l-55 -48v-208c0 -121 -58 -163 -182 -163v48c99 0 127 41 127 115v212l51 46l-51 46v212c0 74 -28 115 -127 115v48z" />
    <glyph glyph-name="asterisk" unicode="*" horiz-adv-x="516" 
d="M407 288l-39 -29l-110 156l-110 -156l-39 29l112 156l-182 66l17 44l179 -66v194h46v-194l179 66l17 -44l-183 -66z" />
    <glyph glyph-name="dagger" unicode="&#x2020;" horiz-adv-x="516" 
d="M285 0h-54v453h-162v50h162v179h54v-179h162v-50h-162v-453z" />
    <glyph glyph-name="daggerdbl" unicode="&#x2021;" horiz-adv-x="516" 
d="M285 0h-54v179h-162v50h162v224h-162v50h162v179h54v-179h162v-50h-162v-224h162v-50h-162v-179z" />
    <glyph glyph-name="section" unicode="&#xa7;" horiz-adv-x="516" 
d="M450 275c0 -100 -62 -153 -139 -166v-1c53 -22 102 -50 102 -130c0 -78 -56 -138 -162 -138c-60 0 -111 17 -145 52v62h3c33 -43 87 -65 140 -65c64 0 104 36 104 87c0 102 -104 95 -187 140c-62 28 -101 80 -101 159c0 97 59 150 134 165v1c-50 20 -94 51 -94 124
c0 74 49 135 153 135c50 0 100 -17 135 -52v-62h-3c-32 40 -81 65 -129 65c-64 0 -95 -35 -95 -84c0 -87 89 -97 171 -128c69 -22 113 -80 113 -164zM387 275c0 74 -48 127 -129 127c-73 0 -130 -41 -130 -127c0 -74 48 -127 129 -127c73 0 130 41 130 127z" />
    <glyph glyph-name="paragraph" unicode="&#xb6;" horiz-adv-x="568" 
d="M463 -142h-60v376c-268 20 -347 118 -347 241c0 143 109 207 239 207h168v-824z" />
    <glyph glyph-name="at" unicode="@" horiz-adv-x="867" 
d="M437 82c52 0 95 22 126 59v271c-29 28 -71 45 -119 45c-102 0 -168 -67 -168 -187c0 -118 64 -188 161 -188zM473 -160c-231 0 -422 144 -422 429c0 283 181 431 382 431c212 0 384 -133 384 -392c0 -160 -73 -261 -207 -261h-44v38h-1c-35 -34 -82 -54 -140 -54
c-115 0 -206 85 -206 239c0 152 93 238 217 238c56 0 101 -17 134 -41h1l42 28h3v-404c105 0 153 89 153 213c0 245 -156 351 -335 351c-182 0 -334 -133 -334 -386c0 -249 161 -382 375 -382c102 0 199 29 253 91h4v-60c-56 -49 -160 -78 -259 -78z" />
    <glyph glyph-name="at.cap" unicode="&#xe038;" horiz-adv-x="867" 
d="M437 160c52 0 95 22 126 59v271c-29 28 -71 45 -119 45c-102 0 -168 -67 -168 -187c0 -118 64 -188 161 -188zM473 -82c-231 0 -422 144 -422 429c0 283 181 431 382 431c212 0 384 -133 384 -392c0 -160 -73 -261 -207 -261h-44v38h-1c-35 -34 -82 -54 -140 -54
c-115 0 -206 85 -206 239c0 152 93 238 217 238c56 0 101 -17 134 -41h1l42 28h3v-404c105 0 153 89 153 213c0 245 -156 351 -335 351c-182 0 -334 -133 -334 -386c0 -249 161 -382 375 -382c102 0 199 29 253 91h4v-60c-56 -49 -160 -78 -259 -78z" />
    <glyph glyph-name="copyright" unicode="&#xa9;" horiz-adv-x="771" 
d="M394 116c-105 0 -189 79 -189 226c0 142 81 224 187 224c51 0 96 -18 128 -48v-55h-2c-28 35 -73 57 -119 57c-88 0 -145 -68 -145 -178c0 -112 58 -180 146 -180c51 0 94 24 120 56h2v-54c-33 -30 -77 -48 -128 -48zM385 -18c-173 0 -334 122 -334 359
c0 236 159 359 335 359c173 0 334 -122 334 -359c0 -236 -159 -359 -335 -359zM384 18c160 0 296 108 296 323c0 212 -134 323 -293 323s-296 -108 -296 -323c0 -212 134 -323 293 -323z" />
    <glyph glyph-name="registered" unicode="&#xae;" horiz-adv-x="771" 
d="M307 127h-47v428h110c87 0 147 -43 147 -122c0 -65 -32 -104 -130 -127v-2l179 -177h-60l-188 194v3c121 17 151 50 151 104c0 51 -40 85 -104 85h-58v-386zM385 -18c-173 0 -334 122 -334 359c0 236 159 359 335 359c173 0 334 -122 334 -359
c0 -236 -159 -359 -335 -359zM384 18c160 0 296 108 296 323c0 212 -134 323 -293 323s-296 -108 -296 -323c0 -212 134 -323 293 -323z" />
    <glyph glyph-name="published" unicode="&#x2117;" horiz-adv-x="771" 
d="M323 127h-47v428h113c83 0 149 -43 149 -131c0 -79 -50 -140 -215 -153v-144zM323 314c129 7 168 53 168 107c0 58 -44 91 -105 91h-63v-198zM385 -18c-173 0 -334 122 -334 359c0 236 159 359 335 359c173 0 334 -122 334 -359c0 -236 -159 -359 -335 -359zM384 18
c160 0 296 108 296 323c0 212 -134 323 -293 323s-296 -108 -296 -323c0 -212 134 -323 293 -323z" />
    <glyph glyph-name="published" unicode="&#xe039;" horiz-adv-x="771" 
d="M323 127h-47v428h113c83 0 149 -43 149 -131c0 -79 -50 -140 -215 -153v-144zM323 314c129 7 168 53 168 107c0 58 -44 91 -105 91h-63v-198zM385 -18c-173 0 -334 122 -334 359c0 236 159 359 335 359c173 0 334 -122 334 -359c0 -236 -159 -359 -335 -359zM384 18
c160 0 296 108 296 323c0 212 -134 323 -293 323s-296 -108 -296 -323c0 -212 134 -323 293 -323z" />
    <glyph glyph-name="trademark" unicode="&#x2122;" horiz-adv-x="872" 
d="M185 254h-46v382h-122v46h291v-46h-123v-382zM814 255h-48l-27 327h-1l-139 -339h-3l-140 339h-1l-26 -327h-48l38 436h34l145 -354h1l142 354h35z" />
    <glyph glyph-name="ordfeminine" unicode="&#xaa;" horiz-adv-x="349" 
d="M295 295h-46v27c-25 -23 -60 -39 -101 -39c-63 0 -110 40 -110 102c0 63 44 106 122 106c34 0 65 -9 88 -23v38c0 64 -40 89 -90 89c-40 0 -76 -20 -97 -45h-3v47c30 24 68 38 109 38c72 0 128 -40 128 -127v-213zM248 358v75c-20 13 -48 23 -77 23
c-54 0 -85 -26 -85 -68c0 -38 26 -67 78 -67c33 0 62 14 84 37zM295 163h-241v41h241v-41z" />
    <glyph glyph-name="ordmasculine" unicode="&#xba;" horiz-adv-x="373" 
d="M307 163h-241v41h241v-41zM296 458c0 84 -45 132 -109 132c-65 0 -112 -47 -112 -132c0 -82 47 -131 111 -131s110 48 110 131zM347 458c0 -112 -71 -175 -161 -175c-89 0 -160 63 -160 175c0 114 70 177 161 177c89 0 160 -63 160 -177z" />
    <glyph glyph-name="numero" unicode="&#x2116;" horiz-adv-x="1122" 
d="M1056 163h-241v41h241v-41zM1045 458c0 84 -45 132 -109 132c-65 0 -112 -47 -112 -132c0 -82 47 -131 111 -131s110 48 110 131zM1096 458c0 -112 -71 -175 -161 -175c-89 0 -160 63 -160 175c0 114 70 177 161 177c89 0 160 -63 160 -177zM645 -15h-46l-432 569h-1
v-554h-62v646l-24 31v5h69l433 -573h1v573h62v-697z" />
    <glyph glyph-name="numbersign" unicode="#" horiz-adv-x="516" 
d="M350 211l-25 -211h-44l25 211h-130l-25 -211h-45l25 211h-99v43h104l22 175h-102v43h107l25 210h44l-25 -210h131l25 210h44l-25 -210h102v-43h-107l-22 -175h105v-43h-110zM311 254l22 175h-131l-21 -175h130z" />
    <glyph glyph-name="Euro" unicode="&#x20ac;" horiz-adv-x="513" 
d="M483 45c-39 -40 -92 -63 -151 -63c-108 0 -198 67 -220 260h-85v50h81c-1 15 -1 31 -1 48c0 20 0 39 1 57h-81v50h86c24 183 110 253 217 253c61 0 112 -23 150 -63v-67h-4c-32 48 -80 75 -140 75c-89 0 -145 -62 -164 -198h253v-50h-257c-1 -18 -2 -37 -2 -57
c0 -17 0 -33 1 -48h258v-50h-254c18 -140 76 -205 167 -205c62 0 109 29 141 75h4v-67z" />
    <glyph glyph-name="dollar" unicode="$" horiz-adv-x="478" 
d="M263 -142h-52v125c-66 3 -118 25 -156 62v68h4c35 -47 91 -72 152 -76v287c-77 36 -153 79 -153 199c0 85 47 165 156 176v125h52v-125c55 -6 98 -29 135 -62v-67h-4c-33 43 -77 67 -131 73v-276c77 -36 156 -79 156 -202c0 -93 -55 -167 -159 -180v-127zM367 162
c0 74 -47 108 -104 137v-260c66 11 104 56 104 123zM113 526c0 -72 45 -105 101 -134v251c-68 -8 -101 -54 -101 -117z" />
    <glyph glyph-name="cent" unicode="&#xa2;" horiz-adv-x="509" 
d="M320 -142h-52v125c-127 12 -221 111 -221 287c0 174 94 275 221 287v125h52v-126c54 -5 103 -27 139 -60v-71h-4c-32 44 -80 71 -135 76v-462c59 5 107 35 138 76h4v-71c-38 -34 -87 -56 -142 -61v-125zM109 270c0 -130 61 -214 159 -230v459c-99 -14 -159 -97 -159 -229
z" />
    <glyph glyph-name="sterling" unicode="&#xa3;" horiz-adv-x="516" 
d="M451 0h-409v54h115l-29 261h-86v53h80l-7 69c-3 25 -6 51 -6 77c0 107 75 186 192 186c57 0 116 -19 160 -60v-69h-3c-39 48 -94 74 -154 74c-82 0 -133 -58 -133 -139c0 -26 2 -55 5 -75l7 -63h215v-53h-209l29 -261h233v-54z" />
    <glyph glyph-name="florin" unicode="&#x192;" horiz-adv-x="515" 
d="M192 0h-60v316h-88v52h88v128c0 129 76 204 197 204c56 0 113 -19 155 -60v-69h-3c-40 50 -89 74 -149 74c-93 0 -140 -63 -140 -154v-123h218v-52h-218v-316z" />
    <glyph glyph-name="yen" unicode="&#xa5;" horiz-adv-x="516" 
d="M300 0h-59v165h-187v50h187v105h-187v50h164l-175 312h67l160 -298h1l152 298h64l-166 -312h155v-50h-176v-105h176v-50h-176v-165z" />
    <glyph glyph-name="zero.slash" unicode="&#xe03a;" horiz-adv-x="569" 
d="M518 341c0 -259 -107 -359 -233 -359c-53 0 -102 17 -141 55l-32 -55h-59l56 98c-36 57 -58 143 -58 261c0 261 108 359 234 359c52 0 101 -18 141 -56l32 56h58l-57 -98c36 -58 59 -143 59 -261zM455 341c0 212 -72 301 -170 301c-99 0 -171 -89 -171 -301
c0 -211 72 -301 171 -301c98 0 170 90 170 301z" />
    <glyph glyph-name="zero" unicode="0" horiz-adv-x="569" 
d="M518 341c0 -259 -107 -359 -233 -359c-127 0 -234 100 -234 359c0 261 108 359 234 359s233 -99 233 -359zM455 341c0 212 -72 301 -170 301c-99 0 -171 -89 -171 -301c0 -211 72 -301 171 -301c98 0 170 90 170 301z" />
    <glyph glyph-name="one" unicode="1" horiz-adv-x="344" 
d="M249 0h-61v625l-147 -58h-3v58l208 75h3v-700z" />
    <glyph glyph-name="two" unicode="2" horiz-adv-x="516" 
d="M486 0h-451v32c239 208 320 303 320 442c0 109 -63 172 -148 172c-64 0 -119 -29 -155 -74h-3v67c42 38 97 61 166 61c119 0 205 -80 205 -221c0 -182 -129 -284 -274 -424v-1h340v-54z" />
    <glyph glyph-name="three" unicode="3" horiz-adv-x="511" 
d="M459 174c0 -130 -101 -192 -223 -192c-60 0 -125 16 -175 55v67h3c40 -46 104 -68 164 -68c93 0 168 45 168 144c0 85 -65 135 -172 135h-86v53h108c87 31 110 85 110 139c0 87 -61 139 -143 139c-56 0 -108 -23 -145 -69h-3v69c38 31 95 54 158 54
c111 0 197 -68 197 -186c0 -76 -39 -132 -104 -165v-1c70 -14 143 -69 143 -174z" />
    <glyph glyph-name="four" unicode="4" horiz-adv-x="516" 
d="M509 142h-109v-142h-60v142h-333v35l359 523h34v-504h109v-54zM341 196v381h-1l-258 -380v-1h259z" />
    <glyph glyph-name="five" unicode="5" horiz-adv-x="508" 
d="M461 194c0 -143 -103 -212 -225 -212c-60 0 -124 16 -173 54v68h4c39 -46 101 -69 162 -69c94 0 169 51 169 159c0 95 -64 159 -176 159c-51 0 -97 -14 -140 -41h-3l58 370h301v-55h-255l-39 -242c31 13 64 20 100 20c127 0 217 -80 217 -211z" />
    <glyph glyph-name="six" unicode="6" horiz-adv-x="549" 
d="M502 193c0 -143 -104 -211 -227 -211c-134 0 -229 77 -229 211c0 55 16 94 41 132l234 357h72v-2l-196 -297h1c25 11 56 18 89 18c123 0 215 -79 215 -208zM439 193c0 95 -61 160 -165 160c-92 0 -165 -51 -165 -160c0 -95 61 -160 165 -160c92 0 165 51 165 160z" />
    <glyph glyph-name="seven" unicode="7" horiz-adv-x="516" 
d="M143 1h-65v2l317 622v1h-363v57h454v-4z" />
    <glyph glyph-name="eight" unicode="8" horiz-adv-x="532" 
d="M485 181c0 -126 -90 -199 -219 -199c-130 0 -220 73 -220 199c0 91 49 154 125 180v1c-63 25 -103 80 -103 159c0 113 82 179 198 179s197 -66 197 -179c0 -78 -40 -133 -103 -158v-1c77 -26 125 -89 125 -181zM422 183c0 89 -57 148 -156 148c-98 0 -157 -59 -157 -148
s57 -150 157 -150c98 0 156 61 156 150zM404 517c0 78 -50 132 -138 132c-87 0 -138 -54 -138 -132c0 -77 50 -132 138 -132c86 0 138 55 138 132z" />
    <glyph glyph-name="nine" unicode="9" horiz-adv-x="549" 
d="M227 0h-72v2l196 297c-26 -12 -57 -18 -90 -18c-123 0 -215 78 -215 208c0 143 104 211 227 211c134 0 229 -77 229 -211c0 -55 -16 -94 -48 -144zM439 489c0 95 -61 160 -164 160c-93 0 -166 -51 -166 -160c0 -95 61 -160 165 -160c92 0 165 51 165 160z" />
    <glyph glyph-name="numbersign.LT" unicode="&#xe14d;" 
d="M362 211l-25 -211h-44l25 211h-130l-25 -211h-45l25 211h-99v43h104l22 175h-102v43h107l25 210h44l-25 -210h131l25 210h44l-25 -210h102v-43h-107l-22 -175h105v-43h-110zM323 254l22 175h-131l-21 -175h130z" />
    <glyph glyph-name="Euro.LT" unicode="&#xe03b;" 
d="M496 45c-39 -40 -92 -63 -151 -63c-108 0 -198 67 -220 260h-85v50h81c-1 15 -1 31 -1 48c0 20 0 39 1 57h-81v50h86c24 183 110 253 217 253c61 0 112 -23 150 -63v-67h-4c-32 48 -80 75 -140 75c-89 0 -145 -62 -164 -198h253v-50h-257c-1 -18 -2 -37 -2 -57
c0 -17 0 -33 1 -48h258v-50h-254c18 -140 76 -205 167 -205c62 0 109 29 141 75h4v-67z" />
    <glyph glyph-name="dollar.LT" unicode="&#xe03c;" 
d="M297 -142h-52v125c-66 3 -118 25 -156 62v68h4c35 -47 91 -72 152 -76v287c-77 36 -153 79 -153 199c0 85 47 165 156 176v125h52v-125c55 -6 98 -29 135 -62v-67h-4c-33 43 -77 67 -131 73v-276c77 -36 156 -79 156 -202c0 -93 -55 -167 -159 -180v-127zM401 162
c0 74 -47 108 -104 137v-260c66 11 104 56 104 123zM147 526c0 -72 45 -105 101 -134v251c-68 -8 -101 -54 -101 -117z" />
    <glyph glyph-name="cent.LT" unicode="&#xe03d;" 
d="M335 -142h-52v125c-127 12 -221 111 -221 287c0 174 94 275 221 287v125h52v-126c54 -5 103 -27 139 -60v-71h-4c-32 44 -80 71 -135 76v-462c59 5 107 35 138 76h4v-71c-38 -34 -87 -56 -142 -61v-125zM124 270c0 -130 61 -214 159 -230v459c-99 -14 -159 -97 -159 -229
z" />
    <glyph glyph-name="sterling.LT" unicode="&#xe03e;" 
d="M463 0h-409v54h115l-29 261h-86v53h80l-7 69c-3 25 -6 51 -6 77c0 107 75 186 192 186c57 0 116 -19 160 -60v-69h-3c-39 48 -94 74 -154 74c-82 0 -133 -58 -133 -139c0 -26 2 -55 5 -75l7 -63h215v-53h-209l29 -261h233v-54z" />
    <glyph glyph-name="florin.LT" unicode="&#xe03f;" 
d="M196 0h-60v316h-88v52h88v128c0 129 76 204 197 204c56 0 113 -19 155 -60v-69h-3c-40 50 -89 74 -149 74c-93 0 -140 -63 -140 -154v-123h218v-52h-218v-316z" />
    <glyph glyph-name="yen.LT" unicode="&#xe040;" 
d="M312 0h-59v165h-187v50h187v105h-187v50h164l-175 312h67l160 -298h1l152 298h64l-166 -312h155v-50h-176v-105h176v-50h-176v-165z" />
    <glyph glyph-name="zero.slash.LT" unicode="&#xe4b2;" 
d="M493 341c0 -259 -102 -359 -223 -359c-50 0 -96 17 -133 54l-31 -54h-59l56 97c-35 58 -56 143 -56 262c0 261 101 359 223 359c49 0 96 -17 133 -54l31 54h59l-56 -97c34 -58 56 -143 56 -262zM430 341c0 212 -68 301 -160 301c-94 0 -160 -89 -160 -301
c0 -211 66 -301 160 -301c92 0 160 90 160 301z" />
    <glyph glyph-name="zero.LT" unicode="&#xe041;" 
d="M493 341c0 -259 -102 -359 -223 -359c-122 0 -223 100 -223 359c0 261 101 359 223 359c121 0 223 -98 223 -359zM430 341c0 212 -68 301 -160 301c-94 0 -160 -89 -160 -301c0 -211 66 -301 160 -301c92 0 160 90 160 301z" />
    <glyph glyph-name="one.LT" unicode="&#xe042;" 
d="M340 0h-61v625l-147 -58h-3v58l208 75h3v-700z" />
    <glyph glyph-name="two.LT" unicode="&#xe043;" 
d="M498 0h-451v32c239 208 320 303 320 442c0 109 -63 172 -148 172c-64 0 -119 -29 -155 -74h-3v67c42 38 97 61 166 61c119 0 205 -80 205 -221c0 -182 -129 -284 -274 -424v-1h340v-54z" />
    <glyph glyph-name="three.LT" unicode="&#xe044;" 
d="M475 174c0 -130 -101 -192 -223 -192c-60 0 -125 16 -175 55v67h3c40 -46 104 -68 164 -68c93 0 168 45 168 144c0 85 -65 135 -172 135h-86v53h108c87 31 110 85 110 139c0 87 -61 139 -143 139c-56 0 -108 -23 -145 -69h-3v69c38 31 95 54 158 54
c111 0 197 -68 197 -186c0 -76 -39 -132 -104 -165v-1c70 -14 143 -69 143 -174z" />
    <glyph glyph-name="four.LT" unicode="&#xe045;" 
d="M521 142h-109v-142h-60v142h-333v35l359 523h34v-504h109v-54zM353 196v381h-1l-258 -380v-1h259z" />
    <glyph glyph-name="five.LT" unicode="&#xe046;" 
d="M478 194c0 -143 -103 -212 -225 -212c-60 0 -124 16 -173 54v68h4c39 -46 101 -69 162 -69c94 0 169 51 169 159c0 95 -64 159 -176 159c-51 0 -97 -14 -140 -41h-3l58 370h301v-55h-255l-39 -242c31 13 64 20 100 20c127 0 217 -80 217 -211z" />
    <glyph glyph-name="six.LT" unicode="&#xe047;" 
d="M498 193c0 -143 -104 -211 -227 -211c-134 0 -229 77 -229 211c0 55 16 94 41 132l234 357h72v-2l-196 -297h1c25 11 56 18 89 18c123 0 215 -79 215 -208zM435 193c0 95 -61 160 -165 160c-92 0 -165 -51 -165 -160c0 -95 61 -160 165 -160c92 0 165 51 165 160z" />
    <glyph glyph-name="seven.LT" unicode="&#xe048;" 
d="M155 1h-65v2l317 622v1h-363v57h454v-4z" />
    <glyph glyph-name="eight.LT" unicode="&#xe049;" 
d="M489 181c0 -126 -90 -199 -219 -199c-130 0 -220 73 -220 199c0 91 49 154 125 180v1c-63 25 -103 80 -103 159c0 113 82 179 198 179s197 -66 197 -179c0 -78 -40 -133 -103 -158v-1c77 -26 125 -89 125 -181zM426 183c0 89 -57 148 -156 148c-98 0 -157 -59 -157 -148
s57 -150 157 -150c98 0 156 61 156 150zM408 517c0 78 -50 132 -138 132c-87 0 -138 -54 -138 -132c0 -77 50 -132 138 -132c86 0 138 55 138 132z" />
    <glyph glyph-name="nine.LT" unicode="&#xe04a;" 
d="M223 0h-72v2l196 297c-26 -12 -57 -18 -90 -18c-123 0 -215 78 -215 208c0 143 104 211 227 211c134 0 229 -77 229 -211c0 -55 -16 -94 -48 -144zM435 489c0 95 -61 160 -164 160c-93 0 -166 -51 -166 -160c0 -95 61 -160 165 -160c92 0 165 51 165 160z" />
    <glyph glyph-name="numbersign.OP" unicode="&#xe151;" horiz-adv-x="516" 
d="M350 167l-25 -167h-44l25 167h-130l-25 -167h-45l26 167h-100v43h106l18 120h-100v43h107l25 167h44l-26 -167h131l26 167h44l-26 -167h103v-43h-109l-18 -120h103v-43h-110zM313 210l18 120h-131l-18 -120h131z" />
    <glyph glyph-name="Euro.OP" unicode="&#xe05b;" horiz-adv-x="513" 
d="M27 318v49h90c28 125 111 191 213 191c60 0 112 -23 150 -62v-66h-4c-32 49 -81 75 -141 75c-81 0 -136 -51 -158 -138h248v-49h-257c-1 -15 -2 -31 -2 -48c0 -14 0 -27 1 -39h258v-50h-250c22 -92 78 -146 163 -146c62 0 109 29 141 75h4v-66c-38 -39 -91 -62 -151 -62
c-103 0 -190 67 -217 199h-88v50h81c-1 12 -1 25 -1 39c0 16 1 32 2 48h-82z" />
    <glyph glyph-name="dollar.OP" unicode="&#xe05c;" horiz-adv-x="486" 
d="M422 132c0 -77 -56 -138 -159 -148v-126h-52v125c-64 3 -121 20 -156 55v65h4c37 -45 89 -67 152 -71v220c-77 23 -153 54 -153 160c0 72 48 136 156 145v125h52v-125c55 -5 103 -23 136 -55v-64h-4c-34 41 -78 64 -132 69v-212c78 -24 156 -55 156 -163zM367 130
c0 62 -47 87 -104 106v-202c68 9 104 47 104 96zM112 415c0 -61 45 -86 102 -104v195c-70 -7 -102 -45 -102 -91z" />
    <glyph glyph-name="cent.OP" unicode="&#xe05d;" horiz-adv-x="509" 
d="M320 -142h-52v125c-127 12 -221 111 -221 287c0 174 94 275 221 287v125h52v-126c54 -5 103 -27 139 -60v-71h-4c-32 44 -80 71 -135 76v-462c59 5 107 35 138 76h4v-71c-38 -34 -87 -56 -142 -61v-125zM109 270c0 -130 61 -214 159 -230v459c-99 -14 -159 -97 -159 -229
z" />
    <glyph glyph-name="sterling.OP" unicode="&#xe05e;" horiz-adv-x="516" 
d="M398 216h-208l24 -162h237v-54h-409v54h112l-25 162h-87v50h79l-4 31c-3 24 -8 50 -8 75c0 107 75 186 192 186c56 0 116 -19 160 -60v-69h-3c-41 49 -95 74 -154 74c-82 0 -134 -55 -134 -135c0 -25 4 -49 8 -73l4 -29h216v-50z" />
    <glyph glyph-name="florin.OP" unicode="&#xe05f;" horiz-adv-x="515" 
d="M184 0h-60v213h-88v53h88v88c0 129 76 204 197 204c56 0 113 -19 155 -60v-68h-3c-39 49 -88 73 -149 73c-93 0 -140 -62 -140 -151v-86h218v-53h-218v-213z" />
    <glyph glyph-name="yen.OP" unicode="&#xe060;" horiz-adv-x="516" 
d="M47 220v49h160l-171 271h67l159 -257h1l152 257h64l-163 -271h152v-49h-176v-87h176v-49h-176v-84h-59v84h-186v49h186v87h-186z" />
    <glyph glyph-name="zero.slash.OP" unicode="&#xe4b1;" horiz-adv-x="569" 
d="M518 270c0 -189 -107 -288 -233 -288c-52 0 -100 17 -140 49l-34 -49h-59l59 83c-37 48 -60 117 -60 205c0 190 107 288 234 288c51 0 99 -16 138 -48l34 48h58l-58 -83c37 -48 61 -117 61 -205zM455 270c0 146 -73 230 -170 230c-98 0 -171 -84 -171 -230
c0 -144 72 -230 171 -230c98 0 170 86 170 230z" />
    <glyph glyph-name="zero.OP" unicode="&#xe061;" horiz-adv-x="569" 
d="M518 270c0 -189 -107 -288 -233 -288c-127 0 -234 99 -234 288c0 190 107 288 234 288c126 0 233 -98 233 -288zM455 270c0 146 -73 230 -170 230c-98 0 -171 -84 -171 -230c0 -144 72 -230 171 -230c98 0 170 86 170 230z" />
    <glyph glyph-name="one.OP" unicode="&#xe062;" horiz-adv-x="344" 
d="M249 0h-61v483l-147 -58h-3v58l208 75h3v-558z" />
    <glyph glyph-name="two.OP" unicode="&#xe063;" horiz-adv-x="516" 
d="M486 0h-451v31c240 167 322 233 322 344c0 83 -64 129 -149 129c-64 0 -119 -30 -156 -74h-3v67c42 38 97 61 166 61c121 0 205 -68 205 -178c0 -137 -110 -207 -262 -325v-1h328v-54z" />
    <glyph glyph-name="three.OP" unicode="&#xe064;" horiz-adv-x="511" 
d="M459 32c0 -130 -101 -192 -223 -192c-60 0 -125 16 -175 55v67h3c40 -46 104 -68 164 -68c93 0 168 45 168 144c0 85 -65 135 -172 135h-86v53h108c87 31 110 85 110 139c0 87 -61 139 -143 139c-56 0 -108 -23 -145 -69h-3v69c38 31 95 54 158 54
c111 0 197 -68 197 -186c0 -76 -39 -132 -104 -165v-1c70 -14 143 -69 143 -174z" />
    <glyph glyph-name="four.OP" unicode="&#xe065;" horiz-adv-x="516" 
d="M509 0h-109v-142h-60v142h-333v35l359 523h34v-504h109v-54zM341 54v381h-1l-258 -380v-1h259z" />
    <glyph glyph-name="five.OP" unicode="&#xe066;" horiz-adv-x="508" 
d="M461 52c0 -143 -103 -212 -225 -212c-60 0 -124 16 -173 54v68h4c39 -46 101 -69 162 -69c94 0 169 51 169 159c0 95 -64 159 -176 159c-51 0 -97 -14 -140 -41h-3l58 370h301v-55h-255l-39 -242c31 13 64 20 100 20c127 0 217 -80 217 -211z" />
    <glyph glyph-name="six.OP" unicode="&#xe067;" horiz-adv-x="549" 
d="M502 193c0 -143 -104 -211 -227 -211c-134 0 -229 77 -229 211c0 55 16 94 41 132l234 357h72v-2l-196 -297h1c25 11 56 18 89 18c123 0 215 -79 215 -208zM439 193c0 95 -61 160 -165 160c-92 0 -165 -51 -165 -160c0 -95 61 -160 165 -160c92 0 165 51 165 160z" />
    <glyph glyph-name="seven.OP" unicode="&#xe068;" horiz-adv-x="516" 
d="M143 -142h-65v2l317 622v1h-363v57h454v-4z" />
    <glyph glyph-name="eight.OP" unicode="&#xe069;" horiz-adv-x="532" 
d="M485 181c0 -126 -90 -199 -219 -199c-130 0 -220 73 -220 199c0 91 49 154 125 180v1c-63 25 -103 80 -103 159c0 113 82 179 198 179s197 -66 197 -179c0 -78 -40 -133 -103 -158v-1c77 -26 125 -89 125 -181zM422 183c0 89 -57 148 -156 148c-98 0 -157 -59 -157 -148
s57 -150 157 -150c98 0 156 61 156 150zM404 517c0 78 -50 132 -138 132c-87 0 -138 -54 -138 -132c0 -77 50 -132 138 -132c86 0 138 55 138 132z" />
    <glyph glyph-name="nine.OP" unicode="&#xe06a;" horiz-adv-x="549" 
d="M227 -142h-72v2l196 297c-26 -12 -57 -18 -90 -18c-123 0 -215 78 -215 208c0 143 104 211 227 211c134 0 229 -77 229 -211c0 -55 -16 -94 -48 -144zM439 347c0 95 -61 160 -164 160c-93 0 -166 -51 -166 -160c0 -95 61 -160 165 -160c92 0 165 51 165 160z" />
    <glyph glyph-name="numbersign.OT" unicode="&#xe14f;" 
d="M362 167l-25 -167h-44l25 167h-130l-25 -167h-45l26 167h-100v43h106l18 120h-100v43h107l25 167h44l-26 -167h131l26 167h44l-26 -167h103v-43h-109l-18 -120h103v-43h-110zM325 210l18 120h-131l-18 -120h131z" />
    <glyph glyph-name="Euro.OT" unicode="&#xe04b;" 
d="M40 318v49h90c28 125 111 191 213 191c60 0 112 -23 150 -62v-66h-4c-32 49 -81 75 -141 75c-81 0 -136 -51 -158 -138h248v-49h-257c-1 -15 -2 -31 -2 -48c0 -14 0 -27 1 -39h258v-50h-250c22 -92 78 -146 163 -146c62 0 109 29 141 75h4v-66c-38 -39 -91 -62 -151 -62
c-103 0 -190 67 -217 199h-88v50h81c-1 12 -1 25 -1 39c0 16 1 32 2 48h-82z" />
    <glyph glyph-name="dollar.OT" unicode="&#xe04c;" 
d="M456 132c0 -77 -56 -138 -159 -148v-126h-52v125c-64 3 -121 20 -156 55v65h4c37 -45 89 -67 152 -71v220c-77 23 -153 54 -153 160c0 72 48 136 156 145v125h52v-125c55 -5 103 -23 136 -55v-64h-4c-34 41 -78 64 -132 69v-212c78 -24 156 -55 156 -163zM401 130
c0 62 -47 87 -104 106v-202c68 9 104 47 104 96zM146 415c0 -61 45 -86 102 -104v195c-70 -7 -102 -45 -102 -91z" />
    <glyph glyph-name="cent.OT" unicode="&#xe04d;" 
d="M335 -142h-52v125c-127 12 -221 111 -221 287c0 174 94 275 221 287v125h52v-126c54 -5 103 -27 139 -60v-71h-4c-32 44 -80 71 -135 76v-462c59 5 107 35 138 76h4v-71c-38 -34 -87 -56 -142 -61v-125zM124 270c0 -130 61 -214 159 -230v459c-99 -14 -159 -97 -159 -229
z" />
    <glyph glyph-name="sterling.OT" unicode="&#xe04e;" 
d="M410 216h-208l24 -162h237v-54h-409v54h112l-25 162h-87v50h79l-4 31c-3 24 -8 50 -8 75c0 107 75 186 192 186c56 0 116 -19 160 -60v-69h-3c-41 49 -95 74 -154 74c-82 0 -134 -55 -134 -135c0 -25 4 -49 8 -73l4 -29h216v-50z" />
    <glyph glyph-name="florin.OT" unicode="&#xe04f;" 
d="M196 0h-60v213h-88v53h88v88c0 129 76 204 197 204c56 0 113 -19 155 -60v-68h-3c-39 49 -88 73 -149 73c-93 0 -140 -62 -140 -151v-86h218v-53h-218v-213z" />
    <glyph glyph-name="yen.OT" unicode="&#xe050;" 
d="M59 220v49h160l-171 271h67l159 -257h1l152 257h64l-163 -271h152v-49h-176v-87h176v-49h-176v-84h-59v84h-186v49h186v87h-186z" />
    <glyph glyph-name="zero.slash.OT" unicode="&#xe08e;" 
d="M493 270c0 -189 -100 -288 -223 -288c-49 0 -94 16 -131 46l-33 -46h-59l58 82c-36 48 -58 117 -58 206c0 190 100 288 223 288c49 0 93 -16 130 -46l33 46h58l-57 -81c36 -48 59 -118 59 -207zM430 270c0 146 -66 230 -160 230c-95 0 -160 -84 -160 -230
c0 -144 64 -230 160 -230c95 0 160 86 160 230z" />
    <glyph glyph-name="zero.OT" unicode="&#xe051;" 
d="M493 270c0 -189 -100 -288 -223 -288s-223 99 -223 288c0 190 100 288 223 288s223 -98 223 -288zM430 270c0 146 -66 230 -160 230c-95 0 -160 -84 -160 -230c0 -144 64 -230 160 -230c95 0 160 86 160 230z" />
    <glyph glyph-name="one.OT" unicode="&#xe052;" 
d="M340 0h-61v483l-147 -58h-3v58l208 75h3v-558z" />
    <glyph glyph-name="two.OT" unicode="&#xe053;" 
d="M498 0h-451v31c240 167 322 233 322 344c0 83 -64 129 -149 129c-64 0 -119 -30 -156 -74h-3v67c42 38 97 61 166 61c121 0 205 -68 205 -178c0 -137 -110 -207 -262 -325v-1h328v-54z" />
    <glyph glyph-name="three.OT" unicode="&#xe054;" 
d="M475 32c0 -130 -101 -192 -223 -192c-60 0 -125 16 -175 55v67h3c40 -46 104 -68 164 -68c93 0 168 45 168 144c0 85 -65 135 -172 135h-86v53h108c87 31 110 85 110 139c0 87 -61 139 -143 139c-56 0 -108 -23 -145 -69h-3v69c38 31 95 54 158 54
c111 0 197 -68 197 -186c0 -76 -39 -132 -104 -165v-1c70 -14 143 -69 143 -174z" />
    <glyph glyph-name="four.OT" unicode="&#xe055;" 
d="M521 0h-109v-142h-60v142h-333v35l359 523h34v-504h109v-54zM353 54v381h-1l-258 -380v-1h259z" />
    <glyph glyph-name="five.OT" unicode="&#xe056;" 
d="M478 52c0 -143 -103 -212 -225 -212c-60 0 -124 16 -173 54v68h4c39 -46 101 -69 162 -69c94 0 169 51 169 159c0 95 -64 159 -176 159c-51 0 -97 -14 -140 -41h-3l58 370h301v-55h-255l-39 -242c31 13 64 20 100 20c127 0 217 -80 217 -211z" />
    <glyph glyph-name="six.OT" unicode="&#xe057;" 
d="M498 193c0 -143 -104 -211 -227 -211c-134 0 -229 77 -229 211c0 55 16 94 41 132l234 357h72v-2l-196 -297h1c25 11 56 18 89 18c123 0 215 -79 215 -208zM435 193c0 95 -61 160 -165 160c-92 0 -165 -51 -165 -160c0 -95 61 -160 165 -160c92 0 165 51 165 160z" />
    <glyph glyph-name="seven.OT" unicode="&#xe058;" 
d="M155 -142h-65v2l317 622v1h-363v57h454v-4z" />
    <glyph glyph-name="eight.OT" unicode="&#xe059;" 
d="M489 181c0 -126 -90 -199 -219 -199c-130 0 -220 73 -220 199c0 91 49 154 125 180v1c-63 25 -103 80 -103 159c0 113 82 179 198 179s197 -66 197 -179c0 -78 -40 -133 -103 -158v-1c77 -26 125 -89 125 -181zM426 183c0 89 -57 148 -156 148c-98 0 -157 -59 -157 -148
s57 -150 157 -150c98 0 156 61 156 150zM408 517c0 78 -50 132 -138 132c-87 0 -138 -54 -138 -132c0 -77 50 -132 138 -132c86 0 138 55 138 132z" />
    <glyph glyph-name="nine.OT" unicode="&#xe05a;" 
d="M223 -142h-72v2l196 297c-26 -12 -57 -18 -90 -18c-123 0 -215 78 -215 208c0 143 104 211 227 211c134 0 229 -77 229 -211c0 -55 -16 -94 -48 -144zM435 347c0 95 -61 160 -164 160c-93 0 -166 -51 -166 -160c0 -95 61 -160 165 -160c92 0 165 51 165 160z" />
    <glyph glyph-name="zerosuperior" unicode="&#x2070;" horiz-adv-x="340" 
d="M324 517c0 -169 -71 -234 -155 -234c-82 0 -154 65 -154 234s72 233 154 233c84 0 155 -64 155 -233zM274 517c0 134 -44 186 -105 186c-59 0 -102 -51 -102 -186c0 -132 42 -188 102 -188c61 0 105 55 105 188z" />
    <glyph glyph-name="onesuperior" unicode="&#xb9;" horiz-adv-x="340" 
d="M221 295h-48v396l-97 -37h-2v47l145 49h2v-455z" />
    <glyph glyph-name="twosuperior" unicode="&#xb2;" horiz-adv-x="340" 
d="M321 295h-297v29c154 132 203 192 203 277c0 67 -39 106 -93 106c-40 0 -75 -18 -99 -45h-2v49c28 24 63 39 109 39c78 0 136 -52 136 -144c0 -115 -81 -178 -171 -267v-1h214v-43z" />
    <glyph glyph-name="threesuperior" unicode="&#xb3;" horiz-adv-x="340" 
d="M306 408c0 -83 -64 -125 -146 -125c-41 0 -83 10 -117 36v50h2c27 -29 69 -43 108 -43c57 0 103 28 103 88c0 51 -40 82 -105 82h-58v42h69c53 19 68 51 68 84c0 53 -37 85 -89 85c-36 0 -69 -15 -93 -43h-2v51c25 20 63 35 104 35c75 0 130 -44 130 -121
c0 -50 -24 -86 -68 -107v-1c48 -9 94 -46 94 -113z" />
    <glyph glyph-name="foursuperior" unicode="&#x2074;" horiz-adv-x="340" 
d="M334 387h-68v-92h-49v92h-210v29l228 334h31v-322h68v-41zM219 428v232h-1l-157 -232h158z" />
    <glyph glyph-name="fivesuperior" unicode="&#x2075;" horiz-adv-x="340" 
d="M308 423c0 -93 -68 -140 -150 -140c-39 0 -82 11 -114 36v50h2c26 -29 67 -43 108 -43c57 0 103 31 103 97c0 58 -40 97 -111 97c-32 0 -62 -9 -90 -26h-2l38 244h201v-43h-164l-24 -147c19 8 38 13 58 13c83 0 145 -50 145 -138z" />
    <glyph glyph-name="sixsuperior" unicode="&#x2076;" horiz-adv-x="340" 
d="M321 421c0 -92 -67 -138 -151 -138c-89 0 -150 51 -150 138c0 36 9 61 25 87l150 230h60v-1l-126 -189v-1c18 8 40 11 62 10c76 -6 130 -54 130 -136zM271 421c0 59 -38 99 -101 99c-56 0 -101 -32 -101 -99c0 -57 37 -97 100 -97c57 0 102 31 102 97z" />
    <glyph glyph-name="sevensuperior" unicode="&#x2077;" horiz-adv-x="340" 
d="M103 296h-53v1l200 395h-229v47h302v-3z" />
    <glyph glyph-name="eightsuperior" unicode="&#x2078;" horiz-adv-x="340" 
d="M316 414c0 -83 -60 -131 -147 -131c-86 0 -145 48 -145 131c0 58 30 98 79 116v1c-40 17 -65 51 -65 102c0 74 54 117 131 117c78 0 132 -43 132 -117c0 -51 -25 -85 -64 -102v-1c48 -17 79 -58 79 -116zM265 417c0 53 -35 91 -96 91c-59 0 -95 -38 -95 -91
c0 -55 35 -93 95 -93s96 38 96 93zM255 629c0 47 -32 80 -86 80c-52 0 -84 -33 -84 -80c0 -48 31 -82 84 -82c54 0 86 34 86 82z" />
    <glyph glyph-name="ninesuperior" unicode="&#x2079;" horiz-adv-x="340" 
d="M144 295h-58v1l125 189v1c-18 -8 -39 -10 -62 -10c-76 6 -129 55 -129 136c0 93 67 138 150 138c88 0 151 -50 151 -138c0 -36 -11 -63 -28 -90zM271 612c0 58 -38 97 -101 97c-56 0 -100 -30 -100 -97c0 -58 36 -99 99 -99c57 0 102 32 102 99z" />
    <glyph glyph-name="plussuperior" unicode="&#x207a;" horiz-adv-x="340" 
d="M189 334h-39v137h-128v39h128v135h39v-135h128v-39h-128v-137z" />
    <glyph glyph-name="minussuperior" unicode="&#x207b;" horiz-adv-x="340" 
d="M317 471h-295v39h295v-39z" />
    <glyph glyph-name="equalsuperior" unicode="&#x207c;" horiz-adv-x="340" 
d="M317 400h-295v39h295v-39zM317 541h-295v40h295v-40z" />
    <glyph glyph-name="parenleftsuperior" unicode="&#x207d;" horiz-adv-x="212" 
d="M200 228h-47c-65 72 -104 169 -104 274s39 201 104 273h47c-64 -72 -104 -168 -104 -273s40 -202 104 -274z" />
    <glyph glyph-name="parenrightsuperior" unicode="&#x207e;" horiz-adv-x="212" 
d="M58 228h-46c64 72 104 169 104 274s-40 201 -104 273h46c65 -72 105 -168 105 -273s-40 -202 -105 -274z" />
    <glyph glyph-name="zeroinferior" unicode="&#x2080;" horiz-adv-x="340" 
d="M324 127c0 -169 -71 -234 -155 -234c-82 0 -154 65 -154 234s72 233 154 233c84 0 155 -64 155 -233zM274 127c0 134 -44 186 -105 186c-59 0 -102 -51 -102 -186c0 -132 42 -188 102 -188c61 0 105 55 105 188z" />
    <glyph glyph-name="oneinferior" unicode="&#x2081;" horiz-adv-x="340" 
d="M221 -95h-48v396l-97 -37h-2v47l145 49h2v-455z" />
    <glyph glyph-name="twoinferior" unicode="&#x2082;" horiz-adv-x="340" 
d="M321 -95h-297v29c154 132 203 192 203 277c0 67 -39 106 -93 106c-40 0 -75 -18 -99 -45h-2v49c28 24 63 39 109 39c78 0 136 -52 136 -144c0 -115 -81 -178 -171 -267v-1h214v-43z" />
    <glyph glyph-name="threeinferior" unicode="&#x2083;" horiz-adv-x="340" 
d="M306 18c0 -83 -64 -125 -146 -125c-41 0 -83 10 -117 36v50h2c27 -29 69 -43 108 -43c57 0 103 28 103 88c0 51 -40 82 -105 82h-58v42h69c53 19 68 51 68 84c0 53 -37 85 -89 85c-36 0 -69 -15 -93 -43h-2v51c25 20 63 35 104 35c75 0 130 -44 130 -121
c0 -50 -24 -86 -68 -107v-1c48 -9 94 -46 94 -113z" />
    <glyph glyph-name="fourinferior" unicode="&#x2084;" horiz-adv-x="340" 
d="M334 -3h-68v-92h-49v92h-210v29l228 334h31v-322h68v-41zM219 38v232h-1l-157 -232h158z" />
    <glyph glyph-name="fiveinferior" unicode="&#x2085;" horiz-adv-x="340" 
d="M308 33c0 -93 -68 -140 -150 -140c-39 0 -82 11 -114 36v50h2c26 -29 67 -43 108 -43c57 0 103 31 103 97c0 58 -40 97 -111 97c-32 0 -62 -9 -90 -26h-2l38 244h201v-43h-164l-24 -147c19 8 38 13 58 13c83 0 145 -50 145 -138z" />
    <glyph glyph-name="sixinferior" unicode="&#x2086;" horiz-adv-x="340" 
d="M321 31c0 -92 -67 -138 -151 -138c-89 0 -150 51 -150 138c0 36 9 61 25 87l150 230h60v-1l-126 -189v-1c18 8 40 11 62 10c76 -6 130 -54 130 -136zM271 31c0 59 -38 99 -101 99c-56 0 -101 -32 -101 -99c0 -57 37 -97 100 -97c57 0 102 31 102 97z" />
    <glyph glyph-name="seveninferior" unicode="&#x2087;" horiz-adv-x="340" 
d="M103 -94h-53v1l200 395h-229v47h302v-3z" />
    <glyph glyph-name="eightinferior" unicode="&#x2088;" horiz-adv-x="340" 
d="M316 24c0 -83 -60 -131 -147 -131c-86 0 -145 48 -145 131c0 58 30 98 79 116v1c-40 17 -65 51 -65 102c0 74 54 117 131 117c78 0 132 -43 132 -117c0 -51 -25 -85 -64 -102v-1c48 -17 79 -58 79 -116zM265 27c0 53 -35 91 -96 91c-59 0 -95 -38 -95 -91
c0 -55 35 -93 95 -93s96 38 96 93zM255 239c0 47 -32 80 -86 80c-52 0 -84 -33 -84 -80c0 -48 31 -82 84 -82c54 0 86 34 86 82z" />
    <glyph glyph-name="nineinferior" unicode="&#x2089;" horiz-adv-x="340" 
d="M144 -95h-58v1l125 189v1c-18 -8 -39 -10 -62 -10c-76 6 -129 55 -129 136c0 93 67 138 150 138c88 0 151 -50 151 -138c0 -36 -11 -63 -28 -90zM271 222c0 58 -38 97 -101 97c-56 0 -100 -30 -100 -97c0 -58 36 -99 99 -99c57 0 102 32 102 99z" />
    <glyph glyph-name="plusinferior" unicode="&#xe06b;" horiz-adv-x="340" 
d="M189 -56h-39v137h-128v39h128v135h39v-135h128v-39h-128v-137z" />
    <glyph glyph-name="minusinferior" unicode="&#xe06c;" horiz-adv-x="340" 
d="M317 81h-295v39h295v-39z" />
    <glyph glyph-name="equalinferior" unicode="&#xe06d;" horiz-adv-x="340" 
d="M317 10h-295v39h295v-39zM317 151h-295v40h295v-40z" />
    <glyph glyph-name="parenleftinferior" unicode="&#x208d;" horiz-adv-x="212" 
d="M200 -162h-47c-65 72 -104 169 -104 274s39 201 104 273h47c-64 -72 -104 -168 -104 -273s40 -202 104 -274z" />
    <glyph glyph-name="parenrightinferior" unicode="&#x208e;" horiz-adv-x="212" 
d="M58 -162h-46c64 72 104 169 104 274s-40 201 -104 273h46c65 -72 105 -168 105 -273s-40 -202 -105 -274z" />
    <glyph glyph-name="zero.numr" unicode="&#xe06e;" horiz-adv-x="340" 
d="M324 461c0 -169 -71 -234 -155 -234c-82 0 -154 65 -154 234s72 233 154 233c84 0 155 -64 155 -233zM274 461c0 134 -44 186 -105 186c-59 0 -102 -51 -102 -186c0 -132 42 -188 102 -188c61 0 105 55 105 188z" />
    <glyph glyph-name="one.numr" unicode="&#xe06f;" horiz-adv-x="340" 
d="M221 239h-48v396l-97 -37h-2v47l145 49h2v-455z" />
    <glyph glyph-name="two.numr" unicode="&#xe070;" horiz-adv-x="340" 
d="M321 239h-297v29c154 132 203 192 203 277c0 67 -39 106 -93 106c-40 0 -75 -18 -99 -45h-2v49c28 24 63 39 109 39c78 0 136 -52 136 -144c0 -115 -81 -178 -171 -267v-1h214v-43z" />
    <glyph glyph-name="three.numr" unicode="&#xe071;" horiz-adv-x="340" 
d="M306 352c0 -83 -64 -125 -146 -125c-41 0 -83 10 -117 36v50h2c27 -29 69 -43 108 -43c57 0 103 28 103 88c0 51 -40 82 -105 82h-58v42h69c53 19 68 51 68 84c0 53 -37 85 -89 85c-36 0 -69 -15 -93 -43h-2v51c25 20 63 35 104 35c75 0 130 -44 130 -121
c0 -50 -24 -86 -68 -107v-1c48 -9 94 -46 94 -113z" />
    <glyph glyph-name="four.numr" unicode="&#xe072;" horiz-adv-x="340" 
d="M334 331h-68v-92h-49v92h-210v29l228 334h31v-322h68v-41zM219 372v232h-1l-157 -232h158z" />
    <glyph glyph-name="five.numr" unicode="&#xe073;" horiz-adv-x="340" 
d="M308 367c0 -93 -68 -140 -150 -140c-39 0 -82 11 -114 36v50h2c26 -29 67 -43 108 -43c57 0 103 31 103 97c0 58 -40 97 -111 97c-32 0 -62 -9 -90 -26h-2l38 244h201v-43h-164l-24 -147c19 8 38 13 58 13c83 0 145 -50 145 -138z" />
    <glyph glyph-name="six.numr" unicode="&#xe074;" horiz-adv-x="340" 
d="M321 365c0 -92 -67 -138 -151 -138c-89 0 -150 51 -150 138c0 36 9 61 25 87l150 230h60v-1l-126 -189v-1c18 8 40 11 62 10c76 -6 130 -54 130 -136zM271 365c0 59 -38 99 -101 99c-56 0 -101 -32 -101 -99c0 -57 37 -97 100 -97c57 0 102 31 102 97z" />
    <glyph glyph-name="seven.numr" unicode="&#xe075;" horiz-adv-x="340" 
d="M103 240h-53v1l200 395h-229v47h302v-3z" />
    <glyph glyph-name="eight.numr" unicode="&#xe076;" horiz-adv-x="340" 
d="M316 358c0 -83 -60 -131 -147 -131c-86 0 -145 48 -145 131c0 58 30 98 79 116v1c-40 17 -65 51 -65 102c0 74 54 117 131 117c78 0 132 -43 132 -117c0 -51 -25 -85 -64 -102v-1c48 -17 79 -58 79 -116zM265 361c0 53 -35 91 -96 91c-59 0 -95 -38 -95 -91
c0 -55 35 -93 95 -93s96 38 96 93zM255 573c0 47 -32 80 -86 80c-52 0 -84 -33 -84 -80c0 -48 31 -82 84 -82c54 0 86 34 86 82z" />
    <glyph glyph-name="nine.numr" unicode="&#xe077;" horiz-adv-x="340" 
d="M144 239h-58v1l125 189v1c-18 -8 -39 -10 -62 -10c-76 6 -129 55 -129 136c0 93 67 138 150 138c88 0 151 -50 151 -138c0 -36 -11 -63 -28 -90zM271 556c0 58 -38 97 -101 97c-56 0 -100 -30 -100 -97c0 -58 36 -99 99 -99c57 0 102 32 102 99z" />
    <glyph glyph-name="zero.dnom" unicode="&#xe078;" horiz-adv-x="340" 
d="M324 222c0 -169 -71 -234 -155 -234c-82 0 -154 65 -154 234s72 233 154 233c84 0 155 -64 155 -233zM274 222c0 134 -44 186 -105 186c-59 0 -102 -51 -102 -186c0 -132 42 -188 102 -188c61 0 105 55 105 188z" />
    <glyph glyph-name="one.dnom" unicode="&#xe079;" horiz-adv-x="340" 
d="M221 0h-48v396l-97 -37h-2v47l145 49h2v-455z" />
    <glyph glyph-name="two.dnom" unicode="&#xe07a;" horiz-adv-x="340" 
d="M321 0h-297v29c154 132 203 192 203 277c0 67 -39 106 -93 106c-40 0 -75 -18 -99 -45h-2v49c28 24 63 39 109 39c78 0 136 -52 136 -144c0 -115 -81 -178 -171 -267v-1h214v-43z" />
    <glyph glyph-name="three.dnom" unicode="&#xe07b;" horiz-adv-x="340" 
d="M306 113c0 -83 -64 -125 -146 -125c-41 0 -83 10 -117 36v50h2c27 -29 69 -43 108 -43c57 0 103 28 103 88c0 51 -40 82 -105 82h-58v42h69c53 19 68 51 68 84c0 53 -37 85 -89 85c-36 0 -69 -15 -93 -43h-2v51c25 20 63 35 104 35c75 0 130 -44 130 -121
c0 -50 -24 -86 -68 -107v-1c48 -9 94 -46 94 -113z" />
    <glyph glyph-name="four.dnom" unicode="&#xe07c;" horiz-adv-x="340" 
d="M334 92h-68v-92h-49v92h-210v29l228 334h31v-322h68v-41zM219 133v232h-1l-157 -232h158z" />
    <glyph glyph-name="five.dnom" unicode="&#xe07d;" horiz-adv-x="340" 
d="M308 128c0 -93 -68 -140 -150 -140c-39 0 -82 11 -114 36v50h2c26 -29 67 -43 108 -43c57 0 103 31 103 97c0 58 -40 97 -111 97c-32 0 -62 -9 -90 -26h-2l38 244h201v-43h-164l-24 -147c19 8 38 13 58 13c83 0 145 -50 145 -138z" />
    <glyph glyph-name="six.dnom" unicode="&#xe07e;" horiz-adv-x="340" 
d="M321 126c0 -92 -67 -138 -151 -138c-89 0 -150 51 -150 138c0 36 9 61 25 87l150 230h60v-1l-126 -189v-1c18 8 40 11 62 10c76 -6 130 -54 130 -136zM271 126c0 59 -38 99 -101 99c-56 0 -101 -32 -101 -99c0 -57 37 -97 100 -97c57 0 102 31 102 97z" />
    <glyph glyph-name="seven.dnom" unicode="&#xe07f;" horiz-adv-x="340" 
d="M103 1h-53v1l200 395h-229v47h302v-3z" />
    <glyph glyph-name="eight.dnom" unicode="&#xe080;" horiz-adv-x="340" 
d="M316 119c0 -83 -60 -131 -147 -131c-86 0 -145 48 -145 131c0 58 30 98 79 116v1c-40 17 -65 51 -65 102c0 74 54 117 131 117c78 0 132 -43 132 -117c0 -51 -25 -85 -64 -102v-1c48 -17 79 -58 79 -116zM265 122c0 53 -35 91 -96 91c-59 0 -95 -38 -95 -91
c0 -55 35 -93 95 -93s96 38 96 93zM255 334c0 47 -32 80 -86 80c-52 0 -84 -33 -84 -80c0 -48 31 -82 84 -82c54 0 86 34 86 82z" />
    <glyph glyph-name="nine.dnom" unicode="&#xe081;" horiz-adv-x="340" 
d="M144 0h-58v1l125 189v1c-18 -8 -39 -10 -62 -10c-76 6 -129 55 -129 136c0 93 67 138 150 138c88 0 151 -50 151 -138c0 -36 -11 -63 -28 -90zM271 317c0 58 -38 97 -101 97c-56 0 -100 -30 -100 -97c0 -58 36 -99 99 -99c57 0 102 32 102 99z" />
    <glyph glyph-name="fraction" unicode="&#x2044;" horiz-adv-x="153" 
d="M-94 0h-51l392 682h51z" />
    <glyph glyph-name="fraction.osf" unicode="&#xe53f;" horiz-adv-x="236" 
d="M-48 0h-51l311 540h51z" />
    <glyph glyph-name="onehalf" unicode="&#xbd;" horiz-adv-x="797" 
d="M778 0h-297v29c154 132 203 192 203 277c0 67 -39 106 -93 106c-40 0 -75 -18 -99 -45h-2v49c28 24 63 39 109 39c78 0 136 -52 136 -144c0 -115 -81 -178 -171 -267v-1h214v-43zM221 239h-48v396l-97 -37h-2v47l145 49h2v-455zM210 0h-51l392 682h51z" />
    <glyph glyph-name="onequarter" unicode="&#xbc;" horiz-adv-x="740" 
d="M734 92h-68v-92h-49v92h-210v29l228 334h31v-322h68v-41zM210 0h-51l392 682h51zM221 239h-48v396l-97 -37h-2v47l145 49h2v-455zM619 133v232h-1l-157 -232h158z" />
    <glyph glyph-name="threequarters" unicode="&#xbe;" horiz-adv-x="767" 
d="M761 92h-68v-92h-49v92h-210v29l228 334h31v-322h68v-41zM306 352c0 -83 -64 -125 -146 -125c-41 0 -83 10 -117 36v50h2c27 -29 69 -43 108 -43c57 0 103 28 103 88c0 51 -40 82 -105 82h-58v42h69c53 19 68 51 68 84c0 53 -37 85 -89 85c-36 0 -69 -15 -93 -43h-2v51
c25 20 63 35 104 35c75 0 130 -44 130 -121c0 -50 -24 -86 -68 -107v-1c48 -9 94 -46 94 -113zM236 0h-51l392 682h51zM646 133v232h-1l-157 -232h158z" />
    <glyph glyph-name="percent" unicode="%" horiz-adv-x="797" 
d="M324 461c0 -169 -71 -234 -155 -234c-82 0 -154 65 -154 234s72 233 154 233c84 0 155 -64 155 -233zM274 461c0 134 -44 186 -105 186c-59 0 -102 -51 -102 -186c0 -132 42 -188 102 -188c61 0 105 55 105 188zM781 222c0 -169 -71 -234 -155 -234
c-82 0 -154 65 -154 234s72 233 154 233c84 0 155 -64 155 -233zM731 222c0 134 -44 186 -105 186c-59 0 -102 -51 -102 -186c0 -132 42 -188 102 -188c61 0 105 55 105 188zM228 0h-51l392 682h51z" />
    <glyph glyph-name="perthousand" unicode="&#x2030;" horiz-adv-x="1137" 
d="M324 461c0 -169 -71 -234 -155 -234c-82 0 -154 65 -154 234s72 233 154 233c84 0 155 -64 155 -233zM274 461c0 134 -44 186 -105 186c-59 0 -102 -51 -102 -186c0 -132 42 -188 102 -188c61 0 105 55 105 188zM781 222c0 -169 -71 -234 -155 -234
c-82 0 -154 65 -154 234s72 233 154 233c84 0 155 -64 155 -233zM731 222c0 134 -44 186 -105 186c-59 0 -102 -51 -102 -186c0 -132 42 -188 102 -188c61 0 105 55 105 188zM1121 222c0 -169 -71 -234 -155 -234c-82 0 -154 65 -154 234s72 233 154 233
c84 0 155 -64 155 -233zM1071 222c0 134 -44 186 -105 186c-59 0 -102 -51 -102 -186c0 -132 42 -188 102 -188c61 0 105 55 105 188zM228 0h-51l392 682h51z" />
    <glyph glyph-name="percent.of" unicode="&#xe08f;" horiz-adv-x="810" 
d="M299 384c0 85 -45 133 -110 133c-64 0 -111 -48 -111 -133c0 -82 46 -132 111 -132s110 50 110 132zM350 384c0 -112 -72 -175 -161 -175s-160 63 -160 175c0 114 69 177 160 177c90 0 161 -63 161 -177zM730 156c0 85 -45 133 -110 133c-64 0 -111 -48 -111 -133
c0 -82 46 -132 111 -132s110 50 110 132zM781 156c0 -112 -72 -175 -161 -175s-160 63 -160 175c0 114 69 177 160 177c90 0 161 -63 161 -177zM273 0h-51l311 540h51z" />
    <glyph glyph-name="perthousand.of" unicode="&#xe090;" horiz-adv-x="1171" 
d="M299 384c0 85 -45 133 -110 133c-64 0 -111 -48 -111 -133c0 -82 46 -132 111 -132s110 50 110 132zM350 384c0 -112 -72 -175 -161 -175s-160 63 -160 175c0 114 69 177 160 177c90 0 161 -63 161 -177zM730 156c0 85 -45 133 -110 133c-64 0 -111 -48 -111 -133
c0 -82 46 -132 111 -132s110 50 110 132zM781 156c0 -112 -72 -175 -161 -175s-160 63 -160 175c0 114 69 177 160 177c90 0 161 -63 161 -177zM1091 156c0 85 -45 133 -110 133c-64 0 -111 -48 -111 -133c0 -82 46 -132 111 -132s110 50 110 132zM1142 156
c0 -112 -72 -175 -161 -175s-160 63 -160 175c0 114 69 177 160 177c90 0 161 -63 161 -177zM273 0h-51l311 540h51z" />
    <glyph glyph-name="plus" unicode="+" 
d="M294 56h-48v195h-182v47h182v195h47v-195h183v-47h-182v-195z" />
    <glyph glyph-name="minus" unicode="&#x2212;" 
d="M476 251h-412v47h412v-47z" />
    <glyph glyph-name="plusminus" unicode="&#xb1;" 
d="M476 92h-412v47h412v-47zM293 193h-47v138h-182v46h182v154h47v-154h183v-46h-183v-138z" />
    <glyph glyph-name="multiply" unicode="&#xd7;" 
d="M442 134l-32 -33l-141 140l-139 -138l-33 31l140 140l-140 140l33 33l139 -140l141 140l32 -32l-140 -141z" />
    <glyph glyph-name="divide" unicode="&#xf7;" 
d="M476 251h-412v47h412v-47zM302 56h-64v76h64v-76zM302 418h-64v76h64v-76z" />
    <glyph glyph-name="equal" unicode="=" 
d="M476 154h-412v46h412v-46zM476 351h-412v46h412v-46z" />
    <glyph glyph-name="notequal" unicode="&#x2260;" 
d="M476 154h-205l-45 -111h-46l46 111h-162v46h183l62 151h-245v46h265l45 112h46l-46 -112h102v-46h-122l-62 -151h184v-46z" />
    <glyph glyph-name="asciitilde" unicode="~" 
d="M473 275c-25 -30 -63 -53 -105 -53c-68 0 -132 60 -196 60c-48 0 -76 -24 -105 -58v53c25 30 63 52 105 52c68 0 132 -59 196 -59c49 0 77 24 105 57v-52z" />
    <glyph glyph-name="approxequal" unicode="&#x2248;" 
d="M473 376c-25 -31 -63 -52 -105 -52c-68 0 -132 58 -196 58c-48 0 -76 -24 -105 -57v52c25 30 63 53 105 53c68 0 132 -60 196 -60c49 0 77 25 105 58v-52zM473 178c-25 -30 -63 -52 -105 -52c-68 0 -132 59 -196 59c-48 0 -76 -24 -105 -57v52c25 30 63 53 105 53
c68 0 132 -60 196 -60c49 0 77 24 105 58v-53z" />
    <glyph glyph-name="asciicircum" unicode="^" 
d="M456 190h-54l-131 338h-2l-132 -338h-53l163 400h47z" />
    <glyph glyph-name="less" unicode="&#x3c;" 
d="M475 88l-410 163v46l410 164v-52l-343 -133v-2l343 -134v-52z" />
    <glyph glyph-name="greater" unicode="&#x3e;" 
d="M475 251l-410 -163v52l343 134v2l-343 133v52l410 -164v-46z" />
    <glyph glyph-name="lessequal" unicode="&#x2264;" 
d="M476 92h-412v47h412v-47zM476 199l-412 132v46l412 132v-46l-344 -108v-2l344 -106v-48z" />
    <glyph glyph-name="greaterequal" unicode="&#x2265;" 
d="M476 331l-412 -132v48l344 106v2l-344 108v46l412 -132v-46zM476 92h-412v47h412v-47z" />
    <glyph glyph-name="logicalnot" unicode="&#xac;" 
d="M476 180h-47v175h-365v46h412v-221z" />
    <glyph glyph-name="currency" unicode="&#xa4;" 
d="M412 275c0 -31 -11 -59 -28 -81l58 -59l-32 -32l-59 58c-22 -18 -51 -28 -82 -28s-59 10 -82 28l-57 -57l-33 32l58 57c-18 23 -28 51 -28 82s10 59 28 82l-58 59l33 32l58 -58c22 17 50 28 81 28s60 -11 82 -29l59 59l32 -32l-59 -59c18 -23 29 -51 29 -82zM368 275
c0 56 -43 101 -99 101c-55 0 -99 -45 -99 -101c0 -55 44 -101 99 -101c56 0 99 46 99 101z" />
    <glyph glyph-name="infinity" unicode="&#x221e;" horiz-adv-x="550" 
d="M516 275c0 -86 -55 -130 -117 -130c-58 0 -92 36 -122 93h-2c-28 -55 -62 -93 -124 -93c-67 0 -118 48 -118 130c0 71 47 124 118 124c62 0 96 -44 124 -96h1c30 52 59 96 122 96c73 0 118 -52 118 -124zM471 275c0 47 -30 78 -74 78c-46 0 -68 -33 -93 -80
c21 -48 45 -80 91 -80c41 0 76 24 76 82zM153 193c49 0 71 31 93 80c-26 49 -49 80 -93 80s-74 -32 -74 -78c0 -58 34 -82 74 -82z" />
    <glyph glyph-name="lozenge" unicode="&#x25ca;" 
d="M490 275l-220 -230l-220 230l220 230zM429 275l-159 167l-160 -167l160 -167z" />
    <glyph glyph-name="Delta" unicode="&#x2206;" horiz-adv-x="653" 
d="M635 0h-617l284 700h48zM544 59l-218 546h-1l-219 -546h438z" />
    <glyph glyph-name="Omega" unicode="&#x2126;" horiz-adv-x="738" 
d="M685 0h-276v36c137 91 201 200 201 333c0 178 -106 271 -241 271s-241 -93 -241 -271c0 -133 64 -242 201 -333v-36h-276v58h167v1c-96 78 -157 180 -157 320c0 211 142 321 306 321s307 -110 307 -321c0 -140 -62 -242 -157 -320v-1h166v-58z" />
    <glyph glyph-name="partialdiff" unicode="&#x2202;" horiz-adv-x="547" 
d="M53 193c0 129 92 208 215 208c33 0 64 -7 89 -18h1l-196 297v2h72l234 -357c25 -38 41 -77 41 -132c0 -134 -95 -211 -229 -211c-123 0 -227 68 -227 211zM116 193c0 -109 73 -160 165 -160c104 0 165 65 165 160c0 109 -73 160 -165 160c-104 0 -165 -65 -165 -160z" />
    <glyph glyph-name="integral" unicode="&#x222b;" horiz-adv-x="245" 
d="M24 -193c-34 0 -67 13 -88 30v54h3c19 -22 48 -35 76 -35c44 0 81 32 81 111v639c0 86 40 151 130 151c29 0 58 -7 82 -25v-57h-3c-18 18 -44 30 -71 30c-58 0 -80 -44 -80 -101v-639c0 -100 -51 -158 -130 -158z" />
    <glyph glyph-name="radical" unicode="&#x221a;" horiz-adv-x="585" 
d="M337 0h-83l-157 494h-66v50h118l148 -483h2l193 621h65z" />
    <glyph glyph-name="summation" unicode="&#x2211;" horiz-adv-x="613" 
d="M560 -193h-511v5l280 437v1l-268 427v5h479v-62h-368v-1l234 -366v-5l-245 -378v-1h399v-62z" />
    <glyph glyph-name="product" unicode="&#x220f;" horiz-adv-x="747" 
d="M643 -193h-62v813h-415v-813h-62v875h539v-875z" />
    <glyph glyph-name="mu" unicode="&#xb5;" horiz-adv-x="577" 
d="M487 0h-56v43h-1c-38 -36 -91 -61 -145 -61c-63 0 -116 22 -143 75h-1c4 -84 6 -155 7 -216l-55 -34h-3v696h58v-321c0 -105 62 -146 140 -146c55 0 104 23 141 70v397h58v-503z" />
    <glyph glyph-name="degree" unicode="&#xb0;" horiz-adv-x="291" 
d="M265 584c0 -71 -53 -115 -120 -115c-64 0 -119 44 -119 115s54 114 120 114c65 0 119 -43 119 -114zM221 584c0 48 -31 79 -75 79c-45 0 -76 -31 -76 -79s31 -79 75 -79c45 0 76 31 76 79z" />
    <glyph glyph-name="litre" unicode="&#x2113;" horiz-adv-x="516" 
d="M431 11c-33 -19 -77 -29 -115 -29c-99 0 -156 78 -180 204c-25 -11 -50 -21 -72 -28v55c23 7 44 15 65 24c-4 37 -6 76 -6 118c0 215 64 345 181 345c82 0 130 -59 130 -159c0 -140 -90 -253 -238 -327c15 -105 51 -179 132 -179c38 0 75 15 99 36h4v-60zM188 361
c0 -32 1 -64 3 -93c109 62 182 152 182 276c0 77 -28 112 -70 112c-69 0 -115 -86 -115 -295z" />
    <glyph glyph-name="estimated" unicode="&#x212e;" horiz-adv-x="824" 
d="M635 146h53c-57 -104 -159 -164 -276 -164c-184 0 -316 143 -316 358c0 217 134 360 317 360c193 0 317 -154 317 -372h-549v-147c41 -97 126 -157 231 -157c93 0 174 47 223 122zM414 658c-111 0 -192 -59 -233 -154v-134h465v131c-43 96 -128 157 -232 157z" />
    <glyph glyph-name="ampersand" unicode="&#x26;" horiz-adv-x="692" 
d="M309 -18c-158 0 -261 66 -261 205c0 94 60 159 146 186v1c-62 31 -98 78 -98 151c0 107 81 175 200 175c65 0 117 -21 155 -51v-66h-4c-37 43 -89 63 -144 63c-83 0 -143 -49 -143 -127c0 -70 50 -125 132 -125h27v-53h-86c-80 -24 -121 -77 -121 -149
c0 -109 75 -157 198 -157s200 49 200 157c0 71 -41 123 -106 149v3l32 50h209v-53h-157v-1c48 -34 85 -86 85 -155c0 -138 -105 -203 -264 -203z" />
    <glyph glyph-name="c_t" unicode="&#xe08c;" horiz-adv-x="775" 
d="M621 0h-58v450h-39v4l39 49v69c0 78 -53 133 -150 133c-96 0 -151 -54 -151 -132c0 -19 3 -37 10 -54c60 -1 105 -16 148 -57v-67h-3c-27 39 -78 73 -143 73c-104 0 -171 -82 -171 -217c0 -133 69 -216 176 -216c61 0 112 32 141 73h3v-67c-40 -37 -93 -59 -155 -59
c-124 0 -227 94 -227 270c0 152 77 244 181 264c-7 17 -13 41 -13 65c0 108 80 176 205 176c124 0 207 -65 207 -183v-71h125v-53h-125v-450z" />
    <glyph glyph-name="s_t" unicode="&#xfb06;" horiz-adv-x="742" 
d="M588 0h-58v450h-38v4l38 49v69c0 78 -52 133 -150 133c-96 0 -150 -54 -150 -132c0 -19 2 -37 9 -53c42 -3 85 -20 115 -51v-65h-3c-31 41 -81 67 -130 67c-62 0 -94 -35 -94 -82c0 -135 245 -78 245 -268c0 -79 -55 -139 -160 -139c-60 0 -110 17 -145 52v65h3
c33 -44 87 -66 141 -66c64 0 103 35 103 85c0 137 -245 83 -245 268c0 65 38 122 119 133c-7 17 -12 40 -12 62c0 108 80 176 206 176c123 0 206 -65 206 -183v-71h126v-53h-126v-450z" />
    <glyph glyph-name="T_h" unicode="&#xe099;" horiz-adv-x="1030" 
d="M944 0h-58v321c0 101 -60 147 -139 147c-56 0 -103 -24 -141 -67v-401h-58v623h-259v-623h-61v623h-198v59h576v-221h1c40 37 94 60 154 60c101 0 183 -58 183 -183v-338z" />
    <glyph glyph-name="A.alt" unicode="&#xe352;" horiz-adv-x="653" 
d="M633 0h-69l-96 227h-286l-96 -227h-67l305 700h6zM443 286l-117 277h-2l-117 -277h236z" />
    <glyph glyph-name="M.alt" unicode="&#xe3f2;" horiz-adv-x="864" 
d="M773 0h-63l-41 491h-1l-234 -509h-5l-234 510h-1l-40 -492h-63l59 700h6l276 -592h1l276 592h5z" />
    <glyph glyph-name="N.alt" unicode="&#xe3f3;" horiz-adv-x="749" 
d="M645 -18h-6l-472 568h-1v-550h-62v646l-26 31v5h62l442 -543h1v543h62v-700z" />
    <glyph glyph-name="V.alt" unicode="&#xe3f6;" horiz-adv-x="624" 
d="M315 -18h-6l-296 700h69l231 -557h1l230 557h67z" />
    <glyph glyph-name="W.alt" unicode="&#xe3f7;" horiz-adv-x="946" 
d="M651 -18h-6l-172 445h-1l-172 -445h-5l-269 700h68l207 -549h1l143 372l-66 177h67l201 -546h1l206 546h66z" />
    <glyph glyph-name="Agrave.alt" unicode="&#xe353;" horiz-adv-x="649" 
d="M633 0h-69l-96 227h-286l-96 -227h-67l297 682h-15l-92 118h66l79 -118h-16zM443 286l-117 277h-2l-117 -277h236z" />
    <glyph glyph-name="Aacute.alt" unicode="&#xe354;" horiz-adv-x="649" 
d="M348 682h-10l295 -682h-69l-96 227h-286l-96 -227h-67l297 682h-21l79 118h66zM443 286l-117 277h-2l-117 -277h236z" />
    <glyph glyph-name="Acircumflex.alt" unicode="&#xe355;" horiz-adv-x="649" 
d="M633 0h-69l-96 227h-286l-96 -227h-67l305 700h6zM443 286l-117 277h-2l-117 -277h236zM439 682h-53l-60 79h-1l-61 -79h-53l94 128h40z" />
    <glyph glyph-name="Atilde.alt" unicode="&#xe356;" horiz-adv-x="649" 
d="M387 704c-42 0 -89 58 -120 58c-29 0 -36 -23 -49 -58h-43c21 61 39 101 88 101c42 0 89 -58 120 -58c29 0 36 23 49 58h43c-21 -63 -39 -101 -88 -101zM633 0h-69l-96 227h-286l-96 -227h-67l305 700h6zM443 286l-117 277h-2l-117 -277h236z" />
    <glyph glyph-name="Adieresis.alt" unicode="&#xe357;" horiz-adv-x="649" 
d="M257 742h-63v63h63v-63zM455 742h-63v63h63v-63zM633 0h-69l-96 227h-286l-96 -227h-67l305 700h6zM443 286l-117 277h-2l-117 -277h236z" />
    <glyph glyph-name="Amacron.alt" unicode="&#xe358;" horiz-adv-x="649" 
d="M466 760h-282v45h282v-45zM633 0h-69l-96 227h-286l-96 -227h-67l305 700h6zM443 286l-117 277h-2l-117 -277h236z" />
    <glyph glyph-name="Abreve.alt" unicode="&#xe359;" horiz-adv-x="649" 
d="M325 704c-77 0 -125 39 -135 101h44c11 -39 41 -58 91 -58s80 19 90 58h45c-10 -62 -58 -101 -135 -101zM633 0h-69l-96 227h-286l-96 -227h-67l305 700h6zM443 286l-117 277h-2l-117 -277h236z" />
    <glyph glyph-name="Aring.alt" unicode="&#xe35a;" horiz-adv-x="649" 
d="M425 769c0 -54 -41 -83 -88 -87l296 -682h-69l-96 227h-286l-96 -227h-67l297 682c-50 3 -92 31 -92 87c0 57 49 85 101 85c51 0 100 -28 100 -85zM443 286l-117 277h-2l-117 -277h236zM384 769c0 34 -27 52 -59 52c-33 0 -61 -18 -61 -52c0 -36 28 -54 61 -54
c32 0 59 18 59 54z" />
    <glyph glyph-name="Aringacute.alt" unicode="&#xe35b;" horiz-adv-x="649" 
d="M425 769c0 -54 -41 -83 -88 -87l296 -682h-69l-96 227h-286l-96 -227h-67l297 682c-50 3 -92 31 -92 87c0 49 36 76 79 83l70 104h66l-83 -106c38 -10 69 -36 69 -81zM443 286l-117 277h-2l-117 -277h236zM384 769c0 34 -27 52 -59 52c-33 0 -61 -18 -61 -52
c0 -36 28 -54 61 -54c32 0 59 18 59 54z" />
    <glyph glyph-name="Aogonek.alt" unicode="&#xe35c;" horiz-adv-x="649" 
d="M656 -167c-22 -16 -53 -26 -84 -26c-57 0 -87 33 -87 73c0 43 31 79 79 120l-96 227h-286l-96 -227h-67l305 700h6l303 -700h-27c-49 -47 -72 -74 -72 -107c0 -29 20 -45 49 -45c26 0 49 9 70 30h3v-45zM443 286l-117 277h-2l-117 -277h236z" />
    <glyph glyph-name="Nacute.alt" unicode="&#xe542;" horiz-adv-x="749" 
d="M645 -18h-6l-472 568h-1v-550h-62v646l-26 31v5h62l442 -543h1v543h62v-700zM398 682h-53l79 118h66z" />
    <glyph glyph-name="Ncaron.alt" unicode="&#xe543;" horiz-adv-x="749" 
d="M645 -18h-6l-472 568h-1v-550h-62v646l-26 31v5h62l442 -543h1v543h62v-700zM394 674h-40l-94 128h53l60 -80h1l61 80h53z" />
    <glyph glyph-name="Ntilde.alt" unicode="&#xe544;" horiz-adv-x="749" 
d="M645 -18h-6l-472 568h-1v-550h-62v646l-26 31v5h62l442 -543h1v543h62v-700zM434 704c-42 0 -89 58 -120 58c-29 0 -36 -23 -49 -58h-43c21 61 39 101 88 101c42 0 89 -58 120 -58c29 0 36 23 49 58h43c-21 -63 -39 -101 -88 -101z" />
    <glyph glyph-name="Ncommaaccent.alt" unicode="&#xe545;" horiz-adv-x="749" 
d="M645 -18h-6l-472 568h-1v-550h-62v646l-26 31v5h62l442 -543h1v543h62v-700zM318 -193h-55l104 156h65z" />
    <glyph glyph-name="Wgrave.alt" unicode="&#xe546;" horiz-adv-x="946" 
d="M651 -18h-6l-172 445h-1l-172 -445h-5l-269 700h68l207 -549h1l143 372l-66 177h53l-92 118h66l79 -118h-39l201 -546h1l206 546h66z" />
    <glyph glyph-name="Wacute.alt" unicode="&#xe547;" horiz-adv-x="946" 
d="M651 -18h-6l-172 445h-1l-172 -445h-5l-269 700h68l207 -549h1l143 372l-66 177h48l79 118h66l-92 -118h-34l201 -546h1l206 546h66z" />
    <glyph glyph-name="Wcircumflex.alt" unicode="&#xe548;" horiz-adv-x="946" 
d="M569 682h-53l-60 79h-1l-61 -79h52l201 -546h1l206 546h66l-269 -700h-6l-172 445h-1l-172 -445h-5l-269 700h68l207 -549h1l143 372l-66 177h-38l94 128h40z" />
    <glyph glyph-name="Wdieresis.alt" unicode="&#xe549;" horiz-adv-x="946" 
d="M403 742h-63v63h63v-63zM601 742h-63v63h63v-63zM651 -18h-6l-172 445h-1l-172 -445h-5l-269 700h68l207 -549h1l143 372l-66 177h67l201 -546h1l206 546h66z" />
    <glyph glyph-name="a.alt" unicode="&#xe0ae;" horiz-adv-x="574" 
d="M426 103v313c-33 31 -80 52 -134 52c-114 0 -188 -79 -188 -216c0 -135 72 -216 179 -216c60 0 107 25 143 67zM484 0h-57v43h-1c-41 -38 -93 -61 -157 -61c-128 0 -227 97 -227 270c0 172 101 269 239 269c63 0 112 -20 148 -47h1l51 32h3v-506z" />
    <glyph glyph-name="a.alt" unicode="&#xe54a;" horiz-adv-x="574" 
d="M426 103v313c-33 31 -80 52 -134 52c-114 0 -188 -79 -188 -216c0 -135 72 -216 179 -216c60 0 107 25 143 67zM484 0h-57v43h-1c-41 -38 -93 -61 -157 -61c-128 0 -227 97 -227 270c0 172 101 269 239 269c63 0 112 -20 148 -47h1l51 32h3v-506z" />
    <glyph glyph-name="j.alt" unicode="&#xe54b;" horiz-adv-x="238" 
d="M152 683h-66v67h66v-67zM148 -170l-55 -23h-3v696h58v-673z" />
    <glyph glyph-name="v.alt" unicode="&#xe54c;" horiz-adv-x="494" 
d="M250 -18h-6l-231 521h66l168 -394h1l168 394h64z" />
    <glyph glyph-name="w.alt" unicode="&#xe54d;" horiz-adv-x="790" 
d="M567 -18h-6l-166 407h-1l-166 -407h-6l-200 521h65l143 -388h1l162 406h5l161 -405h1l144 387h64z" />
    <glyph glyph-name="agrave.alt" unicode="&#xe1b8;" horiz-adv-x="574" 
d="M426 103v313c-33 31 -80 52 -134 52c-114 0 -188 -79 -188 -216c0 -135 72 -216 179 -216c60 0 107 25 143 67zM484 0h-57v43h-1c-41 -38 -93 -61 -157 -61c-128 0 -227 97 -227 270c0 172 101 269 239 269c63 0 112 -20 148 -47h1l51 32h3v-506zM327 555h-55l-141 195
h66z" />
    <glyph glyph-name="aacute.alt" unicode="&#xe1b9;" horiz-adv-x="574" 
d="M322 554h-54l131 196h65zM426 103v313c-33 31 -80 52 -134 52c-114 0 -188 -79 -188 -216c0 -135 72 -216 179 -216c60 0 107 25 143 67zM484 0h-57v43h-1c-41 -38 -93 -61 -157 -61c-128 0 -227 97 -227 270c0 172 101 269 239 269c63 0 112 -20 148 -47h1l51 32h3v-506
z" />
    <glyph glyph-name="acircumflex.alt" unicode="&#xe1ba;" horiz-adv-x="574" 
d="M451 555h-54l-105 149h-1l-106 -149h-54l141 203h38zM426 103v313c-33 31 -80 52 -134 52c-114 0 -188 -79 -188 -216c0 -135 72 -216 179 -216c60 0 107 25 143 67zM484 0h-57v43h-1c-41 -38 -93 -61 -157 -61c-128 0 -227 97 -227 270c0 172 101 269 239 269
c63 0 112 -20 148 -47h1l51 32h3v-506z" />
    <glyph glyph-name="atilde.alt" unicode="&#xe1bb;" horiz-adv-x="574" 
d="M426 103v313c-33 31 -80 52 -134 52c-114 0 -188 -79 -188 -216c0 -135 72 -216 179 -216c60 0 107 25 143 67zM484 0h-57v43h-1c-41 -38 -93 -61 -157 -61c-128 0 -227 97 -227 270c0 172 101 269 239 269c63 0 112 -20 148 -47h1l51 32h3v-506zM369 622
c-56 0 -103 81 -149 81c-29 0 -42 -27 -60 -81h-42c23 87 50 128 99 128c56 0 103 -81 149 -81c29 0 42 27 60 81h42c-23 -87 -50 -128 -99 -128z" />
    <glyph glyph-name="adieresis.alt" unicode="&#xe1bc;" horiz-adv-x="574" 
d="M215 683h-63v67h63v-67zM413 683h-63v67h63v-67zM426 103v313c-33 31 -80 52 -134 52c-114 0 -188 -79 -188 -216c0 -135 72 -216 179 -216c60 0 107 25 143 67zM484 0h-57v43h-1c-41 -38 -93 -61 -157 -61c-128 0 -227 97 -227 270c0 172 101 269 239 269
c63 0 112 -20 148 -47h1l51 32h3v-506z" />
    <glyph glyph-name="amacron.alt" unicode="&#xe1bd;" horiz-adv-x="574" 
d="M426 103v313c-33 31 -80 52 -134 52c-114 0 -188 -79 -188 -216c0 -135 72 -216 179 -216c60 0 107 25 143 67zM484 0h-57v43h-1c-41 -38 -93 -61 -157 -61c-128 0 -227 97 -227 270c0 172 101 269 239 269c63 0 112 -20 148 -47h1l51 32h3v-506zM446 685h-302v47h302
v-47z" />
    <glyph glyph-name="abreve.alt" unicode="&#xe1be;" horiz-adv-x="574" 
d="M426 103v313c-33 31 -80 52 -134 52c-114 0 -188 -79 -188 -216c0 -135 72 -216 179 -216c60 0 107 25 143 67zM484 0h-57v43h-1c-41 -38 -93 -61 -157 -61c-128 0 -227 97 -227 270c0 172 101 269 239 269c63 0 112 -20 148 -47h1l51 32h3v-506zM285 596
c-94 0 -147 67 -157 154h45c12 -66 50 -108 112 -108s100 42 112 108h45c-10 -87 -63 -154 -157 -154z" />
    <glyph glyph-name="aring.alt" unicode="&#xe1bf;" horiz-adv-x="574" 
d="M399 671c0 -64 -51 -95 -105 -95c-56 0 -106 31 -106 95c0 62 51 93 106 93c54 0 105 -31 105 -93zM356 671c0 37 -27 59 -62 59c-36 0 -65 -22 -65 -59c0 -40 29 -62 65 -62c35 0 62 22 62 62zM426 103v313c-33 31 -80 52 -134 52c-114 0 -188 -79 -188 -216
c0 -135 72 -216 179 -216c60 0 107 25 143 67zM484 0h-57v43h-1c-41 -38 -93 -61 -157 -61c-128 0 -227 97 -227 270c0 172 101 269 239 269c63 0 112 -20 148 -47h1l51 32h3v-506z" />
    <glyph glyph-name="aringacute.alt" unicode="&#xe1c0;" horiz-adv-x="574" 
d="M313 802h-54l131 196h65zM398 671c0 -64 -51 -95 -105 -95c-56 0 -106 31 -106 95c0 62 51 93 106 93c54 0 105 -31 105 -93zM355 671c0 37 -27 59 -62 59c-36 0 -65 -22 -65 -59c0 -40 29 -62 65 -62c35 0 62 22 62 62zM426 103v313c-33 31 -80 52 -134 52
c-114 0 -188 -79 -188 -216c0 -135 72 -216 179 -216c60 0 107 25 143 67zM484 0h-57v43h-1c-41 -38 -93 -61 -157 -61c-128 0 -227 97 -227 270c0 172 101 269 239 269c63 0 112 -20 148 -47h1l51 32h3v-506z" />
    <glyph glyph-name="aogonek.alt" unicode="&#xe1c1;" horiz-adv-x="574" 
d="M520 -167c-22 -16 -53 -26 -84 -26c-57 0 -87 33 -87 73c0 43 31 79 78 120v43h-1c-41 -38 -93 -61 -157 -61c-128 0 -227 97 -227 270c0 172 101 269 239 269c63 0 112 -20 148 -47h1l51 32h3v-506h-14c-49 -47 -72 -74 -72 -107c0 -29 20 -45 49 -45c26 0 49 9 70 30h3
v-45zM426 103v313c-33 31 -80 52 -134 52c-114 0 -188 -79 -188 -216c0 -135 72 -216 179 -216c60 0 107 25 143 67z" />
    <glyph glyph-name="ij.alt" unicode="&#xe54e;" horiz-adv-x="477" 
d="M386 -170l-55 -23h-3v696h58v-673zM148 0h-58v503h58v-503zM390 683h-66v67h66v-67zM152 683h-66v67h66v-67z" />
    <glyph glyph-name="jcircumflex.alt" unicode="&#xe54f;" horiz-adv-x="238" 
d="M148 -170l-55 -23h-3v696h58v-673zM280 555h-55l-105 149h-1l-105 -149h-55l142 203h37z" />
    <glyph glyph-name="wgrave.alt" unicode="&#xe550;" horiz-adv-x="790" 
d="M567 -18h-6l-166 407h-1l-166 -407h-6l-200 521h65l143 -388h1l162 406h5l161 -405h1l144 387h64zM423 555h-55l-141 195h66z" />
    <glyph glyph-name="wacute.alt" unicode="&#xe551;" horiz-adv-x="790" 
d="M423 554h-54l131 196h65zM567 -18h-6l-166 407h-1l-166 -407h-6l-200 521h65l143 -388h1l162 406h5l161 -405h1l144 387h64z" />
    <glyph glyph-name="wcircumflex.alt" unicode="&#xe552;" horiz-adv-x="790" 
d="M555 555h-54l-105 149h-1l-106 -149h-54l141 203h38zM567 -18h-6l-166 407h-1l-166 -407h-6l-200 521h65l143 -388h1l162 406h5l161 -405h1l144 387h64z" />
    <glyph glyph-name="wdieresis.alt" unicode="&#xe553;" horiz-adv-x="790" 
d="M327 683h-63v67h63v-67zM525 683h-63v67h63v-67zM567 -18h-6l-166 407h-1l-166 -407h-6l-200 521h65l143 -388h1l162 406h5l161 -405h1l144 387h64z" />
    </font>
</defs>
</svg>
