<?xml version="1.0" standalone="no"?>
<!DOCTYPE svg PUBLIC "-//W3C//DTD SVG 1.1//EN" "http://www.w3.org/Graphics/SVG/1.1/DTD/svg11.dtd" >
<svg xmlns="http://www.w3.org/2000/svg" xmlns:xlink="http://www.w3.org/1999/xlink" version="1.1">
<metadata>
Created by FontForge 20150318 at Tue May 19 08:27:45 2015
 By uniteet7
Copyright (c) 2007-2012 Canada Type. All rights reserved.
</metadata>
<defs>
<font id="SoftPress" horiz-adv-x="354" >
  <font-face 
    font-family="Soft Press"
    font-weight="400"
    font-stretch="normal"
    units-per-em="1000"
    panose-1="2 0 5 6 0 0 0 2 0 4"
    ascent="800"
    descent="-200"
    x-height="648"
    cap-height="814"
    bbox="-87.8462 -317 970 1050"
    underline-thickness="70"
    underline-position="-50"
    unicode-range="U+000D-FB04"
  />
<missing-glyph horiz-adv-x="175" 
 />
    <glyph glyph-name=".notdef" horiz-adv-x="175" 
 />
    <glyph glyph-name="NULL" horiz-adv-x="0" 
 />
    <glyph glyph-name="NULL" horiz-adv-x="0" 
 />
    <glyph glyph-name="nonmarkingreturn" unicode="&#xd;" horiz-adv-x="175" 
 />
    <glyph glyph-name="space" unicode=" " horiz-adv-x="175" 
 />
    <glyph glyph-name="Acircumflex" unicode="&#xc2;" horiz-adv-x="374" 
d="M20 0q-8 0 -13.5 6t-4.5 14l77 774q1 8 7.5 14t14.5 6h175q8 0 14.5 -6t7.5 -14l74 -774q1 -8 -4.5 -14t-13.5 -6h-96q-8 0 -14.5 6t-7.5 14l-14 185h-70l-14 -185q0 -8 -6.5 -14t-14.5 -6h-97zM187 674l-27 -359h54zM259 866q-20 0 -33 15l-36 42l-38 -42
q-13 -15 -33 -15h-84q-6 0 -8.5 5t2.5 10l86 94q15 15 34 15h83q20 0 33 -15l80 -94q4 -5 1.5 -10t-8.5 -5h-79z" />
    <glyph glyph-name="Adieresis" unicode="&#xc4;" horiz-adv-x="374" 
d="M20 0q-8 0 -13.5 6t-4.5 14l77 774q1 8 7.5 14t14.5 6h175q8 0 14.5 -6t7.5 -14l74 -774q1 -8 -4.5 -14t-13.5 -6h-96q-8 0 -14.5 6t-7.5 14l-14 185h-70l-14 -185q0 -8 -6.5 -14t-14.5 -6h-97zM187 674l-27 -359h54zM34 960q0 8 6 14t14 6h73q8 0 14 -6t6 -14v-74
q0 -8 -6 -14t-14 -6h-73q-8 0 -14 6t-6 14v74zM225 960q0 8 6 14t14 6h75q8 0 14 -6t6 -14v-74q0 -8 -6 -14t-14 -6h-75q-8 0 -14 6t-6 14v74z" />
    <glyph glyph-name="Agrave" unicode="&#xc0;" horiz-adv-x="374" 
d="M20 0q-8 0 -13.5 6t-4.5 14l77 774q1 8 7.5 14t14.5 6h175q8 0 14.5 -6t7.5 -14l74 -774q1 -8 -4.5 -14t-13.5 -6h-96q-8 0 -14.5 6t-7.5 14l-14 185h-70l-14 -185q0 -8 -6.5 -14t-14.5 -6h-97zM187 674l-27 -359h54zM187 866q-20 0 -36 13l-113 92q-5 4 -3 8.5t7 4.5
h117q19 0 31 -17l55 -84q4 -6 1 -11.5t-10 -5.5h-49z" />
    <glyph glyph-name="Amacron" unicode="&#x100;" horiz-adv-x="374" 
d="M20 0q-8 0 -13.5 6t-4.5 14l77 774q1 8 7.5 14t14.5 6h175q8 0 14.5 -6t7.5 -14l74 -774q1 -8 -4.5 -14t-13.5 -6h-96q-8 0 -14.5 6t-7.5 14l-14 185h-70l-14 -185q0 -8 -6.5 -14t-14.5 -6h-97zM187 674l-27 -359h54zM12 921q0 8 6 14t14 6h310q8 0 14 -6t6 -14v-35
q0 -8 -6 -14t-14 -6h-310q-8 0 -14 6t-6 14v35z" />
    <glyph glyph-name="Aogonek" unicode="&#x104;" horiz-adv-x="374" 
d="M294 -90q16 0 31 5q19 5 27 -14l3 -6q3 -8 0 -15.5t-11 -10.5q-11 -5 -25 -8.5t-33 -3.5q-42 0 -65 19.5t-23 49.5q0 23 11 40t29 34l-16 205h-70l-14 -185q0 -8 -6.5 -14t-14.5 -6h-97q-8 0 -13.5 6t-4.5 14l77 774q1 8 7.5 14t14.5 6h175q8 0 14.5 -6t7.5 -14l74 -774
q1 -8 -4.5 -14t-13.5 -6h-52q-17 -17 -28.5 -32.5t-11.5 -29.5q0 -28 32 -28zM187 674l-27 -359h54z" />
    <glyph glyph-name="Aring" unicode="&#xc5;" horiz-adv-x="374" 
d="M20 0q-8 0 -13.5 6t-4.5 14l77 774q1 8 7.5 14t14.5 6h175q8 0 14.5 -6t7.5 -14l74 -774q1 -8 -4.5 -14t-13.5 -6h-96q-8 0 -14.5 6t-7.5 14l-14 185h-70l-14 -185q0 -8 -6.5 -14t-14.5 -6h-97zM187 674l-27 -359h54zM96 958q0 19 7 36t19.5 29.5t29.5 19.5t36 7
q39 0 66 -26.5t27 -65.5q0 -19 -7.5 -36t-20 -29.5t-29.5 -19.5t-36 -7t-36 7t-29.5 19.5t-19.5 29.5t-7 36zM224 957q0 14 -11 25t-26 11q-14 0 -25 -10.5t-11 -25.5q0 -16 11 -26.5t25 -10.5q15 0 26 11t11 26z" />
    <glyph glyph-name="Atilde" unicode="&#xc3;" horiz-adv-x="374" 
d="M20 0q-8 0 -13.5 6t-4.5 14l77 774q1 8 7.5 14t14.5 6h175q8 0 14.5 -6t7.5 -14l74 -774q1 -8 -4.5 -14t-13.5 -6h-96q-8 0 -14.5 6t-7.5 14l-14 185h-70l-14 -185q0 -8 -6.5 -14t-14.5 -6h-97zM187 674l-27 -359h54zM206 973q12 -5 24 -9t23 -4q26 0 40 22q10 16 26 5
l38 -27q6 -5 8 -13.5t-3 -15.5q-19 -32 -43.5 -47t-50.5 -15q-13 0 -30.5 4t-34.5 11l-32 13q-11 5 -23.5 9t-23.5 4q-14 0 -24.5 -7.5t-19.5 -19.5q-12 -17 -28 -5l-35 23q-7 5 -8.5 13t3.5 15q21 32 45 50t56 18q19 0 35 -4.5t31 -9.5z" />
    <glyph glyph-name="B" unicode="B" horiz-adv-x="381" 
d="M282 422q42 -7 60.5 -36.5t18.5 -90.5v-165q0 -71 -29.5 -100.5t-91.5 -29.5h-190q-8 0 -14 6t-6 14v774q0 8 6 14t14 6h190q62 0 91.5 -29.5t29.5 -100.5v-134q0 -62 -18.5 -91t-60.5 -37zM196 104q8 0 15 6.5t7 19.5v213q0 12 -7.5 18.5t-15.5 6.5h-23v-264h24z
M195 474q8 0 15.5 6.5t7.5 18.5v185q0 13 -7 19.5t-15 6.5h-24v-236h23z" />
    <glyph glyph-name="C" unicode="C" horiz-adv-x="370" 
d="M190 96q8 0 15.5 6.5t7.5 18.5v154q0 8 6 14t14 6h97q8 0 14 -6t6 -14v-154q0 -73 -26 -101.5t-86 -28.5h-93q-62 0 -91 30t-29 100v574q0 73 26 101.5t86 28.5h92q63 0 92 -29.5t29 -100.5v-125q0 -8 -6 -14t-14 -6h-97q-8 0 -14 6t-6 14v125q0 13 -7 19.5t-15 6.5
t-16 -6.5t-8 -19.5v-574q0 -12 7.5 -18.5t15.5 -6.5z" />
    <glyph glyph-name="Cacute" unicode="&#x106;" horiz-adv-x="370" 
d="M190 96q8 0 15.5 6.5t7.5 18.5v154q0 8 6 14t14 6h97q8 0 14 -6t6 -14v-154q0 -73 -26 -101.5t-86 -28.5h-93q-62 0 -91 30t-29 100v574q0 73 26 101.5t86 28.5h92q63 0 92 -29.5t29 -100.5v-125q0 -8 -6 -14t-14 -6h-97q-8 0 -14 6t-6 14v125q0 13 -7 19.5t-15 6.5
t-16 -6.5t-8 -19.5v-574q0 -12 7.5 -18.5t15.5 -6.5zM190 967q12 17 31 17h117q5 0 7 -4.5t-3 -8.5l-113 -92q-16 -13 -36 -13h-49q-7 0 -10 5.5t1 11.5z" />
    <glyph glyph-name="Ccaron" unicode="&#x10c;" horiz-adv-x="370" 
d="M190 96q8 0 15.5 6.5t7.5 18.5v154q0 8 6 14t14 6h97q8 0 14 -6t6 -14v-154q0 -73 -26 -101.5t-86 -28.5h-93q-62 0 -91 30t-29 100v574q0 73 26 101.5t86 28.5h92q63 0 92 -29.5t29 -100.5v-125q0 -8 -6 -14t-14 -6h-97q-8 0 -14 6t-6 14v125q0 13 -7 19.5t-15 6.5
t-16 -6.5t-8 -19.5v-574q0 -12 7.5 -18.5t15.5 -6.5zM117 990q20 0 33 -15l38 -43l36 43q13 15 33 15h79q6 0 8.5 -5t-1.5 -10l-80 -94q-13 -15 -33 -15h-83q-19 0 -34 15l-86 94q-5 5 -2.5 10t8.5 5h84z" />
    <glyph glyph-name="Ccedilla" unicode="&#xc7;" horiz-adv-x="370" 
d="M209 -108q0 14 -10.5 21.5t-27.5 7.5h-6q-5 0 -5 4v66h-15q-62 0 -91 30t-29 100v574q0 73 26 101.5t86 28.5h92q63 0 92 -29.5t29 -100.5v-125q0 -8 -6 -14t-14 -6h-97q-8 0 -14 6t-6 14v125q0 13 -7 19.5t-15 6.5t-16 -6.5t-8 -19.5v-574q0 -12 7.5 -18.5t15.5 -6.5
t15.5 6.5t7.5 18.5v154q0 8 6 14t14 6h97q8 0 14 -6t6 -14v-154q0 -73 -26 -101.5t-86 -28.5h-26v-36q30 -2 46.5 -18t16.5 -40q0 -16 -7 -31t-19.5 -26t-29.5 -18t-37 -7q-25 0 -46.5 12.5t-33.5 37.5q-3 6 1 12.5t11 6.5h28q9 0 13.5 -2t12.5 -10q6 -6 16 -6q25 0 25 26z
" />
    <glyph glyph-name="Ccircumflex" unicode="&#x108;" horiz-adv-x="370" 
d="M190 96q8 0 15.5 6.5t7.5 18.5v154q0 8 6 14t14 6h97q8 0 14 -6t6 -14v-154q0 -73 -26 -101.5t-86 -28.5h-93q-62 0 -91 30t-29 100v574q0 73 26 101.5t86 28.5h92q63 0 92 -29.5t29 -100.5v-125q0 -8 -6 -14t-14 -6h-97q-8 0 -14 6t-6 14v125q0 13 -7 19.5t-15 6.5
t-16 -6.5t-8 -19.5v-574q0 -12 7.5 -18.5t15.5 -6.5zM257 866q-20 0 -33 15l-36 42l-38 -42q-13 -15 -33 -15h-84q-6 0 -8.5 5t2.5 10l86 94q15 15 34 15h83q20 0 33 -15l80 -94q4 -5 1.5 -10t-8.5 -5h-79z" />
    <glyph glyph-name="Cdotaccent" unicode="&#x10a;" horiz-adv-x="370" 
d="M190 96q8 0 15.5 6.5t7.5 18.5v154q0 8 6 14t14 6h97q8 0 14 -6t6 -14v-154q0 -73 -26 -101.5t-86 -28.5h-93q-62 0 -91 30t-29 100v574q0 73 26 101.5t86 28.5h92q63 0 92 -29.5t29 -100.5v-125q0 -8 -6 -14t-14 -6h-97q-8 0 -14 6t-6 14v125q0 13 -7 19.5t-15 6.5
t-16 -6.5t-8 -19.5v-574q0 -12 7.5 -18.5t15.5 -6.5zM129 960q0 8 6 14t14 6h72q8 0 14 -6t6 -14v-74q0 -8 -6 -14t-14 -6h-72q-8 0 -14 6t-6 14v74z" />
    <glyph glyph-name="D" unicode="D" horiz-adv-x="386" 
d="M240 814q62 0 91.5 -29.5t29.5 -100.5v-554q0 -73 -26.5 -101.5t-86.5 -28.5h-198q-8 0 -14 6t-6 14v774q0 8 6 14t14 6h190zM195 105q8 0 15.5 6.5t7.5 18.5v554q0 13 -7 19.5t-15 6.5h-24v-605h23z" />
    <glyph glyph-name="Dcaron" unicode="&#x10e;" horiz-adv-x="386" 
d="M240 814q62 0 91.5 -29.5t29.5 -100.5v-554q0 -73 -26.5 -101.5t-86.5 -28.5h-198q-8 0 -14 6t-6 14v774q0 8 6 14t14 6h190zM195 105q8 0 15.5 6.5t7.5 18.5v554q0 13 -7 19.5t-15 6.5h-24v-605h23zM123 990q20 0 33 -15l38 -43l36 43q13 15 33 15h79q6 0 8.5 -5
t-1.5 -10l-80 -94q-13 -15 -33 -15h-83q-19 0 -34 15l-86 94q-5 5 -2.5 10t8.5 5h84z" />
    <glyph glyph-name="Dcroat" unicode="&#x110;" horiz-adv-x="386" 
d="M25 362q-8 0 -14 6t-6 14v50q0 8 6 14t14 6h5v342q0 8 6 14t14 6h190q62 0 91.5 -29.5t29.5 -100.5v-554q0 -73 -26.5 -101.5t-86.5 -28.5h-198q-8 0 -14 6t-6 14v342h-5zM195 105q8 0 15.5 6.5t7.5 18.5v554q0 13 -7 19.5t-15 6.5h-24v-258h3q8 0 14 -6t6 -14v-50
q0 -8 -6 -14t-14 -6h-3v-257h23z" />
    <glyph glyph-name="Delta" unicode="&#x394;" horiz-adv-x="369" 
d="M20 0q-8 0 -13.5 6t-4.5 14l77 774q1 8 7.5 14t14.5 6h170q8 0 14.5 -6t7.5 -14l74 -774q1 -8 -4.5 -14t-13.5 -6h-329zM185 604l-31 -494h62z" />
    <glyph glyph-name="Delta" unicode="&#x2206;" horiz-adv-x="369" 
d="M20 0q-8 0 -13.5 6t-4.5 14l77 774q1 8 7.5 14t14.5 6h170q8 0 14.5 -6t7.5 -14l74 -774q1 -8 -4.5 -14t-13.5 -6h-329zM185 604l-31 -494h62z" />
    <glyph glyph-name="E" unicode="E" horiz-adv-x="294" 
d="M259 110q8 0 14 -6t6 -14v-70q0 -8 -6 -14t-14 -6h-209q-8 0 -14 6t-6 14v774q0 8 6 14t14 6h209q8 0 14 -6t6 -14v-70q0 -8 -6 -14t-14 -6h-87v-235h77q8 0 14 -6t6 -14v-70q0 -8 -6 -14t-14 -6h-77v-249h87z" />
    <glyph glyph-name="Eacute" unicode="&#xc9;" horiz-adv-x="294" 
d="M259 110q8 0 14 -6t6 -14v-70q0 -8 -6 -14t-14 -6h-209q-8 0 -14 6t-6 14v774q0 8 6 14t14 6h209q8 0 14 -6t6 -14v-70q0 -8 -6 -14t-14 -6h-87v-235h77q8 0 14 -6t6 -14v-70q0 -8 -6 -14t-14 -6h-77v-249h87zM155 967q12 17 31 17h117q5 0 7 -4.5t-3 -8.5l-113 -92
q-16 -13 -36 -13h-49q-7 0 -10 5.5t1 11.5z" />
    <glyph glyph-name="Ecaron" unicode="&#x11a;" horiz-adv-x="294" 
d="M259 110q8 0 14 -6t6 -14v-70q0 -8 -6 -14t-14 -6h-209q-8 0 -14 6t-6 14v774q0 8 6 14t14 6h209q8 0 14 -6t6 -14v-70q0 -8 -6 -14t-14 -6h-87v-235h77q8 0 14 -6t6 -14v-70q0 -8 -6 -14t-14 -6h-77v-249h87zM82 990q20 0 33 -15l38 -43l36 43q13 15 33 15h79
q6 0 8.5 -5t-1.5 -10l-80 -94q-13 -15 -33 -15h-83q-19 0 -34 15l-86 94q-5 5 -2.5 10t8.5 5h84z" />
    <glyph glyph-name="Ecircumflex" unicode="&#xca;" horiz-adv-x="294" 
d="M259 110q8 0 14 -6t6 -14v-70q0 -8 -6 -14t-14 -6h-209q-8 0 -14 6t-6 14v774q0 8 6 14t14 6h209q8 0 14 -6t6 -14v-70q0 -8 -6 -14t-14 -6h-87v-235h77q8 0 14 -6t6 -14v-70q0 -8 -6 -14t-14 -6h-77v-249h87zM222 866q-20 0 -33 15l-36 42l-38 -42q-13 -15 -33 -15h-84
q-6 0 -8.5 5t2.5 10l86 94q15 15 34 15h83q20 0 33 -15l80 -94q4 -5 1.5 -10t-8.5 -5h-79z" />
    <glyph glyph-name="Edieresis" unicode="&#xcb;" horiz-adv-x="294" 
d="M259 110q8 0 14 -6t6 -14v-70q0 -8 -6 -14t-14 -6h-209q-8 0 -14 6t-6 14v774q0 8 6 14t14 6h209q8 0 14 -6t6 -14v-70q0 -8 -6 -14t-14 -6h-87v-235h77q8 0 14 -6t6 -14v-70q0 -8 -6 -14t-14 -6h-77v-249h87zM3 960q0 8 6 14t14 6h73q8 0 14 -6t6 -14v-74q0 -8 -6 -14
t-14 -6h-73q-8 0 -14 6t-6 14v74zM194 960q0 8 6 14t14 6h75q8 0 14 -6t6 -14v-74q0 -8 -6 -14t-14 -6h-75q-8 0 -14 6t-6 14v74z" />
    <glyph glyph-name="Edotaccent" unicode="&#x116;" horiz-adv-x="294" 
d="M259 110q8 0 14 -6t6 -14v-70q0 -8 -6 -14t-14 -6h-209q-8 0 -14 6t-6 14v774q0 8 6 14t14 6h209q8 0 14 -6t6 -14v-70q0 -8 -6 -14t-14 -6h-87v-235h77q8 0 14 -6t6 -14v-70q0 -8 -6 -14t-14 -6h-77v-249h87zM94 960q0 8 6 14t14 6h72q8 0 14 -6t6 -14v-74q0 -8 -6 -14
t-14 -6h-72q-8 0 -14 6t-6 14v74z" />
    <glyph glyph-name="Egrave" unicode="&#xc8;" horiz-adv-x="294" 
d="M259 110q8 0 14 -6t6 -14v-70q0 -8 -6 -14t-14 -6h-209q-8 0 -14 6t-6 14v774q0 8 6 14t14 6h209q8 0 14 -6t6 -14v-70q0 -8 -6 -14t-14 -6h-87v-235h77q8 0 14 -6t6 -14v-70q0 -8 -6 -14t-14 -6h-77v-249h87zM159 866q-20 0 -36 13l-113 92q-5 4 -3 8.5t7 4.5h117
q19 0 31 -17l55 -84q4 -6 1 -11.5t-10 -5.5h-49z" />
    <glyph glyph-name="Emacron" unicode="&#x112;" horiz-adv-x="294" 
d="M259 110q8 0 14 -6t6 -14v-70q0 -8 -6 -14t-14 -6h-209q-8 0 -14 6t-6 14v774q0 8 6 14t14 6h209q8 0 14 -6t6 -14v-70q0 -8 -6 -14t-14 -6h-87v-235h77q8 0 14 -6t6 -14v-70q0 -8 -6 -14t-14 -6h-77v-249h87zM-25 921q0 8 6 14t14 6h310q8 0 14 -6t6 -14v-35
q0 -8 -6 -14t-14 -6h-310q-8 0 -14 6t-6 14v35z" />
    <glyph glyph-name="Eng" unicode="&#x14a;" horiz-adv-x="426" 
d="M263 0q-8 0 -15 5.5t-9 14.5l-81 415v-415q0 -8 -6 -14t-14 -6h-88q-8 0 -14 6t-6 14v774q0 8 6 14t14 6h107q8 0 15 -5.5t9 -14.5l83 -417v417q0 8 6 14t14 6h92q8 0 14 -6t6 -14v-809q0 -73 -27 -106.5t-80 -33.5q-12 0 -23 0.5t-22 2.5q-8 1 -14 7.5t-6 14.5v50
q0 13 4 19t16 11q8 4 14 11t6 21v18h-1z" />
    <glyph glyph-name="Eogonek" unicode="&#x118;" horiz-adv-x="294" 
d="M211 -87q16 0 31 5q19 5 27 -14l3 -6q3 -8 0 -15.5t-11 -10.5q-11 -5 -25 -8.5t-33 -3.5q-42 0 -65 19.5t-23 49.5q0 22 10 38.5t27 32.5h-102q-8 0 -14 6t-6 14v774q0 8 6 14t14 6h209q8 0 14 -6t6 -14v-70q0 -8 -6 -14t-14 -6h-87v-235h77q8 0 14 -6t6 -14v-70
q0 -8 -6 -14t-14 -6h-77v-249h87q8 0 14 -6t6 -14v-70q0 -8 -6 -14t-14 -6h-43q-17 -17 -27 -31t-10 -28q0 -28 32 -28z" />
    <glyph glyph-name="Eth" unicode="&#xd0;" horiz-adv-x="386" 
d="M25 362q-8 0 -14 6t-6 14v50q0 8 6 14t14 6h5v342q0 8 6 14t14 6h190q62 0 91.5 -29.5t29.5 -100.5v-554q0 -73 -26.5 -101.5t-86.5 -28.5h-198q-8 0 -14 6t-6 14v342h-5zM195 105q8 0 15.5 6.5t7.5 18.5v554q0 13 -7 19.5t-15 6.5h-24v-258h3q8 0 14 -6t6 -14v-50
q0 -8 -6 -14t-14 -6h-3v-257h23z" />
    <glyph glyph-name="Euro" unicode="&#x20ac;" horiz-adv-x="370" 
d="M20 447q-8 0 -14 6t-6 14v10q0 8 6 14t14 6h5v198q0 73 26 101.5t86 28.5h92q63 0 92 -29.5t29 -100.5v-125q0 -8 -6 -14t-14 -6h-97q-8 0 -14 6t-6 14v125q0 13 -7 19.5t-15 6.5t-16 -6.5t-8 -19.5v-198h160q8 0 14 -6t6 -14v-10q0 -8 -6 -14t-14 -6h-160v-52h160
q8 0 14 -6t6 -14v-10q0 -8 -6 -14t-14 -6h-160v-224q0 -12 7.5 -18.5t15.5 -6.5t15.5 6.5t7.5 18.5v154q0 8 6 14t14 6h97q8 0 14 -6t6 -14v-154q0 -73 -26 -101.5t-86 -28.5h-93q-62 0 -91 30t-29 100v224h-5q-8 0 -14 6t-6 14v10q0 8 6 14t14 6h5v52h-5z" />
    <glyph glyph-name="F" unicode="F" horiz-adv-x="289" 
d="M172 359v-339q0 -8 -6 -14t-14 -6h-102q-8 0 -14 6t-6 14v774q0 8 6 14t14 6h209q8 0 14 -6t6 -14v-70q0 -8 -6 -14t-14 -6h-87v-235h77q8 0 14 -6t6 -14v-70q0 -8 -6 -14t-14 -6h-77z" />
    <glyph glyph-name="G" unicode="G" horiz-adv-x="376" 
d="M336 402q8 0 14 -6t6 -14v-261q0 -73 -26.5 -101.5t-86.5 -28.5h-98q-62 0 -91 30t-29 100v574q0 73 26 101.5t86 28.5h92q63 0 92 -29.5t29 -100.5v-125q0 -8 -6 -14t-14 -6h-97q-8 0 -14 6t-6 14v125q0 13 -7 19.5t-15 6.5t-16 -6.5t-8 -19.5v-574q0 -12 7.5 -18.5
t15.5 -6.5t15.5 6.5t7.5 18.5v170h-5q-8 0 -14 6t-6 14v71q0 8 6 14t14 6h128z" />
    <glyph glyph-name="Gbreve" unicode="&#x11e;" horiz-adv-x="376" 
d="M336 402q8 0 14 -6t6 -14v-261q0 -73 -26.5 -101.5t-86.5 -28.5h-98q-62 0 -91 30t-29 100v574q0 73 26 101.5t86 28.5h92q63 0 92 -29.5t29 -100.5v-125q0 -8 -6 -14t-14 -6h-97q-8 0 -14 6t-6 14v125q0 13 -7 19.5t-15 6.5t-16 -6.5t-8 -19.5v-574q0 -12 7.5 -18.5
t15.5 -6.5t15.5 6.5t7.5 18.5v170h-5q-8 0 -14 6t-6 14v71q0 8 6 14t14 6h128zM187 866q-51 0 -82.5 28t-39.5 85q-1 8 4 14t13 6h34q20 0 25 -20q5 -18 14.5 -29.5t31.5 -11.5t32 11.5t15 29.5q5 20 26 20h33q8 0 13 -6t4 -14q-8 -57 -40 -85t-83 -28z" />
    <glyph glyph-name="Gcircumflex" unicode="&#x11c;" horiz-adv-x="376" 
d="M336 402q8 0 14 -6t6 -14v-261q0 -73 -26.5 -101.5t-86.5 -28.5h-98q-62 0 -91 30t-29 100v574q0 73 26 101.5t86 28.5h92q63 0 92 -29.5t29 -100.5v-125q0 -8 -6 -14t-14 -6h-97q-8 0 -14 6t-6 14v125q0 13 -7 19.5t-15 6.5t-16 -6.5t-8 -19.5v-574q0 -12 7.5 -18.5
t15.5 -6.5t15.5 6.5t7.5 18.5v170h-5q-8 0 -14 6t-6 14v71q0 8 6 14t14 6h128zM260 866q-20 0 -33 15l-36 42l-38 -42q-13 -15 -33 -15h-84q-6 0 -8.5 5t2.5 10l86 94q15 15 34 15h83q20 0 33 -15l80 -94q4 -5 1.5 -10t-8.5 -5h-79z" />
    <glyph glyph-name="Gcommaaccent" unicode="&#x122;" horiz-adv-x="376" 
d="M336 402q8 0 14 -6t6 -14v-261q0 -73 -26.5 -101.5t-86.5 -28.5h-98q-62 0 -91 30t-29 100v574q0 73 26 101.5t86 28.5h92q63 0 92 -29.5t29 -100.5v-125q0 -8 -6 -14t-14 -6h-97q-8 0 -14 6t-6 14v125q0 13 -7 19.5t-15 6.5t-16 -6.5t-8 -19.5v-574q0 -12 7.5 -18.5
t15.5 -6.5t15.5 6.5t7.5 18.5v170h-5q-8 0 -14 6t-6 14v71q0 8 6 14t14 6h128zM233 -70q8 0 14 -6t6 -14v-81q0 -19 -12 -36l-87 -108q-2 -3 -5 -1.5t-2 4.5l30 121h-35q-8 0 -14 6t-6 14v81q0 8 6 14t14 6h91z" />
    <glyph glyph-name="Gdotaccent" unicode="&#x120;" horiz-adv-x="376" 
d="M336 402q8 0 14 -6t6 -14v-261q0 -73 -26.5 -101.5t-86.5 -28.5h-98q-62 0 -91 30t-29 100v574q0 73 26 101.5t86 28.5h92q63 0 92 -29.5t29 -100.5v-125q0 -8 -6 -14t-14 -6h-97q-8 0 -14 6t-6 14v125q0 13 -7 19.5t-15 6.5t-16 -6.5t-8 -19.5v-574q0 -12 7.5 -18.5
t15.5 -6.5t15.5 6.5t7.5 18.5v170h-5q-8 0 -14 6t-6 14v71q0 8 6 14t14 6h128zM132 960q0 8 6 14t14 6h72q8 0 14 -6t6 -14v-74q0 -8 -6 -14t-14 -6h-72q-8 0 -14 6t-6 14v74z" />
    <glyph glyph-name="H" unicode="H" horiz-adv-x="391" 
d="M238 0q-8 0 -14 6t-6 14v339h-46v-339q0 -8 -6 -14t-14 -6h-102q-8 0 -14 6t-6 14v774q0 8 6 14t14 6h102q8 0 14 -6t6 -14v-325h46v325q0 8 6 14t14 6h103q8 0 14 -6t6 -14v-774q0 -8 -6 -14t-14 -6h-103z" />
    <glyph glyph-name="Hbar" unicode="&#x126;" horiz-adv-x="391" 
d="M238 0q-8 0 -14 6t-6 14v339h-46v-339q0 -8 -6 -14t-14 -6h-102q-8 0 -14 6t-6 14v593h-5q-8 0 -14 6t-6 14v35q0 8 6 14t14 6h5v106q0 8 6 14t14 6h102q8 0 14 -6t6 -14v-106h46v106q0 8 6 14t14 6h103q8 0 14 -6t6 -14v-106h5q8 0 14 -6t6 -14v-35q0 -8 -6 -14t-14 -6
h-5v-593q0 -8 -6 -14t-14 -6h-103zM172 469h46v144h-46v-144z" />
    <glyph glyph-name="Hcircumflex" unicode="&#x124;" horiz-adv-x="391" 
d="M238 0q-8 0 -14 6t-6 14v339h-46v-339q0 -8 -6 -14t-14 -6h-102q-8 0 -14 6t-6 14v774q0 8 6 14t14 6h102q8 0 14 -6t6 -14v-325h46v325q0 8 6 14t14 6h103q8 0 14 -6t6 -14v-774q0 -8 -6 -14t-14 -6h-103zM268 866q-20 0 -33 15l-36 42l-38 -42q-13 -15 -33 -15h-84
q-6 0 -8.5 5t2.5 10l86 94q15 15 34 15h83q20 0 33 -15l80 -94q4 -5 1.5 -10t-8.5 -5h-79z" />
    <glyph glyph-name="I" unicode="I" horiz-adv-x="202" 
d="M50 0q-8 0 -14 6t-6 14v774q0 8 6 14t14 6h102q8 0 14 -6t6 -14v-774q0 -8 -6 -14t-14 -6h-102z" />
    <glyph glyph-name="Iacute" unicode="&#xcd;" horiz-adv-x="202" 
d="M50 0q-8 0 -14 6t-6 14v774q0 8 6 14t14 6h102q8 0 14 -6t6 -14v-774q0 -8 -6 -14t-14 -6h-102zM96 967q12 17 31 17h117q5 0 7 -4.5t-3 -8.5l-113 -92q-16 -13 -36 -13h-49q-7 0 -10 5.5t1 11.5z" />
    <glyph glyph-name="Icircumflex" unicode="&#xce;" horiz-adv-x="202" 
d="M50 0q-8 0 -14 6t-6 14v774q0 8 6 14t14 6h102q8 0 14 -6t6 -14v-774q0 -8 -6 -14t-14 -6h-102zM174 866q-20 0 -33 15l-36 42l-38 -42q-13 -15 -33 -15h-84q-6 0 -8.5 5t2.5 10l86 94q15 15 34 15h83q20 0 33 -15l80 -94q4 -5 1.5 -10t-8.5 -5h-79z" />
    <glyph glyph-name="Idieresis" unicode="&#xcf;" horiz-adv-x="202" 
d="M50 0q-8 0 -14 6t-6 14v774q0 8 6 14t14 6h102q8 0 14 -6t6 -14v-774q0 -8 -6 -14t-14 -6h-102zM-52 960q0 8 6 14t14 6h73q8 0 14 -6t6 -14v-74q0 -8 -6 -14t-14 -6h-73q-8 0 -14 6t-6 14v74zM139 960q0 8 6 14t14 6h75q8 0 14 -6t6 -14v-74q0 -8 -6 -14t-14 -6h-75
q-8 0 -14 6t-6 14v74z" />
    <glyph glyph-name="Idotaccent" unicode="&#x130;" horiz-adv-x="202" 
d="M50 0q-8 0 -14 6t-6 14v774q0 8 6 14t14 6h102q8 0 14 -6t6 -14v-774q0 -8 -6 -14t-14 -6h-102zM45 960q0 8 6 14t14 6h72q8 0 14 -6t6 -14v-74q0 -8 -6 -14t-14 -6h-72q-8 0 -14 6t-6 14v74z" />
    <glyph glyph-name="Igrave" unicode="&#xcc;" horiz-adv-x="202" 
d="M50 0q-8 0 -14 6t-6 14v774q0 8 6 14t14 6h102q8 0 14 -6t6 -14v-774q0 -8 -6 -14t-14 -6h-102zM108 866q-20 0 -36 13l-113 92q-5 4 -3 8.5t7 4.5h117q19 0 31 -17l55 -84q4 -6 1 -11.5t-10 -5.5h-49z" />
    <glyph glyph-name="Imacron" unicode="&#x12a;" horiz-adv-x="202" 
d="M50 0q-8 0 -14 6t-6 14v774q0 8 6 14t14 6h102q8 0 14 -6t6 -14v-774q0 -8 -6 -14t-14 -6h-102zM-74 921q0 8 6 14t14 6h310q8 0 14 -6t6 -14v-35q0 -8 -6 -14t-14 -6h-310q-8 0 -14 6t-6 14v35z" />
    <glyph glyph-name="Iogonek" unicode="&#x12e;" horiz-adv-x="202" 
d="M50 0q-8 0 -14 6t-6 14v774q0 8 6 14t14 6h102q8 0 14 -6t6 -14v-774q0 -8 -6 -14t-14 -6h-20q-17 -17 -27 -31t-10 -28q0 -28 32 -28q16 0 31 5q19 5 27 -14l3 -6q3 -8 0 -15.5t-11 -10.5q-11 -5 -25 -8.5t-33 -3.5q-42 0 -65 19.5t-23 49.5q0 22 10 38.5t27 32.5h-18z
" />
    <glyph glyph-name="Itilde" unicode="&#x128;" horiz-adv-x="202" 
d="M50 0q-8 0 -14 6t-6 14v774q0 8 6 14t14 6h102q8 0 14 -6t6 -14v-774q0 -8 -6 -14t-14 -6h-102zM121 973q12 -5 24 -9t23 -4q26 0 40 22q10 16 26 5l38 -27q6 -5 8 -13.5t-3 -15.5q-19 -32 -43.5 -47t-50.5 -15q-13 0 -30.5 4t-34.5 11l-32 13q-11 5 -23.5 9t-23.5 4
q-14 0 -24.5 -7.5t-19.5 -19.5q-12 -17 -28 -5l-35 23q-7 5 -8.5 13t3.5 15q21 32 45 50t56 18q19 0 35 -4.5t31 -9.5z" />
    <glyph glyph-name="J" unicode="J" horiz-adv-x="218" 
d="M30 99q8 4 14 11t6 21v663q0 8 6 14t14 6h103q8 0 14 -6t6 -14v-660q0 -73 -30 -106.5t-83 -33.5q-25 0 -50 3q-8 1 -14 7.5t-6 14.5v50q0 13 4 19t16 11z" />
    <glyph glyph-name="Jcircumflex" unicode="&#x134;" horiz-adv-x="218" 
d="M30 99q8 4 14 11t6 21v663q0 8 6 14t14 6h103q8 0 14 -6t6 -14v-660q0 -73 -30 -106.5t-83 -33.5q-25 0 -50 3q-8 1 -14 7.5t-6 14.5v50q0 13 4 19t16 11zM182 866q-20 0 -33 15l-36 42l-38 -42q-13 -15 -33 -15h-84q-6 0 -8.5 5t2.5 10l86 94q15 15 34 15h83
q20 0 33 -15l80 -94q4 -5 1.5 -10t-8.5 -5h-79z" />
    <glyph glyph-name="K" unicode="K" horiz-adv-x="409" 
d="M353 814q8 0 13 -6t3 -14l-70 -373l100 -402q2 -7 -2.5 -13t-12.5 -6h-106q-8 0 -15 5.5t-9 14.5l-82 364v-364q0 -8 -6 -14t-14 -6h-102q-8 0 -14 6t-6 14v774q0 8 6 14t14 6h102q8 0 14 -6t6 -14v-329l59 329q1 9 8 14.5t15 5.5h99z" />
    <glyph glyph-name="Kcommaaccent" unicode="&#x136;" horiz-adv-x="409" 
d="M353 814q8 0 13 -6t3 -14l-70 -373l100 -402q2 -7 -2.5 -13t-12.5 -6h-106q-8 0 -15 5.5t-9 14.5l-82 364v-364q0 -8 -6 -14t-14 -6h-102q-8 0 -14 6t-6 14v774q0 8 6 14t14 6h102q8 0 14 -6t6 -14v-329l59 329q1 9 8 14.5t15 5.5h99zM252 -70q8 0 14 -6t6 -14v-81
q0 -19 -12 -36l-87 -108q-2 -3 -5 -1.5t-2 4.5l30 121h-35q-8 0 -14 6t-6 14v81q0 8 6 14t14 6h91z" />
    <glyph glyph-name="L" unicode="L" horiz-adv-x="285" 
d="M50 0q-8 0 -14 6t-6 14v774q0 8 6 14t14 6h102q8 0 14 -6t6 -14v-684h83q8 0 14 -6t6 -14v-70q0 -8 -6 -14t-14 -6h-205z" />
    <glyph glyph-name="Lacute" unicode="&#x139;" horiz-adv-x="290" 
d="M50 0q-8 0 -14 6t-6 14v774q0 8 6 14t14 6h102q8 0 14 -6t6 -14v-684h83q8 0 14 -6t6 -14v-70q0 -8 -6 -14t-14 -6h-205zM112 967q12 17 31 17h117q5 0 7 -4.5t-3 -8.5l-113 -92q-16 -13 -36 -13h-49q-7 0 -10 5.5t1 11.5z" />
    <glyph glyph-name="Lcaron" unicode="&#x13d;" horiz-adv-x="370" 
d="M50 0q-8 0 -14 6t-6 14v774q0 8 6 14t14 6h102q8 0 14 -6t6 -14v-684h83q8 0 14 -6t6 -14v-70q0 -8 -6 -14t-14 -6h-205zM340 814q8 0 14 -6t6 -14v-81q0 -19 -12 -36l-87 -108q-2 -3 -5 -1.5t-2 4.5l30 121h-35q-8 0 -14 6t-6 14v81q0 8 6 14t14 6h91z" />
    <glyph glyph-name="Lcommaaccent" unicode="&#x13b;" horiz-adv-x="285" 
d="M50 0q-8 0 -14 6t-6 14v774q0 8 6 14t14 6h102q8 0 14 -6t6 -14v-684h83q8 0 14 -6t6 -14v-70q0 -8 -6 -14t-14 -6h-205zM190 -70q8 0 14 -6t6 -14v-81q0 -19 -12 -36l-87 -108q-2 -3 -5 -1.5t-2 4.5l30 121h-35q-8 0 -14 6t-6 14v81q0 8 6 14t14 6h91z" />
    <glyph glyph-name="Lslash" unicode="&#x141;" horiz-adv-x="285" 
d="M18 262q-6 -3 -12 1t-6 11v50q0 20 18 28l12 6v436q0 8 6 14t14 6h102q8 0 14 -6t6 -14v-374l65 29q6 3 12 -0.5t6 -11.5v-50q0 -20 -18 -28l-65 -29v-220h83q8 0 14 -6t6 -14v-70q0 -8 -6 -14t-14 -6h-205q-8 0 -14 6t-6 14v248z" />
    <glyph glyph-name="M" unicode="M" horiz-adv-x="519" 
d="M358 478l-64 -458q-2 -8 -8.5 -14t-14.5 -6h-22q-8 0 -14.5 6t-8.5 14l-65 458v-458q0 -8 -6 -14t-14 -6h-91q-8 0 -14 6t-6 14v774q0 8 6 14t14 6h124q8 0 14.5 -6t8.5 -14l62 -375l63 375q2 8 8.5 14t14.5 6h124q8 0 14 -6t6 -14v-774q0 -8 -6 -14t-14 -6h-91
q-8 0 -14 6t-6 14v458z" />
    <glyph glyph-name="N" unicode="N" horiz-adv-x="426" 
d="M263 0q-8 0 -15 5.5t-9 14.5l-81 415v-415q0 -8 -6 -14t-14 -6h-88q-8 0 -14 6t-6 14v774q0 8 6 14t14 6h107q8 0 15 -5.5t9 -14.5l83 -417v417q0 8 6 14t14 6h92q8 0 14 -6t6 -14v-774q0 -8 -6 -14t-14 -6h-113z" />
    <glyph glyph-name="Nacute" unicode="&#x143;" horiz-adv-x="426" 
d="M263 0q-8 0 -15 5.5t-9 14.5l-81 415v-415q0 -8 -6 -14t-14 -6h-88q-8 0 -14 6t-6 14v774q0 8 6 14t14 6h107q8 0 15 -5.5t9 -14.5l83 -417v417q0 8 6 14t14 6h92q8 0 14 -6t6 -14v-774q0 -8 -6 -14t-14 -6h-113zM221 967q12 17 31 17h117q5 0 7 -4.5t-3 -8.5l-113 -92
q-16 -13 -36 -13h-49q-7 0 -10 5.5t1 11.5z" />
    <glyph glyph-name="Ncaron" unicode="&#x147;" horiz-adv-x="426" 
d="M263 0q-8 0 -15 5.5t-9 14.5l-81 415v-415q0 -8 -6 -14t-14 -6h-88q-8 0 -14 6t-6 14v774q0 8 6 14t14 6h107q8 0 15 -5.5t9 -14.5l83 -417v417q0 8 6 14t14 6h92q8 0 14 -6t6 -14v-774q0 -8 -6 -14t-14 -6h-113zM145 990q20 0 33 -15l38 -43l36 43q13 15 33 15h79
q6 0 8.5 -5t-1.5 -10l-80 -94q-13 -15 -33 -15h-83q-19 0 -34 15l-86 94q-5 5 -2.5 10t8.5 5h84z" />
    <glyph glyph-name="Ncommaaccent" unicode="&#x145;" horiz-adv-x="426" 
d="M263 0q-8 0 -15 5.5t-9 14.5l-81 415v-415q0 -8 -6 -14t-14 -6h-88q-8 0 -14 6t-6 14v774q0 8 6 14t14 6h107q8 0 15 -5.5t9 -14.5l83 -417v417q0 8 6 14t14 6h92q8 0 14 -6t6 -14v-774q0 -8 -6 -14t-14 -6h-113zM258 -70q8 0 14 -6t6 -14v-81q0 -19 -12 -36l-87 -108
q-2 -3 -5 -1.5t-2 4.5l30 121h-35q-8 0 -14 6t-6 14v81q0 8 6 14t14 6h91z" />
    <glyph glyph-name="Ntilde" unicode="&#xd1;" horiz-adv-x="426" 
d="M263 0q-8 0 -15 5.5t-9 14.5l-81 415v-415q0 -8 -6 -14t-14 -6h-88q-8 0 -14 6t-6 14v774q0 8 6 14t14 6h107q8 0 15 -5.5t9 -14.5l83 -417v417q0 8 6 14t14 6h92q8 0 14 -6t6 -14v-774q0 -8 -6 -14t-14 -6h-113zM232 973q12 -5 24 -9t23 -4q26 0 40 22q10 16 26 5
l38 -27q6 -5 8 -13.5t-3 -15.5q-19 -32 -43.5 -47t-50.5 -15q-13 0 -30.5 4t-34.5 11l-32 13q-11 5 -23.5 9t-23.5 4q-14 0 -24.5 -7.5t-19.5 -19.5q-12 -17 -28 -5l-35 23q-7 5 -8.5 13t3.5 15q21 32 45 50t56 18q19 0 35 -4.5t31 -9.5z" />
    <glyph glyph-name="O" unicode="O" horiz-adv-x="381" 
d="M235 825q62 0 91.5 -29.5t29.5 -100.5v-574q0 -73 -26.5 -101.5t-86.5 -28.5h-98q-62 0 -91 30t-29 100v574q0 73 26 101.5t86 28.5h98zM190 96q8 0 15.5 6.5t7.5 18.5v574q0 13 -7 19.5t-15 6.5t-16 -6.5t-8 -19.5v-574q0 -12 7.5 -18.5t15.5 -6.5z" />
    <glyph glyph-name="OE" unicode="&#x152;" horiz-adv-x="477" 
d="M442 110q8 0 14 -6t6 -14v-70q0 -8 -6 -14t-14 -6h-297q-62 0 -91 30t-29 100v554q0 73 26 101.5t86 28.5h305q8 0 14 -6t6 -14v-70q0 -8 -6 -14t-14 -6h-86v-235h76q8 0 14 -6t6 -14v-70q0 -8 -6 -14t-14 -6h-76v-249h86zM190 105q8 0 15.5 6.5t7.5 18.5v554
q0 13 -7 19.5t-15 6.5t-16 -6.5t-8 -19.5v-554q0 -12 7.5 -18.5t15.5 -6.5z" />
    <glyph glyph-name="Oacute" unicode="&#xd3;" horiz-adv-x="381" 
d="M235 825q62 0 91.5 -29.5t29.5 -100.5v-574q0 -73 -26.5 -101.5t-86.5 -28.5h-98q-62 0 -91 30t-29 100v574q0 73 26 101.5t86 28.5h98zM190 96q8 0 15.5 6.5t7.5 18.5v574q0 13 -7 19.5t-15 6.5t-16 -6.5t-8 -19.5v-574q0 -12 7.5 -18.5t15.5 -6.5zM200 967q12 17 31 17
h117q5 0 7 -4.5t-3 -8.5l-113 -92q-16 -13 -36 -13h-49q-7 0 -10 5.5t1 11.5z" />
    <glyph glyph-name="Ocircumflex" unicode="&#xd4;" horiz-adv-x="381" 
d="M235 825q62 0 91.5 -29.5t29.5 -100.5v-574q0 -73 -26.5 -101.5t-86.5 -28.5h-98q-62 0 -91 30t-29 100v574q0 73 26 101.5t86 28.5h98zM190 96q8 0 15.5 6.5t7.5 18.5v574q0 13 -7 19.5t-15 6.5t-16 -6.5t-8 -19.5v-574q0 -12 7.5 -18.5t15.5 -6.5zM263 866
q-20 0 -33 15l-36 42l-38 -42q-13 -15 -33 -15h-84q-6 0 -8.5 5t2.5 10l86 94q15 15 34 15h83q20 0 33 -15l80 -94q4 -5 1.5 -10t-8.5 -5h-79z" />
    <glyph glyph-name="Odieresis" unicode="&#xd6;" horiz-adv-x="381" 
d="M235 825q62 0 91.5 -29.5t29.5 -100.5v-574q0 -73 -26.5 -101.5t-86.5 -28.5h-98q-62 0 -91 30t-29 100v574q0 73 26 101.5t86 28.5h98zM190 96q8 0 15.5 6.5t7.5 18.5v574q0 13 -7 19.5t-15 6.5t-16 -6.5t-8 -19.5v-574q0 -12 7.5 -18.5t15.5 -6.5zM37 960q0 8 6 14
t14 6h73q8 0 14 -6t6 -14v-74q0 -8 -6 -14t-14 -6h-73q-8 0 -14 6t-6 14v74zM228 960q0 8 6 14t14 6h75q8 0 14 -6t6 -14v-74q0 -8 -6 -14t-14 -6h-75q-8 0 -14 6t-6 14v74z" />
    <glyph glyph-name="Ograve" unicode="&#xd2;" horiz-adv-x="381" 
d="M235 825q62 0 91.5 -29.5t29.5 -100.5v-574q0 -73 -26.5 -101.5t-86.5 -28.5h-98q-62 0 -91 30t-29 100v574q0 73 26 101.5t86 28.5h98zM190 96q8 0 15.5 6.5t7.5 18.5v574q0 13 -7 19.5t-15 6.5t-16 -6.5t-8 -19.5v-574q0 -12 7.5 -18.5t15.5 -6.5zM208 866
q-20 0 -36 13l-113 92q-5 4 -3 8.5t7 4.5h117q19 0 31 -17l55 -84q4 -6 1 -11.5t-10 -5.5h-49z" />
    <glyph glyph-name="Ohungarumlaut" unicode="&#x150;" horiz-adv-x="381" 
d="M235 825q62 0 91.5 -29.5t29.5 -100.5v-574q0 -73 -26.5 -101.5t-86.5 -28.5h-98q-62 0 -91 30t-29 100v574q0 73 26 101.5t86 28.5h98zM190 96q8 0 15.5 6.5t7.5 18.5v574q0 13 -7 19.5t-15 6.5t-16 -6.5t-8 -19.5v-574q0 -12 7.5 -18.5t15.5 -6.5zM109 983q7 19 27 19
h79q6 0 9 -5.5t-1 -10.5l-82 -103q-5 -8 -14 -12t-18 -4h-25q-8 0 -11.5 6t-1.5 13zM260 983q7 19 27 19h79q6 0 9 -5.5t-1 -10.5l-82 -103q-5 -8 -14 -12t-18 -4h-25q-8 0 -11.5 6t-1.5 13z" />
    <glyph glyph-name="Omacron" unicode="&#x14c;" horiz-adv-x="381" 
d="M235 825q62 0 91.5 -29.5t29.5 -100.5v-574q0 -73 -26.5 -101.5t-86.5 -28.5h-98q-62 0 -91 30t-29 100v574q0 73 26 101.5t86 28.5h98zM190 96q8 0 15.5 6.5t7.5 18.5v574q0 13 -7 19.5t-15 6.5t-16 -6.5t-8 -19.5v-574q0 -12 7.5 -18.5t15.5 -6.5zM15 921q0 8 6 14
t14 6h310q8 0 14 -6t6 -14v-35q0 -8 -6 -14t-14 -6h-310q-8 0 -14 6t-6 14v35z" />
    <glyph glyph-name="Oslash" unicode="&#xd8;" horiz-adv-x="381" 
d="M346 842q5 12 18 7l2 -1q5 -2 7.5 -8t0.5 -11l-27 -69q9 -26 9 -65v-574q0 -73 -26.5 -101.5t-86.5 -28.5h-98q-61 0 -90 29l-19 -48q-2 -5 -7.5 -7.5t-11.5 0.5h-1q-14 7 -9 21l27 68q-9 27 -9 67v574q0 73 26 101.5t86 28.5h98q31 0 54 -7t38 -24zM191 721
q-8 0 -16 -6.5t-8 -19.5v-306l46 117v189q0 13 -7 19.5t-15 6.5zM190 96q8 0 15.5 6.5t7.5 18.5v299l-46 -117v-182q0 -12 7.5 -18.5t15.5 -6.5z" />
    <glyph glyph-name="Otilde" unicode="&#xd5;" horiz-adv-x="381" 
d="M235 825q62 0 91.5 -29.5t29.5 -100.5v-574q0 -73 -26.5 -101.5t-86.5 -28.5h-98q-62 0 -91 30t-29 100v574q0 73 26 101.5t86 28.5h98zM190 96q8 0 15.5 6.5t7.5 18.5v574q0 13 -7 19.5t-15 6.5t-16 -6.5t-8 -19.5v-574q0 -12 7.5 -18.5t15.5 -6.5zM210 973q12 -5 24 -9
t23 -4q26 0 40 22q10 16 26 5l38 -27q6 -5 8 -13.5t-3 -15.5q-19 -32 -43.5 -47t-50.5 -15q-13 0 -30.5 4t-34.5 11l-32 13q-11 5 -23.5 9t-23.5 4q-14 0 -24.5 -7.5t-19.5 -19.5q-12 -17 -28 -5l-35 23q-7 5 -8.5 13t3.5 15q21 32 45 50t56 18q19 0 35 -4.5t31 -9.5z" />
    <glyph glyph-name="P" unicode="P" horiz-adv-x="381" 
d="M361 424q0 -35 -6.5 -58.5t-22.5 -37.5t-44 -20t-71 -6h-45v-282q0 -8 -6 -14t-14 -6h-102q-8 0 -14 6t-6 14v774q0 8 6 14t14 6h190q62 0 91.5 -29.5t29.5 -100.5v-260zM195 408q8 0 15.5 6.5t7.5 18.5v251q0 13 -7 19.5t-15 6.5h-24v-302h23z" />
    <glyph glyph-name="Q" unicode="Q" horiz-adv-x="381" 
d="M235 825q62 0 91.5 -29.5t29.5 -100.5v-574q0 -73 -26.5 -101.5t-88.5 -28.5l-2 -36q-1 -8 -7 -14t-14 -6h-48q-8 0 -14 6t-7 14l-1 36q-64 0 -93.5 30t-29.5 100v574q0 73 26 101.5t86 28.5h98zM190 96q8 0 15.5 6.5t7.5 18.5v574q0 13 -7 19.5t-15 6.5t-16 -6.5
t-8 -19.5v-574q0 -12 7.5 -18.5t15.5 -6.5z" />
    <glyph glyph-name="R" unicode="R" horiz-adv-x="386" 
d="M282 376q42 -7 60.5 -36.5t18.5 -90.5v-229q0 -8 -6 -14t-14 -6h-103q-8 0 -14 6t-6 14v277q0 12 -7.5 18.5t-15.5 6.5h-23v-302q0 -8 -6 -14t-14 -6h-102q-8 0 -14 6t-6 14v774q0 8 6 14t14 6h190q62 0 91.5 -29.5t29.5 -100.5v-180q0 -62 -18.5 -91t-60.5 -37zM195 428
q8 0 15.5 6.5t7.5 18.5v231q0 13 -7 19.5t-15 6.5h-24v-282h23z" />
    <glyph glyph-name="Racute" unicode="&#x154;" horiz-adv-x="386" 
d="M282 376q42 -7 60.5 -36.5t18.5 -90.5v-229q0 -8 -6 -14t-14 -6h-103q-8 0 -14 6t-6 14v277q0 12 -7.5 18.5t-15.5 6.5h-23v-302q0 -8 -6 -14t-14 -6h-102q-8 0 -14 6t-6 14v774q0 8 6 14t14 6h190q62 0 91.5 -29.5t29.5 -100.5v-180q0 -62 -18.5 -91t-60.5 -37zM195 428
q8 0 15.5 6.5t7.5 18.5v231q0 13 -7 19.5t-15 6.5h-24v-282h23zM182 967q12 17 31 17h117q5 0 7 -4.5t-3 -8.5l-113 -92q-16 -13 -36 -13h-49q-7 0 -10 5.5t1 11.5z" />
    <glyph glyph-name="Rcaron" unicode="&#x158;" horiz-adv-x="386" 
d="M282 376q42 -7 60.5 -36.5t18.5 -90.5v-229q0 -8 -6 -14t-14 -6h-103q-8 0 -14 6t-6 14v277q0 12 -7.5 18.5t-15.5 6.5h-23v-302q0 -8 -6 -14t-14 -6h-102q-8 0 -14 6t-6 14v774q0 8 6 14t14 6h190q62 0 91.5 -29.5t29.5 -100.5v-180q0 -62 -18.5 -91t-60.5 -37zM195 428
q8 0 15.5 6.5t7.5 18.5v231q0 13 -7 19.5t-15 6.5h-24v-282h23zM119 990q20 0 33 -15l38 -43l36 43q13 15 33 15h79q6 0 8.5 -5t-1.5 -10l-80 -94q-13 -15 -33 -15h-83q-19 0 -34 15l-86 94q-5 5 -2.5 10t8.5 5h84z" />
    <glyph glyph-name="Rcommaaccent" unicode="&#x156;" horiz-adv-x="386" 
d="M282 376q42 -7 60.5 -36.5t18.5 -90.5v-229q0 -8 -6 -14t-14 -6h-103q-8 0 -14 6t-6 14v277q0 12 -7.5 18.5t-15.5 6.5h-23v-302q0 -8 -6 -14t-14 -6h-102q-8 0 -14 6t-6 14v774q0 8 6 14t14 6h190q62 0 91.5 -29.5t29.5 -100.5v-180q0 -62 -18.5 -91t-60.5 -37zM195 428
q8 0 15.5 6.5t7.5 18.5v231q0 13 -7 19.5t-15 6.5h-24v-282h23zM242 -70q8 0 14 -6t6 -14v-81q0 -19 -12 -36l-87 -108q-2 -3 -5 -1.5t-2 4.5l30 121h-35q-8 0 -14 6t-6 14v81q0 8 6 14t14 6h91z" />
    <glyph glyph-name="S" unicode="S" horiz-adv-x="364" 
d="M183 95q10 0 16.5 6.5t6.5 18.5v142q0 24 -14 44.5t-34.5 40.5t-44.5 40.5t-44.5 44t-34.5 50.5t-14 61v153q0 72 26.5 100.5t86.5 28.5h90q63 0 89.5 -29.5t26.5 -99.5v-127q0 -8 -6 -14t-14 -6h-93q-8 0 -14 6t-6 14v128q0 12 -6.5 18.5t-15.5 6.5q-10 0 -16.5 -6.5
t-6.5 -18.5v-130q0 -23 13.5 -42t34 -37t44 -37t44 -42.5t34 -52t13.5 -66.5v-169q0 -72 -26.5 -101t-86.5 -29h-91q-62 0 -88.5 30t-26.5 100v150q0 8 6 14t14 6h96q8 0 14 -6t6 -14v-151q0 -25 22 -25z" />
    <glyph glyph-name="Sacute" unicode="&#x15a;" horiz-adv-x="364" 
d="M183 95q10 0 16.5 6.5t6.5 18.5v142q0 24 -14 44.5t-34.5 40.5t-44.5 40.5t-44.5 44t-34.5 50.5t-14 61v153q0 72 26.5 100.5t86.5 28.5h90q63 0 89.5 -29.5t26.5 -99.5v-127q0 -8 -6 -14t-14 -6h-93q-8 0 -14 6t-6 14v128q0 12 -6.5 18.5t-15.5 6.5q-10 0 -16.5 -6.5
t-6.5 -18.5v-130q0 -23 13.5 -42t34 -37t44 -37t44 -42.5t34 -52t13.5 -66.5v-169q0 -72 -26.5 -101t-86.5 -29h-91q-62 0 -88.5 30t-26.5 100v150q0 8 6 14t14 6h96q8 0 14 -6t6 -14v-151q0 -25 22 -25zM188 967q12 17 31 17h117q5 0 7 -4.5t-3 -8.5l-113 -92
q-16 -13 -36 -13h-49q-7 0 -10 5.5t1 11.5z" />
    <glyph glyph-name="Scaron" unicode="&#x160;" horiz-adv-x="364" 
d="M183 95q10 0 16.5 6.5t6.5 18.5v142q0 24 -14 44.5t-34.5 40.5t-44.5 40.5t-44.5 44t-34.5 50.5t-14 61v153q0 72 26.5 100.5t86.5 28.5h90q63 0 89.5 -29.5t26.5 -99.5v-127q0 -8 -6 -14t-14 -6h-93q-8 0 -14 6t-6 14v128q0 12 -6.5 18.5t-15.5 6.5q-10 0 -16.5 -6.5
t-6.5 -18.5v-130q0 -23 13.5 -42t34 -37t44 -37t44 -42.5t34 -52t13.5 -66.5v-169q0 -72 -26.5 -101t-86.5 -29h-91q-62 0 -88.5 30t-26.5 100v150q0 8 6 14t14 6h96q8 0 14 -6t6 -14v-151q0 -25 22 -25zM114 990q20 0 33 -15l38 -43l36 43q13 15 33 15h79q6 0 8.5 -5
t-1.5 -10l-80 -94q-13 -15 -33 -15h-83q-19 0 -34 15l-86 94q-5 5 -2.5 10t8.5 5h84z" />
    <glyph glyph-name="Scedilla" unicode="&#x15e;" horiz-adv-x="364" 
d="M206 -113q0 14 -10.5 21.5t-27.5 7.5h-6q-5 0 -5 4v71h-17q-62 0 -88.5 30t-26.5 100v150q0 8 6 14t14 6h96q8 0 14 -6t6 -14v-151q0 -25 22 -25q10 0 16.5 6.5t6.5 18.5v142q0 24 -14 44.5t-34.5 40.5t-44.5 40.5t-44.5 44t-34.5 50.5t-14 61v153q0 72 26.5 100.5
t86.5 28.5h90q63 0 89.5 -29.5t26.5 -99.5v-127q0 -8 -6 -14t-14 -6h-93q-8 0 -14 6t-6 14v128q0 12 -6.5 18.5t-15.5 6.5q-10 0 -16.5 -6.5t-6.5 -18.5v-130q0 -23 13.5 -42t34 -37t44 -37t44 -42.5t34 -52t13.5 -66.5v-169q0 -72 -26.5 -101t-86.5 -29h-22v-41
q30 -2 46.5 -18t16.5 -40q0 -16 -7 -31t-19.5 -26t-29.5 -18t-37 -7q-25 0 -46.5 12.5t-33.5 37.5q-3 6 1 12.5t11 6.5h28q9 0 13.5 -2t12.5 -10q6 -6 16 -6q25 0 25 26z" />
    <glyph glyph-name="Scircumflex" unicode="&#x15c;" horiz-adv-x="364" 
d="M183 95q10 0 16.5 6.5t6.5 18.5v142q0 24 -14 44.5t-34.5 40.5t-44.5 40.5t-44.5 44t-34.5 50.5t-14 61v153q0 72 26.5 100.5t86.5 28.5h90q63 0 89.5 -29.5t26.5 -99.5v-127q0 -8 -6 -14t-14 -6h-93q-8 0 -14 6t-6 14v128q0 12 -6.5 18.5t-15.5 6.5q-10 0 -16.5 -6.5
t-6.5 -18.5v-130q0 -23 13.5 -42t34 -37t44 -37t44 -42.5t34 -52t13.5 -66.5v-169q0 -72 -26.5 -101t-86.5 -29h-91q-62 0 -88.5 30t-26.5 100v150q0 8 6 14t14 6h96q8 0 14 -6t6 -14v-151q0 -25 22 -25zM254 866q-20 0 -33 15l-36 42l-38 -42q-13 -15 -33 -15h-84
q-6 0 -8.5 5t2.5 10l86 94q15 15 34 15h83q20 0 33 -15l80 -94q4 -5 1.5 -10t-8.5 -5h-79z" />
    <glyph glyph-name="Scommaaccent" unicode="&#x218;" horiz-adv-x="364" 
d="M183 95q10 0 16.5 6.5t6.5 18.5v142q0 24 -14 44.5t-34.5 40.5t-44.5 40.5t-44.5 44t-34.5 50.5t-14 61v153q0 72 26.5 100.5t86.5 28.5h90q63 0 89.5 -29.5t26.5 -99.5v-127q0 -8 -6 -14t-14 -6h-93q-8 0 -14 6t-6 14v128q0 12 -6.5 18.5t-15.5 6.5q-10 0 -16.5 -6.5
t-6.5 -18.5v-130q0 -23 13.5 -42t34 -37t44 -37t44 -42.5t34 -52t13.5 -66.5v-169q0 -72 -26.5 -101t-86.5 -29h-91q-62 0 -88.5 30t-26.5 100v150q0 8 6 14t14 6h96q8 0 14 -6t6 -14v-151q0 -25 22 -25zM231 -70q8 0 14 -6t6 -14v-81q0 -19 -12 -36l-87 -108q-2 -3 -5 -1.5
t-2 4.5l30 121h-35q-8 0 -14 6t-6 14v81q0 8 6 14t14 6h91z" />
    <glyph glyph-name="T" unicode="T" horiz-adv-x="319" 
d="M108 0q-8 0 -14 6t-6 14v684h-58q-8 0 -14 6t-6 14v70q0 8 6 14t14 6h259q8 0 14 -6t6 -14v-70q0 -8 -6 -14t-14 -6h-58v-684q0 -8 -6 -14t-14 -6h-103z" />
    <glyph glyph-name="Tbar" unicode="&#x166;" horiz-adv-x="319" 
d="M0 568q0 8 6 14t14 6h68v116h-58q-8 0 -14 6t-6 14v70q0 8 6 14t14 6h259q8 0 14 -6t6 -14v-70q0 -8 -6 -14t-14 -6h-58v-116h68q8 0 14 -6t6 -14v-35q0 -8 -6 -14t-14 -6h-68v-493q0 -8 -6 -14t-14 -6h-103q-8 0 -14 6t-6 14v493h-68q-8 0 -14 6t-6 14v35z" />
    <glyph glyph-name="Tcaron" unicode="&#x164;" horiz-adv-x="319" 
d="M108 0q-8 0 -14 6t-6 14v684h-58q-8 0 -14 6t-6 14v70q0 8 6 14t14 6h259q8 0 14 -6t6 -14v-70q0 -8 -6 -14t-14 -6h-58v-684q0 -8 -6 -14t-14 -6h-103zM92 990q20 0 33 -15l38 -43l36 43q13 15 33 15h79q6 0 8.5 -5t-1.5 -10l-80 -94q-13 -15 -33 -15h-83q-19 0 -34 15
l-86 94q-5 5 -2.5 10t8.5 5h84z" />
    <glyph glyph-name="Tcommaaccent" unicode="&#x162;" horiz-adv-x="319" 
d="M108 0q-8 0 -14 6t-6 14v684h-58q-8 0 -14 6t-6 14v70q0 8 6 14t14 6h259q8 0 14 -6t6 -14v-70q0 -8 -6 -14t-14 -6h-58v-684q0 -8 -6 -14t-14 -6h-103zM205 -70q8 0 14 -6t6 -14v-81q0 -19 -12 -36l-87 -108q-2 -3 -5 -1.5t-2 4.5l30 121h-35q-8 0 -14 6t-6 14v81
q0 8 6 14t14 6h91z" />
    <glyph glyph-name="Thorn" unicode="&#xde;" horiz-adv-x="381" 
d="M361 271q0 -35 -6.5 -58.5t-22.5 -37.5t-44 -20t-71 -6h-45v-129q0 -8 -6 -14t-14 -6h-102q-8 0 -14 6t-6 14v774q0 8 6 14t14 6h102q8 0 14 -6t6 -14v-133h68q62 0 91.5 -29.5t29.5 -100.5v-260zM195 255q8 0 15.5 6.5t7.5 18.5v251q0 13 -7 19.5t-15 6.5h-24v-302h23z
" />
    <glyph glyph-name="U" unicode="U" horiz-adv-x="381" 
d="M190 96q8 0 15.5 6.5t7.5 18.5v673q0 8 6 14t14 6h103q8 0 14 -6t6 -14v-673q0 -73 -26.5 -101.5t-86.5 -28.5h-98q-62 0 -91 30t-29 100v673q0 8 6 14t14 6h102q8 0 14 -6t6 -14v-673q0 -12 7.5 -18.5t15.5 -6.5z" />
    <glyph glyph-name="Uacute" unicode="&#xda;" horiz-adv-x="381" 
d="M190 96q8 0 15.5 6.5t7.5 18.5v673q0 8 6 14t14 6h103q8 0 14 -6t6 -14v-673q0 -73 -26.5 -101.5t-86.5 -28.5h-98q-62 0 -91 30t-29 100v673q0 8 6 14t14 6h102q8 0 14 -6t6 -14v-673q0 -12 7.5 -18.5t15.5 -6.5zM190 967q12 17 31 17h117q5 0 7 -4.5t-3 -8.5l-113 -92
q-16 -13 -36 -13h-49q-7 0 -10 5.5t1 11.5z" />
    <glyph glyph-name="Ubreve" unicode="&#x16c;" horiz-adv-x="381" 
d="M190 96q8 0 15.5 6.5t7.5 18.5v673q0 8 6 14t14 6h103q8 0 14 -6t6 -14v-673q0 -73 -26.5 -101.5t-86.5 -28.5h-98q-62 0 -91 30t-29 100v673q0 8 6 14t14 6h102q8 0 14 -6t6 -14v-673q0 -12 7.5 -18.5t15.5 -6.5zM190 866q-51 0 -82.5 28t-39.5 85q-1 8 4 14t13 6h34
q20 0 25 -20q5 -18 14.5 -29.5t31.5 -11.5t32 11.5t15 29.5q5 20 26 20h33q8 0 13 -6t4 -14q-8 -57 -40 -85t-83 -28z" />
    <glyph glyph-name="Ucircumflex" unicode="&#xdb;" horiz-adv-x="381" 
d="M190 96q8 0 15.5 6.5t7.5 18.5v673q0 8 6 14t14 6h103q8 0 14 -6t6 -14v-673q0 -73 -26.5 -101.5t-86.5 -28.5h-98q-62 0 -91 30t-29 100v673q0 8 6 14t14 6h102q8 0 14 -6t6 -14v-673q0 -12 7.5 -18.5t15.5 -6.5zM263 866q-20 0 -33 15l-36 42l-38 -42q-13 -15 -33 -15
h-84q-6 0 -8.5 5t2.5 10l86 94q15 15 34 15h83q20 0 33 -15l80 -94q4 -5 1.5 -10t-8.5 -5h-79z" />
    <glyph glyph-name="Udieresis" unicode="&#xdc;" horiz-adv-x="381" 
d="M190 96q8 0 15.5 6.5t7.5 18.5v673q0 8 6 14t14 6h103q8 0 14 -6t6 -14v-673q0 -73 -26.5 -101.5t-86.5 -28.5h-98q-62 0 -91 30t-29 100v673q0 8 6 14t14 6h102q8 0 14 -6t6 -14v-673q0 -12 7.5 -18.5t15.5 -6.5zM37 960q0 8 6 14t14 6h73q8 0 14 -6t6 -14v-74
q0 -8 -6 -14t-14 -6h-73q-8 0 -14 6t-6 14v74zM228 960q0 8 6 14t14 6h75q8 0 14 -6t6 -14v-74q0 -8 -6 -14t-14 -6h-75q-8 0 -14 6t-6 14v74z" />
    <glyph glyph-name="Ugrave" unicode="&#xd9;" horiz-adv-x="381" 
d="M190 96q8 0 15.5 6.5t7.5 18.5v673q0 8 6 14t14 6h103q8 0 14 -6t6 -14v-673q0 -73 -26.5 -101.5t-86.5 -28.5h-98q-62 0 -91 30t-29 100v673q0 8 6 14t14 6h102q8 0 14 -6t6 -14v-673q0 -12 7.5 -18.5t15.5 -6.5zM200 866q-20 0 -36 13l-113 92q-5 4 -3 8.5t7 4.5h117
q19 0 31 -17l55 -84q4 -6 1 -11.5t-10 -5.5h-49z" />
    <glyph glyph-name="Uhungarumlaut" unicode="&#x170;" horiz-adv-x="381" 
d="M190 96q8 0 15.5 6.5t7.5 18.5v673q0 8 6 14t14 6h103q8 0 14 -6t6 -14v-673q0 -73 -26.5 -101.5t-86.5 -28.5h-98q-62 0 -91 30t-29 100v673q0 8 6 14t14 6h102q8 0 14 -6t6 -14v-673q0 -12 7.5 -18.5t15.5 -6.5zM119 983q7 19 27 19h79q6 0 9 -5.5t-1 -10.5l-82 -103
q-5 -8 -14 -12t-18 -4h-25q-8 0 -11.5 6t-1.5 13zM270 983q7 19 27 19h79q6 0 9 -5.5t-1 -10.5l-82 -103q-5 -8 -14 -12t-18 -4h-25q-8 0 -11.5 6t-1.5 13z" />
    <glyph glyph-name="Umacron" unicode="&#x16a;" horiz-adv-x="381" 
d="M190 96q8 0 15.5 6.5t7.5 18.5v673q0 8 6 14t14 6h103q8 0 14 -6t6 -14v-673q0 -73 -26.5 -101.5t-86.5 -28.5h-98q-62 0 -91 30t-29 100v673q0 8 6 14t14 6h102q8 0 14 -6t6 -14v-673q0 -12 7.5 -18.5t15.5 -6.5zM15 921q0 8 6 14t14 6h310q8 0 14 -6t6 -14v-35
q0 -8 -6 -14t-14 -6h-310q-8 0 -14 6t-6 14v35z" />
    <glyph glyph-name="Uogonek" unicode="&#x172;" horiz-adv-x="381" 
d="M247 -87q16 0 31 5q19 5 27 -14l3 -6q3 -8 0 -15.5t-11 -10.5q-11 -5 -25 -8.5t-33 -3.5q-42 0 -65 19.5t-23 49.5q0 19 7.5 33.5t20.5 28.5h-34q-62 0 -91 30t-29 100v673q0 8 6 14t14 6h102q8 0 14 -6t6 -14v-673q0 -12 7.5 -18.5t15.5 -6.5t15.5 6.5t7.5 18.5v673
q0 8 6 14t14 6h103q8 0 14 -6t6 -14v-673q0 -73 -26.5 -101t-85.5 -29q-14 -14 -21.5 -26.5t-7.5 -23.5q0 -28 32 -28z" />
    <glyph glyph-name="Uring" unicode="&#x16e;" horiz-adv-x="381" 
d="M190 96q8 0 15.5 6.5t7.5 18.5v673q0 8 6 14t14 6h103q8 0 14 -6t6 -14v-673q0 -73 -26.5 -101.5t-86.5 -28.5h-98q-62 0 -91 30t-29 100v673q0 8 6 14t14 6h102q8 0 14 -6t6 -14v-673q0 -12 7.5 -18.5t15.5 -6.5zM98 958q0 19 7 36t19.5 29.5t29.5 19.5t36 7
q39 0 66 -26.5t27 -65.5q0 -19 -7.5 -36t-20 -29.5t-29.5 -19.5t-36 -7t-36 7t-29.5 19.5t-19.5 29.5t-7 36zM226 957q0 14 -11 25t-26 11q-14 0 -25 -10.5t-11 -25.5q0 -16 11 -26.5t25 -10.5q15 0 26 11t11 26z" />
    <glyph glyph-name="Utilde" unicode="&#x168;" horiz-adv-x="381" 
d="M190 96q8 0 15.5 6.5t7.5 18.5v673q0 8 6 14t14 6h103q8 0 14 -6t6 -14v-673q0 -73 -26.5 -101.5t-86.5 -28.5h-98q-62 0 -91 30t-29 100v673q0 8 6 14t14 6h102q8 0 14 -6t6 -14v-673q0 -12 7.5 -18.5t15.5 -6.5zM210 973q12 -5 24 -9t23 -4q26 0 40 22q10 16 26 5
l38 -27q6 -5 8 -13.5t-3 -15.5q-19 -32 -43.5 -47t-50.5 -15q-13 0 -30.5 4t-34.5 11l-32 13q-11 5 -23.5 9t-23.5 4q-14 0 -24.5 -7.5t-19.5 -19.5q-12 -17 -28 -5l-35 23q-7 5 -8.5 13t3.5 15q21 32 45 50t56 18q19 0 35 -4.5t31 -9.5z" />
    <glyph glyph-name="V" unicode="V" horiz-adv-x="369" 
d="M101 0q-8 0 -14.5 6t-7.5 14l-77 774q-1 8 4.5 14t13.5 6h107q8 0 14.5 -6t6.5 -14l37 -584l37 584q0 8 6.5 14t14.5 6h106q8 0 13.5 -6t4.5 -14l-74 -774q-1 -8 -7.5 -14t-14.5 -6h-170z" />
    <glyph glyph-name="W" unicode="W" horiz-adv-x="574" 
d="M554 814q8 0 13.5 -6t5.5 -14l-59 -774q0 -8 -6.5 -14t-14.5 -6h-143q-8 0 -14.5 6t-6.5 14l-42 583l-42 -583q0 -8 -6.5 -14t-14.5 -6h-143q-8 0 -14.5 6t-6.5 14l-59 774q0 8 5.5 14t13.5 6h97q8 0 14 -6t7 -14l27 -569l37 569q0 8 6.5 14t14.5 6h128q8 0 14.5 -6
t6.5 -14l37 -569l27 569q1 8 7 14t14 6h97z" />
    <glyph glyph-name="Wacute" unicode="&#x1e82;" horiz-adv-x="574" 
d="M554 814q8 0 13.5 -6t5.5 -14l-59 -774q0 -8 -6.5 -14t-14.5 -6h-143q-8 0 -14.5 6t-6.5 14l-42 583l-42 -583q0 -8 -6.5 -14t-14.5 -6h-143q-8 0 -14.5 6t-6.5 14l-59 774q0 8 5.5 14t13.5 6h97q8 0 14 -6t7 -14l27 -569l37 569q0 8 6.5 14t14.5 6h128q8 0 14.5 -6
t6.5 -14l37 -569l27 569q1 8 7 14t14 6h97zM296 967q12 17 31 17h117q5 0 7 -4.5t-3 -8.5l-113 -92q-16 -13 -36 -13h-49q-7 0 -10 5.5t1 11.5z" />
    <glyph glyph-name="Wcircumflex" unicode="&#x174;" horiz-adv-x="574" 
d="M554 814q8 0 13.5 -6t5.5 -14l-59 -774q0 -8 -6.5 -14t-14.5 -6h-143q-8 0 -14.5 6t-6.5 14l-42 583l-42 -583q0 -8 -6.5 -14t-14.5 -6h-143q-8 0 -14.5 6t-6.5 14l-59 774q0 8 5.5 14t13.5 6h97q8 0 14 -6t7 -14l27 -569l37 569q0 8 6.5 14t14.5 6h128q8 0 14.5 -6
t6.5 -14l37 -569l27 569q1 8 7 14t14 6h97zM359 866q-20 0 -33 15l-36 42l-38 -42q-13 -15 -33 -15h-84q-6 0 -8.5 5t2.5 10l86 94q15 15 34 15h83q20 0 33 -15l80 -94q4 -5 1.5 -10t-8.5 -5h-79z" />
    <glyph glyph-name="Wdieresis" unicode="&#x1e84;" horiz-adv-x="574" 
d="M554 814q8 0 13.5 -6t5.5 -14l-59 -774q0 -8 -6.5 -14t-14.5 -6h-143q-8 0 -14.5 6t-6.5 14l-42 583l-42 -583q0 -8 -6.5 -14t-14.5 -6h-143q-8 0 -14.5 6t-6.5 14l-59 774q0 8 5.5 14t13.5 6h97q8 0 14 -6t7 -14l27 -569l37 569q0 8 6.5 14t14.5 6h128q8 0 14.5 -6
t6.5 -14l37 -569l27 569q1 8 7 14t14 6h97zM133 960q0 8 6 14t14 6h73q8 0 14 -6t6 -14v-74q0 -8 -6 -14t-14 -6h-73q-8 0 -14 6t-6 14v74zM324 960q0 8 6 14t14 6h75q8 0 14 -6t6 -14v-74q0 -8 -6 -14t-14 -6h-75q-8 0 -14 6t-6 14v74z" />
    <glyph glyph-name="Wgrave" unicode="&#x1e80;" horiz-adv-x="574" 
d="M554 814q8 0 13.5 -6t5.5 -14l-59 -774q0 -8 -6.5 -14t-14.5 -6h-143q-8 0 -14.5 6t-6.5 14l-42 583l-42 -583q0 -8 -6.5 -14t-14.5 -6h-143q-8 0 -14.5 6t-6.5 14l-59 774q0 8 5.5 14t13.5 6h97q8 0 14 -6t7 -14l27 -569l37 569q0 8 6.5 14t14.5 6h128q8 0 14.5 -6
t6.5 -14l37 -569l27 569q1 8 7 14t14 6h97zM301 866q-20 0 -36 13l-113 92q-5 4 -3 8.5t7 4.5h117q19 0 31 -17l55 -84q4 -6 1 -11.5t-10 -5.5h-49z" />
    <glyph glyph-name="X" unicode="X" horiz-adv-x="392" 
d="M356 814q8 0 13.5 -6t3.5 -14l-56 -373l67 -401q1 -8 -4 -14t-13 -6h-106q-8 0 -14.5 6t-8.5 14l-42 306l-42 -306q-2 -8 -8.5 -14t-14.5 -6h-106q-8 0 -13 6t-4 14l67 401l-57 373q-2 8 3.5 14t13.5 6h100q8 0 14.5 -6t8.5 -14l38 -279l38 279q2 8 8.5 14t14.5 6h99z
" />
    <glyph glyph-name="Y" unicode="Y" horiz-adv-x="357" 
d="M337 814q8 0 13 -6t3 -14l-103 -555v-219q0 -8 -6 -14t-14 -6h-102q-8 0 -14 6t-6 14v220l-104 554q-2 8 3 14t13 6h95q8 0 14.5 -6t7.5 -14l42 -346l42 346q1 8 7.5 14t14.5 6h94z" />
    <glyph glyph-name="Yacute" unicode="&#xdd;" horiz-adv-x="362" 
d="M337 814q8 0 13 -6t3 -14l-103 -555v-219q0 -8 -6 -14t-14 -6h-102q-8 0 -14 6t-6 14v220l-104 554q-2 8 3 14t13 6h95q8 0 14.5 -6t7.5 -14l42 -346l42 346q1 8 7.5 14t14.5 6h94zM194 967q12 17 31 17h117q5 0 7 -4.5t-3 -8.5l-113 -92q-16 -13 -36 -13h-49
q-7 0 -10 5.5t1 11.5z" />
    <glyph glyph-name="Ycircumflex" unicode="&#x176;" horiz-adv-x="357" 
d="M337 814q8 0 13 -6t3 -14l-103 -555v-219q0 -8 -6 -14t-14 -6h-102q-8 0 -14 6t-6 14v220l-104 554q-2 8 3 14t13 6h95q8 0 14.5 -6t7.5 -14l42 -346l42 346q1 8 7.5 14t14.5 6h94zM251 866q-20 0 -33 15l-36 42l-38 -42q-13 -15 -33 -15h-84q-6 0 -8.5 5t2.5 10l86 94
q15 15 34 15h83q20 0 33 -15l80 -94q4 -5 1.5 -10t-8.5 -5h-79z" />
    <glyph glyph-name="Ydieresis" unicode="&#x178;" horiz-adv-x="357" 
d="M337 814q8 0 13 -6t3 -14l-103 -555v-219q0 -8 -6 -14t-14 -6h-102q-8 0 -14 6t-6 14v220l-104 554q-2 8 3 14t13 6h95q8 0 14.5 -6t7.5 -14l42 -346l42 346q1 8 7.5 14t14.5 6h94zM25 960q0 8 6 14t14 6h73q8 0 14 -6t6 -14v-74q0 -8 -6 -14t-14 -6h-73q-8 0 -14 6
t-6 14v74zM216 960q0 8 6 14t14 6h75q8 0 14 -6t6 -14v-74q0 -8 -6 -14t-14 -6h-75q-8 0 -14 6t-6 14v74z" />
    <glyph glyph-name="Ygrave" unicode="&#x1ef2;" horiz-adv-x="357" 
d="M337 814q8 0 13 -6t3 -14l-103 -555v-219q0 -8 -6 -14t-14 -6h-102q-8 0 -14 6t-6 14v220l-104 554q-2 8 3 14t13 6h95q8 0 14.5 -6t7.5 -14l42 -346l42 346q1 8 7.5 14t14.5 6h94zM189 866q-20 0 -36 13l-113 92q-5 4 -3 8.5t7 4.5h117q19 0 31 -17l55 -84q4 -6 1 -11.5
t-10 -5.5h-49z" />
    <glyph glyph-name="Z" unicode="Z" horiz-adv-x="304" 
d="M35 0q-8 0 -14 6t-6 14v72q0 8 1 20t3 20l132 582h-111q-8 0 -14 6t-6 14v60q0 8 6 14t14 6h229q8 0 14 -6t6 -14v-71q0 -8 -1 -20t-3 -20l-132 -583h116q8 0 14 -6t6 -14v-60q0 -8 -6 -14t-14 -6h-234z" />
    <glyph glyph-name="Zacute" unicode="&#x179;" horiz-adv-x="304" 
d="M35 0q-8 0 -14 6t-6 14v72q0 8 1 20t3 20l132 582h-111q-8 0 -14 6t-6 14v60q0 8 6 14t14 6h229q8 0 14 -6t6 -14v-71q0 -8 -1 -20t-3 -20l-132 -583h116q8 0 14 -6t6 -14v-60q0 -8 -6 -14t-14 -6h-234zM157 967q12 17 31 17h117q5 0 7 -4.5t-3 -8.5l-113 -92
q-16 -13 -36 -13h-49q-7 0 -10 5.5t1 11.5z" />
    <glyph glyph-name="Zcaron" unicode="&#x17d;" horiz-adv-x="304" 
d="M35 0q-8 0 -14 6t-6 14v72q0 8 1 20t3 20l132 582h-111q-8 0 -14 6t-6 14v60q0 8 6 14t14 6h229q8 0 14 -6t6 -14v-71q0 -8 -1 -20t-3 -20l-132 -583h116q8 0 14 -6t6 -14v-60q0 -8 -6 -14t-14 -6h-234zM84 990q20 0 33 -15l38 -43l36 43q13 15 33 15h79q6 0 8.5 -5
t-1.5 -10l-80 -94q-13 -15 -33 -15h-83q-19 0 -34 15l-86 94q-5 5 -2.5 10t8.5 5h84z" />
    <glyph glyph-name="Zdotaccent" unicode="&#x17b;" horiz-adv-x="304" 
d="M35 0q-8 0 -14 6t-6 14v72q0 8 1 20t3 20l132 582h-111q-8 0 -14 6t-6 14v60q0 8 6 14t14 6h229q8 0 14 -6t6 -14v-71q0 -8 -1 -20t-3 -20l-132 -583h116q8 0 14 -6t6 -14v-60q0 -8 -6 -14t-14 -6h-234zM96 960q0 8 6 14t14 6h72q8 0 14 -6t6 -14v-74q0 -8 -6 -14t-14 -6
h-72q-8 0 -14 6t-6 14v74z" />
    <glyph glyph-name="a" unicode="a" horiz-adv-x="350" 
d="M325 20q0 -8 -6 -14t-14 -6h-80q-19 0 -29 18l-1 3q-16 -16 -38.5 -23t-39.5 -7q-21 0 -38.5 5t-30.5 18.5t-20.5 37t-7.5 61.5v152q0 40 14 63.5t37.5 36.5t55 19t66.5 11v140q0 12 -6.5 18.5t-14.5 6.5t-14 -6.5t-6 -18.5v-82q0 -8 -6 -14t-14 -6h-86q-8 0 -14 6t-6 14
v71q0 70 26.5 99.5t88.5 29.5h76q59 0 83.5 -28.5t24.5 -100.5v-504zM193 303q-19 -1 -30 -7t-11 -19v-161q0 -13 6 -19.5t14 -6.5t14.5 6.5t6.5 19.5v187z" />
    <glyph glyph-name="aacute" unicode="&#xe1;" horiz-adv-x="350" 
d="M325 20q0 -8 -6 -14t-14 -6h-80q-19 0 -29 18l-1 3q-16 -16 -38.5 -23t-39.5 -7q-21 0 -38.5 5t-30.5 18.5t-20.5 37t-7.5 61.5v152q0 40 14 63.5t37.5 36.5t55 19t66.5 11v140q0 12 -6.5 18.5t-14.5 6.5t-14 -6.5t-6 -18.5v-82q0 -8 -6 -14t-14 -6h-86q-8 0 -14 6t-6 14
v71q0 70 26.5 99.5t88.5 29.5h76q59 0 83.5 -28.5t24.5 -100.5v-504zM193 303q-19 -1 -30 -7t-11 -19v-161q0 -13 6 -19.5t14 -6.5t14.5 6.5t6.5 19.5v187zM174 801q12 17 31 17h117q5 0 7 -4.5t-3 -8.5l-113 -92q-16 -13 -36 -13h-49q-7 0 -10 5.5t1 11.5z" />
    <glyph glyph-name="abreve" unicode="&#x103;" horiz-adv-x="350" 
d="M325 20q0 -8 -6 -14t-14 -6h-80q-19 0 -29 18l-1 3q-16 -16 -38.5 -23t-39.5 -7q-21 0 -38.5 5t-30.5 18.5t-20.5 37t-7.5 61.5v152q0 40 14 63.5t37.5 36.5t55 19t66.5 11v140q0 12 -6.5 18.5t-14.5 6.5t-14 -6.5t-6 -18.5v-82q0 -8 -6 -14t-14 -6h-86q-8 0 -14 6t-6 14
v71q0 70 26.5 99.5t88.5 29.5h76q59 0 83.5 -28.5t24.5 -100.5v-504zM193 303q-19 -1 -30 -7t-11 -19v-161q0 -13 6 -19.5t14 -6.5t14.5 6.5t6.5 19.5v187zM174 700q-51 0 -82.5 28t-39.5 85q-1 8 4 14t13 6h34q20 0 25 -20q5 -18 14.5 -29.5t31.5 -11.5t32 11.5t15 29.5
q5 20 26 20h33q8 0 13 -6t4 -14q-8 -57 -40 -85t-83 -28z" />
    <glyph glyph-name="acircumflex" unicode="&#xe2;" horiz-adv-x="350" 
d="M325 20q0 -8 -6 -14t-14 -6h-80q-19 0 -29 18l-1 3q-16 -16 -38.5 -23t-39.5 -7q-21 0 -38.5 5t-30.5 18.5t-20.5 37t-7.5 61.5v152q0 40 14 63.5t37.5 36.5t55 19t66.5 11v140q0 12 -6.5 18.5t-14.5 6.5t-14 -6.5t-6 -18.5v-82q0 -8 -6 -14t-14 -6h-86q-8 0 -14 6t-6 14
v71q0 70 26.5 99.5t88.5 29.5h76q59 0 83.5 -28.5t24.5 -100.5v-504zM193 303q-19 -1 -30 -7t-11 -19v-161q0 -13 6 -19.5t14 -6.5t14.5 6.5t6.5 19.5v187zM247 700q-20 0 -33 15l-36 42l-38 -42q-13 -15 -33 -15h-84q-6 0 -8.5 5t2.5 10l86 94q15 15 34 15h83q20 0 33 -15
l80 -94q4 -5 1.5 -10t-8.5 -5h-79z" />
    <glyph glyph-name="acute" unicode="&#xb4;" horiz-adv-x="300" 
d="M133 801q12 17 31 17h117q5 0 7 -4.5t-3 -8.5l-113 -92q-16 -13 -36 -13h-49q-7 0 -10 5.5t1 11.5z" />
    <glyph glyph-name="adieresis" unicode="&#xe4;" horiz-adv-x="350" 
d="M325 20q0 -8 -6 -14t-14 -6h-80q-19 0 -29 18l-1 3q-16 -16 -38.5 -23t-39.5 -7q-21 0 -38.5 5t-30.5 18.5t-20.5 37t-7.5 61.5v152q0 40 14 63.5t37.5 36.5t55 19t66.5 11v140q0 12 -6.5 18.5t-14.5 6.5t-14 -6.5t-6 -18.5v-82q0 -8 -6 -14t-14 -6h-86q-8 0 -14 6t-6 14
v71q0 70 26.5 99.5t88.5 29.5h76q59 0 83.5 -28.5t24.5 -100.5v-504zM193 303q-19 -1 -30 -7t-11 -19v-161q0 -13 6 -19.5t14 -6.5t14.5 6.5t6.5 19.5v187zM22 794q0 8 6 14t14 6h73q8 0 14 -6t6 -14v-74q0 -8 -6 -14t-14 -6h-73q-8 0 -14 6t-6 14v74zM213 794q0 8 6 14
t14 6h75q8 0 14 -6t6 -14v-74q0 -8 -6 -14t-14 -6h-75q-8 0 -14 6t-6 14v74z" />
    <glyph glyph-name="ae" unicode="&#xe6;" horiz-adv-x="518" 
d="M345 90q8 0 14.5 6.5t6.5 19.5v105q0 8 6 14t14 6h87q8 0 14 -6t6 -14v-94q0 -73 -24 -101.5t-83 -28.5h-71q-36 0 -61 11t-39 40q-9 -18 -22 -29t-27 -17.5t-27 -8.5t-22 -2q-21 0 -38.5 5t-30.5 18.5t-20.5 37t-7.5 61.5v152q0 40 14 63.5t37.5 36.5t55 19t66.5 11v140
q0 12 -6.5 18.5t-14.5 6.5t-14 -6.5t-6 -18.5v-82q0 -8 -6 -14t-14 -6h-86q-8 0 -14 6t-6 14v71q0 70 26.5 99.5t88.5 29.5h76q13 0 24 -4t20 -21q10 17 21 21t25 4h65q62 0 91.5 -29.5t29.5 -99.5v-206q0 -8 -6 -14t-14 -6h-148v-182q0 -13 6 -19.5t14 -6.5zM193 311
q-19 -3 -30 -12t-11 -22v-161q0 -13 6 -19.5t14 -6.5t14.5 6.5t6.5 19.5v195zM325 381h41v154q0 12 -6 18.5t-14 6.5q-19 0 -21 -22v-157z" />
    <glyph glyph-name="agrave" unicode="&#xe0;" horiz-adv-x="350" 
d="M325 20q0 -8 -6 -14t-14 -6h-80q-19 0 -29 18l-1 3q-16 -16 -38.5 -23t-39.5 -7q-21 0 -38.5 5t-30.5 18.5t-20.5 37t-7.5 61.5v152q0 40 14 63.5t37.5 36.5t55 19t66.5 11v140q0 12 -6.5 18.5t-14.5 6.5t-14 -6.5t-6 -18.5v-82q0 -8 -6 -14t-14 -6h-86q-8 0 -14 6t-6 14
v71q0 70 26.5 99.5t88.5 29.5h76q59 0 83.5 -28.5t24.5 -100.5v-504zM193 303q-19 -1 -30 -7t-11 -19v-161q0 -13 6 -19.5t14 -6.5t14.5 6.5t6.5 19.5v187zM183 700q-20 0 -36 13l-113 92q-5 4 -3 8.5t7 4.5h117q19 0 31 -17l55 -84q4 -6 1 -11.5t-10 -5.5h-49z" />
    <glyph glyph-name="amacron" unicode="&#x101;" horiz-adv-x="350" 
d="M325 20q0 -8 -6 -14t-14 -6h-80q-19 0 -29 18l-1 3q-16 -16 -38.5 -23t-39.5 -7q-21 0 -38.5 5t-30.5 18.5t-20.5 37t-7.5 61.5v152q0 40 14 63.5t37.5 36.5t55 19t66.5 11v140q0 12 -6.5 18.5t-14.5 6.5t-14 -6.5t-6 -18.5v-82q0 -8 -6 -14t-14 -6h-86q-8 0 -14 6t-6 14
v71q0 70 26.5 99.5t88.5 29.5h76q59 0 83.5 -28.5t24.5 -100.5v-504zM193 303q-19 -1 -30 -7t-11 -19v-161q0 -13 6 -19.5t14 -6.5t14.5 6.5t6.5 19.5v187zM0 755q0 8 6 14t14 6h310q8 0 14 -6t6 -14v-35q0 -8 -6 -14t-14 -6h-310q-8 0 -14 6t-6 14v35z" />
    <glyph glyph-name="ampersand" unicode="&#x26;" horiz-adv-x="370" 
d="M222 600q-8 0 -14 6t-6 14v70q0 13 -7 19.5t-15 6.5t-15 -6.5t-7 -19.5v-191q0 -11 6.5 -18t14.5 -7h161q8 0 14 -6t6 -14v-67q0 -8 -6 -14t-14 -6h-5v-241q0 -71 -29.5 -100.5t-91.5 -29.5h-68q-62 0 -91.5 29.5t-29.5 100.5v169q0 61 18.5 90.5t60.5 36.5
q-42 8 -60.5 37t-18.5 91v140q0 71 29.5 100.5t91.5 29.5h68q62 0 91.5 -29.5t29.5 -100.5v-70q0 -8 -6 -14t-14 -6h-93zM181 368q-8 0 -15.5 -6.5t-7.5 -18.5v-217q0 -13 7 -19.5t15 -6.5t15 6.5t7 19.5v242h-21z" />
    <glyph glyph-name="aogonek" unicode="&#x105;" horiz-adv-x="350" 
d="M265 -87q16 0 31 5q19 5 27 -14l3 -6q3 -8 0 -15.5t-11 -10.5q-11 -5 -25 -8.5t-33 -3.5q-42 0 -65 19.5t-23 49.5q0 22 10.5 38.5t26.5 32.5l-11 21q-16 -16 -38.5 -23t-39.5 -7q-21 0 -38.5 5t-30.5 18.5t-20.5 37t-7.5 61.5v152q0 40 14 63.5t37.5 36.5t55 19t66.5 11
v140q0 12 -6.5 18.5t-14.5 6.5t-14 -6.5t-6 -18.5v-82q0 -8 -6 -14t-14 -6h-86q-8 0 -14 6t-6 14v71q0 70 26.5 99.5t88.5 29.5h76q59 0 83.5 -28.5t24.5 -100.5v-504q0 -8 -6 -14t-14 -6h-35q-17 -17 -27 -31t-10 -28q0 -28 32 -28zM193 303q-19 -1 -30 -7t-11 -19v-161
q0 -13 6 -19.5t14 -6.5t14.5 6.5t6.5 19.5v187z" />
    <glyph glyph-name="apple" unicode="&#xf8ff;" horiz-adv-x="1005" 
d="M607 20q-2 -9 -9 -14.5t-15 -5.5h-161q-8 0 -15 5.5t-9 14.5l-92 463q-2 9 1 18.5t9 15.5l172 169q14 14 28 0l174 -169q13 -15 10 -34zM348 20q2 -8 -3 -14t-13 -6h-131q-9 0 -18 4t-14 12l-107 139q-11 16 -3 34l67 127q4 8 11.5 10.5t15.5 -1.5l131 -64q19 -10 22 -29
zM837 16q-5 -8 -14 -12t-18 -4h-131q-8 0 -13 6t-3 14l42 212q3 19 22 29l130 64q8 4 15.5 1.5t11.5 -10.5l67 -127q8 -18 -3 -34z" />
    <glyph glyph-name="aring" unicode="&#xe5;" horiz-adv-x="350" 
d="M325 20q0 -8 -6 -14t-14 -6h-80q-19 0 -29 18l-1 3q-16 -16 -38.5 -23t-39.5 -7q-21 0 -38.5 5t-30.5 18.5t-20.5 37t-7.5 61.5v152q0 40 14 63.5t37.5 36.5t55 19t66.5 11v140q0 12 -6.5 18.5t-14.5 6.5t-14 -6.5t-6 -18.5v-82q0 -8 -6 -14t-14 -6h-86q-8 0 -14 6t-6 14
v71q0 70 26.5 99.5t88.5 29.5h76q59 0 83.5 -28.5t24.5 -100.5v-504zM193 303q-19 -1 -30 -7t-11 -19v-161q0 -13 6 -19.5t14 -6.5t14.5 6.5t6.5 19.5v187zM82 792q0 19 7 36t19.5 29.5t29.5 19.5t36 7q39 0 66 -26.5t27 -65.5q0 -19 -7.5 -36t-20 -29.5t-29.5 -19.5t-36 -7
t-36 7t-29.5 19.5t-19.5 29.5t-7 36zM210 791q0 14 -11 25t-26 11q-14 0 -25 -10.5t-11 -25.5q0 -16 11 -26.5t25 -10.5q15 0 26 11t11 26z" />
    <glyph glyph-name="asciicircum" unicode="^" horiz-adv-x="356" 
d="M136 786q14 14 34 14h16q20 0 34 -14l117 -117q6 -6 6 -14t-6 -14l-35 -35q-6 -6 -14 -6t-14 6l-96 96l-96 -96q-6 -6 -14 -6t-14 6l-35 35q-6 6 -6 14t6 14z" />
    <glyph glyph-name="asciitilde" unicode="~" horiz-adv-x="381" 
d="M210 715q12 -5 24 -9t23 -4q26 0 40 22q10 16 26 5l38 -27q6 -5 8 -13.5t-3 -15.5q-19 -32 -43.5 -47t-50.5 -15q-13 0 -30.5 4t-34.5 11l-32 13q-11 5 -23.5 9t-23.5 4q-14 0 -24.5 -7.5t-19.5 -19.5q-12 -17 -28 -5l-35 23q-7 5 -8.5 13t3.5 15q21 32 45 50t56 18
q19 0 35 -4.5t31 -9.5l27 -10v0z" />
    <glyph glyph-name="asterisk" unicode="*" horiz-adv-x="253" 
d="M100 794q0 8 6 14t14 6h15q8 0 14 -6t6 -14v-51l46 16q19 5 26 -13l6 -14q3 -8 0 -15.5t-11 -11.5l-47 -19l29 -42q5 -7 4 -15t-8 -13l-12 -9q-7 -5 -15 -4t-13 8l-33 43l-31 -43q-5 -7 -13 -8t-15 4l-14 9q-15 12 -5 29l30 43l-47 18q-8 3 -11.5 10.5t-0.5 15.5l5 14
q3 8 10.5 11.5t15.5 1.5l49 -16v51z" />
    <glyph glyph-name="at" unicode="@" horiz-adv-x="846" 
d="M15 408q0 90 34.5 165t91 128.5t127.5 83.5t144 30q93 0 170 -33t132.5 -89t86 -129.5t30.5 -155.5q0 -85 -32 -159t-87.5 -129.5t-130 -87.5t-158.5 -32q-85 0 -159 32t-129.5 87.5t-87.5 129.5t-32 159zM729 408q0 67 -26 123t-68.5 96.5t-96 63t-108.5 22.5
q-70 0 -127.5 -25t-98.5 -67t-63.5 -97t-22.5 -116q0 -64 23.5 -119.5t65 -97t97 -65.5t119.5 -24q63 0 118.5 24t97.5 65.5t66 97t24 119.5zM368 173q-21 0 -38.5 5t-30 18.5t-20 37.5t-7.5 62v219q0 37 7.5 61t20 37.5t30 18.5t38.5 5q17 0 38.5 -8t37.5 -24v3q0 8 6 14
t14 6h92q8 0 14 -6t6 -14v-409q0 -8 -6 -14t-14 -6h-81q-20 0 -28 18l-3 8q-16 -16 -37.5 -24t-38.5 -8zM423 273q8 0 14.5 6t6.5 19v214q0 13 -6.5 19.5t-14.5 6.5t-14 -6.5t-6 -19.5v-214q0 -13 6 -19t14 -6z" />
    <glyph glyph-name="atilde" unicode="&#xe3;" horiz-adv-x="350" 
d="M325 20q0 -8 -6 -14t-14 -6h-80q-19 0 -29 18l-1 3q-16 -16 -38.5 -23t-39.5 -7q-21 0 -38.5 5t-30.5 18.5t-20.5 37t-7.5 61.5v152q0 40 14 63.5t37.5 36.5t55 19t66.5 11v140q0 12 -6.5 18.5t-14.5 6.5t-14 -6.5t-6 -18.5v-82q0 -8 -6 -14t-14 -6h-86q-8 0 -14 6t-6 14
v71q0 70 26.5 99.5t88.5 29.5h76q59 0 83.5 -28.5t24.5 -100.5v-504zM193 303q-19 -1 -30 -7t-11 -19v-161q0 -13 6 -19.5t14 -6.5t14.5 6.5t6.5 19.5v187zM194 807q12 -5 24 -9t23 -4q26 0 40 22q10 16 26 5l38 -27q6 -5 8 -13.5t-3 -15.5q-19 -32 -43.5 -47t-50.5 -15
q-13 0 -30.5 4t-34.5 11l-32 13q-11 5 -23.5 9t-23.5 4q-14 0 -24.5 -7.5t-19.5 -19.5q-12 -17 -28 -5l-35 23q-7 5 -8.5 13t3.5 15q21 32 45 50t56 18q19 0 35 -4.5t31 -9.5z" />
    <glyph glyph-name="b" unicode="b" 
d="M232 657q21 0 38.5 -5t30.5 -18.5t20.5 -37.5t7.5 -61v-418q0 -38 -7.5 -62t-20.5 -37.5t-30.5 -18.5t-38.5 -5q-17 0 -38.5 8t-37.5 24l-3 -8q-8 -18 -28 -18h-80q-8 0 -14 6t-6 14v774q0 8 6 14t14 6h91q8 0 14 -6t6 -14v-169q16 16 37.5 24t38.5 8zM177 558
q-8 0 -14.5 -6.5t-6.5 -19.5v-413q0 -13 6.5 -19t14.5 -6t14 6t6 19v413q0 13 -6 19.5t-14 6.5z" />
    <glyph glyph-name="backslash" unicode="\" horiz-adv-x="349" 
d="M6 810q-2 7 2.5 13t12.5 6h73q20 0 25 -19l224 -805q2 -7 -2.5 -13t-12.5 -6h-74q-20 0 -25 19z" />
    <glyph glyph-name="bar" unicode="|" horiz-adv-x="202" 
d="M50 -150q-8 0 -14 6t-6 14v924q0 8 6 14t14 6h102q8 0 14 -6t6 -14v-924q0 -8 -6 -14t-14 -6h-102z" />
    <glyph glyph-name="braceleft" unicode="{" horiz-adv-x="271" 
d="M215 711q-10 0 -16.5 -6.5t-6.5 -18.5v-136q0 -62 -18.5 -91t-60.5 -37q42 -7 60.5 -36.5t18.5 -90.5v-167q0 -12 6.5 -18.5t16.5 -6.5h22q8 0 13.5 -5.5t5.5 -13.5v-64q0 -8 -6 -14t-14 -6h-53q-60 0 -86.5 28.5t-26.5 100.5v214q0 12 -7.5 18.5t-15.5 6.5h-17
q-6 0 -10.5 4.5t-4.5 10.5v76q0 6 4.5 10.5t11.5 4.5h17q8 0 14.5 7t7.5 18v186q0 72 26.5 100.5t86.5 28.5h52q8 0 14 -6t6 -14v-64q0 -8 -5.5 -13.5t-13.5 -5.5h-21v0z" />
    <glyph glyph-name="braceright" unicode="}" horiz-adv-x="271" 
d="M158 422q-42 8 -60.5 37t-18.5 91v136q0 12 -6.5 18.5t-16.5 6.5h-21q-8 0 -13.5 5.5t-5.5 13.5v64q0 8 6 14t14 6h52q60 0 86.5 -28.5t26.5 -100.5v-186q1 -11 7.5 -18t14.5 -7h18q6 0 10.5 -4.5t4.5 -10.5v-76q0 -6 -4.5 -10.5t-10.5 -4.5h-17q-8 0 -15.5 -6.5
t-7.5 -18.5v-214q0 -72 -26.5 -100.5t-86.5 -28.5h-53q-8 0 -14 6t-6 14v64q0 8 6 13.5t14 5.5h21q10 0 16.5 6.5t6.5 18.5v167q0 61 18.5 90.5t60.5 36.5z" />
    <glyph glyph-name="bracketleft" unicode="[" horiz-adv-x="225" 
d="M45 0q-8 0 -14 6t-6 14v774q0 8 6 14t14 6h145q8 0 14 -6t6 -14v-70q0 -8 -6 -14t-14 -6h-43v-594h43q8 0 14 -6t6 -14v-70q0 -8 -6 -14t-14 -6h-145z" />
    <glyph glyph-name="bracketright" unicode="]" horiz-adv-x="225" 
d="M180 814q8 0 14 -6t6 -14v-774q0 -8 -6 -14t-14 -6h-145q-8 0 -14 6t-6 14v70q0 8 6 14t14 6h43v594h-43q-8 0 -14 6t-6 14v70q0 8 6 14t14 6h145z" />
    <glyph glyph-name="breve" unicode="&#x2d8;" horiz-adv-x="300" 
d="M149 700q-51 0 -82.5 28t-39.5 85q-1 8 4 14t13 6h34q20 0 25 -20q5 -18 14.5 -29.5t31.5 -11.5t32 11.5t15 29.5q5 20 26 20h33q8 0 13 -6t4 -14q-8 -57 -40 -85t-83 -28z" />
    <glyph glyph-name="brokenbar" unicode="&#xa6;" horiz-adv-x="202" 
d="M50 -150q-8 0 -14 6t-6 14v325q0 8 6 14t14 6h102q8 0 14 -6t6 -14v-325q0 -8 -6 -14t-14 -6h-102zM152 814q8 0 14 -6t6 -14v-323q0 -8 -6 -14t-14 -6h-102q-8 0 -14 6t-6 14v323q0 8 6 14t14 6h102z" />
    <glyph glyph-name="bullet" unicode="&#x2022;" horiz-adv-x="270" 
d="M135 549q24 0 44 -9.5t35 -24.5t23 -34.5t8 -38.5q0 -25 -9 -45.5t-24 -35.5t-35 -23.5t-42 -8.5q-23 0 -43 8.5t-35 23t-23.5 34.5t-8.5 43t8.5 43t23.5 35t35 24t43 9z" />
    <glyph glyph-name="c" unicode="c" horiz-adv-x="344" 
d="M176 90q8 0 14.5 6.5t6.5 19.5v105q0 8 6 14t14 6h87q8 0 14 -6t6 -14v-94q0 -73 -24 -101.5t-83 -28.5h-72q-62 0 -91 29.5t-29 100.5v397q0 72 26 100.5t86 28.5h71q63 0 89.5 -29.5t26.5 -99.5v-75q0 -8 -6 -14t-14 -6h-87q-8 0 -14 6t-6 14v86q0 12 -6 18.5t-14 6.5
t-14.5 -6.5t-6.5 -18.5v-419q0 -13 6 -19.5t14 -6.5z" />
    <glyph glyph-name="cacute" unicode="&#x107;" horiz-adv-x="344" 
d="M176 90q8 0 14.5 6.5t6.5 19.5v105q0 8 6 14t14 6h87q8 0 14 -6t6 -14v-94q0 -73 -24 -101.5t-83 -28.5h-72q-62 0 -91 29.5t-29 100.5v397q0 72 26 100.5t86 28.5h71q63 0 89.5 -29.5t26.5 -99.5v-75q0 -8 -6 -14t-14 -6h-87q-8 0 -14 6t-6 14v86q0 12 -6 18.5t-14 6.5
t-14.5 -6.5t-6.5 -18.5v-419q0 -13 6 -19.5t14 -6.5zM179 801q12 17 31 17h117q5 0 7 -4.5t-3 -8.5l-113 -92q-16 -13 -36 -13h-49q-7 0 -10 5.5t1 11.5z" />
    <glyph glyph-name="caron" unicode="&#x2c7;" horiz-adv-x="300" 
d="M82 824q20 0 33 -15l38 -43l36 43q13 15 33 15h79q6 0 8.5 -5t-1.5 -10l-80 -94q-13 -15 -33 -15h-83q-19 0 -34 15l-86 94q-5 5 -2.5 10t8.5 5h84z" />
    <glyph glyph-name="ccaron" unicode="&#x10d;" horiz-adv-x="344" 
d="M176 90q8 0 14.5 6.5t6.5 19.5v105q0 8 6 14t14 6h87q8 0 14 -6t6 -14v-94q0 -73 -24 -101.5t-83 -28.5h-72q-62 0 -91 29.5t-29 100.5v397q0 72 26 100.5t86 28.5h71q63 0 89.5 -29.5t26.5 -99.5v-75q0 -8 -6 -14t-14 -6h-87q-8 0 -14 6t-6 14v86q0 12 -6 18.5t-14 6.5
t-14.5 -6.5t-6.5 -18.5v-419q0 -13 6 -19.5t14 -6.5zM104 824q20 0 33 -15l38 -43l36 43q13 15 33 15h79q6 0 8.5 -5t-1.5 -10l-80 -94q-13 -15 -33 -15h-83q-19 0 -34 15l-86 94q-5 5 -2.5 10t8.5 5h84z" />
    <glyph glyph-name="ccedilla" unicode="&#xe7;" horiz-adv-x="344" 
d="M196 -103q0 14 -10.5 21.5t-27.5 7.5h-6q-5 0 -5 4l-1 67q-63 0 -92 29.5t-29 100.5v397q0 72 26 100.5t86 28.5h71q63 0 89.5 -29.5t26.5 -99.5v-75q0 -8 -6 -14t-14 -6h-87q-8 0 -14 6t-6 14v86q0 12 -6 18.5t-14 6.5t-14.5 -6.5t-6.5 -18.5v-419q0 -13 6 -19.5
t14 -6.5t14.5 6.5t6.5 19.5v105q0 8 6 14t14 6h87q8 0 14 -6t6 -14v-94q0 -73 -24 -101.5t-83 -28.5h-18v-37q30 -2 46.5 -18t16.5 -40q0 -16 -7 -31t-19.5 -26t-29.5 -18t-37 -7q-25 0 -46.5 12.5t-33.5 37.5q-3 6 1 12.5t11 6.5h28q9 0 13.5 -2t12.5 -10q6 -6 16 -6
q25 0 25 26z" />
    <glyph glyph-name="ccircumflex" unicode="&#x109;" horiz-adv-x="344" 
d="M176 90q8 0 14.5 6.5t6.5 19.5v105q0 8 6 14t14 6h87q8 0 14 -6t6 -14v-94q0 -73 -24 -101.5t-83 -28.5h-72q-62 0 -91 29.5t-29 100.5v397q0 72 26 100.5t86 28.5h71q63 0 89.5 -29.5t26.5 -99.5v-75q0 -8 -6 -14t-14 -6h-87q-8 0 -14 6t-6 14v86q0 12 -6 18.5t-14 6.5
t-14.5 -6.5t-6.5 -18.5v-419q0 -13 6 -19.5t14 -6.5zM244 700q-20 0 -33 15l-36 42l-38 -42q-13 -15 -33 -15h-84q-6 0 -8.5 5t2.5 10l86 94q15 15 34 15h83q20 0 33 -15l80 -94q4 -5 1.5 -10t-8.5 -5h-79z" />
    <glyph glyph-name="cdotaccent" unicode="&#x10b;" horiz-adv-x="344" 
d="M176 90q8 0 14.5 6.5t6.5 19.5v105q0 8 6 14t14 6h87q8 0 14 -6t6 -14v-94q0 -73 -24 -101.5t-83 -28.5h-72q-62 0 -91 29.5t-29 100.5v397q0 72 26 100.5t86 28.5h71q63 0 89.5 -29.5t26.5 -99.5v-75q0 -8 -6 -14t-14 -6h-87q-8 0 -14 6t-6 14v86q0 12 -6 18.5t-14 6.5
t-14.5 -6.5t-6.5 -18.5v-419q0 -13 6 -19.5t14 -6.5zM116 794q0 8 6 14t14 6h72q8 0 14 -6t6 -14v-74q0 -8 -6 -14t-14 -6h-72q-8 0 -14 6t-6 14v74z" />
    <glyph glyph-name="cedilla" unicode="&#xb8;" horiz-adv-x="300" 
d="M163 -113q0 14 -10.5 21.5t-27.5 7.5h-6q-5 0 -5 4v65q0 8 6 14t14 6h12q8 0 14 -6t6 -14v-35q30 -2 46.5 -18t16.5 -40q0 -16 -7 -31t-19.5 -26t-29.5 -18t-37 -7q-25 0 -46.5 12.5t-33.5 37.5q-3 6 1 12.5t11 6.5h28q9 0 13.5 -2t12.5 -10q6 -6 16 -6q25 0 25 26z" />
    <glyph glyph-name="cent" unicode="&#xa2;" horiz-adv-x="344" 
d="M176 171q8 0 14.5 6.5t6.5 19.5v105q0 8 6 14t14 6h87q8 0 14 -6t6 -14v-94q0 -36 -5.5 -60.5t-17.5 -40t-32 -22.5t-49 -7v-58q0 -8 -6 -14t-14 -6h-51q-8 0 -14 6t-6 14v58q-54 4 -79 34t-25 96v397q0 69 24 98t80 31v60q0 8 6 14t14 6h51q8 0 14 -6t6 -14v-61
q56 -2 80 -32t24 -96v-75q0 -8 -6 -14t-14 -6h-87q-8 0 -14 6t-6 14v86q0 12 -6 18.5t-14 6.5t-14.5 -6.5t-6.5 -18.5v-419q0 -13 6 -19.5t14 -6.5z" />
    <glyph glyph-name="circumflex" unicode="&#x2c6;" horiz-adv-x="300" 
d="M222 700q-20 0 -33 15l-36 42l-38 -42q-13 -15 -33 -15h-84q-6 0 -8.5 5t2.5 10l86 94q15 15 34 15h83q20 0 33 -15l80 -94q4 -5 1.5 -10t-8.5 -5h-79z" />
    <glyph glyph-name="colon" unicode=":" horiz-adv-x="171" 
d="M131 121q8 0 14 -6t6 -14v-81q0 -8 -6 -14t-14 -6h-91q-8 0 -14 6t-6 14v81q0 8 6 14t14 6h91zM131 471q8 0 14 -6t6 -14v-81q0 -8 -6 -14t-14 -6h-91q-8 0 -14 6t-6 14v81q0 8 6 14t14 6h91z" />
    <glyph glyph-name="comma" unicode="," horiz-adv-x="161" 
d="M126 121q8 0 14 -6t6 -14v-81q0 -19 -12 -36l-87 -108q-2 -3 -5 -1.5t-2 4.5l30 121h-35q-8 0 -14 6t-6 14v81q0 8 6 14t14 6h91z" />
    <glyph glyph-name="commaaccent" unicode="&#xf6c3;" horiz-adv-x="181" 
d="M136 -70q8 0 14 -6t6 -14v-81q0 -19 -12 -36l-87 -108q-2 -3 -5 -1.5t-2 4.5l30 121h-35q-8 0 -14 6t-6 14v81q0 8 6 14t14 6h91z" />
    <glyph glyph-name="copyright" unicode="&#xa9;" horiz-adv-x="846" 
d="M15 408q0 90 34.5 165t91 128.5t127.5 83.5t144 30q93 0 170 -33t132.5 -89t86 -129.5t30.5 -155.5q0 -85 -32 -159t-87.5 -129.5t-130 -87.5t-158.5 -32q-85 0 -159 32t-129.5 87.5t-87.5 129.5t-32 159zM729 408q0 67 -26 123t-68.5 96.5t-96 63t-108.5 22.5
q-70 0 -127.5 -25t-98.5 -67t-63.5 -97t-22.5 -116q0 -64 23.5 -119.5t65 -97t97 -65.5t119.5 -24q63 0 118.5 24t97.5 65.5t66 97t24 119.5zM424 260q8 0 14.5 6.5t6.5 19.5v45q0 8 6 14t14 6h87q8 0 14 -6t6 -14v-34q0 -73 -24 -101.5t-83 -28.5h-72q-62 0 -91 29.5
t-29 100.5v217q0 72 26 100.5t86 28.5h71q63 0 89.5 -29.5t26.5 -99.5v-18q0 -7 -5 -12t-11 -5h-91q-8 0 -14 6t-6 14v26q0 12 -6 18.5t-14 6.5t-14.5 -6.5t-6.5 -18.5v-239q0 -13 6 -19.5t14 -6.5z" />
    <glyph glyph-name="currency" unicode="&#xa4;" horiz-adv-x="370" 
d="M20 447q-8 0 -14 6t-6 14v10q0 8 6 14t14 6h5v198q0 73 26 101.5t86 28.5h92q63 0 92 -29.5t29 -100.5v-125q0 -8 -6 -14t-14 -6h-97q-8 0 -14 6t-6 14v125q0 13 -7 19.5t-15 6.5t-16 -6.5t-8 -19.5v-198h160q8 0 14 -6t6 -14v-10q0 -8 -6 -14t-14 -6h-160v-52h160
q8 0 14 -6t6 -14v-10q0 -8 -6 -14t-14 -6h-160v-224q0 -12 7.5 -18.5t15.5 -6.5t15.5 6.5t7.5 18.5v154q0 8 6 14t14 6h97q8 0 14 -6t6 -14v-154q0 -73 -26 -101.5t-86 -28.5h-93q-62 0 -91 30t-29 100v224h-5q-8 0 -14 6t-6 14v10q0 8 6 14t14 6h5v52h-5z" />
    <glyph glyph-name="d" unicode="d" 
d="M121 -6q-21 0 -38.5 5t-30 18.5t-20 37.5t-7.5 62v418q0 37 7.5 61t20 37.5t30 18.5t38.5 5q17 0 38.5 -8t37.5 -24v169q0 8 6 14t14 6h92q8 0 14 -6t6 -14v-774q0 -8 -6 -14t-14 -6h-81q-20 0 -28 18l-3 8q-16 -16 -37.5 -24t-38.5 -8zM176 94q8 0 14.5 6t6.5 19v413
q0 13 -6.5 19.5t-14.5 6.5t-14 -6.5t-6 -19.5v-413q0 -13 6 -19t14 -6z" />
    <glyph glyph-name="dagger" unicode="&#x2020;" horiz-adv-x="420" 
d="M30 558q-8 0 -14 6t-6 14v50q0 8 6 14t14 6h120v146q0 8 6 14t14 6h91q8 0 14 -6t6 -14v-146h109q8 0 14 -6t6 -14v-50q0 -8 -6 -14t-14 -6h-109v-538q0 -8 -6 -14t-14 -6h-91q-8 0 -14 6t-6 14v538h-120z" />
    <glyph glyph-name="daggerdbl" unicode="&#x2021;" horiz-adv-x="420" 
d="M30 558q-8 0 -14 6t-6 14v50q0 8 6 14t14 6h120v146q0 8 6 14t14 6h91q8 0 14 -6t6 -14v-146h109q8 0 14 -6t6 -14v-50q0 -8 -6 -14t-14 -6h-109v-116h109q8 0 14 -6t6 -14v-50q0 -8 -6 -14t-14 -6h-109v-332q0 -8 -6 -14t-14 -6h-91q-8 0 -14 6t-6 14v332h-120
q-8 0 -14 6t-6 14v50q0 8 6 14t14 6h120v116h-120z" />
    <glyph glyph-name="dcaron" unicode="&#x10f;" horiz-adv-x="492" 
d="M121 -6q-21 0 -38.5 5t-30 18.5t-20 37.5t-7.5 62v418q0 37 7.5 61t20 37.5t30 18.5t38.5 5q17 0 38.5 -8t37.5 -24v169q0 8 6 14t14 6h92q8 0 14 -6t6 -14v-774q0 -8 -6 -14t-14 -6h-81q-20 0 -28 18l-3 8q-16 -16 -37.5 -24t-38.5 -8zM176 94q8 0 14.5 6t6.5 19v413
q0 13 -6.5 19.5t-14.5 6.5t-14 -6.5t-6 -19.5v-413q0 -13 6 -19t14 -6zM490 814q8 0 14 -6t6 -14v-81q0 -19 -12 -36l-87 -108q-2 -3 -5 -1.5t-2 4.5l30 121h-35q-8 0 -14 6t-6 14v81q0 8 6 14t14 6h91z" />
    <glyph glyph-name="dcroat" unicode="&#x111;" 
d="M135 713q-8 0 -14 6t-6 14v11q0 8 6 14t14 6h62v30q0 8 6 14t14 6h92q8 0 14 -6t6 -14v-30h5q8 0 14 -6t6 -14v-11q0 -8 -6 -14t-14 -6h-5v-693q0 -8 -6 -14t-14 -6h-81q-20 0 -28 18l-3 8q-16 -16 -37.5 -24t-38.5 -8q-21 0 -38.5 5t-30 18.5t-20 37.5t-7.5 62v418
q0 37 7.5 61t20 37.5t30 18.5t38.5 5q17 0 38.5 -8t37.5 -24v88h-62zM176 94q8 0 14.5 6t6.5 19v413q0 13 -6.5 19.5t-14.5 6.5t-14 -6.5t-6 -19.5v-413q0 -13 6 -19t14 -6z" />
    <glyph glyph-name="degree" unicode="&#xb0;" horiz-adv-x="311" 
d="M156 508q-31 0 -57 12t-44.5 31.5t-29 44t-10.5 49.5q0 31 11.5 57.5t30.5 45.5t44.5 29.5t54.5 10.5t54.5 -11t44.5 -30t30 -44.5t11 -54.5t-11 -54.5t-30 -44.5t-44.5 -30t-54.5 -11zM156 715q-30 0 -49 -21t-19 -45q0 -30 20.5 -49t47.5 -19t46.5 19.5t19.5 47.5
t-19.5 47.5t-46.5 19.5z" />
    <glyph glyph-name="dieresis" unicode="&#xa8;" horiz-adv-x="300" 
d="M-3 794q0 8 6 14t14 6h73q8 0 14 -6t6 -14v-74q0 -8 -6 -14t-14 -6h-73q-8 0 -14 6t-6 14v74zM188 794q0 8 6 14t14 6h75q8 0 14 -6t6 -14v-74q0 -8 -6 -14t-14 -6h-75q-8 0 -14 6t-6 14v74z" />
    <glyph glyph-name="divide" unicode="&#xf7;" horiz-adv-x="420" 
d="M30 279q-8 0 -14 6t-6 14v50q0 8 6 14t14 6h360q8 0 14 -6t6 -14v-50q0 -8 -6 -14t-14 -6h-360zM257 208q8 0 14 -6t6 -14v-81q0 -8 -6 -14t-14 -6h-91q-8 0 -14 6t-6 14v81q0 8 6 14t14 6h91zM257 558q8 0 14 -6t6 -14v-81q0 -8 -6 -14t-14 -6h-91q-8 0 -14 6t-6 14v81
q0 8 6 14t14 6h91z" />
    <glyph glyph-name="dollar" unicode="$" horiz-adv-x="364" 
d="M183 95q10 0 16.5 6.5t6.5 18.5v142q0 24 -14 44.5t-34.5 40.5t-44.5 40.5t-44.5 44t-34.5 50.5t-14 61v153q0 71 26.5 99.5t85.5 29.5v75q0 8 6 14t14 6h67q8 0 14 -6t6 -14v-76q54 -3 77 -32.5t23 -95.5v-127q0 -8 -6 -14t-14 -6h-93q-8 0 -14 6t-6 14v128
q0 12 -6.5 18.5t-15.5 6.5q-10 0 -16.5 -6.5t-6.5 -18.5v-130q0 -23 13.5 -42t34 -37t44 -37t44 -42.5t34 -52t13.5 -66.5v-169q0 -70 -25 -99t-80 -31v-71q0 -8 -6 -14t-14 -6h-67q-8 0 -14 6t-6 14v71q-57 2 -82 32t-25 98v150q0 8 6 14t14 6h96q8 0 14 -6t6 -14v-151
q0 -25 22 -25z" />
    <glyph glyph-name="dotaccent" unicode="&#x2d9;" horiz-adv-x="300" 
d="M94 794q0 8 6 14t14 6h72q8 0 14 -6t6 -14v-74q0 -8 -6 -14t-14 -6h-72q-8 0 -14 6t-6 14v74z" />
    <glyph glyph-name="dotlessi" unicode="&#x131;" horiz-adv-x="181" 
d="M45 0q-8 0 -14 6t-6 14v608q0 8 6 14t14 6h91q8 0 14 -6t6 -14v-608q0 -8 -6 -14t-14 -6h-91z" />
    <glyph glyph-name="dotlessj" unicode="&#x237;" horiz-adv-x="181" 
d="M45 -149q-8 0 -14 6t-6 14v757q0 8 6 14t14 6h91q8 0 14 -6t6 -14v-757q0 -8 -6 -14t-14 -6h-91z" />
    <glyph glyph-name="e" unicode="e" horiz-adv-x="348" 
d="M175 90q8 0 14.5 6.5t6.5 19.5v105q0 8 6 14t14 6h87q8 0 14 -6t6 -14v-94q0 -73 -24 -101.5t-83 -28.5h-71q-62 0 -91 29.5t-29 100.5v397q0 72 26 100.5t86 28.5h65q62 0 91.5 -29.5t29.5 -99.5v-206q0 -8 -6 -14t-14 -6h-148v-182q0 -13 6 -19.5t14 -6.5zM176 560
q-8 0 -14.5 -6.5t-6.5 -18.5v-154h41v154q0 12 -6 18.5t-14 6.5z" />
    <glyph glyph-name="eacute" unicode="&#xe9;" horiz-adv-x="348" 
d="M175 90q8 0 14.5 6.5t6.5 19.5v105q0 8 6 14t14 6h87q8 0 14 -6t6 -14v-94q0 -73 -24 -101.5t-83 -28.5h-71q-62 0 -91 29.5t-29 100.5v397q0 72 26 100.5t86 28.5h65q62 0 91.5 -29.5t29.5 -99.5v-206q0 -8 -6 -14t-14 -6h-148v-182q0 -13 6 -19.5t14 -6.5zM176 560
q-8 0 -14.5 -6.5t-6.5 -18.5v-154h41v154q0 12 -6 18.5t-14 6.5zM175 801q12 17 31 17h117q5 0 7 -4.5t-3 -8.5l-113 -92q-16 -13 -36 -13h-49q-7 0 -10 5.5t1 11.5z" />
    <glyph glyph-name="ecaron" unicode="&#x11b;" horiz-adv-x="348" 
d="M175 90q8 0 14.5 6.5t6.5 19.5v105q0 8 6 14t14 6h87q8 0 14 -6t6 -14v-94q0 -73 -24 -101.5t-83 -28.5h-71q-62 0 -91 29.5t-29 100.5v397q0 72 26 100.5t86 28.5h65q62 0 91.5 -29.5t29.5 -99.5v-206q0 -8 -6 -14t-14 -6h-148v-182q0 -13 6 -19.5t14 -6.5zM176 560
q-8 0 -14.5 -6.5t-6.5 -18.5v-154h41v154q0 12 -6 18.5t-14 6.5zM106 824q20 0 33 -15l38 -43l36 43q13 15 33 15h79q6 0 8.5 -5t-1.5 -10l-80 -94q-13 -15 -33 -15h-83q-19 0 -34 15l-86 94q-5 5 -2.5 10t8.5 5h84z" />
    <glyph glyph-name="ecircumflex" unicode="&#xea;" horiz-adv-x="348" 
d="M175 90q8 0 14.5 6.5t6.5 19.5v105q0 8 6 14t14 6h87q8 0 14 -6t6 -14v-94q0 -73 -24 -101.5t-83 -28.5h-71q-62 0 -91 29.5t-29 100.5v397q0 72 26 100.5t86 28.5h65q62 0 91.5 -29.5t29.5 -99.5v-206q0 -8 -6 -14t-14 -6h-148v-182q0 -13 6 -19.5t14 -6.5zM176 560
q-8 0 -14.5 -6.5t-6.5 -18.5v-154h41v154q0 12 -6 18.5t-14 6.5zM248 700q-20 0 -33 15l-36 42l-38 -42q-13 -15 -33 -15h-84q-6 0 -8.5 5t2.5 10l86 94q15 15 34 15h83q20 0 33 -15l80 -94q4 -5 1.5 -10t-8.5 -5h-79z" />
    <glyph glyph-name="edieresis" unicode="&#xeb;" horiz-adv-x="348" 
d="M175 90q8 0 14.5 6.5t6.5 19.5v105q0 8 6 14t14 6h87q8 0 14 -6t6 -14v-94q0 -73 -24 -101.5t-83 -28.5h-71q-62 0 -91 29.5t-29 100.5v397q0 72 26 100.5t86 28.5h65q62 0 91.5 -29.5t29.5 -99.5v-206q0 -8 -6 -14t-14 -6h-148v-182q0 -13 6 -19.5t14 -6.5zM176 560
q-8 0 -14.5 -6.5t-6.5 -18.5v-154h41v154q0 12 -6 18.5t-14 6.5zM23 794q0 8 6 14t14 6h73q8 0 14 -6t6 -14v-74q0 -8 -6 -14t-14 -6h-73q-8 0 -14 6t-6 14v74zM214 794q0 8 6 14t14 6h75q8 0 14 -6t6 -14v-74q0 -8 -6 -14t-14 -6h-75q-8 0 -14 6t-6 14v74z" />
    <glyph glyph-name="edotaccent" unicode="&#x117;" horiz-adv-x="348" 
d="M175 90q8 0 14.5 6.5t6.5 19.5v105q0 8 6 14t14 6h87q8 0 14 -6t6 -14v-94q0 -73 -24 -101.5t-83 -28.5h-71q-62 0 -91 29.5t-29 100.5v397q0 72 26 100.5t86 28.5h65q62 0 91.5 -29.5t29.5 -99.5v-206q0 -8 -6 -14t-14 -6h-148v-182q0 -13 6 -19.5t14 -6.5zM176 560
q-8 0 -14.5 -6.5t-6.5 -18.5v-154h41v154q0 12 -6 18.5t-14 6.5zM118 794q0 8 6 14t14 6h72q8 0 14 -6t6 -14v-74q0 -8 -6 -14t-14 -6h-72q-8 0 -14 6t-6 14v74z" />
    <glyph glyph-name="egrave" unicode="&#xe8;" horiz-adv-x="348" 
d="M175 90q8 0 14.5 6.5t6.5 19.5v105q0 8 6 14t14 6h87q8 0 14 -6t6 -14v-94q0 -73 -24 -101.5t-83 -28.5h-71q-62 0 -91 29.5t-29 100.5v397q0 72 26 100.5t86 28.5h65q62 0 91.5 -29.5t29.5 -99.5v-206q0 -8 -6 -14t-14 -6h-148v-182q0 -13 6 -19.5t14 -6.5zM176 560
q-8 0 -14.5 -6.5t-6.5 -18.5v-154h41v154q0 12 -6 18.5t-14 6.5zM184 700q-20 0 -36 13l-113 92q-5 4 -3 8.5t7 4.5h117q19 0 31 -17l55 -84q4 -6 1 -11.5t-10 -5.5h-49z" />
    <glyph glyph-name="eight" unicode="8" horiz-adv-x="360" 
d="M335 126q0 -71 -29.5 -100.5t-91.5 -29.5h-68q-62 0 -91.5 29.5t-29.5 100.5v169q0 61 18.5 90.5t60.5 36.5q-42 8 -60.5 37t-18.5 91v140q0 71 29.5 100.5t91.5 29.5h68q62 0 91.5 -29.5t29.5 -100.5v-140q0 -62 -18.5 -91t-60.5 -37q42 -7 60.5 -36.5t18.5 -90.5v-169z
M202 343q0 12 -7.5 18.5t-15.5 6.5q-8 -1 -14.5 -7.5t-6.5 -17.5v-217q0 -13 7 -19.5t15 -6.5t15 6.5t7 19.5v217zM180 716q-8 0 -15 -6.5t-7 -19.5v-191q0 -12 7.5 -18.5t15.5 -6.5t14.5 7t6.5 18v191q0 13 -7 19.5t-15 6.5z" />
    <glyph glyph-name="ellipsis" unicode="&#x2026;" horiz-adv-x="483" 
d="M126 121q8 0 14 -6t6 -14v-81q0 -8 -6 -14t-14 -6h-91q-8 0 -14 6t-6 14v81q0 8 6 14t14 6h91zM287 121q8 0 14 -6t6 -14v-81q0 -8 -6 -14t-14 -6h-91q-8 0 -14 6t-6 14v81q0 8 6 14t14 6h91zM448 121q8 0 14 -6t6 -14v-81q0 -8 -6 -14t-14 -6h-91q-8 0 -14 6t-6 14v81
q0 8 6 14t14 6h91z" />
    <glyph glyph-name="emacron" unicode="&#x113;" horiz-adv-x="348" 
d="M175 90q8 0 14.5 6.5t6.5 19.5v105q0 8 6 14t14 6h87q8 0 14 -6t6 -14v-94q0 -73 -24 -101.5t-83 -28.5h-71q-62 0 -91 29.5t-29 100.5v397q0 72 26 100.5t86 28.5h65q62 0 91.5 -29.5t29.5 -99.5v-206q0 -8 -6 -14t-14 -6h-148v-182q0 -13 6 -19.5t14 -6.5zM176 560
q-8 0 -14.5 -6.5t-6.5 -18.5v-154h41v154q0 12 -6 18.5t-14 6.5zM-1 755q0 8 6 14t14 6h310q8 0 14 -6t6 -14v-35q0 -8 -6 -14t-14 -6h-310q-8 0 -14 6t-6 14v35z" />
    <glyph glyph-name="emdash" unicode="&#x2014;" horiz-adv-x="497" 
d="M30 279q-8 0 -14 6t-6 14v50q0 8 6 14t14 6h437q8 0 14 -6t6 -14v-50q0 -8 -6 -14t-14 -6h-437z" />
    <glyph glyph-name="endash" unicode="&#x2013;" horiz-adv-x="386" 
d="M30 279q-8 0 -14 6t-6 14v50q0 8 6 14t14 6h326q8 0 14 -6t6 -14v-50q0 -8 -6 -14t-14 -6h-326z" />
    <glyph glyph-name="eng" unicode="&#x14b;" 
d="M177 558q-8 0 -14.5 -6.5t-6.5 -19.5v-512q0 -8 -6 -14t-14 -6h-91q-8 0 -14 6t-6 14v608q0 8 6 14t14 6h78q9 0 17 -5t12 -13l2 -3q16 16 38.5 23t39.5 7q21 0 38.5 -5t30.5 -18.5t20.5 -37.5t7.5 -61v-665q0 -8 -6 -14t-14 -6h-92q-8 0 -14 6t-6 14v662q0 13 -6 19.5
t-14 6.5z" />
    <glyph glyph-name="eogonek" unicode="&#x119;" horiz-adv-x="348" 
d="M235 -87q16 0 31 5q19 5 27 -14l3 -6q3 -8 0 -15.5t-11 -10.5q-11 -5 -25 -8.5t-33 -3.5q-42 0 -65 19.5t-23 49.5q0 21 9.5 37t24.5 31h-28q-62 0 -91 29.5t-29 100.5v397q0 72 26 100.5t86 28.5h65q62 0 91.5 -29.5t29.5 -99.5v-206q0 -8 -6 -14t-14 -6h-148v-182
q0 -13 6 -19.5t14 -6.5t14.5 6.5t6.5 19.5v105q0 8 6 14t14 6h87q8 0 14 -6t6 -14v-94q0 -66 -19 -95t-66 -34q-16 -16 -25.5 -30t-9.5 -27q0 -28 32 -28zM176 560q-8 0 -14.5 -6.5t-6.5 -18.5v-154h41v154q0 12 -6 18.5t-14 6.5z" />
    <glyph glyph-name="equal" unicode="=" horiz-adv-x="430" 
d="M35 384q-8 0 -14 6t-6 14v50q0 8 6 14t14 6h360q8 0 14 -6t6 -14v-50q0 -8 -6 -14t-14 -6h-360zM35 174q-8 0 -14 6t-6 14v50q0 8 6 14t14 6h360q8 0 14 -6t6 -14v-50q0 -8 -6 -14t-14 -6h-360z" />
    <glyph glyph-name="eth" unicode="&#xf0;" horiz-adv-x="349" 
d="M324 127q0 -73 -26 -101.5t-86 -28.5h-72q-62 0 -91 29.5t-29 100.5v397q0 72 24 100.5t75 28.5q18 0 38 -9t35 -41q0 29 -3 53t-14 40l-18 -15q-4 -3 -9 -3t-8 4l-1 2q-3 4 -3 9t4 8l15 13q-17 10 -49 10q-14 0 -26 -1t-24 -3q-8 -2 -13.5 2.5t-5.5 12.5v55q0 8 5.5 15
t13.5 9q14 2 29 3t33 1q42 0 72 -7t53 -20l28 25q10 9 19 0l2 -2q8 -9 -1 -18l-25 -21q21 -19 33 -44t17.5 -54t6.5 -61t1 -64v-425zM171 90q8 0 14.5 6.5t6.5 19.5v413q0 12 -6 18.5t-14 6.5t-14.5 -6.5t-6.5 -18.5v-413q0 -13 6 -19.5t14 -6.5z" />
    <glyph glyph-name="exclam" unicode="!" horiz-adv-x="181" 
d="M65 166q-8 0 -14 6t-7 14l-28 608q-1 8 5 14t14 6h111q8 0 14 -6t5 -14l-28 -608q-1 -8 -7 -14t-14 -6h-51zM136 121q8 0 14 -6t6 -14v-81q0 -8 -6 -14t-14 -6h-91q-8 0 -14 6t-6 14v81q0 8 6 14t14 6h91z" />
    <glyph glyph-name="exclamdown" unicode="&#xa1;" horiz-adv-x="181" 
d="M116 498q8 0 14 -6t7 -14l28 -608q1 -8 -5 -14t-14 -6h-111q-8 0 -14 6t-5 14l28 608q1 8 7 14t14 6h51zM45 543q-8 0 -14 6t-6 14v81q0 8 6 14t14 6h91q8 0 14 -6t6 -14v-81q0 -8 -6 -14t-14 -6h-91z" />
    <glyph glyph-name="f" unicode="f" horiz-adv-x="222" 
d="M25 558q-8 0 -14 6t-6 14v50q0 8 6 14t14 6h13v48q0 37 6 60t18.5 36t31 17.5t43.5 4.5h60q8 0 14 -6t6 -14v-57q0 -5 -3.5 -9t-8.5 -4h-15q-8 0 -14 -6.5t-6 -19.5v-50h25q8 0 14 -6t6 -14v-50q0 -8 -6 -14t-14 -6h-25v-538q0 -8 -6 -14t-14 -6h-92q-8 0 -14 6t-6 14
v538h-13z" />
    <glyph glyph-name="ff" unicode="&#xfb00;" horiz-adv-x="444" 
d="M25 558q-8 0 -14 6t-6 14v50q0 8 6 14t14 6h13v48q0 37 6 60t18.5 36t31 17.5t43.5 4.5h60q8 0 14 -6t6 -14v-57q0 -5 -3.5 -9t-8.5 -4h-15q-8 0 -14 -6.5t-6 -19.5v-50h25q8 0 14 -6t6 -14v-50q0 -8 -6 -14t-14 -6h-25v-538q0 -8 -6 -14t-14 -6h-92q-8 0 -14 6t-6 14
v538h-13zM247 558q-8 0 -14 6t-6 14v50q0 8 6 14t14 6h13v48q0 37 6 60t18.5 36t31 17.5t43.5 4.5h60q8 0 14 -6t6 -14v-57q0 -5 -3.5 -9t-8.5 -4h-15q-8 0 -14 -6.5t-6 -19.5v-50h25q8 0 14 -6t6 -14v-50q0 -8 -6 -14t-14 -6h-25v-538q0 -8 -6 -14t-14 -6h-92q-8 0 -14 6
t-6 14v538h-13z" />
    <glyph glyph-name="ffi" unicode="&#xfb03;" horiz-adv-x="625" 
d="M25 558q-8 0 -14 6t-6 14v50q0 8 6 14t14 6h13v48q0 37 6 60t18.5 36t31 17.5t43.5 4.5h60q8 0 14 -6t6 -14v-57q0 -5 -3.5 -9t-8.5 -4h-15q-8 0 -14 -6.5t-6 -19.5v-50h25q8 0 14 -6t6 -14v-50q0 -8 -6 -14t-14 -6h-25v-538q0 -8 -6 -14t-14 -6h-92q-8 0 -14 6t-6 14
v538h-13zM247 558q-8 0 -14 6t-6 14v50q0 8 6 14t14 6h13v48q0 37 6 60t18.5 36t31 17.5t43.5 4.5h60q8 0 14 -6t6 -14v-57q0 -5 -3.5 -9t-8.5 -4h-15q-8 0 -14 -6.5t-6 -19.5v-50h25q8 0 14 -6t6 -14v-50q0 -8 -6 -14t-14 -6h-25v-538q0 -8 -6 -14t-14 -6h-92q-8 0 -14 6
t-6 14v538h-13zM489 0q-8 0 -14 6t-6 14v608q0 8 6 14t14 6h91q8 0 14 -6t6 -14v-608q0 -8 -6 -14t-14 -6h-91zM580 814q8 0 14 -6t6 -14v-81q0 -8 -6 -14t-14 -6h-91q-8 0 -14 6t-6 14v81q0 8 6 14t14 6h91z" />
    <glyph glyph-name="ffl" unicode="&#xfb04;" horiz-adv-x="625" 
d="M25 558q-8 0 -14 6t-6 14v50q0 8 6 14t14 6h13v48q0 37 6 60t18.5 36t31 17.5t43.5 4.5h60q8 0 14 -6t6 -14v-57q0 -5 -3.5 -9t-8.5 -4h-15q-8 0 -14 -6.5t-6 -19.5v-50h25q8 0 14 -6t6 -14v-50q0 -8 -6 -14t-14 -6h-25v-538q0 -8 -6 -14t-14 -6h-92q-8 0 -14 6t-6 14
v538h-13zM247 558q-8 0 -14 6t-6 14v50q0 8 6 14t14 6h13v48q0 37 6 60t18.5 36t31 17.5t43.5 4.5h60q8 0 14 -6t6 -14v-57q0 -5 -3.5 -9t-8.5 -4h-15q-8 0 -14 -6.5t-6 -19.5v-50h25q8 0 14 -6t6 -14v-50q0 -8 -6 -14t-14 -6h-25v-538q0 -8 -6 -14t-14 -6h-92q-8 0 -14 6
t-6 14v538h-13zM489 0q-8 0 -14 6t-6 14v774q0 8 6 14t14 6h91q8 0 14 -6t6 -14v-774q0 -8 -6 -14t-14 -6h-91z" />
    <glyph glyph-name="fi" unicode="&#xfb01;" horiz-adv-x="403" 
d="M25 558q-8 0 -14 6t-6 14v50q0 8 6 14t14 6h13v48q0 37 6 60t18.5 36t31 17.5t43.5 4.5h60q8 0 14 -6t6 -14v-57q0 -5 -3.5 -9t-8.5 -4h-15q-8 0 -14 -6.5t-6 -19.5v-50h25q8 0 14 -6t6 -14v-50q0 -8 -6 -14t-14 -6h-25v-538q0 -8 -6 -14t-14 -6h-92q-8 0 -14 6t-6 14
v538h-13zM267 0q-8 0 -14 6t-6 14v608q0 8 6 14t14 6h91q8 0 14 -6t6 -14v-608q0 -8 -6 -14t-14 -6h-91zM358 814q8 0 14 -6t6 -14v-81q0 -8 -6 -14t-14 -6h-91q-8 0 -14 6t-6 14v81q0 8 6 14t14 6h91z" />
    <glyph glyph-name="five" unicode="5" horiz-adv-x="360" 
d="M295 814q8 0 14 -6t6 -14v-60q0 -8 -6 -14t-14 -6h-138v-163q14 20 37 24.5t43 4.5q31 0 50.5 -5.5t30 -19t14 -36t3.5 -56.5v-337q0 -71 -29.5 -100.5t-91.5 -29.5h-68q-62 0 -91.5 29.5t-29.5 100.5v144q0 8 6 14t14 6h93q8 0 14 -6t6 -14v-154q0 -13 7 -19.5t15 -6.5
t15 6.5t7 19.5v334q0 12 -7.5 18.5t-15.5 6.5t-14.5 -7t-6.5 -18v-30q0 -8 -6 -14t-14 -6h-93q-8 0 -14 6t-6 14v374q0 8 6 14t14 6h250z" />
    <glyph glyph-name="fl" unicode="&#xfb02;" horiz-adv-x="403" 
d="M25 558q-8 0 -14 6t-6 14v50q0 8 6 14t14 6h13v48q0 37 6 60t18.5 36t31 17.5t43.5 4.5h60q8 0 14 -6t6 -14v-57q0 -5 -3.5 -9t-8.5 -4h-15q-8 0 -14 -6.5t-6 -19.5v-50h25q8 0 14 -6t6 -14v-50q0 -8 -6 -14t-14 -6h-25v-538q0 -8 -6 -14t-14 -6h-92q-8 0 -14 6t-6 14
v538h-13zM267 0q-8 0 -14 6t-6 14v774q0 8 6 14t14 6h91q8 0 14 -6t6 -14v-774q0 -8 -6 -14t-14 -6h-91z" />
    <glyph glyph-name="florin" unicode="&#x192;" horiz-adv-x="242" 
d="M185 410v-442q0 -37 -6 -60t-18.5 -36t-31 -17.5t-43.5 -4.5h-56q-8 0 -14 6t-6 14v59q0 11 11 11h12q8 0 14 6.5t6 19.5v444h-23q-8 0 -14 6t-6 14v50q0 8 6 14t14 6h23v196q0 37 6 60t18.5 36t31 17.5t43.5 4.5h60q8 0 14 -6t6 -14v-57q0 -5 -3.5 -9t-8.5 -4h-15
q-8 0 -14 -6.5t-6 -19.5v-198h25q8 0 14 -6t6 -14v-50q0 -8 -6 -14t-14 -6h-25z" />
    <glyph glyph-name="four" unicode="4" horiz-adv-x="374" 
d="M212 0q-8 0 -14 6t-6 14v175h-162q-8 0 -14 6t-6 14v77q0 8 1.5 19.5t3.5 19.5l109 455q5 19 25 19h153q8 0 14 -6t6 -14v-488h22q8 0 14 -6t6 -14v-62q0 -8 -6 -14t-14 -6h-22v-175q0 -8 -6 -14t-14 -6h-90zM127 297h65v383z" />
    <glyph glyph-name="fraction" unicode="&#x2044;" horiz-adv-x="415" 
d="M316 795q7 19 27 19h53q8 0 11.5 -6t1.5 -13l-308 -776q-7 -19 -27 -19h-54q-8 0 -11.5 6t-1.5 13z" />
    <glyph glyph-name="g" unicode="g" 
d="M176 -56q8 0 14.5 6.5t6.5 18.5v54q-16 -16 -37.5 -24t-38.5 -8q-21 0 -38.5 5t-30 18.5t-20 37t-7.5 61.5v418q0 37 7.5 61t20 37.5t30 18.5t38.5 5q17 0 38.5 -8t37.5 -24l3 8q4 8 11.5 13.5t16.5 5.5h81q8 0 14 -6t6 -14v-648q0 -36 -5.5 -61t-18 -40.5t-32.5 -22
t-50 -6.5h-85q-56 0 -77.5 22t-24.5 65q-1 8 4.5 14t13.5 6h81h7.5t4 -0.5t4.5 -3t10 -6.5q4 -3 15 -3zM176 90q8 0 14.5 6.5t6.5 19.5v413q0 13 -6.5 19t-14.5 6t-14 -6t-6 -19v-413q0 -13 6 -19.5t14 -6.5z" />
    <glyph glyph-name="gbreve" unicode="&#x11f;" 
d="M176 -56q8 0 14.5 6.5t6.5 18.5v54q-16 -16 -37.5 -24t-38.5 -8q-21 0 -38.5 5t-30 18.5t-20 37t-7.5 61.5v418q0 37 7.5 61t20 37.5t30 18.5t38.5 5q17 0 38.5 -8t37.5 -24l3 8q4 8 11.5 13.5t16.5 5.5h81q8 0 14 -6t6 -14v-648q0 -36 -5.5 -61t-18 -40.5t-32.5 -22
t-50 -6.5h-85q-56 0 -77.5 22t-24.5 65q-1 8 4.5 14t13.5 6h81h7.5t4 -0.5t4.5 -3t10 -6.5q4 -3 15 -3zM176 90q8 0 14.5 6.5t6.5 19.5v413q0 13 -6.5 19t-14.5 6t-14 -6t-6 -19v-413q0 -13 6 -19.5t14 -6.5zM176 700q-51 0 -82.5 28t-39.5 85q-1 8 4 14t13 6h34
q20 0 25 -20q5 -18 14.5 -29.5t31.5 -11.5t32 11.5t15 29.5q5 20 26 20h33q8 0 13 -6t4 -14q-8 -57 -40 -85t-83 -28z" />
    <glyph glyph-name="gcircumflex" unicode="&#x11d;" 
d="M176 -56q8 0 14.5 6.5t6.5 18.5v54q-16 -16 -37.5 -24t-38.5 -8q-21 0 -38.5 5t-30 18.5t-20 37t-7.5 61.5v418q0 37 7.5 61t20 37.5t30 18.5t38.5 5q17 0 38.5 -8t37.5 -24l3 8q4 8 11.5 13.5t16.5 5.5h81q8 0 14 -6t6 -14v-648q0 -36 -5.5 -61t-18 -40.5t-32.5 -22
t-50 -6.5h-85q-56 0 -77.5 22t-24.5 65q-1 8 4.5 14t13.5 6h81h7.5t4 -0.5t4.5 -3t10 -6.5q4 -3 15 -3zM176 90q8 0 14.5 6.5t6.5 19.5v413q0 13 -6.5 19t-14.5 6t-14 -6t-6 -19v-413q0 -13 6 -19.5t14 -6.5zM249 700q-20 0 -33 15l-36 42l-38 -42q-13 -15 -33 -15h-84
q-6 0 -8.5 5t2.5 10l86 94q15 15 34 15h83q20 0 33 -15l80 -94q4 -5 1.5 -10t-8.5 -5h-79z" />
    <glyph glyph-name="gcommaaccent" unicode="&#x123;" 
d="M176 -56q8 0 14.5 6.5t6.5 18.5v54q-16 -16 -37.5 -24t-38.5 -8q-21 0 -38.5 5t-30 18.5t-20 37t-7.5 61.5v418q0 37 7.5 61t20 37.5t30 18.5t38.5 5q17 0 38.5 -8t37.5 -24l3 8q4 8 11.5 13.5t16.5 5.5h81q8 0 14 -6t6 -14v-648q0 -36 -5.5 -61t-18 -40.5t-32.5 -22
t-50 -6.5h-85q-56 0 -77.5 22t-24.5 65q-1 8 4.5 14t13.5 6h81h7.5t4 -0.5t4.5 -3t10 -6.5q4 -3 15 -3zM176 90q8 0 14.5 6.5t6.5 19.5v413q0 13 -6.5 19t-14.5 6t-14 -6t-6 -19v-413q0 -13 6 -19.5t14 -6.5zM131 719q-8 0 -14 6t-6 14v81q0 19 12 36l87 108q2 3 5 1.5
t2 -4.5l-30 -121h35q8 0 14 -6t6 -14v-81q0 -8 -6 -14t-14 -6h-91z" />
    <glyph glyph-name="gdotaccent" unicode="&#x121;" 
d="M176 -56q8 0 14.5 6.5t6.5 18.5v54q-16 -16 -37.5 -24t-38.5 -8q-21 0 -38.5 5t-30 18.5t-20 37t-7.5 61.5v418q0 37 7.5 61t20 37.5t30 18.5t38.5 5q17 0 38.5 -8t37.5 -24l3 8q4 8 11.5 13.5t16.5 5.5h81q8 0 14 -6t6 -14v-648q0 -36 -5.5 -61t-18 -40.5t-32.5 -22
t-50 -6.5h-85q-56 0 -77.5 22t-24.5 65q-1 8 4.5 14t13.5 6h81h7.5t4 -0.5t4.5 -3t10 -6.5q4 -3 15 -3zM176 90q8 0 14.5 6.5t6.5 19.5v413q0 13 -6.5 19t-14.5 6t-14 -6t-6 -19v-413q0 -13 6 -19.5t14 -6.5zM121 794q0 8 6 14t14 6h72q8 0 14 -6t6 -14v-74q0 -8 -6 -14
t-14 -6h-72q-8 0 -14 6t-6 14v74z" />
    <glyph glyph-name="germandbls" unicode="&#xdf;" horiz-adv-x="360" 
d="M180 710q-8 0 -15 -6.5t-7 -19.5v-664q0 -8 -6 -14t-14 -6h-93q-8 0 -14 6t-6 14v664q0 71 29.5 100.5t91.5 29.5h68q62 0 91.5 -29.5t29.5 -100.5v-60q0 -62 -18.5 -91t-60.5 -37q42 -7 60.5 -36.5t18.5 -90.5v-242q0 -71 -29.5 -100.5t-91.5 -29.5h-21q-8 0 -13.5 5.5
t-4.5 13.5l1 60q1 13 3 16.5t14 13.5q9 7 9 21v290q0 13 -9 20q-11 9 -13.5 13.5t-2.5 18.5l1 55q0 13 2 16t13 14q9 6 9 19v111q0 13 -7 19.5t-15 6.5z" />
    <glyph glyph-name="grave" unicode="`" horiz-adv-x="300" 
d="M165 700q-20 0 -36 13l-113 92q-5 4 -3 8.5t7 4.5h117q19 0 31 -17l55 -84q4 -6 1 -11.5t-10 -5.5h-49z" />
    <glyph glyph-name="greater" unicode="&#x3e;" horiz-adv-x="302" 
d="M130 625q20 0 30 -17l117 -204q10 -17 0 -35l-117 -216q-10 -18 -30 -18h-95q-7 0 -10.5 6t0.5 12l127 234l-127 221q-4 5 -0.5 11t10.5 6h95z" />
    <glyph glyph-name="guillemotleft" unicode="&#xab;" horiz-adv-x="403" 
d="M23 312q-8 18 0 36l91 202q8 18 28 18h64q8 0 11.5 -6t0.5 -12l-98 -220l98 -234q3 -6 -0.5 -12t-11.5 -6h-64q-20 0 -28 18zM184 312q-8 18 0 36l91 202q8 18 28 18h65q8 0 11.5 -6t0.5 -12l-99 -220l99 -234q3 -6 -0.5 -12t-11.5 -6h-65q-20 0 -28 18z" />
    <glyph glyph-name="guillemotright" unicode="&#xbb;" horiz-adv-x="403" 
d="M261 568q20 0 28 -18l91 -202q8 -18 0 -36l-91 -216q-8 -18 -28 -18h-64q-8 0 -11.5 6t-0.5 12l98 234l-98 220q-3 6 0.5 12t11.5 6h64zM100 568q20 0 28 -18l91 -202q8 -18 0 -36l-91 -216q-8 -18 -28 -18h-65q-8 0 -11.5 6t-0.5 12l99 234l-99 220q-3 6 0.5 12t11.5 6
h65z" />
    <glyph glyph-name="guilsinglleft" unicode="&#x2039;" horiz-adv-x="242" 
d="M23 312q-8 18 0 36l91 202q8 18 28 18h65q8 0 11.5 -6t0.5 -12l-99 -220l99 -234q3 -6 -0.5 -12t-11.5 -6h-65q-20 0 -28 18z" />
    <glyph glyph-name="guilsinglright" unicode="&#x203a;" horiz-adv-x="242" 
d="M100 568q20 0 28 -18l91 -202q8 -18 0 -36l-91 -216q-8 -18 -28 -18h-65q-8 0 -11.5 6t-0.5 12l99 234l-99 220q-3 6 0.5 12t11.5 6h65z" />
    <glyph glyph-name="h" unicode="h" 
d="M177 558q-8 0 -14.5 -6.5t-6.5 -19.5v-512q0 -8 -6 -14t-14 -6h-91q-8 0 -14 6t-6 14v774q0 8 6 14t14 6h91q8 0 14 -6t6 -14v-169q16 16 37.5 24t38.5 8q21 0 38.5 -5t30.5 -18.5t20.5 -37.5t7.5 -61v-515q0 -8 -6 -14t-14 -6h-92q-8 0 -14 6t-6 14v512q0 13 -6 19.5
t-14 6.5z" />
    <glyph glyph-name="hbar" unicode="&#x127;" 
d="M0 745q0 8 6 14t14 6h5v29q0 8 6 14t14 6h91q8 0 14 -6t6 -14v-29h149q8 0 14 -6t6 -14v-5q0 -8 -6 -14t-14 -6h-149v-95q16 16 37.5 24t38.5 8q21 0 38.5 -5t30.5 -18.5t20.5 -37.5t7.5 -61v-515q0 -8 -6 -14t-14 -6h-92q-8 0 -14 6t-6 14v512q0 13 -6 19.5t-14 6.5
t-14.5 -6.5t-6.5 -19.5v-512q0 -8 -6 -14t-14 -6h-91q-8 0 -14 6t-6 14v700h-5q-8 0 -14 6t-6 14v5z" />
    <glyph glyph-name="hcircumflex" unicode="&#x125;" 
d="M177 558q-8 0 -14.5 -6.5t-6.5 -19.5v-512q0 -8 -6 -14t-14 -6h-91q-8 0 -14 6t-6 14v774q0 8 6 14t14 6h91q8 0 14 -6t6 -14v-169q16 16 37.5 24t38.5 8q21 0 38.5 -5t30.5 -18.5t20.5 -37.5t7.5 -61v-515q0 -8 -6 -14t-14 -6h-92q-8 0 -14 6t-6 14v512q0 13 -6 19.5
t-14 6.5zM164 864q-20 0 -33 15l-36 42l-38 -42q-13 -15 -33 -15h-84q-6 0 -8.5 5t2.5 10l86 94q15 15 34 15h83q20 0 33 -15l80 -94q4 -5 1.5 -10t-8.5 -5h-79z" />
    <glyph glyph-name="hungarumlaut" unicode="&#x2dd;" horiz-adv-x="300" 
d="M66 817q7 19 27 19h79q6 0 9 -5.5t-1 -10.5l-82 -103q-5 -8 -14 -12t-18 -4h-25q-8 0 -11.5 6t-1.5 13zM217 817q7 19 27 19h79q6 0 9 -5.5t-1 -10.5l-82 -103q-5 -8 -14 -12t-18 -4h-25q-8 0 -11.5 6t-1.5 13z" />
    <glyph glyph-name="hyphen" unicode="-" horiz-adv-x="260" 
d="M30 279q-8 0 -14 6t-6 14v50q0 8 6 14t14 6h200q8 0 14 -6t6 -14v-50q0 -8 -6 -14t-14 -6h-200z" />
    <glyph glyph-name="i" unicode="i" horiz-adv-x="181" 
d="M45 0q-8 0 -14 6t-6 14v608q0 8 6 14t14 6h91q8 0 14 -6t6 -14v-608q0 -8 -6 -14t-14 -6h-91zM136 814q8 0 14 -6t6 -14v-81q0 -8 -6 -14t-14 -6h-91q-8 0 -14 6t-6 14v81q0 8 6 14t14 6h91z" />
    <glyph glyph-name="iacute" unicode="&#xed;" horiz-adv-x="181" 
d="M45 0q-8 0 -14 6t-6 14v608q0 8 6 14t14 6h91q8 0 14 -6t6 -14v-608q0 -8 -6 -14t-14 -6h-91zM96 801q12 17 31 17h117q5 0 7 -4.5t-3 -8.5l-113 -92q-16 -13 -36 -13h-49q-7 0 -10 5.5t1 11.5z" />
    <glyph glyph-name="icircumflex" unicode="&#xee;" horiz-adv-x="181" 
d="M45 0q-8 0 -14 6t-6 14v608q0 8 6 14t14 6h91q8 0 14 -6t6 -14v-608q0 -8 -6 -14t-14 -6h-91zM163 700q-20 0 -33 15l-36 42l-38 -42q-13 -15 -33 -15h-84q-6 0 -8.5 5t2.5 10l86 94q15 15 34 15h83q20 0 33 -15l80 -94q4 -5 1.5 -10t-8.5 -5h-79z" />
    <glyph glyph-name="idieresis" unicode="&#xef;" horiz-adv-x="181" 
d="M45 0q-8 0 -14 6t-6 14v608q0 8 6 14t14 6h91q8 0 14 -6t6 -14v-608q0 -8 -6 -14t-14 -6h-91zM-62 794q0 8 6 14t14 6h73q8 0 14 -6t6 -14v-74q0 -8 -6 -14t-14 -6h-73q-8 0 -14 6t-6 14v74zM129 794q0 8 6 14t14 6h75q8 0 14 -6t6 -14v-74q0 -8 -6 -14t-14 -6h-75
q-8 0 -14 6t-6 14v74z" />
    <glyph glyph-name="igrave" unicode="&#xec;" horiz-adv-x="181" 
d="M45 0q-8 0 -14 6t-6 14v608q0 8 6 14t14 6h91q8 0 14 -6t6 -14v-608q0 -8 -6 -14t-14 -6h-91zM92 700q-20 0 -36 13l-113 92q-5 4 -3 8.5t7 4.5h117q19 0 31 -17l55 -84q4 -6 1 -11.5t-10 -5.5h-49z" />
    <glyph glyph-name="imacron" unicode="&#x12b;" horiz-adv-x="181" 
d="M45 0q-8 0 -14 6t-6 14v608q0 8 6 14t14 6h91q8 0 14 -6t6 -14v-608q0 -8 -6 -14t-14 -6h-91zM-84 755q0 8 6 14t14 6h310q8 0 14 -6t6 -14v-35q0 -8 -6 -14t-14 -6h-310q-8 0 -14 6t-6 14v35z" />
    <glyph glyph-name="integral" unicode="&#x222b;" horiz-adv-x="212" 
d="M192 724q-8 0 -14 -6.5t-6 -19.5v-730q0 -37 -6 -60t-18.5 -36t-31 -17.5t-43.5 -4.5h-56q-8 0 -14 6t-6 14v59q0 11 11 11h12q8 0 14 6.5t6 19.5v730q0 37 6 60t18.5 36t31 17.5t43.5 4.5h60q8 0 14 -6t6 -14v-57q0 -5 -3.5 -9t-8.5 -4h-15v0z" />
    <glyph glyph-name="iogonek" unicode="&#x12f;" horiz-adv-x="181" 
d="M45 0q-8 0 -14 6t-6 14v608q0 8 6 14t14 6h91q8 0 14 -6t6 -14v-608q0 -8 -6 -14t-14 -6h-6q-17 -17 -27 -31t-10 -28q0 -28 32 -28q16 0 31 5q19 5 27 -14l3 -6q3 -8 0 -15.5t-11 -10.5q-11 -5 -25 -8.5t-33 -3.5q-42 0 -65 19.5t-23 49.5q0 22 10 38.5t27 32.5h-21z
M136 814q8 0 14 -6t6 -14v-81q0 -8 -6 -14t-14 -6h-91q-8 0 -14 6t-6 14v81q0 8 6 14t14 6h91z" />
    <glyph glyph-name="itilde" unicode="&#x129;" horiz-adv-x="181" 
d="M45 0q-8 0 -14 6t-6 14v608q0 8 6 14t14 6h91q8 0 14 -6t6 -14v-608q0 -8 -6 -14t-14 -6h-91zM110 807q12 -5 24 -9t23 -4q26 0 40 22q10 16 26 5l38 -27q6 -5 8 -13.5t-3 -15.5q-19 -32 -43.5 -47t-50.5 -15q-13 0 -30.5 4t-34.5 11l-32 13q-11 5 -23.5 9t-23.5 4
q-14 0 -24.5 -7.5t-19.5 -19.5q-12 -17 -28 -5l-35 23q-7 5 -8.5 13t3.5 15q21 32 45 50t56 18q19 0 35 -4.5t31 -9.5z" />
    <glyph glyph-name="j" unicode="j" horiz-adv-x="181" 
d="M45 -149q-8 0 -14 6t-6 14v757q0 8 6 14t14 6h91q8 0 14 -6t6 -14v-757q0 -8 -6 -14t-14 -6h-91zM136 814q8 0 14 -6t6 -14v-81q0 -8 -6 -14t-14 -6h-91q-8 0 -14 6t-6 14v81q0 8 6 14t14 6h91z" />
    <glyph glyph-name="jcircumflex" unicode="&#x135;" horiz-adv-x="181" 
d="M45 -149q-8 0 -14 6t-6 14v757q0 8 6 14t14 6h91q8 0 14 -6t6 -14v-757q0 -8 -6 -14t-14 -6h-91zM163 700q-20 0 -33 15l-36 42l-38 -42q-13 -15 -33 -15h-84q-6 0 -8.5 5t2.5 10l86 94q15 15 34 15h83q20 0 33 -15l80 -94q4 -5 1.5 -10t-8.5 -5h-79z" />
    <glyph glyph-name="k" unicode="k" horiz-adv-x="343" 
d="M45 0q-8 0 -14 6t-6 14v774q0 8 6 14t14 6h91q8 0 14 -6t6 -14v-423l45 257q2 9 8.5 14.5t14.5 5.5h87q8 0 13 -6t3 -14l-53 -286l65 -322q2 -8 -3 -14t-13 -6h-93q-8 0 -14.5 5.5t-8.5 14.5l-51 288v-288q0 -8 -6 -14t-14 -6h-91z" />
    <glyph glyph-name="kcommaaccent" unicode="&#x137;" horiz-adv-x="344" 
d="M45 0q-8 0 -14 6t-6 14v774q0 8 6 14t14 6h91q8 0 14 -6t6 -14v-423l45 257q2 9 8.5 14.5t14.5 5.5h87q8 0 13 -6t3 -14l-53 -286l65 -322q2 -8 -3 -14t-13 -6h-93q-8 0 -14.5 5.5t-8.5 14.5l-51 288v-288q0 -8 -6 -14t-14 -6h-91zM219 -70q8 0 14 -6t6 -14v-81
q0 -19 -12 -36l-87 -108q-2 -3 -5 -1.5t-2 4.5l30 121h-35q-8 0 -14 6t-6 14v81q0 8 6 14t14 6h91z" />
    <glyph glyph-name="kgreenlandic" unicode="&#x138;" horiz-adv-x="343" 
d="M45 0q-8 0 -14 6t-6 14v608q0 8 6 14t14 6h91q8 0 14 -6t6 -14v-257l45 257q2 9 8.5 14.5t14.5 5.5h87q8 0 13 -6t3 -14l-53 -286l65 -322q2 -8 -3 -14t-13 -6h-93q-8 0 -14.5 5.5t-8.5 14.5l-51 288v-288q0 -8 -6 -14t-14 -6h-91z" />
    <glyph glyph-name="l" unicode="l" horiz-adv-x="181" 
d="M45 0q-8 0 -14 6t-6 14v774q0 8 6 14t14 6h91q8 0 14 -6t6 -14v-774q0 -8 -6 -14t-14 -6h-91z" />
    <glyph glyph-name="lacute" unicode="&#x13a;" horiz-adv-x="181" 
d="M45 0q-8 0 -14 6t-6 14v774q0 8 6 14t14 6h91q8 0 14 -6t6 -14v-774q0 -8 -6 -14t-14 -6h-91zM69 973q12 17 31 17h117q5 0 7 -4.5t-3 -8.5l-113 -92q-16 -13 -36 -13h-49q-7 0 -10 5.5t1 11.5z" />
    <glyph glyph-name="lcaron" unicode="&#x13e;" horiz-adv-x="322" 
d="M45 0q-8 0 -14 6t-6 14v774q0 8 6 14t14 6h91q8 0 14 -6t6 -14v-774q0 -8 -6 -14t-14 -6h-91zM317 814q8 0 14 -6t6 -14v-81q0 -19 -12 -36l-87 -108q-2 -3 -5 -1.5t-2 4.5l30 121h-35q-8 0 -14 6t-6 14v81q0 8 6 14t14 6h91z" />
    <glyph glyph-name="lcommaaccent" unicode="&#x13c;" horiz-adv-x="181" 
d="M45 0q-8 0 -14 6t-6 14v774q0 8 6 14t14 6h91q8 0 14 -6t6 -14v-774q0 -8 -6 -14t-14 -6h-91zM136 -70q8 0 14 -6t6 -14v-81q0 -19 -12 -36l-87 -108q-2 -3 -5 -1.5t-2 4.5l30 121h-35q-8 0 -14 6t-6 14v81q0 8 6 14t14 6h91z" />
    <glyph glyph-name="less" unicode="&#x3c;" horiz-adv-x="302" 
d="M25 369q-10 18 0 35l117 204q10 17 30 17h95q7 0 10.5 -6t-0.5 -11l-127 -221l127 -234q4 -6 0.5 -12t-10.5 -6h-95q-20 0 -30 18z" />
    <glyph glyph-name="logicalnot" unicode="&#xac;" horiz-adv-x="430" 
d="M10 349q0 8 6 14t14 6h360q8 0 14 -6t6 -14v-205q0 -8 -6 -14t-14 -6h-50q-8 0 -14 6t-6 14v135h-290q-8 0 -14 6t-6 14v50z" />
    <glyph glyph-name="lslash" unicode="&#x142;" horiz-adv-x="181" 
d="M136 814q8 0 14 -6t6 -14v-377l7 3q6 3 12 -0.5t6 -11.5v-50q0 -20 -18 -28l-7 -3v-307q0 -8 -6 -14t-14 -6h-91q-8 0 -14 6t-6 14v250l-7 -3q-6 -3 -12 0.5t-6 11.5v50q0 20 18 28l7 3v434q0 8 6 14t14 6h91z" />
    <glyph glyph-name="m" unicode="m" horiz-adv-x="527" 
d="M177 558q-8 0 -14.5 -6.5t-6.5 -19.5v-512q0 -8 -6 -14t-14 -6h-91q-8 0 -14 6t-6 14v608q0 8 6 14t14 6h78q9 0 17 -5t12 -13l2 -3q16 16 38.5 23t39.5 7q27 0 48 -9t34 -34q19 25 46.5 34t44.5 9q21 0 38.5 -5t30.5 -18.5t20.5 -37.5t7.5 -61v-515q0 -8 -6 -14t-14 -6
h-92q-8 0 -14 6t-6 14v512q0 13 -6 19.5t-14 6.5q-19 0 -21 -23v-515q0 -8 -6 -14t-14 -6h-92q-8 0 -14 6t-6 14v512q0 13 -6 19.5t-14 6.5z" />
    <glyph glyph-name="macron" unicode="&#xaf;" horiz-adv-x="380" 
d="M15 755q0 8 6 14t14 6h310q8 0 14 -6t6 -14v-35q0 -8 -6 -14t-14 -6h-310q-8 0 -14 6t-6 14v35z" />
    <glyph glyph-name="minus" unicode="&#x2212;" horiz-adv-x="420" 
d="M30 279q-8 0 -14 6t-6 14v50q0 8 6 14t14 6h360q8 0 14 -6t6 -14v-50q0 -8 -6 -14t-14 -6h-360z" />
    <glyph glyph-name="mu" unicode="&#xb5;" 
d="M45 -150q-8 0 -14 6t-6 14v758q0 8 6 14t14 6h91q8 0 14 -6t6 -14v-512q0 -13 6.5 -19.5t14.5 -6.5t14 6.5t6 19.5v512q0 8 6 14t14 6h92q8 0 14 -6t6 -14v-515q0 -38 -7.5 -61.5t-20.5 -37t-30.5 -18.5t-38.5 -5q-17 0 -38.5 8t-37.5 24v-153q0 -8 -6 -14t-14 -6h-91z
" />
    <glyph glyph-name="mu" unicode="&#x3bc;" 
d="M45 -150q-8 0 -14 6t-6 14v758q0 8 6 14t14 6h91q8 0 14 -6t6 -14v-512q0 -13 6.5 -19.5t14.5 -6.5t14 6.5t6 19.5v512q0 8 6 14t14 6h92q8 0 14 -6t6 -14v-515q0 -38 -7.5 -61.5t-20.5 -37t-30.5 -18.5t-38.5 -5q-17 0 -38.5 8t-37.5 24v-153q0 -8 -6 -14t-14 -6h-91z
" />
    <glyph glyph-name="multiply" unicode="&#xd7;" horiz-adv-x="366" 
d="M24 420q-6 6 -6 14t6 14l35 35q14 14 28 0l96 -96l96 96q6 6 14 6t14 -6l35 -35q6 -6 6 -14t-6 -14l-96 -96l96 -96q14 -14 0 -28l-35 -35q-6 -6 -14 -6t-14 6l-96 96l-96 -96q-6 -6 -14 -6t-14 6l-35 35q-6 6 -6 14t6 14l96 96z" />
    <glyph glyph-name="n" unicode="n" 
d="M177 558q-8 0 -14.5 -6.5t-6.5 -19.5v-512q0 -8 -6 -14t-14 -6h-91q-8 0 -14 6t-6 14v608q0 8 6 14t14 6h78q9 0 17 -5t12 -13l2 -3q16 16 38.5 23t39.5 7q21 0 38.5 -5t30.5 -18.5t20.5 -37.5t7.5 -61v-515q0 -8 -6 -14t-14 -6h-92q-8 0 -14 6t-6 14v512q0 13 -6 19.5
t-14 6.5z" />
    <glyph glyph-name="nacute" unicode="&#x144;" 
d="M177 558q-8 0 -14.5 -6.5t-6.5 -19.5v-512q0 -8 -6 -14t-14 -6h-91q-8 0 -14 6t-6 14v608q0 8 6 14t14 6h78q9 0 17 -5t12 -13l2 -3q16 16 38.5 23t39.5 7q21 0 38.5 -5t30.5 -18.5t20.5 -37.5t7.5 -61v-515q0 -8 -6 -14t-14 -6h-92q-8 0 -14 6t-6 14v512q0 13 -6 19.5
t-14 6.5zM186 801q12 17 31 17h117q5 0 7 -4.5t-3 -8.5l-113 -92q-16 -13 -36 -13h-49q-7 0 -10 5.5t1 11.5z" />
    <glyph glyph-name="ncaron" unicode="&#x148;" 
d="M177 558q-8 0 -14.5 -6.5t-6.5 -19.5v-512q0 -8 -6 -14t-14 -6h-91q-8 0 -14 6t-6 14v608q0 8 6 14t14 6h78q9 0 17 -5t12 -13l2 -3q16 16 38.5 23t39.5 7q21 0 38.5 -5t30.5 -18.5t20.5 -37.5t7.5 -61v-515q0 -8 -6 -14t-14 -6h-92q-8 0 -14 6t-6 14v512q0 13 -6 19.5
t-14 6.5zM109 824q20 0 33 -15l38 -43l36 43q13 15 33 15h79q6 0 8.5 -5t-1.5 -10l-80 -94q-13 -15 -33 -15h-83q-19 0 -34 15l-86 94q-5 5 -2.5 10t8.5 5h84z" />
    <glyph glyph-name="ncommaaccent" unicode="&#x146;" 
d="M177 558q-8 0 -14.5 -6.5t-6.5 -19.5v-512q0 -8 -6 -14t-14 -6h-91q-8 0 -14 6t-6 14v608q0 8 6 14t14 6h78q9 0 17 -5t12 -13l2 -3q16 16 38.5 23t39.5 7q21 0 38.5 -5t30.5 -18.5t20.5 -37.5t7.5 -61v-515q0 -8 -6 -14t-14 -6h-92q-8 0 -14 6t-6 14v512q0 13 -6 19.5
t-14 6.5zM222 -70q8 0 14 -6t6 -14v-81q0 -19 -12 -36l-87 -108q-2 -3 -5 -1.5t-2 4.5l30 121h-35q-8 0 -14 6t-6 14v81q0 8 6 14t14 6h91z" />
    <glyph glyph-name="nine" unicode="9" horiz-adv-x="360" 
d="M180 100q8 0 15 6.5t7 19.5l1 246q-14 -20 -37 -24.5t-43 -4.5q-32 0 -51 5.5t-29.5 19t-14 36t-3.5 56.5v230q0 71 29.5 100.5t91.5 29.5h68q62 0 91.5 -29.5t29.5 -100.5v-564q0 -71 -29.5 -100.5t-91.5 -29.5h-68q-62 0 -91.5 29.5t-29.5 100.5v144q0 8 6 14t14 6h93
q8 0 14 -6t6 -14v-144q0 -13 7 -19.5t15 -6.5zM180 716q-8 0 -15 -6.5t-7 -19.5v-227q0 -12 7.5 -18.5t15.5 -6.5t14.5 7t6.5 18v227q0 13 -7 19.5t-15 6.5z" />
    <glyph glyph-name="notequal" unicode="&#x2260;" horiz-adv-x="430" 
d="M15 454q0 8 6 14t14 6h164l44 157q5 19 25 19h73q8 0 12.5 -6t2.5 -13l-43 -157h82q8 0 14 -6t6 -14v-50q0 -8 -6 -14t-14 -6h-107l-33 -120h140q8 0 14 -6t6 -14v-50q0 -8 -6 -14t-14 -6h-165l-43 -155q-5 -19 -25 -19h-74q-8 0 -12.5 6t-2.5 13l43 155h-81q-8 0 -14 6
t-6 14v50q0 8 6 14t14 6h106l33 120h-139q-8 0 -14 6t-6 14v50z" />
    <glyph glyph-name="ntilde" unicode="&#xf1;" 
d="M177 558q-8 0 -14.5 -6.5t-6.5 -19.5v-512q0 -8 -6 -14t-14 -6h-91q-8 0 -14 6t-6 14v608q0 8 6 14t14 6h78q9 0 17 -5t12 -13l2 -3q16 16 38.5 23t39.5 7q21 0 38.5 -5t30.5 -18.5t20.5 -37.5t7.5 -61v-515q0 -8 -6 -14t-14 -6h-92q-8 0 -14 6t-6 14v512q0 13 -6 19.5
t-14 6.5zM196 807q12 -5 24 -9t23 -4q26 0 40 22q10 16 26 5l38 -27q6 -5 8 -13.5t-3 -15.5q-19 -32 -43.5 -47t-50.5 -15q-13 0 -30.5 4t-34.5 11l-32 13q-11 5 -23.5 9t-23.5 4q-14 0 -24.5 -7.5t-19.5 -19.5q-12 -17 -28 -5l-35 23q-7 5 -8.5 13t3.5 15q21 32 45 50
t56 18q19 0 35 -4.5t31 -9.5z" />
    <glyph glyph-name="numbersign" unicode="#" horiz-adv-x="726" 
d="M263 0q-8 0 -15 5.5t-9 14.5l-81 415v-415q0 -8 -6 -14t-14 -6h-88q-8 0 -14 6t-6 14v774q0 8 6 14t14 6h107q8 0 15 -5.5t9 -14.5l83 -417v417q0 8 6 14t14 6h92q8 0 14 -6t6 -14v-774q0 -8 -6 -14t-14 -6h-113zM585 678q63 0 92 -29.5t29 -99.5v-145q0 -73 -26 -101.5
t-86 -28.5h-32q-62 0 -91 29.5t-29 100.5v145q0 72 26 100.5t86 28.5h31zM573 367q8 0 14.5 6.5t6.5 19.5v167q0 12 -6 18.5t-14 6.5t-14.5 -6.5t-6.5 -18.5v-167q0 -13 6 -19.5t14 -6.5zM474 137q-8 0 -14 6t-6 14v50q0 8 6 14t14 6h200q8 0 14 -6t6 -14v-50q0 -8 -6 -14
t-14 -6h-200z" />
    <glyph glyph-name="o" unicode="o" 
d="M208 653q63 0 92 -29.5t29 -99.5v-397q0 -73 -26 -101.5t-86 -28.5h-72q-62 0 -91 29.5t-29 100.5v397q0 72 26 100.5t86 28.5h71zM176 90q8 0 14.5 6.5t6.5 19.5v419q0 12 -6 18.5t-14 6.5t-14.5 -6.5t-6.5 -18.5v-419q0 -13 6 -19.5t14 -6.5z" />
    <glyph glyph-name="oacute" unicode="&#xf3;" 
d="M208 653q63 0 92 -29.5t29 -99.5v-397q0 -73 -26 -101.5t-86 -28.5h-72q-62 0 -91 29.5t-29 100.5v397q0 72 26 100.5t86 28.5h71zM176 90q8 0 14.5 6.5t6.5 19.5v419q0 12 -6 18.5t-14 6.5t-14.5 -6.5t-6.5 -18.5v-419q0 -13 6 -19.5t14 -6.5zM184 801q12 17 31 17h117
q5 0 7 -4.5t-3 -8.5l-113 -92q-16 -13 -36 -13h-49q-7 0 -10 5.5t1 11.5z" />
    <glyph glyph-name="ocircumflex" unicode="&#xf4;" 
d="M208 653q63 0 92 -29.5t29 -99.5v-397q0 -73 -26 -101.5t-86 -28.5h-72q-62 0 -91 29.5t-29 100.5v397q0 72 26 100.5t86 28.5h71zM176 90q8 0 14.5 6.5t6.5 19.5v419q0 12 -6 18.5t-14 6.5t-14.5 -6.5t-6.5 -18.5v-419q0 -13 6 -19.5t14 -6.5zM249 700q-20 0 -33 15
l-36 42l-38 -42q-13 -15 -33 -15h-84q-6 0 -8.5 5t2.5 10l86 94q15 15 34 15h83q20 0 33 -15l80 -94q4 -5 1.5 -10t-8.5 -5h-79z" />
    <glyph glyph-name="odieresis" unicode="&#xf6;" 
d="M208 653q63 0 92 -29.5t29 -99.5v-397q0 -73 -26 -101.5t-86 -28.5h-72q-62 0 -91 29.5t-29 100.5v397q0 72 26 100.5t86 28.5h71zM176 90q8 0 14.5 6.5t6.5 19.5v419q0 12 -6 18.5t-14 6.5t-14.5 -6.5t-6.5 -18.5v-419q0 -13 6 -19.5t14 -6.5zM24 794q0 8 6 14t14 6h73
q8 0 14 -6t6 -14v-74q0 -8 -6 -14t-14 -6h-73q-8 0 -14 6t-6 14v74zM215 794q0 8 6 14t14 6h75q8 0 14 -6t6 -14v-74q0 -8 -6 -14t-14 -6h-75q-8 0 -14 6t-6 14v74z" />
    <glyph glyph-name="oe" unicode="&#x153;" horiz-adv-x="522" 
d="M349 90q8 0 14.5 6.5t6.5 19.5v105q0 8 6 14t14 6h87q8 0 14 -6t6 -14v-94q0 -73 -24 -101.5t-83 -28.5h-71q-15 0 -28 2.5t-24 13.5q-11 -11 -23.5 -13.5t-26.5 -2.5h-72q-62 0 -91 29.5t-29 100.5v397q0 72 26 100.5t86 28.5h71q15 0 28 -3t24 -14q11 11 23.5 14
t27.5 3h65q62 0 91.5 -29.5t29.5 -99.5v-206q0 -8 -6 -14t-14 -6h-148v-185q2 -23 20 -23zM176 90q8 0 14.5 6.5t6.5 19.5v419q0 12 -6 18.5t-14 6.5t-14.5 -6.5t-6.5 -18.5v-419q0 -13 6 -19.5t14 -6.5zM350 560q-8 0 -14.5 -6.5t-6.5 -18.5v-154h41v154q0 12 -6 18.5
t-14 6.5z" />
    <glyph glyph-name="ogonek" unicode="&#x2db;" horiz-adv-x="300" 
d="M264 -87q16 0 31 5q19 5 27 -14l3 -6q3 -8 0 -15.5t-11 -10.5q-11 -5 -25 -8.5t-33 -3.5q-42 0 -65 19.5t-23 49.5q0 20 9 36t23 30t33 14h26q5 0 7.5 -5t-1.5 -9q-15 -15 -24 -28.5t-9 -25.5q0 -28 32 -28z" />
    <glyph glyph-name="ograve" unicode="&#xf2;" 
d="M208 653q63 0 92 -29.5t29 -99.5v-397q0 -73 -26 -101.5t-86 -28.5h-72q-62 0 -91 29.5t-29 100.5v397q0 72 26 100.5t86 28.5h71zM176 90q8 0 14.5 6.5t6.5 19.5v419q0 12 -6 18.5t-14 6.5t-14.5 -6.5t-6.5 -18.5v-419q0 -13 6 -19.5t14 -6.5zM176 700q-20 0 -36 13
l-113 92q-5 4 -3 8.5t7 4.5h117q19 0 31 -17l55 -84q4 -6 1 -11.5t-10 -5.5h-49z" />
    <glyph glyph-name="ohungarumlaut" unicode="&#x151;" 
d="M208 653q63 0 92 -29.5t29 -99.5v-397q0 -73 -26 -101.5t-86 -28.5h-72q-62 0 -91 29.5t-29 100.5v397q0 72 26 100.5t86 28.5h71zM176 90q8 0 14.5 6.5t6.5 19.5v419q0 12 -6 18.5t-14 6.5t-14.5 -6.5t-6.5 -18.5v-419q0 -13 6 -19.5t14 -6.5zM107 817q7 19 27 19h79
q6 0 9 -5.5t-1 -10.5l-82 -103q-5 -8 -14 -12t-18 -4h-25q-8 0 -11.5 6t-1.5 13zM258 817q7 19 27 19h79q6 0 9 -5.5t-1 -10.5l-82 -103q-5 -8 -14 -12t-18 -4h-25q-8 0 -11.5 6t-1.5 13z" />
    <glyph glyph-name="omacron" unicode="&#x14d;" 
d="M208 653q63 0 92 -29.5t29 -99.5v-397q0 -73 -26 -101.5t-86 -28.5h-72q-62 0 -91 29.5t-29 100.5v397q0 72 26 100.5t86 28.5h71zM176 90q8 0 14.5 6.5t6.5 19.5v419q0 12 -6 18.5t-14 6.5t-14.5 -6.5t-6.5 -18.5v-419q0 -13 6 -19.5t14 -6.5zM2 755q0 8 6 14t14 6h310
q8 0 14 -6t6 -14v-35q0 -8 -6 -14t-14 -6h-310q-8 0 -14 6t-6 14v35z" />
    <glyph glyph-name="one" unicode="1" horiz-adv-x="261" 
d="M119 0q-8 0 -14 6t-6 14v592h-69q-8 0 -14 6t-6 14v40q0 21 20 24q39 7 62 35t28 63q2 20 23 20h68q8 0 14 -6t6 -14v-774q0 -8 -6 -14t-14 -6h-92z" />
    <glyph glyph-name="ordfeminine" unicode="&#xaa;" 
d="M121 -6q-21 0 -38.5 5t-30 18.5t-20 37.5t-7.5 62v418q0 37 7.5 61t20 37.5t30 18.5t38.5 5q17 0 38.5 -8t37.5 -24v3q0 8 6 14t14 6h92q8 0 14 -6t6 -14v-608q0 -8 -6 -14t-14 -6h-81q-20 0 -28 18l-3 8q-16 -16 -37.5 -24t-38.5 -8zM176 94q8 0 14.5 6t6.5 19v413
q0 13 -6.5 19.5t-14.5 6.5t-14 -6.5t-6 -19.5v-413q0 -13 6 -19t14 -6z" />
    <glyph glyph-name="ordmasculine" unicode="&#xba;" horiz-adv-x="304" 
d="M163 750q63 0 92 -29.5t29 -99.5v-145q0 -73 -26 -101.5t-86 -28.5h-32q-62 0 -91 29.5t-29 100.5v145q0 72 26 100.5t86 28.5h31zM151 439q8 0 14.5 6.5t6.5 19.5v167q0 12 -6 18.5t-14 6.5t-14.5 -6.5t-6.5 -18.5v-167q0 -13 6 -19.5t14 -6.5zM52 209q-8 0 -14 6t-6 14
v50q0 8 6 14t14 6h200q8 0 14 -6t6 -14v-50q0 -8 -6 -14t-14 -6h-200z" />
    <glyph glyph-name="oslash" unicode="&#xf8;" 
d="M309 612q20 -32 20 -88v-397q0 -73 -26 -101.5t-86 -28.5h-72q-23 0 -41 3.5t-32 11.5l-16 -40q-2 -5 -7.5 -7.5t-11.5 0.5h-1q-6 3 -8.5 9t0.5 12l19 49q-22 31 -22 92v397q0 72 26 100.5t86 28.5h71q48 0 77 -18l20 50q5 12 18 7l2 -1q5 -2 7.5 -8t0.5 -11zM177 560
q-8 0 -14.5 -6.5t-6.5 -18.5v-225l41 103v122q0 12 -6 18.5t-14 6.5zM176 90q8 0 14.5 6.5t6.5 19.5v212l-41 -104v-108q0 -13 6 -19.5t14 -6.5z" />
    <glyph glyph-name="otilde" unicode="&#xf5;" 
d="M208 653q63 0 92 -29.5t29 -99.5v-397q0 -73 -26 -101.5t-86 -28.5h-72q-62 0 -91 29.5t-29 100.5v397q0 72 26 100.5t86 28.5h71zM176 90q8 0 14.5 6.5t6.5 19.5v419q0 12 -6 18.5t-14 6.5t-14.5 -6.5t-6.5 -18.5v-419q0 -13 6 -19.5t14 -6.5zM196 807q12 -5 24 -9
t23 -4q26 0 40 22q10 16 26 5l38 -27q6 -5 8 -13.5t-3 -15.5q-19 -32 -43.5 -47t-50.5 -15q-13 0 -30.5 4t-34.5 11l-32 13q-11 5 -23.5 9t-23.5 4q-14 0 -24.5 -7.5t-19.5 -19.5q-12 -17 -28 -5l-35 23q-7 5 -8.5 13t3.5 15q21 32 45 50t56 18q19 0 35 -4.5t31 -9.5z" />
    <glyph glyph-name="p" unicode="p" 
d="M232 653q21 0 38.5 -5t30.5 -18.5t20.5 -37.5t7.5 -61v-418q0 -38 -7.5 -61.5t-20.5 -37t-30.5 -18.5t-38.5 -5q-17 0 -38.5 8t-37.5 24v-153q0 -8 -6 -14t-14 -6h-91q-8 0 -14 6t-6 14v758q0 8 6 14t14 6h80q9 0 16.5 -5.5t11.5 -13.5l3 -8q16 16 37.5 24t38.5 8z
M177 554q-8 0 -14.5 -6t-6.5 -19v-413q0 -13 6.5 -19.5t14.5 -6.5t14 6.5t6 19.5v413q0 13 -6 19t-14 6z" />
    <glyph glyph-name="paragraph" unicode="&#xb6;" horiz-adv-x="494" 
d="M409 -97q-8 0 -14 6t-6 14v687h-57v-687q0 -8 -6 -14t-14 -6h-78q-8 0 -14 6t-6 14v277q-57 0 -94 4.5t-58 17.5t-29 37t-8 63v260q0 71 29.5 100.5t91.5 29.5h303q8 0 14 -6t6 -14v-769q0 -8 -6 -14t-14 -6h-40z" />
    <glyph glyph-name="parenleft" unicode="(" horiz-adv-x="226" 
d="M138 0q-60 0 -86.5 28.5t-26.5 100.5v556q0 72 26.5 100.5t86.5 28.5h52q8 0 14 -6t6 -14v-64q0 -8 -5.5 -13.5t-13.5 -5.5h-21q-10 0 -16.5 -6.5t-6.5 -18.5v-558q0 -12 6.5 -18.5t16.5 -6.5h22q8 0 13.5 -5.5t5.5 -13.5v-64q0 -8 -6 -14t-14 -6h-53v0z" />
    <glyph glyph-name="parenright" unicode=")" horiz-adv-x="226" 
d="M88 814q60 0 86.5 -28.5t26.5 -100.5v-556q0 -72 -26.5 -100.5t-86.5 -28.5h-53q-8 0 -14 6t-6 14v64q0 8 6 13.5t14 5.5h21q10 0 16.5 6.5t6.5 18.5v558q0 12 -6.5 18.5t-16.5 6.5h-21q-8 0 -13.5 5.5t-5.5 13.5v64q0 8 6 14t14 6h52v0z" />
    <glyph glyph-name="partialdiff" unicode="&#x2202;" 
d="M329 127q0 -73 -26 -101.5t-86 -28.5h-72q-62 0 -91 29.5t-29 100.5v397q0 72 24 100.5t75 28.5q18 0 38 -9t35 -41q0 27 -2 49.5t-10.5 38t-26 24.5t-47.5 9q-14 0 -26 -1t-24 -3q-8 -2 -13.5 2.5t-5.5 12.5v55q0 8 5.5 15t13.5 9q14 2 29 3t33 1q76 0 118 -23
t61.5 -60.5t23 -85.5t3.5 -97v-425zM176 90q8 0 14.5 6.5t6.5 19.5v413q0 12 -6 18.5t-14 6.5t-14.5 -6.5t-6.5 -18.5v-413q0 -13 6 -19.5t14 -6.5z" />
    <glyph glyph-name="percent" unicode="%" horiz-adv-x="686" 
d="M451 795q7 19 27 19h53q8 0 11.5 -6t1.5 -13l-308 -776q-7 -19 -27 -19h-54q-8 0 -11.5 6t-1.5 13zM163 819q63 0 92 -29.5t29 -99.5v-145q0 -73 -26 -101.5t-86 -28.5h-32q-62 0 -91 29.5t-29 100.5v145q0 72 26 100.5t86 28.5h31zM151 508q8 0 14.5 6.5t6.5 19.5v167
q0 12 -6 18.5t-14 6.5t-14.5 -6.5t-6.5 -18.5v-167q0 -13 6 -19.5t14 -6.5zM545 399q63 0 92 -29.5t29 -99.5v-145q0 -73 -26 -101.5t-86 -28.5h-32q-62 0 -91 29.5t-29 100.5v145q0 72 26 100.5t86 28.5h31zM533 88q8 0 14.5 6.5t6.5 19.5v167q0 12 -6 18.5t-14 6.5
t-14.5 -6.5t-6.5 -18.5v-167q0 -13 6 -19.5t14 -6.5z" />
    <glyph glyph-name="period" unicode="." horiz-adv-x="161" 
d="M126 121q8 0 14 -6t6 -14v-81q0 -8 -6 -14t-14 -6h-91q-8 0 -14 6t-6 14v81q0 8 6 14t14 6h91z" />
    <glyph glyph-name="periodcentered" unicode="&#xb7;" horiz-adv-x="161" 
d="M126 471q8 0 14 -6t6 -14v-81q0 -8 -6 -14t-14 -6h-91q-8 0 -14 6t-6 14v81q0 8 6 14t14 6h91z" />
    <glyph glyph-name="perthousand" unicode="&#x2030;" horiz-adv-x="990" 
d="M451 795q7 19 27 19h53q8 0 11.5 -6t1.5 -13l-308 -776q-7 -19 -27 -19h-54q-8 0 -11.5 6t-1.5 13zM163 819q63 0 92 -29.5t29 -99.5v-145q0 -73 -26 -101.5t-86 -28.5h-32q-62 0 -91 29.5t-29 100.5v145q0 72 26 100.5t86 28.5h31zM151 508q8 0 14.5 6.5t6.5 19.5v167
q0 12 -6 18.5t-14 6.5t-14.5 -6.5t-6.5 -18.5v-167q0 -13 6 -19.5t14 -6.5zM545 399q63 0 92 -29.5t29 -99.5v-145q0 -73 -26 -101.5t-86 -28.5h-32q-62 0 -91 29.5t-29 100.5v145q0 72 26 100.5t86 28.5h31zM533 88q8 0 14.5 6.5t6.5 19.5v167q0 12 -6 18.5t-14 6.5
t-14.5 -6.5t-6.5 -18.5v-167q0 -13 6 -19.5t14 -6.5zM849 399q63 0 92 -29.5t29 -99.5v-145q0 -73 -26 -101.5t-86 -28.5h-32q-62 0 -91 29.5t-29 100.5v145q0 72 26 100.5t86 28.5h31zM837 88q8 0 14.5 6.5t6.5 19.5v167q0 12 -6 18.5t-14 6.5t-14.5 -6.5t-6.5 -18.5v-167
q0 -13 6 -19.5t14 -6.5z" />
    <glyph glyph-name="pi" unicode="&#x3c0;" horiz-adv-x="351" 
d="M306 648q8 0 14 -6t6 -14v-608q0 -8 -6 -14t-14 -6h-90q-8 0 -14 6t-6 14v535h-41v-535q0 -8 -6 -14t-14 -6h-90q-8 0 -14 6t-6 14v608q0 8 6 14t14 6h261z" />
    <glyph glyph-name="plus" unicode="+" horiz-adv-x="420" 
d="M30 279q-8 0 -14 6t-6 14v50q0 8 6 14t14 6h135v135q0 8 6 14t14 6h50q8 0 14 -6t6 -14v-135h135q8 0 14 -6t6 -14v-50q0 -8 -6 -14t-14 -6h-135v-135q0 -8 -6 -14t-14 -6h-50q-8 0 -14 6t-6 14v135h-135z" />
    <glyph glyph-name="plusminus" unicode="&#xb1;" horiz-adv-x="420" 
d="M30 351q-8 0 -14 6t-6 14v50q0 8 6 14t14 6h135v135q0 8 6 14t14 6h50q8 0 14 -6t6 -14v-135h135q8 0 14 -6t6 -14v-50q0 -8 -6 -14t-14 -6h-135v-135q0 -8 -6 -14t-14 -6h-50q-8 0 -14 6t-6 14v135h-135zM30 52q-8 0 -14 6t-6 14v50q0 8 6 14t14 6h360q8 0 14 -6t6 -14
v-50q0 -8 -6 -14t-14 -6h-360z" />
    <glyph glyph-name="product" unicode="&#x220f;" horiz-adv-x="391" 
d="M238 0q-8 0 -14 6t-6 14v684h-46v-684q0 -8 -6 -14t-14 -6h-102q-8 0 -14 6t-6 14v774q0 8 6 14t14 6h291q8 0 14 -6t6 -14v-774q0 -8 -6 -14t-14 -6h-103z" />
    <glyph glyph-name="q" unicode="q" 
d="M121 -9q-21 0 -38.5 5t-30 18.5t-20 37t-7.5 61.5v418q0 37 7.5 61t20 37.5t30 18.5t38.5 5q17 0 38.5 -8t37.5 -24l3 8q4 8 11.5 13.5t16.5 5.5h81q8 0 14 -6t6 -14v-758q0 -8 -6 -14t-14 -6h-92q-8 0 -14 6t-6 14v153q-16 -16 -37.5 -24t-38.5 -8zM176 90q8 0 14.5 6.5
t6.5 19.5v413q0 13 -6.5 19t-14.5 6t-14 -6t-6 -19v-413q0 -13 6 -19.5t14 -6.5z" />
    <glyph glyph-name="question" unicode="?" horiz-adv-x="347" 
d="M207 186q0 -8 -6 -14t-14 -6h-91q-8 0 -14 6t-6 14v104q0 38 8.5 62.5t21.5 42.5t28.5 33t28.5 33t21.5 43t8.5 63v125q0 12 -6.5 18.5t-16.5 6.5q-9 0 -15.5 -6.5t-6.5 -18.5v-123q0 -8 -6 -14t-14 -6h-88q-8 0 -14 6t-6 14v122q0 70 26.5 99.5t89.5 29.5h78
q60 0 86.5 -28.5t26.5 -100.5v-148q0 -49 -9 -82t-22 -56.5t-29 -39.5t-29 -31t-22 -31.5t-9 -40.5v-76zM187 121q8 0 14 -6t6 -14v-81q0 -8 -6 -14t-14 -6h-91q-8 0 -14 6t-6 14v81q0 8 6 14t14 6h91z" />
    <glyph glyph-name="questiondown" unicode="&#xbf;" horiz-adv-x="322" 
d="M130 484q0 8 6 14t14 6h91q8 0 14 -6t6 -14v-104q0 -38 -8.5 -62.5t-21.5 -42.5t-28.5 -33t-28.5 -33t-21.5 -43t-8.5 -63v-125q0 -12 6.5 -18.5t16.5 -6.5q9 0 15.5 6.5t6.5 18.5v123q0 8 6 14t14 6h88q8 0 14 -6t6 -14v-122q0 -70 -26.5 -99.5t-89.5 -29.5h-78
q-60 0 -86.5 28.5t-26.5 100.5v148q0 49 9 82t22 56.5t29 39.5t29 31t22 31.5t9 40.5v76zM150 549q-8 0 -14 6t-6 14v81q0 8 6 14t14 6h91q8 0 14 -6t6 -14v-81q0 -8 -6 -14t-14 -6h-91z" />
    <glyph glyph-name="quotedbl" unicode="&#x22;" horiz-adv-x="319" 
d="M125 604q-1 -8 -7.5 -14t-14.5 -6h-50q-8 0 -14.5 6t-7.5 14l-19 190q-1 8 4.5 14t13.5 6h94q8 0 13.5 -6t4.5 -14zM290 604q-1 -8 -7.5 -14t-14.5 -6h-50q-8 0 -14.5 6t-7.5 14l-19 190q-1 8 4.5 14t13.5 6h94q8 0 13.5 -6t4.5 -14z" />
    <glyph glyph-name="quotedblbase" unicode="&#x201e;" horiz-adv-x="317" 
d="M126 121q8 0 14 -6t6 -14v-81q0 -19 -12 -36l-87 -108q-2 -3 -5 -1.5t-2 4.5l30 121h-35q-8 0 -14 6t-6 14v81q0 8 6 14t14 6h91zM282 121q8 0 14 -6t6 -14v-81q0 -19 -12 -36l-87 -108q-2 -3 -5 -1.5t-2 4.5l30 121h-35q-8 0 -14 6t-6 14v81q0 8 6 14t14 6h91z" />
    <glyph glyph-name="quotedblleft" unicode="&#x201c;" horiz-adv-x="317" 
d="M191 553q-8 0 -14 6t-6 14v81q0 19 12 36l87 108q2 3 5 1.5t2 -4.5l-30 -121h35q8 0 14 -6t6 -14v-81q0 -8 -6 -14t-14 -6h-91zM35 553q-8 0 -14 6t-6 14v81q0 19 12 36l87 108q2 3 5 1.5t2 -4.5l-30 -121h35q8 0 14 -6t6 -14v-81q0 -8 -6 -14t-14 -6h-91z" />
    <glyph glyph-name="quotedblright" unicode="&#x201d;" horiz-adv-x="317" 
d="M126 814q8 0 14 -6t6 -14v-81q0 -19 -12 -36l-87 -108q-2 -3 -5 -1.5t-2 4.5l30 121h-35q-8 0 -14 6t-6 14v81q0 8 6 14t14 6h91zM282 814q8 0 14 -6t6 -14v-81q0 -19 -12 -36l-87 -108q-2 -3 -5 -1.5t-2 4.5l30 121h-35q-8 0 -14 6t-6 14v81q0 8 6 14t14 6h91z" />
    <glyph glyph-name="quoteleft" unicode="&#x2018;" horiz-adv-x="161" 
d="M35 553q-8 0 -14 6t-6 14v81q0 19 12 36l87 108q2 3 5 1.5t2 -4.5l-30 -121h35q8 0 14 -6t6 -14v-81q0 -8 -6 -14t-14 -6h-91z" />
    <glyph glyph-name="quoteright" unicode="&#x2019;" horiz-adv-x="161" 
d="M126 814q8 0 14 -6t6 -14v-81q0 -19 -12 -36l-87 -108q-2 -3 -5 -1.5t-2 4.5l30 121h-35q-8 0 -14 6t-6 14v81q0 8 6 14t14 6h91z" />
    <glyph glyph-name="quotesinglbase" unicode="&#x201a;" horiz-adv-x="161" 
d="M126 121q8 0 14 -6t6 -14v-81q0 -19 -12 -36l-87 -108q-2 -3 -5 -1.5t-2 4.5l30 121h-35q-8 0 -14 6t-6 14v81q0 8 6 14t14 6h91z" />
    <glyph glyph-name="quotesingle" unicode="'" horiz-adv-x="154" 
d="M125 604q-1 -8 -7.5 -14t-14.5 -6h-50q-8 0 -14.5 6t-7.5 14l-19 190q-1 8 4.5 14t13.5 6h94q8 0 13.5 -6t4.5 -14z" />
    <glyph glyph-name="r" unicode="r" horiz-adv-x="339" 
d="M177 558q-8 0 -14.5 -6.5t-6.5 -19.5v-512q0 -8 -6 -14t-14 -6h-91q-8 0 -14 6t-6 14v608q0 8 6 14t14 6h79q19 0 29 -18l1 -3q21 16 41 23t37 7q21 0 38 -5t29 -18.5t18.5 -37.5t6.5 -61v-130q0 -8 -6 -14t-14 -6h-87q-8 0 -14 6t-6 14v127q0 13 -6 19.5t-14 6.5z" />
    <glyph glyph-name="racute" unicode="&#x155;" horiz-adv-x="339" 
d="M177 558q-8 0 -14.5 -6.5t-6.5 -19.5v-512q0 -8 -6 -14t-14 -6h-91q-8 0 -14 6t-6 14v608q0 8 6 14t14 6h79q19 0 29 -18l1 -3q21 16 41 23t37 7q21 0 38 -5t29 -18.5t18.5 -37.5t6.5 -61v-130q0 -8 -6 -14t-14 -6h-87q-8 0 -14 6t-6 14v127q0 13 -6 19.5t-14 6.5z
M166 801q12 17 31 17h117q5 0 7 -4.5t-3 -8.5l-113 -92q-16 -13 -36 -13h-49q-7 0 -10 5.5t1 11.5z" />
    <glyph glyph-name="rcaron" unicode="&#x159;" horiz-adv-x="339" 
d="M177 558q-8 0 -14.5 -6.5t-6.5 -19.5v-512q0 -8 -6 -14t-14 -6h-91q-8 0 -14 6t-6 14v608q0 8 6 14t14 6h79q19 0 29 -18l1 -3q21 16 41 23t37 7q21 0 38 -5t29 -18.5t18.5 -37.5t6.5 -61v-130q0 -8 -6 -14t-14 -6h-87q-8 0 -14 6t-6 14v127q0 13 -6 19.5t-14 6.5z
M102 824q20 0 33 -15l38 -43l36 43q13 15 33 15h79q6 0 8.5 -5t-1.5 -10l-80 -94q-13 -15 -33 -15h-83q-19 0 -34 15l-86 94q-5 5 -2.5 10t8.5 5h84z" />
    <glyph glyph-name="rcommaaccent" unicode="&#x157;" horiz-adv-x="339" 
d="M177 558q-8 0 -14.5 -6.5t-6.5 -19.5v-512q0 -8 -6 -14t-14 -6h-91q-8 0 -14 6t-6 14v608q0 8 6 14t14 6h79q19 0 29 -18l1 -3q21 16 41 23t37 7q21 0 38 -5t29 -18.5t18.5 -37.5t6.5 -61v-130q0 -8 -6 -14t-14 -6h-87q-8 0 -14 6t-6 14v127q0 13 -6 19.5t-14 6.5z
M215 -70q8 0 14 -6t6 -14v-81q0 -19 -12 -36l-87 -108q-2 -3 -5 -1.5t-2 4.5l30 121h-35q-8 0 -14 6t-6 14v81q0 8 6 14t14 6h91z" />
    <glyph glyph-name="registered" unicode="&#xae;" horiz-adv-x="846" 
d="M488 399q42 -7 60.5 -36.5t18.5 -90.5v-79q0 -8 -6 -14t-14 -6h-83q-8 0 -14 6t-6 14v137q0 12 -7.5 18.5t-15.5 6.5h-23v-162q0 -8 -6 -14t-14 -6h-82q-8 0 -14 6t-6 14v424q0 8 6 14t14 6h190q32 0 56.5 -24.5t24.5 -65.5v-20q0 -62 -18.5 -91t-60.5 -37zM421 441
q8 0 15.5 6.5t7.5 18.5v61q0 13 -7 19.5t-15 6.5h-24v-112h23zM15 408q0 90 34.5 165t91 128.5t127.5 83.5t144 30q93 0 170 -33t132.5 -89t86 -129.5t30.5 -155.5q0 -85 -32 -159t-87.5 -129.5t-130 -87.5t-158.5 -32q-85 0 -159 32t-129.5 87.5t-87.5 129.5t-32 159z
M729 408q0 67 -26 123t-68.5 96.5t-96 63t-108.5 22.5q-70 0 -127.5 -25t-98.5 -67t-63.5 -97t-22.5 -116q0 -64 23.5 -119.5t65 -97t97 -65.5t119.5 -24q63 0 118.5 24t97.5 65.5t66 97t24 119.5z" />
    <glyph glyph-name="ring" unicode="&#x2da;" horiz-adv-x="300" 
d="M58 792q0 19 7 36t19.5 29.5t29.5 19.5t36 7q39 0 66 -26.5t27 -65.5q0 -19 -7.5 -36t-20 -29.5t-29.5 -19.5t-36 -7t-36 7t-29.5 19.5t-19.5 29.5t-7 36zM186 791q0 14 -11 25t-26 11q-14 0 -25 -10.5t-11 -25.5q0 -16 11 -26.5t25 -10.5q15 0 26 11t11 26z" />
    <glyph glyph-name="s" unicode="s" horiz-adv-x="344" 
d="M171 88q8 0 14.5 6.5t6.5 18.5v93q0 24 -12.5 41t-32 31.5t-41.5 28t-41.5 31.5t-32 41.5t-12.5 57.5v87q0 72 26.5 100.5t86.5 28.5h70q63 0 89.5 -29.5t26.5 -99.5v-71q0 -8 -6 -14t-14 -6h-87q-8 0 -14 6t-6 14v82q0 12 -6 18.5t-14 6.5t-14.5 -6.5t-6.5 -18.5v-74
q0 -23 13 -39t32 -30t41.5 -28t41.5 -33t32 -45t13 -64v-98q0 -72 -26.5 -101t-86.5 -29h-71q-62 0 -88.5 30t-26.5 100v91q0 8 6 14t14 6h86q8 0 14 -6t6 -14v-102q0 -12 6 -18.5t14 -6.5z" />
    <glyph glyph-name="sacute" unicode="&#x15b;" horiz-adv-x="344" 
d="M171 88q8 0 14.5 6.5t6.5 18.5v93q0 24 -12.5 41t-32 31.5t-41.5 28t-41.5 31.5t-32 41.5t-12.5 57.5v87q0 72 26.5 100.5t86.5 28.5h70q63 0 89.5 -29.5t26.5 -99.5v-71q0 -8 -6 -14t-14 -6h-87q-8 0 -14 6t-6 14v82q0 12 -6 18.5t-14 6.5t-14.5 -6.5t-6.5 -18.5v-74
q0 -23 13 -39t32 -30t41.5 -28t41.5 -33t32 -45t13 -64v-98q0 -72 -26.5 -101t-86.5 -29h-71q-62 0 -88.5 30t-26.5 100v91q0 8 6 14t14 6h86q8 0 14 -6t6 -14v-102q0 -12 6 -18.5t14 -6.5zM177 801q12 17 31 17h117q5 0 7 -4.5t-3 -8.5l-113 -92q-16 -13 -36 -13h-49
q-7 0 -10 5.5t1 11.5z" />
    <glyph glyph-name="scaron" unicode="&#x161;" horiz-adv-x="344" 
d="M171 88q8 0 14.5 6.5t6.5 18.5v93q0 24 -12.5 41t-32 31.5t-41.5 28t-41.5 31.5t-32 41.5t-12.5 57.5v87q0 72 26.5 100.5t86.5 28.5h70q63 0 89.5 -29.5t26.5 -99.5v-71q0 -8 -6 -14t-14 -6h-87q-8 0 -14 6t-6 14v82q0 12 -6 18.5t-14 6.5t-14.5 -6.5t-6.5 -18.5v-74
q0 -23 13 -39t32 -30t41.5 -28t41.5 -33t32 -45t13 -64v-98q0 -72 -26.5 -101t-86.5 -29h-71q-62 0 -88.5 30t-26.5 100v91q0 8 6 14t14 6h86q8 0 14 -6t6 -14v-102q0 -12 6 -18.5t14 -6.5zM104 824q20 0 33 -15l38 -43l36 43q13 15 33 15h79q6 0 8.5 -5t-1.5 -10l-80 -94
q-13 -15 -33 -15h-83q-19 0 -34 15l-86 94q-5 5 -2.5 10t8.5 5h84z" />
    <glyph glyph-name="scedilla" unicode="&#x15f;" horiz-adv-x="344" 
d="M196 -113q0 14 -10.5 21.5t-27.5 7.5h-6q-5 0 -5 4l-3 74q-65 0 -92 30t-27 100v91q0 8 6 14t14 6h86q8 0 14 -6t6 -14v-102q0 -12 6 -18.5t14 -6.5t14.5 6.5t6.5 18.5v93q0 24 -12.5 41t-32 31.5t-41.5 28t-41.5 31.5t-32 41.5t-12.5 57.5v87q0 72 26.5 100.5t86.5 28.5
h70q63 0 89.5 -29.5t26.5 -99.5v-71q0 -8 -6 -14t-14 -6h-87q-8 0 -14 6t-6 14v82q0 12 -6 18.5t-14 6.5t-14.5 -6.5t-6.5 -18.5v-74q0 -23 13 -39t32 -30t41.5 -28t41.5 -33t32 -45t13 -64v-98q0 -72 -26.5 -101t-86.5 -29h-12v-44q30 -2 46.5 -18t16.5 -40q0 -16 -7 -31
t-19.5 -26t-29.5 -18t-37 -7q-25 0 -46.5 12.5t-33.5 37.5q-3 6 1 12.5t11 6.5h28q9 0 13.5 -2t12.5 -10q6 -6 16 -6q25 0 25 26z" />
    <glyph glyph-name="scircumflex" unicode="&#x15d;" horiz-adv-x="344" 
d="M171 88q8 0 14.5 6.5t6.5 18.5v93q0 24 -12.5 41t-32 31.5t-41.5 28t-41.5 31.5t-32 41.5t-12.5 57.5v87q0 72 26.5 100.5t86.5 28.5h70q63 0 89.5 -29.5t26.5 -99.5v-71q0 -8 -6 -14t-14 -6h-87q-8 0 -14 6t-6 14v82q0 12 -6 18.5t-14 6.5t-14.5 -6.5t-6.5 -18.5v-74
q0 -23 13 -39t32 -30t41.5 -28t41.5 -33t32 -45t13 -64v-98q0 -72 -26.5 -101t-86.5 -29h-71q-62 0 -88.5 30t-26.5 100v91q0 8 6 14t14 6h86q8 0 14 -6t6 -14v-102q0 -12 6 -18.5t14 -6.5zM244 700q-20 0 -33 15l-36 42l-38 -42q-13 -15 -33 -15h-84q-6 0 -8.5 5t2.5 10
l86 94q15 15 34 15h83q20 0 33 -15l80 -94q4 -5 1.5 -10t-8.5 -5h-79z" />
    <glyph glyph-name="scommaaccent" unicode="&#x219;" horiz-adv-x="344" 
d="M171 88q8 0 14.5 6.5t6.5 18.5v93q0 24 -12.5 41t-32 31.5t-41.5 28t-41.5 31.5t-32 41.5t-12.5 57.5v87q0 72 26.5 100.5t86.5 28.5h70q63 0 89.5 -29.5t26.5 -99.5v-71q0 -8 -6 -14t-14 -6h-87q-8 0 -14 6t-6 14v82q0 12 -6 18.5t-14 6.5t-14.5 -6.5t-6.5 -18.5v-74
q0 -23 13 -39t32 -30t41.5 -28t41.5 -33t32 -45t13 -64v-98q0 -72 -26.5 -101t-86.5 -29h-71q-62 0 -88.5 30t-26.5 100v91q0 8 6 14t14 6h86q8 0 14 -6t6 -14v-102q0 -12 6 -18.5t14 -6.5zM219 -70q8 0 14 -6t6 -14v-81q0 -19 -12 -36l-87 -108q-2 -3 -5 -1.5t-2 4.5
l30 121h-35q-8 0 -14 6t-6 14v81q0 8 6 14t14 6h91z" />
    <glyph glyph-name="section" unicode="&#xa7;" 
d="M176 -8q8 0 14.5 6.5t6.5 18.5v13q0 24 -12.5 41t-32 31.5t-41.5 28t-41.5 31.5t-32 41.5t-12.5 57.5v87q0 61 19 90t61 36q-15 10 -29.5 22.5t-26 27.5t-18 34t-6.5 43v37q0 72 26.5 100.5t86.5 28.5h70q63 0 89.5 -29.5t26.5 -99.5v-21q0 -8 -5.5 -14t-13.5 -6h-88
q-8 0 -14 6t-6 14v32q0 12 -6 18.5t-14 6.5t-14.5 -6.5t-6.5 -18.5v-24q0 -23 13 -39t32 -30t41.5 -28t41.5 -33t32 -45t13 -64v-98q0 -53 -14 -82t-44 -40q24 -20 41 -47.5t17 -72.5v-18q0 -72 -26.5 -101t-86.5 -29h-71q-62 0 -88.5 30t-26.5 100v17q0 5 4.5 9.5t10.5 4.5
h91q8 0 14 -6t6 -14v-22q0 -12 6 -18.5t14 -6.5zM156 285q0 -10 3 -21.5t17 -11.5q8 0 14.5 5t6.5 16v90q0 10 -6 15.5t-14 5.5t-14.5 -6.5t-6.5 -18.5v-74z" />
    <glyph glyph-name="semicolon" unicode=";" horiz-adv-x="171" 
d="M131 471q8 0 14 -6t6 -14v-81q0 -8 -6 -14t-14 -6h-91q-8 0 -14 6t-6 14v81q0 8 6 14t14 6h91zM131 121q8 0 14 -6t6 -14v-81q0 -19 -12 -36l-87 -108q-2 -3 -5 -1.5t-2 4.5l30 121h-35q-8 0 -14 6t-6 14v81q0 8 6 14t14 6h91z" />
    <glyph glyph-name="seven" unicode="7" horiz-adv-x="286" 
d="M276 723q0 -8 -0.5 -20t-2.5 -20l-109 -663q-2 -8 -8.5 -14t-14.5 -6h-94q-8 0 -13 6t-4 14l120 694h-120q-8 0 -14 6t-6 14v60q0 8 6 14t14 6h226q8 0 14 -6t6 -14v-71z" />
    <glyph glyph-name="six" unicode="6" horiz-adv-x="360" 
d="M180 716q-8 0 -15 -6.5t-7 -19.5l-1 -226q14 20 37 24.5t43 4.5q31 0 50.5 -5.5t30 -19t14 -36t3.5 -56.5v-250q0 -71 -29.5 -100.5t-91.5 -29.5h-68q-62 0 -91.5 29.5t-29.5 100.5v564q0 71 29.5 100.5t91.5 29.5h68q62 0 91.5 -29.5t29.5 -100.5v-124q0 -8 -6 -14
t-14 -6h-93q-8 0 -14 6t-6 14v124q0 13 -7 19.5t-15 6.5zM180 100q8 0 15 6.5t7 19.5v247q0 12 -7.5 18.5t-15.5 6.5t-14.5 -7t-6.5 -18v-247q0 -13 7 -19.5t15 -6.5z" />
    <glyph glyph-name="slash" unicode="/" horiz-adv-x="349" 
d="M230 810q5 19 25 19h73q8 0 12.5 -6t2.5 -13l-223 -805q-5 -19 -25 -19h-74q-8 0 -12.5 6t-2.5 13z" />
    <glyph glyph-name="Abreve" unicode="&#x102;" horiz-adv-x="374" 
d="M20 0q-8 0 -13.5 6t-4.5 14l77 774q1 8 7.5 14t14.5 6h175q8 0 14.5 -6t7.5 -14l74 -774q1 -8 -4.5 -14t-13.5 -6h-96q-8 0 -14.5 6t-7.5 14l-14 185h-70l-14 -185q0 -8 -6.5 -14t-14.5 -6h-97zM187 674l-27 -359h54zM186 866q-51 0 -82.5 28t-39.5 85q-1 8 4 14t13 6h34
q20 0 25 -20q5 -18 14.5 -29.5t31.5 -11.5t32 11.5t15 29.5q5 20 26 20h33q8 0 13 -6t4 -14q-8 -57 -40 -85t-83 -28z" />
    <glyph glyph-name="sterling" unicode="&#xa3;" horiz-adv-x="412" 
d="M40 367q-8 0 -14 6t-6 14v10q0 8 6 14t14 6h22v272q0 73 26 101.5t86 28.5h92q63 0 92 -29.5t29 -100.5v-125q0 -8 -6 -14t-14 -6h-97q-8 0 -14 6t-6 14v125q0 13 -7 19.5t-15 6.5t-16 -6.5t-8 -19.5v-272h160q8 0 14 -6t6 -14v-10q0 -8 -6 -14t-14 -6h-160v-52h160
q8 0 14 -6t6 -14v-10q0 -8 -6 -14t-14 -6h-160v-155h163q8 0 14 -6t6 -14v-70q0 -8 -6 -14t-14 -6h-327q-8 0 -14 6t-6 14v70q0 8 6 14t14 6h22v155h-22q-8 0 -14 6t-6 14v10q0 8 6 14t14 6h22v52h-22z" />
    <glyph glyph-name="summation" unicode="&#x2211;" horiz-adv-x="304" 
d="M22 683q-7 19 -7 39v72q0 8 6 14t14 6h234q8 0 14 -6t6 -14v-60q0 -8 -6 -14t-14 -6h-121l105 -284q6 -19 0 -38l-105 -292h121q8 0 14 -6t6 -14v-60q0 -8 -6 -14t-14 -6h-234q-8 0 -14 6t-6 14v72q0 20 7 39l97 280z" />
    <glyph glyph-name="t" unicode="t" horiz-adv-x="222" 
d="M25 558q-8 0 -14 6t-6 14v50q0 8 6 14t14 6h13v67q0 8 6 14t14 6h92q8 0 14 -6t6 -14v-67h25q8 0 14 -6t6 -14v-50q0 -8 -6 -14t-14 -6h-25v-442q0 -13 6 -19.5t14 -6.5h15q5 0 8.5 -3.5t3.5 -8.5v-58q0 -8 -6 -14t-14 -6h-82q-25 0 -40 7.5t-23.5 22.5t-11 37t-2.5 51
v440h-13z" />
    <glyph glyph-name="tbar" unicode="&#x167;" horiz-adv-x="242" 
d="M5 465q0 8 6 14t14 6h23v73h-13q-8 0 -14 6t-6 14v50q0 8 6 14t14 6h13v67q0 8 6 14t14 6h92q8 0 14 -6t6 -14v-67h25q8 0 14 -6t6 -14v-50q0 -8 -6 -14t-14 -6h-25v-73h37q8 0 14 -6t6 -14v-35q0 -8 -6 -14t-14 -6h-37v-294q0 -13 6 -19.5t14 -6.5h15q5 0 8.5 -3.5
t3.5 -8.5v-58q0 -8 -6 -14t-14 -6h-82q-25 0 -40 7.5t-23.5 22.5t-11 37t-2.5 51v292h-23q-8 0 -14 6t-6 14v35z" />
    <glyph glyph-name="tcaron" unicode="&#x165;" horiz-adv-x="290" 
d="M25 558q-8 0 -14 6t-6 14v50q0 8 6 14t14 6h13v67q0 8 6 14t14 6h92q8 0 14 -6t6 -14v-67h25q8 0 14 -6t6 -14v-50q0 -8 -6 -14t-14 -6h-25v-442q0 -13 6 -19.5t14 -6.5h15q5 0 8.5 -3.5t3.5 -8.5v-58q0 -8 -6 -14t-14 -6h-82q-25 0 -40 7.5t-23.5 22.5t-11 37t-2.5 51
v440h-13zM327 814q8 0 14 -6t6 -14v-81q0 -20 -13 -35l-85 -106q-2 -2 -5.5 -0.5t-2.5 4.5l30 117h-35q-8 0 -14 6t-6 14v81q0 8 6 14t14 6h91z" />
    <glyph glyph-name="tcommaaccent" unicode="&#x163;" horiz-adv-x="222" 
d="M25 558q-8 0 -14 6t-6 14v50q0 8 6 14t14 6h13v67q0 8 6 14t14 6h92q8 0 14 -6t6 -14v-67h25q8 0 14 -6t6 -14v-50q0 -8 -6 -14t-14 -6h-25v-442q0 -13 6 -19.5t14 -6.5h15q5 0 8.5 -3.5t3.5 -8.5v-58q0 -8 -6 -14t-14 -6h-82q-25 0 -40 7.5t-23.5 22.5t-11 37t-2.5 51
v440h-13zM176 -70q8 0 14 -6t6 -14v-81q0 -19 -12 -36l-87 -108q-2 -3 -5 -1.5t-2 4.5l30 121h-35q-8 0 -14 6t-6 14v81q0 8 6 14t14 6h91z" />
    <glyph glyph-name="thorn" unicode="&#xfe;" 
d="M232 657q21 0 38.5 -5t30.5 -18.5t20.5 -37.5t7.5 -61v-418q0 -38 -7.5 -62t-20.5 -37.5t-30.5 -18.5t-38.5 -5q-17 0 -38.5 8t-37.5 24v-156q0 -8 -6 -14t-14 -6h-91q-8 0 -14 6t-6 14v924q0 8 6 14t14 6h91q8 0 14 -6t6 -14v-169q16 16 37.5 24t38.5 8zM177 558
q-8 0 -14.5 -6.5t-6.5 -19.5v-413q0 -13 6.5 -19t14.5 -6t14 6t6 19v413q0 13 -6 19.5t-14 6.5z" />
    <glyph glyph-name="three" unicode="3" horiz-adv-x="360" 
d="M180 716q-8 0 -15 -6.5t-7 -19.5v-110q0 -8 -6 -14t-14 -6h-93q-8 0 -14 6t-6 14v110q0 71 29.5 100.5t91.5 29.5h68q62 0 91.5 -29.5t29.5 -100.5v-140q0 -62 -18.5 -91t-60.5 -37q42 -7 60.5 -36.5t18.5 -90.5v-169q0 -71 -29.5 -100.5t-91.5 -29.5h-68
q-62 0 -91.5 29.5t-29.5 100.5v144q0 8 6 14t14 6h93q8 0 14 -6t6 -14v-144q0 -13 7 -19.5t15 -6.5t15 6.5t7 19.5v217q0 12 -7.5 18.5t-15.5 6.5h-51q-8 0 -14 6t-6 14v66q0 8 6 14t14 6h53q8 0 14.5 7t6.5 18v191q0 13 -7 19.5t-15 6.5z" />
    <glyph glyph-name="tilde" unicode="&#x2dc;" horiz-adv-x="300" 
d="M170 807q12 -5 24 -9t23 -4q26 0 40 22q10 16 26 5l38 -27q6 -5 8 -13.5t-3 -15.5q-19 -32 -43.5 -47t-50.5 -15q-13 0 -30.5 4t-34.5 11l-32 13q-11 5 -23.5 9t-23.5 4q-14 0 -24.5 -7.5t-19.5 -19.5q-12 -17 -28 -5l-35 23q-7 5 -8.5 13t3.5 15q21 32 45 50t56 18
q19 0 35 -4.5t31 -9.5l27 -10v0z" />
    <glyph glyph-name="trademark" unicode="&#x2122;" horiz-adv-x="723" 
d="M108 360q-8 0 -14 6t-6 14v344h-58q-8 0 -14 6t-6 14v50q0 8 6 14t14 6h229q8 0 14 -6t6 -14v-50q0 -8 -6 -14t-14 -6h-58v-344q0 -8 -6 -14t-14 -6h-73zM592 658l-63 -278q-2 -9 -9 -14.5t-15 -5.5h-2q-8 0 -15 5.5t-9 13.5l-64 279v-278q0 -8 -6 -14t-14 -6h-61
q-8 0 -14 6t-6 14v414q0 8 6 14t14 6h94q20 0 27 -19l58 -156l59 156q7 19 27 19h84q8 0 14 -6t6 -14v-414q0 -8 -6 -14t-14 -6h-71q-8 0 -14 6t-6 14v278z" />
    <glyph glyph-name="two" unicode="2" horiz-adv-x="351" 
d="M40 0q-8 0 -14 6t-6 14v130q0 38 12.5 71.5t31.5 65.5t41 63.5t41 65.5t31.5 71t12.5 80v125q0 12 -6.5 18.5t-16.5 6.5q-9 0 -15.5 -6.5t-6.5 -18.5v-132q0 -8 -6 -14t-14 -6h-83q-8 0 -14 6t-6 14v131q0 35 5 59.5t17 40t32.5 22.5t51.5 7h80q60 0 86.5 -28.5
t26.5 -100.5v-164q0 -42 -12 -79t-30 -70.5t-39.5 -65t-39.5 -62.5t-30 -62.5t-12 -65.5v-22h153q8 0 14 -6t6 -14v-60q0 -8 -6 -14t-14 -6h-271z" />
    <glyph glyph-name="u" unicode="u" 
d="M176 90q8 0 14.5 6.5t6.5 19.5v512q0 8 6 14t14 6h92q8 0 14 -6t6 -14v-608q0 -8 -6 -14t-14 -6h-80q-19 0 -29 18l-1 3q-15 -16 -38 -23t-40 -7q-21 0 -38.5 5t-30 18.5t-20 37t-7.5 61.5v515q0 8 6 14t14 6h91q8 0 14 -6t6 -14v-512q0 -13 6 -19.5t14 -6.5z" />
    <glyph glyph-name="uacute" unicode="&#xfa;" 
d="M176 90q8 0 14.5 6.5t6.5 19.5v512q0 8 6 14t14 6h92q8 0 14 -6t6 -14v-608q0 -8 -6 -14t-14 -6h-80q-19 0 -29 18l-1 3q-15 -16 -38 -23t-40 -7q-21 0 -38.5 5t-30 18.5t-20 37t-7.5 61.5v515q0 8 6 14t14 6h91q8 0 14 -6t6 -14v-512q0 -13 6 -19.5t14 -6.5zM186 801
q12 17 31 17h117q5 0 7 -4.5t-3 -8.5l-113 -92q-16 -13 -36 -13h-49q-7 0 -10 5.5t1 11.5z" />
    <glyph glyph-name="ubreve" unicode="&#x16d;" 
d="M176 90q8 0 14.5 6.5t6.5 19.5v512q0 8 6 14t14 6h92q8 0 14 -6t6 -14v-608q0 -8 -6 -14t-14 -6h-80q-19 0 -29 18l-1 3q-15 -16 -38 -23t-40 -7q-21 0 -38.5 5t-30 18.5t-20 37t-7.5 61.5v515q0 8 6 14t14 6h91q8 0 14 -6t6 -14v-512q0 -13 6 -19.5t14 -6.5zM176 700
q-51 0 -82.5 28t-39.5 85q-1 8 4 14t13 6h34q20 0 25 -20q5 -18 14.5 -29.5t31.5 -11.5t32 11.5t15 29.5q5 20 26 20h33q8 0 13 -6t4 -14q-8 -57 -40 -85t-83 -28z" />
    <glyph glyph-name="ucircumflex" unicode="&#xfb;" 
d="M176 90q8 0 14.5 6.5t6.5 19.5v512q0 8 6 14t14 6h92q8 0 14 -6t6 -14v-608q0 -8 -6 -14t-14 -6h-80q-19 0 -29 18l-1 3q-15 -16 -38 -23t-40 -7q-21 0 -38.5 5t-30 18.5t-20 37t-7.5 61.5v515q0 8 6 14t14 6h91q8 0 14 -6t6 -14v-512q0 -13 6 -19.5t14 -6.5zM249 700
q-20 0 -33 15l-36 42l-38 -42q-13 -15 -33 -15h-84q-6 0 -8.5 5t2.5 10l86 94q15 15 34 15h83q20 0 33 -15l80 -94q4 -5 1.5 -10t-8.5 -5h-79z" />
    <glyph glyph-name="udieresis" unicode="&#xfc;" 
d="M176 90q8 0 14.5 6.5t6.5 19.5v512q0 8 6 14t14 6h92q8 0 14 -6t6 -14v-608q0 -8 -6 -14t-14 -6h-80q-19 0 -29 18l-1 3q-15 -16 -38 -23t-40 -7q-21 0 -38.5 5t-30 18.5t-20 37t-7.5 61.5v515q0 8 6 14t14 6h91q8 0 14 -6t6 -14v-512q0 -13 6 -19.5t14 -6.5zM24 794
q0 8 6 14t14 6h73q8 0 14 -6t6 -14v-74q0 -8 -6 -14t-14 -6h-73q-8 0 -14 6t-6 14v74zM215 794q0 8 6 14t14 6h75q8 0 14 -6t6 -14v-74q0 -8 -6 -14t-14 -6h-75q-8 0 -14 6t-6 14v74z" />
    <glyph glyph-name="ugrave" unicode="&#xf9;" 
d="M176 90q8 0 14.5 6.5t6.5 19.5v512q0 8 6 14t14 6h92q8 0 14 -6t6 -14v-608q0 -8 -6 -14t-14 -6h-80q-19 0 -29 18l-1 3q-15 -16 -38 -23t-40 -7q-21 0 -38.5 5t-30 18.5t-20 37t-7.5 61.5v515q0 8 6 14t14 6h91q8 0 14 -6t6 -14v-512q0 -13 6 -19.5t14 -6.5zM185 700
q-20 0 -36 13l-113 92q-5 4 -3 8.5t7 4.5h117q19 0 31 -17l55 -84q4 -6 1 -11.5t-10 -5.5h-49z" />
    <glyph glyph-name="uhungarumlaut" unicode="&#x171;" 
d="M176 90q8 0 14.5 6.5t6.5 19.5v512q0 8 6 14t14 6h92q8 0 14 -6t6 -14v-608q0 -8 -6 -14t-14 -6h-80q-19 0 -29 18l-1 3q-15 -16 -38 -23t-40 -7q-21 0 -38.5 5t-30 18.5t-20 37t-7.5 61.5v515q0 8 6 14t14 6h91q8 0 14 -6t6 -14v-512q0 -13 6 -19.5t14 -6.5zM113 817
q7 19 27 19h79q6 0 9 -5.5t-1 -10.5l-82 -103q-5 -8 -14 -12t-18 -4h-25q-8 0 -11.5 6t-1.5 13zM264 817q7 19 27 19h79q6 0 9 -5.5t-1 -10.5l-82 -103q-5 -8 -14 -12t-18 -4h-25q-8 0 -11.5 6t-1.5 13z" />
    <glyph glyph-name="umacron" unicode="&#x16b;" 
d="M176 90q8 0 14.5 6.5t6.5 19.5v512q0 8 6 14t14 6h92q8 0 14 -6t6 -14v-608q0 -8 -6 -14t-14 -6h-80q-19 0 -29 18l-1 3q-15 -16 -38 -23t-40 -7q-21 0 -38.5 5t-30 18.5t-20 37t-7.5 61.5v515q0 8 6 14t14 6h91q8 0 14 -6t6 -14v-512q0 -13 6 -19.5t14 -6.5zM2 755
q0 8 6 14t14 6h310q8 0 14 -6t6 -14v-35q0 -8 -6 -14t-14 -6h-310q-8 0 -14 6t-6 14v35z" />
    <glyph glyph-name="underscore" unicode="_" horiz-adv-x="380" 
d="M20 -45q-8 0 -14 6t-6 14v50q0 8 6 14t14 6h340q8 0 14 -6t6 -14v-50q0 -8 -6 -14t-14 -6h-340z" />
    <glyph glyph-name="uni00A0" unicode="&#xa0;" horiz-adv-x="175" 
 />
    <glyph glyph-name="uni00AD" unicode="&#xad;" horiz-adv-x="260" 
d="M30 279q-8 0 -14 6t-6 14v50q0 8 6 14t14 6h200q8 0 14 -6t6 -14v-50q0 -8 -6 -14t-14 -6h-200z" />
    <glyph glyph-name="uni1E02" unicode="&#x1e02;" horiz-adv-x="381" 
d="M282 422q42 -7 60.5 -36.5t18.5 -90.5v-165q0 -71 -29.5 -100.5t-91.5 -29.5h-190q-8 0 -14 6t-6 14v774q0 8 6 14t14 6h190q62 0 91.5 -29.5t29.5 -100.5v-134q0 -62 -18.5 -91t-60.5 -37zM196 104q8 0 15 6.5t7 19.5v213q0 12 -7.5 18.5t-15.5 6.5h-23v-264h24z
M195 474q8 0 15.5 6.5t7.5 18.5v185q0 13 -7 19.5t-15 6.5h-24v-236h23zM123 960q0 8 6 14t14 6h72q8 0 14 -6t6 -14v-74q0 -8 -6 -14t-14 -6h-72q-8 0 -14 6t-6 14v74z" />
    <glyph glyph-name="uni1E03" unicode="&#x1e03;" 
d="M232 657q21 0 38.5 -5t30.5 -18.5t20.5 -37.5t7.5 -61v-418q0 -38 -7.5 -62t-20.5 -37.5t-30.5 -18.5t-38.5 -5q-17 0 -38.5 8t-37.5 24l-3 -8q-8 -18 -28 -18h-80q-8 0 -14 6t-6 14v774q0 8 6 14t14 6h91q8 0 14 -6t6 -14v-169q16 16 37.5 24t38.5 8zM177 558
q-8 0 -14.5 -6.5t-6.5 -19.5v-413q0 -13 6.5 -19t14.5 -6t14 6t6 19v413q0 13 -6 19.5t-14 6.5zM201 794q0 8 6 14t14 6h72q8 0 14 -6t6 -14v-74q0 -8 -6 -14t-14 -6h-72q-8 0 -14 6t-6 14v74z" />
    <glyph glyph-name="uni1E0A" unicode="&#x1e0a;" horiz-adv-x="386" 
d="M240 814q62 0 91.5 -29.5t29.5 -100.5v-554q0 -73 -26.5 -101.5t-86.5 -28.5h-198q-8 0 -14 6t-6 14v774q0 8 6 14t14 6h190zM195 105q8 0 15.5 6.5t7.5 18.5v554q0 13 -7 19.5t-15 6.5h-24v-605h23zM121 960q0 8 6 14t14 6h72q8 0 14 -6t6 -14v-74q0 -8 -6 -14t-14 -6
h-72q-8 0 -14 6t-6 14v74z" />
    <glyph glyph-name="uni1E0B" unicode="&#x1e0b;" 
d="M121 -6q-21 0 -38.5 5t-30 18.5t-20 37.5t-7.5 62v418q0 37 7.5 61t20 37.5t30 18.5t38.5 5q17 0 38.5 -8t37.5 -24v169q0 8 6 14t14 6h92q8 0 14 -6t6 -14v-774q0 -8 -6 -14t-14 -6h-81q-20 0 -28 18l-3 8q-16 -16 -37.5 -24t-38.5 -8zM176 94q8 0 14.5 6t6.5 19v413
q0 13 -6.5 19.5t-14.5 6.5t-14 -6.5t-6 -19.5v-413q0 -13 6 -19t14 -6zM42 794q0 8 6 14t14 6h72q8 0 14 -6t6 -14v-74q0 -8 -6 -14t-14 -6h-72q-8 0 -14 6t-6 14v74z" />
    <glyph glyph-name="uni1E1E" unicode="&#x1e1e;" horiz-adv-x="289" 
d="M172 359v-339q0 -8 -6 -14t-14 -6h-102q-8 0 -14 6t-6 14v774q0 8 6 14t14 6h209q8 0 14 -6t6 -14v-70q0 -8 -6 -14t-14 -6h-87v-235h77q8 0 14 -6t6 -14v-70q0 -8 -6 -14t-14 -6h-77zM91 960q0 8 6 14t14 6h72q8 0 14 -6t6 -14v-74q0 -8 -6 -14t-14 -6h-72q-8 0 -14 6
t-6 14v74z" />
    <glyph glyph-name="uni1E1F" unicode="&#x1e1f;" horiz-adv-x="222" 
d="M25 558q-8 0 -14 6t-6 14v50q0 8 6 14t14 6h13v48q0 37 6 60t18.5 36t31 17.5t43.5 4.5h60q8 0 14 -6t6 -14v-57q0 -5 -3.5 -9t-8.5 -4h-15q-8 0 -14 -6.5t-6 -19.5v-50h25q8 0 14 -6t6 -14v-50q0 -8 -6 -14t-14 -6h-25v-538q0 -8 -6 -14t-14 -6h-92q-8 0 -14 6t-6 14
v538h-13zM76 965q0 8 6 14t14 6h72q8 0 14 -6t6 -14v-74q0 -8 -6 -14t-14 -6h-72q-8 0 -14 6t-6 14v74z" />
    <glyph glyph-name="uni1E40" unicode="&#x1e40;" horiz-adv-x="519" 
d="M358 478l-64 -458q-2 -8 -8.5 -14t-14.5 -6h-22q-8 0 -14.5 6t-8.5 14l-65 458v-458q0 -8 -6 -14t-14 -6h-91q-8 0 -14 6t-6 14v774q0 8 6 14t14 6h124q8 0 14.5 -6t8.5 -14l62 -375l63 375q2 8 8.5 14t14.5 6h124q8 0 14 -6t6 -14v-774q0 -8 -6 -14t-14 -6h-91
q-8 0 -14 6t-6 14v458zM203 960q0 8 6 14t14 6h72q8 0 14 -6t6 -14v-74q0 -8 -6 -14t-14 -6h-72q-8 0 -14 6t-6 14v74z" />
    <glyph glyph-name="uni1E41" unicode="&#x1e41;" horiz-adv-x="527" 
d="M177 558q-8 0 -14.5 -6.5t-6.5 -19.5v-512q0 -8 -6 -14t-14 -6h-91q-8 0 -14 6t-6 14v608q0 8 6 14t14 6h78q9 0 17 -5t12 -13l2 -3q16 16 38.5 23t39.5 7q27 0 48 -9t34 -34q19 25 46.5 34t44.5 9q21 0 38.5 -5t30.5 -18.5t20.5 -37.5t7.5 -61v-515q0 -8 -6 -14t-14 -6
h-92q-8 0 -14 6t-6 14v512q0 13 -6 19.5t-14 6.5q-19 0 -21 -23v-515q0 -8 -6 -14t-14 -6h-92q-8 0 -14 6t-6 14v512q0 13 -6 19.5t-14 6.5zM207 794q0 8 6 14t14 6h72q8 0 14 -6t6 -14v-74q0 -8 -6 -14t-14 -6h-72q-8 0 -14 6t-6 14v74z" />
    <glyph glyph-name="uni1E56" unicode="&#x1e56;" horiz-adv-x="381" 
d="M137 960q0 8 6 14t14 6h72q8 0 14 -6t6 -14v-74q0 -8 -6 -14t-14 -6h-72q-8 0 -14 6t-6 14v74zM361 424q0 -35 -6.5 -58.5t-22.5 -37.5t-44 -20t-71 -6h-45v-282q0 -8 -6 -14t-14 -6h-102q-8 0 -14 6t-6 14v774q0 8 6 14t14 6h190q62 0 91.5 -29.5t29.5 -100.5v-260z
M195 408q8 0 15.5 6.5t7.5 18.5v251q0 13 -7 19.5t-15 6.5h-24v-302h23z" />
    <glyph glyph-name="uni1E57" unicode="&#x1e57;" 
d="M232 653q21 0 38.5 -5t30.5 -18.5t20.5 -37.5t7.5 -61v-418q0 -38 -7.5 -61.5t-20.5 -37t-30.5 -18.5t-38.5 -5q-17 0 -38.5 8t-37.5 24v-153q0 -8 -6 -14t-14 -6h-91q-8 0 -14 6t-6 14v758q0 8 6 14t14 6h80q9 0 16.5 -5.5t11.5 -13.5l3 -8q16 16 37.5 24t38.5 8z
M177 554q-8 0 -14.5 -6t-6.5 -19v-413q0 -13 6.5 -19.5t14.5 -6.5t14 6.5t6 19.5v413q0 13 -6 19t-14 6zM121 794q0 8 6 14t14 6h72q8 0 14 -6t6 -14v-74q0 -8 -6 -14t-14 -6h-72q-8 0 -14 6t-6 14v74z" />
    <glyph glyph-name="uni1E60" unicode="&#x1e60;" horiz-adv-x="364" 
d="M183 95q10 0 16.5 6.5t6.5 18.5v142q0 24 -14 44.5t-34.5 40.5t-44.5 40.5t-44.5 44t-34.5 50.5t-14 61v153q0 72 26.5 100.5t86.5 28.5h90q63 0 89.5 -29.5t26.5 -99.5v-127q0 -8 -6 -14t-14 -6h-93q-8 0 -14 6t-6 14v128q0 12 -6.5 18.5t-15.5 6.5q-10 0 -16.5 -6.5
t-6.5 -18.5v-130q0 -23 13.5 -42t34 -37t44 -37t44 -42.5t34 -52t13.5 -66.5v-169q0 -72 -26.5 -101t-86.5 -29h-91q-62 0 -88.5 30t-26.5 100v150q0 8 6 14t14 6h96q8 0 14 -6t6 -14v-151q0 -25 22 -25zM126 960q0 8 6 14t14 6h72q8 0 14 -6t6 -14v-74q0 -8 -6 -14t-14 -6
h-72q-8 0 -14 6t-6 14v74z" />
    <glyph glyph-name="uni1E61" unicode="&#x1e61;" horiz-adv-x="344" 
d="M171 88q8 0 14.5 6.5t6.5 18.5v93q0 24 -12.5 41t-32 31.5t-41.5 28t-41.5 31.5t-32 41.5t-12.5 57.5v87q0 72 26.5 100.5t86.5 28.5h70q63 0 89.5 -29.5t26.5 -99.5v-71q0 -8 -6 -14t-14 -6h-87q-8 0 -14 6t-6 14v82q0 12 -6 18.5t-14 6.5t-14.5 -6.5t-6.5 -18.5v-74
q0 -23 13 -39t32 -30t41.5 -28t41.5 -33t32 -45t13 -64v-98q0 -72 -26.5 -101t-86.5 -29h-71q-62 0 -88.5 30t-26.5 100v91q0 8 6 14t14 6h86q8 0 14 -6t6 -14v-102q0 -12 6 -18.5t14 -6.5zM116 794q0 8 6 14t14 6h72q8 0 14 -6t6 -14v-74q0 -8 -6 -14t-14 -6h-72
q-8 0 -14 6t-6 14v74z" />
    <glyph glyph-name="uni1E6A" unicode="&#x1e6a;" horiz-adv-x="319" 
d="M108 0q-8 0 -14 6t-6 14v684h-58q-8 0 -14 6t-6 14v70q0 8 6 14t14 6h259q8 0 14 -6t6 -14v-70q0 -8 -6 -14t-14 -6h-58v-684q0 -8 -6 -14t-14 -6h-103zM103 960q0 8 6 14t14 6h72q8 0 14 -6t6 -14v-74q0 -8 -6 -14t-14 -6h-72q-8 0 -14 6t-6 14v74z" />
    <glyph glyph-name="uni1E6B" unicode="&#x1e6b;" horiz-adv-x="222" 
d="M25 558q-8 0 -14 6t-6 14v50q0 8 6 14t14 6h13v67q0 8 6 14t14 6h92q8 0 14 -6t6 -14v-67h25q8 0 14 -6t6 -14v-50q0 -8 -6 -14t-14 -6h-25v-442q0 -13 6 -19.5t14 -6.5h15q5 0 8.5 -3.5t3.5 -8.5v-58q0 -8 -6 -14t-14 -6h-82q-25 0 -40 7.5t-23.5 22.5t-11 37t-2.5 51
v440h-13zM48 894q0 8 6 14t14 6h72q8 0 14 -6t6 -14v-74q0 -8 -6 -14t-14 -6h-72q-8 0 -14 6t-6 14v74z" />
    <glyph glyph-name="uogonek" unicode="&#x173;" 
d="M268 -87q16 0 31 5q19 5 27 -14l3 -6q3 -8 0 -15.5t-11 -10.5q-11 -5 -25 -8.5t-33 -3.5q-42 0 -65 19.5t-23 49.5q0 22 10 38.5t27 32.5l-10 21q-15 -16 -38 -23t-40 -7q-21 0 -38.5 5t-30 18.5t-20 37t-7.5 61.5v515q0 8 6 14t14 6h91q8 0 14 -6t6 -14v-512
q0 -13 6 -19.5t14 -6.5t14.5 6.5t6.5 19.5v512q0 8 6 14t14 6h92q8 0 14 -6t6 -14v-608q0 -8 -6 -14t-14 -6h-36q-17 -17 -27 -31t-10 -28q0 -28 32 -28z" />
    <glyph glyph-name="uring" unicode="&#x16f;" 
d="M176 90q8 0 14.5 6.5t6.5 19.5v512q0 8 6 14t14 6h92q8 0 14 -6t6 -14v-608q0 -8 -6 -14t-14 -6h-80q-19 0 -29 18l-1 3q-15 -16 -38 -23t-40 -7q-21 0 -38.5 5t-30 18.5t-20 37t-7.5 61.5v515q0 8 6 14t14 6h91q8 0 14 -6t6 -14v-512q0 -13 6 -19.5t14 -6.5zM84 792
q0 19 7 36t19.5 29.5t29.5 19.5t36 7q39 0 66 -26.5t27 -65.5q0 -19 -7.5 -36t-20 -29.5t-29.5 -19.5t-36 -7t-36 7t-29.5 19.5t-19.5 29.5t-7 36zM212 791q0 14 -11 25t-26 11q-14 0 -25 -10.5t-11 -25.5q0 -16 11 -26.5t25 -10.5q15 0 26 11t11 26z" />
    <glyph glyph-name="utilde" unicode="&#x169;" 
d="M176 90q8 0 14.5 6.5t6.5 19.5v512q0 8 6 14t14 6h92q8 0 14 -6t6 -14v-608q0 -8 -6 -14t-14 -6h-80q-19 0 -29 18l-1 3q-15 -16 -38 -23t-40 -7q-21 0 -38.5 5t-30 18.5t-20 37t-7.5 61.5v515q0 8 6 14t14 6h91q8 0 14 -6t6 -14v-512q0 -13 6 -19.5t14 -6.5zM196 807
q12 -5 24 -9t23 -4q26 0 40 22q10 16 26 5l38 -27q6 -5 8 -13.5t-3 -15.5q-19 -32 -43.5 -47t-50.5 -15q-13 0 -30.5 4t-34.5 11l-32 13q-11 5 -23.5 9t-23.5 4q-14 0 -24.5 -7.5t-19.5 -19.5q-12 -17 -28 -5l-35 23q-7 5 -8.5 13t3.5 15q21 32 45 50t56 18q19 0 35 -4.5
t31 -9.5z" />
    <glyph glyph-name="v" unicode="v" horiz-adv-x="319" 
d="M96 0q-8 0 -14.5 6t-7.5 14l-72 608q-1 8 4.5 14t13.5 6h87q8 0 14.5 -6t6.5 -14l32 -478l32 478q0 8 6.5 14t14.5 6h86q8 0 13.5 -6t4.5 -14l-69 -608q-1 -8 -7.5 -14t-14.5 -6h-130z" />
    <glyph glyph-name="w" unicode="w" horiz-adv-x="512" 
d="M492 648q8 0 13.5 -6t4.5 -14l-72 -608q-1 -8 -7.5 -14t-14.5 -6h-114q-8 0 -14 6t-7 14l-25 444l-25 -444q-1 -8 -7 -14t-14 -6h-114q-8 0 -14.5 6t-7.5 14l-72 608q-1 8 4.5 14t13.5 6h87q8 0 14.5 -6t6.5 -14l24 -405l25 405q0 8 6.5 14t14.5 6h117q8 0 14.5 -6
t6.5 -14l24 -405l25 405q0 8 6.5 14t14.5 6h86z" />
    <glyph glyph-name="wacute" unicode="&#x1e83;" horiz-adv-x="512" 
d="M492 648q8 0 13.5 -6t4.5 -14l-72 -608q-1 -8 -7.5 -14t-14.5 -6h-114q-8 0 -14 6t-7 14l-25 444l-25 -444q-1 -8 -7 -14t-14 -6h-114q-8 0 -14.5 6t-7.5 14l-72 608q-1 8 4.5 14t13.5 6h87q8 0 14.5 -6t6.5 -14l24 -405l25 405q0 8 6.5 14t14.5 6h117q8 0 14.5 -6
t6.5 -14l24 -405l25 405q0 8 6.5 14t14.5 6h86zM269 801q12 17 31 17h117q5 0 7 -4.5t-3 -8.5l-113 -92q-16 -13 -36 -13h-49q-7 0 -10 5.5t1 11.5z" />
    <glyph glyph-name="wcircumflex" unicode="&#x175;" horiz-adv-x="512" 
d="M492 648q8 0 13.5 -6t4.5 -14l-72 -608q-1 -8 -7.5 -14t-14.5 -6h-114q-8 0 -14 6t-7 14l-25 444l-25 -444q-1 -8 -7 -14t-14 -6h-114q-8 0 -14.5 6t-7.5 14l-72 608q-1 8 4.5 14t13.5 6h87q8 0 14.5 -6t6.5 -14l24 -405l25 405q0 8 6.5 14t14.5 6h117q8 0 14.5 -6
t6.5 -14l24 -405l25 405q0 8 6.5 14t14.5 6h86zM328 700q-20 0 -33 15l-36 42l-38 -42q-13 -15 -33 -15h-84q-6 0 -8.5 5t2.5 10l86 94q15 15 34 15h83q20 0 33 -15l80 -94q4 -5 1.5 -10t-8.5 -5h-79z" />
    <glyph glyph-name="wdieresis" unicode="&#x1e85;" horiz-adv-x="512" 
d="M492 648q8 0 13.5 -6t4.5 -14l-72 -608q-1 -8 -7.5 -14t-14.5 -6h-114q-8 0 -14 6t-7 14l-25 444l-25 -444q-1 -8 -7 -14t-14 -6h-114q-8 0 -14.5 6t-7.5 14l-72 608q-1 8 4.5 14t13.5 6h87q8 0 14.5 -6t6.5 -14l24 -405l25 405q0 8 6.5 14t14.5 6h117q8 0 14.5 -6
t6.5 -14l24 -405l25 405q0 8 6.5 14t14.5 6h86zM103 794q0 8 6 14t14 6h73q8 0 14 -6t6 -14v-74q0 -8 -6 -14t-14 -6h-73q-8 0 -14 6t-6 14v74zM294 794q0 8 6 14t14 6h75q8 0 14 -6t6 -14v-74q0 -8 -6 -14t-14 -6h-75q-8 0 -14 6t-6 14v74z" />
    <glyph glyph-name="wgrave" unicode="&#x1e81;" horiz-adv-x="512" 
d="M492 648q8 0 13.5 -6t4.5 -14l-72 -608q-1 -8 -7.5 -14t-14.5 -6h-114q-8 0 -14 6t-7 14l-25 444l-25 -444q-1 -8 -7 -14t-14 -6h-114q-8 0 -14.5 6t-7.5 14l-72 608q-1 8 4.5 14t13.5 6h87q8 0 14.5 -6t6.5 -14l24 -405l25 405q0 8 6.5 14t14.5 6h117q8 0 14.5 -6
t6.5 -14l24 -405l25 405q0 8 6.5 14t14.5 6h86zM269 700q-20 0 -36 13l-113 92q-5 4 -3 8.5t7 4.5h117q19 0 31 -17l55 -84q4 -6 1 -11.5t-10 -5.5h-49z" />
    <glyph glyph-name="x" unicode="x" horiz-adv-x="341" 
d="M228 0q-8 0 -14.5 6t-8.5 14l-34 240l-35 -240q-2 -8 -8.5 -14t-14.5 -6h-93q-8 0 -13 6t-3 14l60 322l-43 286q-2 8 3.5 14t13.5 6h87q8 0 14.5 -6t7.5 -14l24 -196l23 196q1 8 7.5 14t14.5 6h87q8 0 13.5 -6t3.5 -14l-43 -286l60 -322q2 -8 -3 -14t-13 -6h-93z" />
    <glyph glyph-name="y" unicode="y" horiz-adv-x="319" 
d="M96 0q-8 0 -14.5 6t-7.5 14l-72 608q-1 8 4.5 14t13.5 6h87q8 0 14.5 -6t6.5 -14l32 -467l32 467q0 8 6.5 14t14.5 6h86q8 0 13.5 -6t4.5 -14l-86 -758q-1 -8 -7.5 -14t-14.5 -6h-70q-8 0 -13.5 6t-4.5 14l13 130h-38z" />
    <glyph glyph-name="yacute" unicode="&#xfd;" horiz-adv-x="319" 
d="M96 0q-8 0 -14.5 6t-7.5 14l-72 608q-1 8 4.5 14t13.5 6h87q8 0 14.5 -6t6.5 -14l32 -467l32 467q0 8 6.5 14t14.5 6h86q8 0 13.5 -6t4.5 -14l-86 -758q-1 -8 -7.5 -14t-14.5 -6h-70q-8 0 -13.5 6t-4.5 14l13 130h-38zM162 801q12 17 31 17h117q5 0 7 -4.5t-3 -8.5
l-113 -92q-16 -13 -36 -13h-49q-7 0 -10 5.5t1 11.5z" />
    <glyph glyph-name="ycircumflex" unicode="&#x177;" horiz-adv-x="319" 
d="M96 0q-8 0 -14.5 6t-7.5 14l-72 608q-1 8 4.5 14t13.5 6h87q8 0 14.5 -6t6.5 -14l32 -467l32 467q0 8 6.5 14t14.5 6h86q8 0 13.5 -6t4.5 -14l-86 -758q-1 -8 -7.5 -14t-14.5 -6h-70q-8 0 -13.5 6t-4.5 14l13 130h-38zM232 700q-20 0 -33 15l-36 42l-38 -42
q-13 -15 -33 -15h-84q-6 0 -8.5 5t2.5 10l86 94q15 15 34 15h83q20 0 33 -15l80 -94q4 -5 1.5 -10t-8.5 -5h-79z" />
    <glyph glyph-name="ydieresis" unicode="&#xff;" horiz-adv-x="319" 
d="M96 0q-8 0 -14.5 6t-7.5 14l-72 608q-1 8 4.5 14t13.5 6h87q8 0 14.5 -6t6.5 -14l32 -467l32 467q0 8 6.5 14t14.5 6h86q8 0 13.5 -6t4.5 -14l-86 -758q-1 -8 -7.5 -14t-14.5 -6h-70q-8 0 -13.5 6t-4.5 14l13 130h-38zM6 794q0 8 6 14t14 6h73q8 0 14 -6t6 -14v-74
q0 -8 -6 -14t-14 -6h-73q-8 0 -14 6t-6 14v74zM197 794q0 8 6 14t14 6h75q8 0 14 -6t6 -14v-74q0 -8 -6 -14t-14 -6h-75q-8 0 -14 6t-6 14v74z" />
    <glyph glyph-name="yen" unicode="&#xa5;" horiz-adv-x="357" 
d="M21 235q-8 0 -14 6t-6 14v10q0 8 6 14t14 6h78l-95 509q-2 8 3 14t13 6h95q8 0 14.5 -6t7.5 -14l42 -346l42 346q1 8 7.5 14t14.5 6h94q8 0 13 -6t3 -14l-95 -509h79q8 0 14 -6t6 -14v-10q0 -8 -6 -14t-14 -6h-87v-55h87q8 0 14 -6t6 -14v-10q0 -8 -6 -14t-14 -6h-87
v-110q0 -8 -6 -14t-14 -6h-102q-8 0 -14 6t-6 14v110h-87q-8 0 -14 6t-6 14v10q0 8 6 14t14 6h87v55h-87z" />
    <glyph glyph-name="ygrave" unicode="&#x1ef3;" horiz-adv-x="319" 
d="M96 0q-8 0 -14.5 6t-7.5 14l-72 608q-1 8 4.5 14t13.5 6h87q8 0 14.5 -6t6.5 -14l32 -467l32 467q0 8 6.5 14t14.5 6h86q8 0 13.5 -6t4.5 -14l-86 -758q-1 -8 -7.5 -14t-14.5 -6h-70q-8 0 -13.5 6t-4.5 14l13 130h-38zM157 700q-20 0 -36 13l-113 92q-5 4 -3 8.5t7 4.5
h117q19 0 31 -17l55 -84q4 -6 1 -11.5t-10 -5.5h-49z" />
    <glyph glyph-name="z" unicode="z" horiz-adv-x="269" 
d="M30 0q-8 0 -14 6t-6 14v62q0 8 1.5 19.5t3.5 19.5l121 437h-97q-8 0 -14 6t-6 14v50q0 8 6 14t14 6h205q8 0 14 -6t6 -14v-61q0 -8 -1.5 -19.5t-3.5 -19.5l-121 -438h106q8 0 14 -6t6 -14v-50q0 -8 -6 -14t-14 -6h-214z" />
    <glyph glyph-name="zacute" unicode="&#x17a;" horiz-adv-x="269" 
d="M30 0q-8 0 -14 6t-6 14v62q0 8 1.5 19.5t3.5 19.5l121 437h-97q-8 0 -14 6t-6 14v50q0 8 6 14t14 6h205q8 0 14 -6t6 -14v-61q0 -8 -1.5 -19.5t-3.5 -19.5l-121 -438h106q8 0 14 -6t6 -14v-50q0 -8 -6 -14t-14 -6h-214zM146 801q12 17 31 17h117q5 0 7 -4.5t-3 -8.5
l-113 -92q-16 -13 -36 -13h-49q-7 0 -10 5.5t1 11.5z" />
    <glyph glyph-name="zcaron" unicode="&#x17e;" horiz-adv-x="269" 
d="M30 0q-8 0 -14 6t-6 14v62q0 8 1.5 19.5t3.5 19.5l121 437h-97q-8 0 -14 6t-6 14v50q0 8 6 14t14 6h205q8 0 14 -6t6 -14v-61q0 -8 -1.5 -19.5t-3.5 -19.5l-121 -438h106q8 0 14 -6t6 -14v-50q0 -8 -6 -14t-14 -6h-214zM70 824q20 0 33 -15l38 -43l36 43q13 15 33 15h79
q6 0 8.5 -5t-1.5 -10l-80 -94q-13 -15 -33 -15h-83q-19 0 -34 15l-86 94q-5 5 -2.5 10t8.5 5h84z" />
    <glyph glyph-name="zdotaccent" unicode="&#x17c;" horiz-adv-x="269" 
d="M30 0q-8 0 -14 6t-6 14v62q0 8 1.5 19.5t3.5 19.5l121 437h-97q-8 0 -14 6t-6 14v50q0 8 6 14t14 6h205q8 0 14 -6t6 -14v-61q0 -8 -1.5 -19.5t-3.5 -19.5l-121 -438h106q8 0 14 -6t6 -14v-50q0 -8 -6 -14t-14 -6h-214zM81 794q0 8 6 14t14 6h72q8 0 14 -6t6 -14v-74
q0 -8 -6 -14t-14 -6h-72q-8 0 -14 6t-6 14v74z" />
    <glyph glyph-name="zero" unicode="0" horiz-adv-x="361" 
d="M215 820q62 0 91.5 -29.5t29.5 -100.5v-564q0 -73 -26.5 -101.5t-86.5 -28.5h-78q-62 0 -91 30t-29 100v564q0 73 26 101.5t86 28.5h78zM180 101q8 0 15.5 6.5t7.5 18.5v564q0 13 -7 19.5t-15 6.5t-16 -6.5t-8 -19.5v-564q0 -12 7.5 -18.5t15.5 -6.5z" />
    <glyph glyph-name="A" unicode="A" horiz-adv-x="374" 
d="M20 0q-8 0 -13.5 6t-4.5 14l77 774q1 8 7.5 14t14.5 6h175q8 0 14.5 -6t7.5 -14l74 -774q1 -8 -4.5 -14t-13.5 -6h-96q-8 0 -14.5 6t-7.5 14l-14 185h-70l-14 -185q0 -8 -6.5 -14t-14.5 -6h-97zM187 674l-27 -359h54z" />
    <glyph glyph-name="AE" unicode="&#xc6;" horiz-adv-x="519" 
d="M484 110q8 0 14 -6t6 -14v-70q0 -8 -6 -14t-14 -6h-209q-8 0 -14 6t-6 14v185h-82l-33 -185q-2 -9 -8.5 -14.5t-14.5 -5.5h-97q-8 0 -13 6t-3 14l141 774q2 9 9 14.5t15 5.5h315q8 0 14 -6t6 -14v-70q0 -8 -6 -14t-14 -6h-87v-235h77q8 0 14 -6t6 -14v-70q0 -8 -6 -14
t-14 -6h-77v-249h87zM255 674l-63 -359h63v359z" />
    <glyph glyph-name="Aacute" unicode="&#xc1;" horiz-adv-x="374" 
d="M20 0q-8 0 -13.5 6t-4.5 14l77 774q1 8 7.5 14t14.5 6h175q8 0 14.5 -6t7.5 -14l74 -774q1 -8 -4.5 -14t-13.5 -6h-96q-8 0 -14.5 6t-7.5 14l-14 185h-70l-14 -185q0 -8 -6.5 -14t-14.5 -6h-97zM187 674l-27 -359h54zM194 967q12 17 31 17h117q5 0 7 -4.5t-3 -8.5
l-113 -92q-16 -13 -36 -13h-49q-7 0 -10 5.5t1 11.5z" />
    </font>
</defs>
</svg>
