<?xml version="1.0" standalone="no"?>
<!DOCTYPE svg PUBLIC "-//W3C//DTD SVG 1.1//EN" "http://www.w3.org/Graphics/SVG/1.1/DTD/svg11.dtd" >
<svg xmlns="http://www.w3.org/2000/svg" xmlns:xlink="http://www.w3.org/1999/xlink" version="1.1">
<metadata>
Created by FontForge 20150102 at Mon Jan 26 03:02:21 2015
 By uniteet7
(c)2012 Optimo.
</metadata>
<defs>
<font id="Stanley-Poster" horiz-adv-x="772" >
  <font-face 
    font-family="Stanley"
    font-weight="800"
    font-stretch="normal"
    units-per-em="1000"
    panose-1="2 3 8 6 8 4 8 2 0 3"
    ascent="800"
    descent="-200"
    x-height="490"
    cap-height="710"
    bbox="-69 -253 1137 923"
    underline-thickness="40"
    underline-position="-100"
    stemh="60"
    stemv="165"
    unicode-range="U+000D-FB04"
  />
<missing-glyph horiz-adv-x="365" 
d="M33 0v667h266v-667h-266zM66 33h200v600h-200v-600z" />
    <glyph glyph-name="uniFB01" unicode="fi" horiz-adv-x="679" 
d="M23 0l60 70v360l-57 17v43h55v6c0 160 91 227 188 227c67 0 96 -24 109 -43v-67h-131v-123h357v-420l64 -70h-296l67 70v351h-191v-351l80 -70h-305zM431 633c0 51 39 90 90 90c50 0 89 -39 89 -90c0 -49 -38 -89 -89 -89s-90 40 -90 89z" />
    <glyph glyph-name="uniFB02" unicode="fl" horiz-adv-x="681" 
d="M23 0l60 70v360l-57 17v43h55v6c0 160 119 227 224 227c80 0 124 -18 151 -42l148 39v-650l64 -70h-296l67 70v543h-192v-123h101v-69h-100v-351l80 -70h-305z" />
    <glyph glyph-name="uniFB03" unicode="ffi" horiz-adv-x="1034" 
d="M23 0l60 70v360l-57 17v43h55v6c0 160 91 227 188 227c68 0 110 -26 129 -63v-47h-151v-123h189v6c0 160 91 227 188 227c67 0 96 -24 109 -43v-67h-131v-123h357v-420l64 -70h-296l67 70v350l-1 1h-190v-351l80 -70h-305l60 70v351h-190v-351l80 -70h-305zM786 633
c0 51 39 90 90 90c50 0 89 -39 89 -90c0 -49 -38 -89 -89 -89s-90 40 -90 89z" />
    <glyph glyph-name="uniFB04" unicode="ffl" horiz-adv-x="1036" 
d="M23 0l60 70v360l-57 17v43h55v6c0 160 91 227 188 227c68 0 110 -26 129 -63v-47h-151v-123h189v6c0 160 119 227 224 227c80 0 124 -18 151 -42l148 39v-650l64 -70h-296l67 70v543h-192v-123h101v-69h-100v-351l80 -70h-305l60 70v351h-190v-351l80 -70h-305z" />
    <glyph glyph-name=".notdef" horiz-adv-x="365" 
d="M33 0v667h266v-667h-266zM66 33h200v600h-200v-600z" />
    <glyph glyph-name="glyph3" horiz-adv-x="0" 
 />
    <glyph glyph-name="glyph3" horiz-adv-x="0" 
 />
    <glyph glyph-name="uni000D" unicode="&#xd;" horiz-adv-x="500" 
 />
    <glyph glyph-name="space" unicode=" " horiz-adv-x="240" 
 />
    <glyph glyph-name="exclam" unicode="!" horiz-adv-x="320" 
d="M73 491v219h175v-219l-88 -293zM84 62c0 43 32 76 75 76s76 -33 76 -76s-33 -75 -76 -75s-75 32 -75 75z" />
    <glyph glyph-name="quotedbl" unicode="&#x22;" horiz-adv-x="358" 
d="M63 465v245h78v-245h-78zM217 465v245h78v-245h-78z" />
    <glyph glyph-name="numbersign" unicode="#" horiz-adv-x="593" 
d="M33 204l16 60h90l45 167h-89l15 59h90l60 220h70l-60 -220h129l60 220h70l-60 -220h90l-15 -59h-91l-45 -167h90l-16 -60h-90l-55 -204h-70l55 204h-129l-55 -204h-70l55 204h-90zM209 264h129l45 167h-129z" />
    <glyph glyph-name="dollar" unicode="$" horiz-adv-x="590" 
d="M57 0v267h50l28 -49c35 -60 74 -106 121 -133v184c-96 45 -196 106 -196 253c0 99 72 182 196 198v40h73v-38c53 -3 92 -12 125 -12h55v-241h-50l-13 31c-33 72 -70 122 -117 146v-193c99 -48 216 -105 216 -261c0 -125 -93 -200 -216 -205v-37h-73v39
c-53 4 -88 11 -119 11h-80zM184 583c0 -43 29 -70 72 -94v173c-39 -3 -72 -32 -72 -79zM329 61c7 -1 11 -1 18 -1c48 0 84 18 84 74c0 48 -43 76 -102 103v-176z" />
    <glyph glyph-name="percent" unicode="%" horiz-adv-x="927" 
d="M35 511c0 125 61 212 175 212s175 -85 175 -212c0 -126 -61 -211 -175 -211s-175 86 -175 211zM149 0l527 710h93l-523 -710h-97zM159 511c0 -113 18 -164 51 -164s50 47 50 164s-19 167 -51 167s-50 -52 -50 -167zM543 198c0 125 61 212 175 212s175 -85 175 -212
c0 -126 -61 -211 -175 -211s-175 86 -175 211zM667 198c0 -113 18 -164 51 -164s50 47 50 164s-19 167 -51 167s-50 -52 -50 -167z" />
    <glyph glyph-name="ampersand" unicode="&#x26;" horiz-adv-x="782" 
d="M57 154c0 110 81 166 161 219v1c-64 88 -86 145 -86 196c0 101 96 153 201 153c70 0 202 -19 202 -131c0 -72 -75 -115 -151 -166l134 -175c25 39 49 85 74 144l-58 95h235l-108 -95c-35 -77 -69 -142 -103 -197l99 -128l104 -70h-265l-47 62c-56 -50 -118 -75 -187 -75
c-110 0 -205 67 -205 167zM218 201c0 -48 42 -85 83 -85c35 0 65 4 94 19l-137 184c-25 -32 -40 -71 -40 -118zM276 606c0 -43 33 -82 68 -127c23 31 37 65 37 112c0 57 -19 81 -55 81s-50 -23 -50 -66z" />
    <glyph glyph-name="quotesingle" unicode="'" horiz-adv-x="205" 
d="M63 465v245h79v-245h-79z" />
    <glyph glyph-name="parenleft" unicode="(" horiz-adv-x="324" 
d="M32 260c0 181 95 393 260 481l12 -22c-88 -109 -130 -295 -130 -459c0 -174 58 -369 130 -470l-13 -23c-175 98 -259 306 -259 493z" />
    <glyph glyph-name="parenright" unicode=")" horiz-adv-x="324" 
d="M20 -210c88 109 130 294 130 458c0 173 -58 370 -130 471l13 22c175 -98 259 -306 259 -493c0 -182 -96 -392 -260 -481z" />
    <glyph glyph-name="asterisk" unicode="*" horiz-adv-x="442" 
d="M40 592l59 52l97 -80l2 2l-45 117l68 40l68 -40l-45 -118l2 -2l98 80l59 -52l-17 -77l-126 5l-1 -3l106 -67l-32 -72l-78 -7l-34 122h-2l-32 -123l-79 9l-31 72l105 68l-1 3l-126 -7z" />
    <glyph glyph-name="plus" unicode="+" horiz-adv-x="494" 
d="M37 247v66h172v177h76v-177h172v-66h-172v-185h-76v185h-172z" />
    <glyph glyph-name="comma" unicode="," horiz-adv-x="248" 
d="M48 62c0 43 33 76 72 76c37 0 79 -26 79 -93c0 -64 -46 -154 -138 -186l-12 32c41 17 81 53 81 96h-7c-43 0 -75 32 -75 75z" />
    <glyph glyph-name="hyphen" unicode="-" horiz-adv-x="338" 
d="M59 266v60h220v-60h-220z" />
    <glyph glyph-name="period" unicode="." horiz-adv-x="247" 
d="M48 62c0 43 32 76 75 76s76 -33 76 -76s-33 -75 -76 -75s-75 32 -75 75z" />
    <glyph glyph-name="slash" unicode="/" horiz-adv-x="448" 
d="M25 0l332 710h68l-332 -710h-68z" />
    <glyph glyph-name="zero" unicode="0" horiz-adv-x="654" 
d="M45 354c0 185 101 369 282 369c189 0 282 -183 282 -369c0 -184 -103 -367 -282 -367s-282 184 -282 367zM237 354c0 -141 26 -297 90 -297s89 156 89 297s-25 299 -90 299c-64 0 -89 -158 -89 -299z" />
    <glyph glyph-name="one" unicode="1" horiz-adv-x="410" 
d="M30 0l91 80v459l-91 60l264 161v-680l90 -80h-354z" />
    <glyph glyph-name="two" unicode="2" horiz-adv-x="651" 
d="M7 0c251 272 382 409 382 565c0 59 -21 89 -62 89c-37 0 -60 -32 -60 -100v-64h-184c-4 7 -6 20 -6 39c0 123 130 194 251 194c145 0 250 -60 250 -167c0 -138 -182 -274 -317 -383v-2h210l138 139l-63 -310h-539z" />
    <glyph glyph-name="three" unicode="3" horiz-adv-x="579" 
d="M34 214l23 10c39 -45 98 -83 170 -83c85 0 125 54 125 122s-41 99 -101 99c-32 0 -78 -15 -101 -28v52l141 151v2l-230 1l30 170h471l-266 -264v-2h20c140 0 202 -105 202 -205c0 -128 -83 -252 -257 -252c-112 0 -211 99 -227 227z" />
    <glyph glyph-name="four" unicode="4" horiz-adv-x="581" 
d="M5 186c158 206 197 358 240 524h270l-391 -462v-2h131v54l172 190v-244h121v-60h-121v-105l100 -81h-377l105 81v105h-250z" />
    <glyph glyph-name="five" unicode="5" horiz-adv-x="562" 
d="M29 203l23 10c39 -45 101 -72 173 -72c85 0 125 54 125 122c0 91 -45 132 -104 132c-51 0 -104 -30 -145 -57l-39 -25l72 397h366l-32 -171h-285l-22 -107h2c24 12 62 28 113 28c154 0 240 -104 240 -221c0 -128 -83 -252 -257 -252c-107 0 -206 87 -230 216z" />
    <glyph glyph-name="six" unicode="6" horiz-adv-x="567" 
d="M41 244c0 181 149 401 416 486v-48c-92 -53 -197 -158 -229 -251h2c12 4 39 12 76 12c132 0 233 -85 233 -225c0 -134 -98 -231 -242 -231c-168 0 -256 104 -256 257zM220 244c0 -108 37 -184 84 -184c39 0 55 20 55 133c0 100 -30 177 -82 177c-40 0 -57 -27 -57 -126z
" />
    <glyph glyph-name="seven" unicode="7" horiz-adv-x="537" 
d="M34 415l58 308h20l35 -13h400l-81 -136c-85 -140 -159 -382 -159 -574h-250l318 539h-225z" />
    <glyph glyph-name="eight" unicode="8" horiz-adv-x="570" 
d="M44 152c0 79 73 149 142 186c-62 51 -117 111 -117 208c0 119 101 177 218 177c116 0 209 -55 209 -138c0 -64 -63 -131 -137 -163c80 -61 167 -128 167 -236c0 -129 -118 -199 -252 -199c-113 0 -230 49 -230 165zM201 171c0 -69 44 -113 88 -113c43 0 73 36 73 87
c0 62 -58 104 -122 152c-20 -25 -39 -65 -39 -126zM223 588c0 -51 37 -90 88 -130c19 20 39 65 39 116c0 56 -30 81 -67 81c-31 0 -60 -22 -60 -67z" />
    <glyph glyph-name="nine" unicode="9" horiz-adv-x="568" 
d="M29 492c0 133 98 231 242 231c168 0 256 -104 256 -257c0 -181 -149 -401 -416 -486v48c92 50 198 160 229 251h-2c-12 -4 -39 -12 -76 -12c-132 0 -233 85 -233 225zM209 517c0 -100 30 -177 82 -177c40 0 57 27 57 126c0 108 -37 184 -84 184c-39 0 -55 -20 -55 -133z
" />
    <glyph glyph-name="colon" unicode=":" horiz-adv-x="269" 
d="M59 62c0 43 32 76 75 76s76 -33 76 -76s-33 -75 -76 -75s-75 32 -75 75zM59 427c0 43 32 76 75 76s76 -33 76 -76s-33 -75 -76 -75s-75 32 -75 75z" />
    <glyph glyph-name="semicolon" unicode=";" horiz-adv-x="269" 
d="M59 62c0 43 33 76 72 76c37 0 79 -26 79 -93c0 -64 -46 -154 -138 -186l-12 32c41 17 81 53 81 96h-7c-43 0 -75 32 -75 75zM59 427c0 43 32 76 75 76s76 -33 76 -76s-33 -75 -76 -75s-75 32 -75 75z" />
    <glyph glyph-name="less" unicode="&#x3c;" horiz-adv-x="505" 
d="M31 251v49l419 231v-81l-325 -172l325 -176v-81z" />
    <glyph glyph-name="equal" unicode="=" horiz-adv-x="620" 
d="M64 137v66h492v-66h-492zM64 356v66h492v-66h-492z" />
    <glyph glyph-name="greater" unicode="&#x3e;" horiz-adv-x="505" 
d="M55 21v81l325 176l-325 172v81l419 -231v-49z" />
    <glyph glyph-name="question" unicode="?" horiz-adv-x="494" 
d="M35 591c0 91 139 132 211 132c123 0 216 -45 216 -149c0 -163 -239 -159 -239 -367v-9h-44c-3 7 -14 35 -14 75c0 137 120 213 120 336c0 37 -13 61 -40 61c-32 0 -46 -25 -46 -61v-57h-154c-4 7 -10 19 -10 39zM126 62c0 43 32 76 75 76s76 -33 76 -76s-33 -75 -76 -75
s-75 32 -75 75z" />
    <glyph glyph-name="at" unicode="@" horiz-adv-x="884" 
d="M49 235c0 224 188 389 392 389s394 -165 394 -389c0 -88 -33 -171 -84 -235h-62c60 71 92 144 92 235c0 188 -151 339 -339 339s-339 -151 -339 -339c0 -92 35 -174 94 -235h-66c-52 64 -82 146 -82 235zM199 114c0 103 90 169 238 184l42 3v138h-93v-107h-153
c-4 7 -6 20 -6 39c0 91 139 132 211 132c144 0 206 -66 206 -143v-300l45 -60l-207 -10l11 75h-2c-48 -56 -88 -78 -144 -78c-72 0 -148 25 -148 127zM364 135c0 -35 23 -48 51 -48c23 0 43 12 64 28v123l-12 -1c-56 -5 -103 -42 -103 -102z" />
    <glyph glyph-name="A" unicode="A" horiz-adv-x="697" 
d="M-4 0l69 100l224 610l100 40l260 -686l44 -64h-315l91 63l-62 159l-229 -1l-43 -121l97 -100h-236zM199 281l189 1l-95 263z" />
    <glyph glyph-name="B" unicode="B" horiz-adv-x="684" 
d="M32 0l80 80v550l-80 80h345c104 0 240 -24 240 -161c0 -107 -79 -146 -159 -162v-2c68 -5 186 -38 186 -173c0 -145 -123 -212 -294 -212h-318zM295 60h37c87 0 115 50 115 143s-29 130 -117 130h-35v-273zM295 393h35c88 0 98 72 98 149c0 102 -77 109 -133 109v-258z
" />
    <glyph glyph-name="C" unicode="C" horiz-adv-x="706" 
d="M38 354c0 204 136 369 348 369c95 0 154 -13 201 -13h55v-286h-41l-32 74c-45 104 -115 158 -198 158c-92 0 -177 -82 -177 -246c0 -155 97 -266 245 -266c92 0 160 40 203 89l38 -14c-24 -62 -88 -165 -190 -209c-31 -15 -66 -23 -105 -23h-9c-210 0 -338 165 -338 367z
" />
    <glyph glyph-name="D" unicode="D" horiz-adv-x="736" 
d="M32 0l80 80v550l-80 80h309c247 0 356 -140 356 -347s-170 -363 -358 -363h-307zM295 71h19c139 0 175 78 175 257c0 189 -54 322 -183 322h-11v-579z" />
    <glyph glyph-name="E" unicode="E" horiz-adv-x="665" 
d="M32 0l80 80v550l-80 80h550v-230l-150 170h-137v-263l148 160v-360l-148 160v-287h138l208 209l-51 -269h-558z" />
    <glyph glyph-name="F" unicode="F" horiz-adv-x="608" 
d="M32 0l80 80v550l-80 80h550v-230l-150 170h-137v-273l158 160v-360l-158 160v-257l105 -80h-368z" />
    <glyph glyph-name="G" unicode="G" horiz-adv-x="740" 
d="M38 354c0 204 136 369 348 369c95 0 154 -13 201 -13h55v-286h-41l-32 74c-45 104 -115 158 -198 158c-92 0 -177 -82 -177 -246c0 -155 97 -266 245 -266h72v95l-89 93h271v-341l-111 118c-48 -64 -119 -122 -219 -122c-189 0 -325 165 -325 367z" />
    <glyph glyph-name="H" unicode="H" horiz-adv-x="815" 
d="M32 0l80 80v550l-80 80h346l-83 -80v-227h225v227l-83 80h346l-80 -80v-550l80 -80h-346l83 80v263h-225v-263l83 -80h-346z" />
    <glyph glyph-name="I" unicode="I" horiz-adv-x="416" 
d="M24 0l90 80v550l-90 80h368l-90 -80v-550l90 -80h-368z" />
    <glyph glyph-name="J" unicode="J" horiz-adv-x="475" 
d="M0 124h193v506l-116 80h379l-80 -80v-449c0 -131 -78 -194 -193 -194h-6c-20 0 -39 3 -57 9c-58 20 -102 68 -120 128z" />
    <glyph glyph-name="K" unicode="K" horiz-adv-x="744" 
d="M32 0l80 80v550l-80 80h346l-83 -80v-255h2l139 141v194h278l-278 -267l342 -443h-339l48 80l-190 258h-2v-258l83 -80h-346z" />
    <glyph glyph-name="L" unicode="L" horiz-adv-x="612" 
d="M32 0l80 80v550l-80 80h381l-118 -80v-570h105l205 180l-45 -240h-528z" />
    <glyph glyph-name="M" unicode="M" horiz-adv-x="952" 
d="M16 0l100 100v500l-60 110h227l212 -456h2l175 456h257l-90 -70v-560l90 -80h-346l73 80v405h-2l-213 -538l-257 538h-2v-385l129 -100h-295z" />
    <glyph glyph-name="N" unicode="N" horiz-adv-x="761" 
d="M9 710h239l332 -395h2v255l-118 140h284l-100 -140v-623l-450 544h-2v-350l118 -141h-304l120 141v424z" />
    <glyph glyph-name="O" unicode="O" 
d="M38 354c0 204 136 369 348 369c210 0 348 -165 348 -367c0 -204 -136 -369 -348 -369c-210 0 -348 165 -348 367zM232 427c0 -189 71 -357 194 -357c77 0 114 80 114 213c0 184 -64 361 -187 361c-77 0 -121 -84 -121 -217z" />
    <glyph glyph-name="P" unicode="P" horiz-adv-x="628" 
d="M32 0l80 80v550l-80 80h315c161 0 263 -44 263 -183c0 -121 -125 -208 -268 -208h-16v45h6c56 0 90 73 90 153c0 101 -63 123 -108 123h-19v-560l109 -80h-372z" />
    <glyph glyph-name="Q" unicode="Q" 
d="M38 354c0 204 136 369 348 369c210 0 348 -165 348 -367c0 -183 -109 -330 -279 -362l269 -189h-287l-70 183c-199 8 -329 170 -329 366zM232 427c0 -189 71 -357 194 -357c77 0 114 80 114 213c0 184 -64 361 -187 361c-77 0 -121 -84 -121 -217z" />
    <glyph glyph-name="R" unicode="R" horiz-adv-x="713" 
d="M32 0l80 81v549l-80 80h368c152 0 237 -71 237 -186c0 -88 -79 -144 -218 -163v-2l73 -23l162 -269l73 -67h-237l-195 340v-259l94 -81h-357zM295 377h29c81 0 130 34 130 133c0 109 -61 130 -120 130l-39 -1v-262z" />
    <glyph glyph-name="S" unicode="S" horiz-adv-x="589" 
d="M58 0v267h50l28 -49c56 -96 128 -158 212 -158c48 0 84 18 84 74c0 141 -371 106 -371 388c0 112 91 201 243 201c68 0 112 -13 151 -13h55v-241h-50l-13 31c-47 103 -103 162 -183 162c-40 0 -79 -28 -79 -79c0 -147 361 -115 361 -391c0 -129 -100 -205 -228 -205
c-91 0 -137 13 -180 13h-80z" />
    <glyph glyph-name="T" unicode="T" horiz-adv-x="687" 
d="M31 440v283l65 -13h494l66 13v-284l-160 212h-61v-570l127 -81h-437l127 81v570h-61z" />
    <glyph glyph-name="U" unicode="U" horiz-adv-x="757" 
d="M14 710h357l-89 -80v-339c0 -148 9 -231 141 -231c124 0 173 89 173 242v268l-111 140h277l-100 -140v-277c0 -165 -61 -306 -248 -306c-189 0 -320 78 -320 281v362z" />
    <glyph glyph-name="V" unicode="V" horiz-adv-x="679" 
d="M-1 710h315l-75 -75l165 -395h2l126 279l-86 191h240l-349 -764z" />
    <glyph glyph-name="W" unicode="W" horiz-adv-x="958" 
d="M4 710h315l-78 -82l127 -334h2l73 182l-88 234h269l-35 -80l125 -336h2l87 219l-76 197h230l-308 -763l-170 437l-173 -437z" />
    <glyph glyph-name="X" unicode="X" horiz-adv-x="673" 
d="M-6 0l260 334l-249 376h318l-61 -80l116 -172l92 122l-89 130h271l-239 -303l275 -407h-349l69 103l-116 175l-112 -163l80 -115h-266z" />
    <glyph glyph-name="Y" unicode="Y" horiz-adv-x="605" 
d="M-27 710h313l-49 -79l130 -215h2l89 145l-76 149h235l-217 -381v-249l96 -80h-376l97 80v224z" />
    <glyph glyph-name="Z" unicode="Z" horiz-adv-x="611" 
d="M20 0l328 648v2h-135l-137 -240v313l65 -13h431l-318 -648v-2h161l139 250v-310h-534z" />
    <glyph glyph-name="bracketleft" unicode="[" horiz-adv-x="315" 
d="M88 -48v806h205v-48h-132v-710h132v-48h-205z" />
    <glyph glyph-name="backslash" unicode="\" horiz-adv-x="448" 
d="M23 710h72l328 -710h-71z" />
    <glyph glyph-name="bracketright" unicode="]" horiz-adv-x="315" 
d="M22 0h132v710h-132v48h205v-806h-205v48z" />
    <glyph glyph-name="asciicircum" unicode="^" horiz-adv-x="473" 
d="M37 303l169 420h60l170 -420h-80l-121 306l-117 -306h-81z" />
    <glyph glyph-name="underscore" unicode="_" horiz-adv-x="610" 
d="M59 -85h492v-66h-492v66z" />
    <glyph glyph-name="grave" unicode="`" horiz-adv-x="220" 
d="M-22 599v124l264 -131v-28z" />
    <glyph glyph-name="a" unicode="a" horiz-adv-x="537" 
d="M26 114c0 103 90 169 238 184l42 3v138h-93v-107h-153c-4 7 -6 20 -6 39c0 91 139 132 211 132c144 0 206 -66 206 -143v-300l45 -60l-207 -10l11 75h-2c-48 -56 -88 -78 -144 -78c-72 0 -148 25 -148 127zM191 135c0 -35 23 -48 51 -48c23 0 43 12 64 28v123l-12 -1
c-56 -5 -103 -42 -103 -102z" />
    <glyph glyph-name="b" unicode="b" horiz-adv-x="576" 
d="M-10 710l231 10v-255h2c28 17 65 38 120 38c127 0 200 -106 200 -240c0 -153 -87 -276 -244 -276c-117 0 -185 34 -241 68v595zM223 72h39c52 0 111 25 111 149s-35 169 -118 169h-32v-318z" />
    <glyph glyph-name="c" unicode="c" horiz-adv-x="481" 
d="M32 236c0 156 105 267 235 267c92 0 176 -36 176 -110c0 -17 -5 -37 -10 -49h-129v10c0 51 -17 82 -53 82c-38 0 -79 -51 -79 -144c0 -118 70 -171 139 -171c56 0 93 23 122 55l28 -8c-35 -113 -103 -181 -207 -181c-147 0 -222 121 -222 249z" />
    <glyph glyph-name="d" unicode="d" horiz-adv-x="590" 
d="M33 227c0 153 87 276 244 276c32 0 61 -5 76 -12v159l-80 60l245 10v-650l54 -70l-209 -10l11 75h-2c-29 -40 -86 -78 -139 -78c-127 0 -200 106 -200 240zM203 269c0 -124 35 -169 118 -169h32v318h-39c-52 0 -111 -25 -111 -149z" />
    <glyph glyph-name="e" unicode="e" horiz-adv-x="486" 
d="M32 236c0 141 92 267 223 267c124 0 194 -81 194 -172v-50h-277c3 -110 72 -160 139 -160c61 0 90 25 127 57l23 -10c-35 -113 -103 -181 -207 -181c-147 0 -222 121 -222 249zM176 340h130v14c0 51 -18 76 -55 76c-31 0 -63 -31 -75 -90z" />
    <glyph glyph-name="f" unicode="f" horiz-adv-x="363" 
d="M23 0l60 70v360l-57 17v43h55v6c0 160 91 227 188 227c68 0 110 -26 129 -63v-47h-151v-123h101v-69h-100v-351l80 -70h-305z" />
    <glyph glyph-name="g" unicode="g" horiz-adv-x="508" 
d="M33 -136c0 35 43 78 65 97c-31 9 -55 38 -55 85c0 25 11 52 32 75l53 58c-40 26 -85 76 -85 142c0 107 92 182 201 182c39 0 79 -9 94 -13h162v-27l-90 -42c17 -23 26 -67 26 -102c0 -102 -95 -166 -198 -166c-8 0 -66 -1 -85 10v-84l165 28c21 4 43 6 52 6
c64 -1 101 -55 101 -134c0 -133 -168 -187 -285 -187c-97 0 -153 24 -153 72zM141 -48v-76l64 -1c101 0 175 25 175 63v14h-239zM184 348c0 -80 35 -131 70 -131c29 0 46 28 46 76c0 83 -35 144 -70 144c-31 0 -46 -42 -46 -89z" />
    <glyph glyph-name="h" unicode="h" horiz-adv-x="619" 
d="M20 0l55 70v570l-55 70l213 10l-1 -287h2c31 41 80 70 143 70c99 0 172 -64 172 -156v-277l55 -70h-272l52 70v305h-144v-305l51 -70h-271z" />
    <glyph glyph-name="i" unicode="i" horiz-adv-x="324" 
d="M16 490l233 10v-430l64 -70h-296l67 70v350zM76 633c0 51 39 90 90 90c50 0 89 -39 89 -90c0 -49 -38 -89 -89 -89s-90 40 -90 89z" />
    <glyph glyph-name="j" unicode="j" horiz-adv-x="312" 
d="M-54 -85h136v505l-75 70l240 10v-500c0 -117 -47 -208 -156 -208c-108 0 -145 72 -145 123zM71 633c0 51 39 90 90 90c50 0 89 -39 89 -90c0 -49 -38 -89 -89 -89s-90 40 -90 89z" />
    <glyph glyph-name="k" unicode="k" horiz-adv-x="590" 
d="M16 0l60 70v570l-60 70l225 10v-440h2l89 70l1 140h238l-201 -162l232 -328h-239v67l-122 180h-2v-177l56 -70h-279z" />
    <glyph glyph-name="l" unicode="l" horiz-adv-x="320" 
d="M11 0l67 70v570l-67 70l232 10v-650l64 -70h-296z" />
    <glyph glyph-name="m" unicode="m" horiz-adv-x="900" 
d="M26 0l55 70v350l-55 70l200 10l-8 -87h2c37 56 90 90 166 90c68 0 106 -31 134 -80c35 51 82 80 163 80c95 0 149 -63 149 -156v-277l46 -70h-257l46 70v315h-128v-315l42 -70h-248l41 70v315h-128v-315l47 -70h-267z" />
    <glyph glyph-name="n" unicode="n" horiz-adv-x="625" 
d="M26 0l55 70v350l-55 70l210 10l-8 -87h2c37 56 90 90 153 90c99 0 172 -64 172 -156v-277l55 -70h-272l52 70v315h-144v-315l51 -70h-271z" />
    <glyph glyph-name="o" unicode="o" horiz-adv-x="552" 
d="M32 249c0 147 102 254 243 254c144 0 245 -103 245 -255c0 -148 -103 -261 -242 -261c-148 0 -246 110 -246 262zM205 276c0 -163 41 -216 84 -216c33 0 57 43 57 156c0 163 -41 216 -84 216c-33 0 -57 -43 -57 -156z" />
    <glyph glyph-name="p" unicode="p" horiz-adv-x="592" 
d="M19 -195l55 70v545l-55 70l200 10l-8 -87l2 -1c27 52 91 91 146 91c127 0 200 -106 200 -240c0 -153 -87 -276 -244 -276c-32 0 -57 6 -76 10v-122l91 -70h-311zM239 72h39c52 0 111 25 111 149s-35 169 -118 169h-32v-318z" />
    <glyph glyph-name="q" unicode="q" horiz-adv-x="583" 
d="M33 227c0 153 87 276 244 276c59 0 101 -7 140 -18l101 15v-624l50 -71h-293l80 68v162h-2c-29 -16 -65 -48 -120 -48c-127 0 -200 106 -200 240zM203 269c0 -124 35 -169 118 -169h32v318h-39c-52 0 -111 -25 -111 -149z" />
    <glyph glyph-name="r" unicode="r" horiz-adv-x="419" 
d="M30 0l50 70v350l-50 70l179 10l-10 -131h4c32 69 83 134 152 134c13 0 39 -5 46 -13v-161h-159v-259l77 -70h-289z" />
    <glyph glyph-name="s" unicode="s" horiz-adv-x="441" 
d="M46 358c0 98 78 145 171 145c62 0 87 -13 118 -13h38v-175h-42l-16 31c-35 68 -73 98 -108 98c-30 0 -45 -13 -45 -38c0 -85 246 -77 246 -275c0 -96 -89 -144 -165 -144c-65 0 -112 13 -155 13h-39v190h41l18 -34c41 -79 93 -104 140 -104c29 0 43 11 43 32
c0 84 -245 85 -245 274z" />
    <glyph glyph-name="t" unicode="t" horiz-adv-x="354" 
d="M23 447v43l217 172v-172h94v-69h-94v-325h105c-29 -75 -94 -109 -150 -109c-72 0 -120 45 -120 121v326z" />
    <glyph glyph-name="u" unicode="u" horiz-adv-x="607" 
d="M18 490l213 10v-385h138v305l-60 70l225 10v-430l52 -70l-207 -10l8 92h-2c-47 -65 -100 -95 -153 -95c-92 0 -166 64 -166 156v277z" />
    <glyph glyph-name="v" unicode="v" horiz-adv-x="535" 
d="M10 490h273l-61 -110l93 -197h4l83 185l-68 122h190l-235 -500h-41z" />
    <glyph glyph-name="w" unicode="w" horiz-adv-x="799" 
d="M17 490h263l-46 -90l77 -194h4l61 127l-56 157h228l-33 -74l83 -208h4l62 129l-60 153h190l-239 -500h-38l-107 269l-137 -269h-41z" />
    <glyph glyph-name="x" unicode="x" horiz-adv-x="533" 
d="M-6 0l207 222l-186 268h256l-45 -44l78 -112l54 67l-59 89h213l-176 -202l202 -288h-267l47 54l-86 123l-66 -74l72 -103h-244z" />
    <glyph glyph-name="y" unicode="y" horiz-adv-x="565" 
d="M10 490h278l-62 -70l116 -285h2l72 193l-73 162h204l-224 -574c-27 -73 -85 -124 -147 -124c-63 0 -134 40 -134 138h206z" />
    <glyph glyph-name="z" unicode="z" horiz-adv-x="509" 
d="M18 0l259 440v2h-111l-108 -175v223h419l-261 -440v-2h120l125 216v-264h-443z" />
    <glyph glyph-name="braceleft" unicode="{" horiz-adv-x="330" 
d="M24 206v105c55 1 79 23 79 102v167c0 136 78 187 138 187c31 0 61 -5 81 -14l-14 -43c-19 5 -37 9 -53 9c-64 0 -73 -94 -73 -155v-167c0 -101 -69 -129 -91 -135v-5c22 -6 91 -37 91 -138v-168c0 -62 9 -156 73 -156c17 0 34 3 53 10l15 -44c-20 -9 -50 -14 -81 -14
c-60 0 -139 54 -139 187v169c0 80 -23 100 -79 103z" />
    <glyph glyph-name="bar" unicode="|" horiz-adv-x="253" 
d="M90 0v710h73v-710h-73z" />
    <glyph glyph-name="braceright" unicode="}" horiz-adv-x="331" 
d="M7 753c20 9 50 14 81 14c60 0 139 -54 139 -187v-169c0 -80 23 -100 79 -103v-105c-55 -3 -79 -23 -79 -102v-167c0 -136 -78 -187 -138 -187c-31 0 -61 5 -81 14l14 43c19 -5 37 -9 53 -9c64 0 73 94 73 155v167c0 101 69 129 91 135v5c-22 6 -91 37 -91 138v168
c0 62 -9 156 -73 156c-17 0 -34 -3 -53 -10z" />
    <glyph glyph-name="asciitilde" unicode="~" horiz-adv-x="639" 
d="M64 294c47 27 97 45 144 45c70 0 135 -41 206 -41c44 0 78 9 123 36l38 -58c-47 -31 -96 -46 -148 -46c-69 0 -133 42 -203 42c-41 0 -78 -11 -123 -35z" />
    <glyph glyph-name="uni00A0" unicode="&#xa0;" horiz-adv-x="240" 
 />
    <glyph glyph-name="exclamdown" unicode="&#xa1;" horiz-adv-x="320" 
d="M72 -13v219l88 293l87 -293v-219h-175zM85 635c0 43 33 75 76 75s75 -32 75 -75s-32 -76 -75 -76s-76 33 -76 76z" />
    <glyph glyph-name="cent" unicode="&#xa2;" horiz-adv-x="502" 
d="M39 236c0 136 82 241 190 262v42h63v-38c84 -5 158 -40 158 -109c0 -17 -5 -37 -10 -49h-129v10c0 51 -17 82 -53 82c-38 0 -79 -51 -79 -144c0 -118 70 -171 139 -171c56 0 93 23 122 55l28 -8c-31 -101 -88 -167 -176 -179v-39h-63v39c-125 16 -190 127 -190 247z" />
    <glyph glyph-name="sterling" unicode="&#xa3;" horiz-adv-x="622" 
d="M53 0v47c52 27 78 68 78 276h-75v69h75v118c0 127 105 213 234 213c100 0 199 -43 199 -151c0 -8 -3 -26 -8 -35h-156v98h-112v-243h169v-69h-168c0 -167 -21 -116 -89 -188l6 -6c35 41 65 54 97 54c68 0 131 -69 194 -69c27 0 50 6 66 18l24 -22
c-35 -69 -101 -123 -146 -123c-61 0 -101 52 -163 52c-55 0 -97 -15 -129 -39h-96z" />
    <glyph glyph-name="currency" unicode="&#xa4;" horiz-adv-x="525" 
d="M50 510l37 34l62 -62c33 27 67 37 114 37s79 -10 114 -37l63 63l34 -37l-62 -62c27 -33 37 -67 37 -114s-10 -79 -37 -114l63 -63l-37 -34l-62 62c-33 -27 -67 -37 -114 -37s-79 10 -114 37l-63 -63l-34 37l62 62c-27 33 -37 67 -37 114s10 79 37 114zM166 332
c0 -55 41 -99 96 -99s96 44 96 99s-41 98 -96 98s-96 -43 -96 -98z" />
    <glyph glyph-name="yen" unicode="&#xa5;" horiz-adv-x="706" 
d="M27 710h313l-49 -79l130 -215h2l89 145l-76 149h235l-176 -308h110v-66h-147l-4 -7v-66h151v-66h-151v-117l96 -80h-376l97 80v117h-128v66h128v41l-19 32h-109v66h69z" />
    <glyph glyph-name="brokenbar" unicode="&#xa6;" horiz-adv-x="253" 
d="M90 0v290h73v-290h-73zM90 420v290h73v-290h-73z" />
    <glyph glyph-name="section" unicode="&#xa7;" horiz-adv-x="609" 
d="M67 72h50l28 -49c56 -96 128 -158 212 -158c48 0 84 18 84 74c0 140 -371 46 -371 328c0 46 14 86 43 120c-27 32 -43 75 -43 135c0 112 91 201 243 201c68 0 112 -13 151 -13h55v-241h-50l-13 31c-47 103 -103 162 -183 162c-40 0 -79 -28 -79 -79
c0 -147 361 -56 361 -331c0 -51 -14 -92 -41 -125c25 -31 41 -73 41 -130c0 -129 -100 -205 -228 -205c-91 0 -137 13 -180 13h-80v267zM194 270l247 -96v77l-247 97v-78z" />
    <glyph glyph-name="dieresis" unicode="&#xa8;" horiz-adv-x="220" 
d="M-69 635c0 43 33 75 74 75c43 0 75 -32 75 -75c0 -41 -32 -74 -75 -74c-41 0 -74 33 -74 74zM139 635c0 43 33 75 74 75c43 0 75 -32 75 -75c0 -41 -32 -74 -75 -74c-41 0 -74 33 -74 74z" />
    <glyph glyph-name="copyright" unicode="&#xa9;" horiz-adv-x="820" 
d="M42 355c0 203 165 368 368 368s368 -165 368 -368s-165 -368 -368 -368s-368 165 -368 368zM97 355c0 -176 137 -322 313 -322s313 146 313 322s-137 322 -313 322s-313 -146 -313 -322zM209 351c0 127 83 216 216 216c51 0 61 -6 114 -6h21v-134h-40l-11 25
c-24 55 -47 72 -83 72c-57 0 -104 -41 -104 -132s62 -138 126 -138c67 0 95 36 117 66l28 -17c-26 -68 -75 -159 -182 -159c-104 0 -202 79 -202 207z" />
    <glyph glyph-name="ordfeminine" unicode="&#xaa;" horiz-adv-x="502" 
d="M42 407c0 84 101 122 187 138l56 13v56c0 41 -7 65 -48 65c-37 0 -50 -30 -50 -70v-40l-111 -1c-4 7 -11 19 -11 39c0 87 109 116 181 116c124 0 166 -57 166 -117v-233l60 -60l-194 -10l9 73h-2c-48 -56 -83 -76 -143 -76c-47 0 -100 24 -100 107zM176 412
c0 -25 9 -37 27 -37c23 0 55 18 82 53v88l-23 -10c-53 -23 -86 -45 -86 -94z" />
    <glyph glyph-name="guillemotleft" unicode="&#xab;" horiz-adv-x="576" 
d="M32 243l215 207h25l-69 -207l69 -208h-25zM272 243l215 207h25l-69 -207l69 -208h-25z" />
    <glyph glyph-name="logicalnot" unicode="&#xac;" horiz-adv-x="408" 
d="M64 266v60h280v-140h-60v80h-220z" />
    <glyph glyph-name="uni00AD" unicode="&#xad;" horiz-adv-x="332" 
d="M56 256v60h220v-60h-220z" />
    <glyph glyph-name="registered" unicode="&#xae;" horiz-adv-x="820" 
d="M42 355c0 203 165 368 368 368s368 -165 368 -368s-165 -368 -368 -368s-368 165 -368 368zM97 355c0 -176 137 -322 313 -322s313 146 313 322s-137 322 -313 322s-313 -146 -313 -322zM198 154v38h27l28 32v263l-28 32h-27v38h229c124 0 173 -29 173 -101
c0 -70 -73 -98 -140 -106v-2l84 -20l78 -152v-22h-142l-61 147c-9 24 -28 28 -39 28h-2v-105l18 -32h30v-38h-228zM378 373h14c44 0 76 27 76 75s-34 65 -77 65h-13v-140z" />
    <glyph glyph-name="overscore" unicode="&#xaf;" horiz-adv-x="220" 
d="M0 650v60h220v-60h-220z" />
    <glyph glyph-name="degree" unicode="&#xb0;" horiz-adv-x="328" 
d="M40 586c0 68 56 124 124 124s124 -56 124 -124s-56 -124 -124 -124s-124 56 -124 124zM109 586c0 -32 23 -57 55 -57s55 25 55 57s-23 57 -55 57s-55 -25 -55 -57z" />
    <glyph glyph-name="plusminus" unicode="&#xb1;" horiz-adv-x="536" 
d="M58 0v66h420v-66h-420zM58 316v66h173v179h74v-179h173v-66h-173v-185h-74v185h-173z" />
    <glyph glyph-name="uni00B2" unicode="&#xb2;" horiz-adv-x="459" 
d="M42 320c138 122 241 204 241 308c0 39 -20 55 -43 55s-37 -16 -37 -55v-56h-119c-3 5 -7 16 -7 31c0 68 76 120 168 120c75 0 151 -21 151 -104c0 -78 -76 -134 -188 -190v-2h142l63 55l-30 -162h-341z" />
    <glyph glyph-name="uni00B3" unicode="&#xb3;" horiz-adv-x="404" 
d="M35 426l22 9c31 -32 76 -51 107 -51c40 0 74 25 74 69s-27 59 -63 59h-51l96 95v2h-165l20 101h304l-160 -158h12c72 0 119 -45 119 -122c0 -75 -58 -130 -143 -130c-90 0 -135 39 -172 126z" />
    <glyph glyph-name="acute" unicode="&#xb4;" horiz-adv-x="220" 
d="M-22 564v28l264 131v-124z" />
    <glyph glyph-name="uni00B5" unicode="&#xb5;" horiz-adv-x="661" 
d="M44 490l213 10v-385h138v305l-60 70l225 10v-430l52 -70l-207 -10l8 92h-2c-47 -65 -104 -95 -164 -95v-182h-155v615z" />
    <glyph glyph-name="paragraph" unicode="&#xb6;" horiz-adv-x="596" 
d="M29 513c0 108 87 197 195 197h341l-92 -58v-652h-73v662h-93v-662h-73v317h-10c-108 0 -195 88 -195 196z" />
    <glyph glyph-name="middot" unicode="&#xb7;" horiz-adv-x="262" 
d="M51 350c0 44 36 80 80 80s80 -36 80 -80s-36 -80 -80 -80s-80 36 -80 80z" />
    <glyph glyph-name="cedilla" unicode="&#xb8;" horiz-adv-x="220" 
d="M15 -191l24 51c19 -8 44 -16 65 -16c19 0 37 6 37 29s-17 32 -44 32h-40l44 107h51l-22 -67h14c56 0 98 -20 98 -69c0 -59 -57 -84 -133 -84c-35 0 -66 8 -94 17z" />
    <glyph glyph-name="uni00B9" unicode="&#xb9;" horiz-adv-x="391" 
d="M48 320l94 80v167l-90 38l195 115h22v-320l93 -80h-314z" />
    <glyph glyph-name="ordmasculine" unicode="&#xba;" horiz-adv-x="482" 
d="M36 515c0 119 88 208 204 208c118 0 206 -84 206 -209c0 -121 -88 -214 -203 -214c-123 0 -207 91 -207 215zM163 537c0 -79 25 -189 90 -189c52 0 65 67 65 140c0 79 -25 188 -88 188c-52 0 -67 -63 -67 -139z" />
    <glyph glyph-name="guillemotright" unicode="&#xbb;" horiz-adv-x="575" 
d="M63 35l69 207l-69 208h25l215 -208l-215 -207h-25zM303 35l69 207l-69 208h25l215 -208l-215 -207h-25z" />
    <glyph glyph-name="onequarter" unicode="&#xbc;" horiz-adv-x="878" 
d="M36 320l94 80v167l-90 38l195 115h22v-320l93 -80h-314zM170 0l527 710h93l-523 -710h-97zM497 76c85 128 128 193 163 314h167l-251 -270v-2h67l127 136v-136h70v-42h-70v-76h-127v76h-146z" />
    <glyph glyph-name="onehalf" unicode="&#xbd;" horiz-adv-x="935" 
d="M38 320l94 80v167l-90 38l195 115h22v-320l93 -80h-314zM172 0l527 710h93l-523 -710h-97zM530 0c138 122 241 204 241 308c0 39 -20 55 -43 55s-37 -16 -37 -55v-56h-119c-3 5 -7 16 -7 31c0 68 76 120 168 120c75 0 151 -21 151 -104c0 -78 -76 -134 -188 -190v-2h142
l63 55l-30 -162h-341z" />
    <glyph glyph-name="threequarters" unicode="&#xbe;" horiz-adv-x="903" 
d="M33 426l22 9c31 -32 76 -51 107 -51c40 0 74 25 74 69s-27 59 -63 59h-51l96 95v2h-165l20 101h304l-160 -158h12c72 0 119 -45 119 -122c0 -75 -58 -130 -143 -130c-90 0 -135 39 -172 126zM192 0l527 710h93l-523 -710h-97zM519 76c85 128 128 193 163 314h167
l-251 -270v-2h67l127 136v-136h70v-42h-70v-76h-127v76h-146z" />
    <glyph glyph-name="questiondown" unicode="&#xbf;" horiz-adv-x="492" 
d="M30 136c0 163 239 159 239 367v9h44c3 -7 14 -35 14 -75c0 -138 -120 -215 -120 -336c0 -37 13 -61 40 -61c32 0 46 25 46 61v57h154c4 -7 10 -19 10 -39c0 -91 -139 -132 -211 -132c-123 0 -216 45 -216 149zM215 648c0 43 33 75 76 75s75 -32 75 -75s-32 -76 -75 -76
s-76 33 -76 76z" />
    <glyph glyph-name="Agrave" unicode="&#xc0;" horiz-adv-x="697" 
d="M-4 0l69 100l224 610l100 40l260 -686l44 -64h-315l91 63l-62 159l-229 -1l-43 -121l97 -100h-236zM199 281l189 1l-95 263zM222 799v124l264 -131v-28z" />
    <glyph glyph-name="Aacute" unicode="&#xc1;" horiz-adv-x="697" 
d="M-4 0l69 100l224 610l100 40l260 -686l44 -64h-315l91 63l-62 159l-229 -1l-43 -121l97 -100h-236zM199 281l189 1l-95 263zM222 764v28l264 131v-124z" />
    <glyph glyph-name="Acircumflex" unicode="&#xc2;" horiz-adv-x="697" 
d="M-4 0l69 100l224 610l100 40l260 -686l44 -64h-315l91 63l-62 159l-229 -1l-43 -121l97 -100h-236zM194 764v28l160 131l160 -131v-28l-160 35zM199 281l189 1l-95 263z" />
    <glyph glyph-name="Atilde" unicode="&#xc3;" horiz-adv-x="697" 
d="M-4 0l69 100l224 610l100 40l260 -686l44 -64h-315l91 63l-62 159l-229 -1l-43 -121l97 -100h-236zM186 844c29 43 70 79 115 79c51 0 80 -39 115 -39c29 0 61 21 77 36l29 -28c-28 -43 -70 -77 -115 -77c-49 0 -69 39 -115 39c-29 0 -61 -21 -77 -36zM199 281l189 1
l-95 263z" />
    <glyph glyph-name="Adieresis" unicode="&#xc4;" horiz-adv-x="697" 
d="M-4 0l69 100l224 610l100 40l260 -686l44 -64h-315l91 63l-62 159l-229 -1l-43 -121l97 -100h-236zM176 835c0 43 33 75 74 75c43 0 75 -32 75 -75c0 -41 -32 -74 -75 -74c-41 0 -74 33 -74 74zM199 281l189 1l-95 263zM384 835c0 43 33 75 74 75c43 0 75 -32 75 -75
c0 -41 -32 -74 -75 -74c-41 0 -74 33 -74 74z" />
    <glyph glyph-name="Aring" unicode="&#xc5;" horiz-adv-x="697" 
d="M-4 0l69 100l224 610l100 40l260 -686l44 -64h-315l91 63l-62 159l-229 -1l-43 -121l97 -100h-236zM199 281l189 1l-95 263zM273 841c0 47 36 82 81 82c47 0 82 -35 82 -82c0 -45 -35 -81 -82 -81c-45 0 -81 36 -81 81zM322 841c0 -19 13 -32 32 -32c20 0 34 13 34 32
c0 20 -14 34 -34 34c-19 0 -32 -14 -32 -34z" />
    <glyph glyph-name="AE" unicode="&#xc6;" horiz-adv-x="990" 
d="M-10 0v28l443 606l-76 76h550v-230l-150 170h-137v-263l148 160v-360l-148 160v-287h138l208 209l-51 -269h-558l80 80v151h-234l-95 -131l35 -62h73v-38h-226zM239 281h198v272z" />
    <glyph glyph-name="Ccedilla" unicode="&#xc7;" horiz-adv-x="707" 
d="M39 354c0 204 136 369 348 369c95 0 154 -13 201 -13h55v-286h-41l-32 74c-45 104 -115 158 -198 158c-92 0 -177 -82 -177 -246c0 -155 97 -266 245 -266c92 0 160 40 203 89l38 -14c-32 -83 -135 -237 -304 -232h-5l-14 -42h14c56 0 98 -20 98 -69
c0 -59 -57 -84 -133 -84c-35 0 -66 8 -94 17l24 51c19 -8 44 -16 65 -16c19 0 37 6 37 29s-17 32 -44 32h-40l35 87c-176 27 -281 178 -281 362z" />
    <glyph glyph-name="Egrave" unicode="&#xc8;" horiz-adv-x="665" 
d="M32 0l80 80v550l-80 80h550v-230l-150 170h-137v-263l148 160v-360l-148 160v-287h138l208 209l-51 -269h-558zM196 799v124l264 -131v-28z" />
    <glyph glyph-name="Eacute" unicode="&#xc9;" horiz-adv-x="665" 
d="M32 0l80 80v550l-80 80h550v-230l-150 170h-137v-263l148 160v-360l-148 160v-287h138l208 209l-51 -269h-558zM196 764v28l264 131v-124z" />
    <glyph glyph-name="Ecircumflex" unicode="&#xca;" horiz-adv-x="665" 
d="M32 0l80 80v550l-80 80h550v-230l-150 170h-137v-263l148 160v-360l-148 160v-287h138l208 209l-51 -269h-558zM168 764v28l160 131l160 -131v-28l-160 35z" />
    <glyph glyph-name="Edieresis" unicode="&#xcb;" horiz-adv-x="665" 
d="M32 0l80 80v550l-80 80h550v-230l-150 170h-137v-263l148 160v-360l-148 160v-287h138l208 209l-51 -269h-558zM150 835c0 43 33 75 74 75c43 0 75 -32 75 -75c0 -41 -32 -74 -75 -74c-41 0 -74 33 -74 74zM358 835c0 43 33 75 74 75c43 0 75 -32 75 -75
c0 -41 -32 -74 -75 -74c-41 0 -74 33 -74 74z" />
    <glyph glyph-name="Igrave" unicode="&#xcc;" horiz-adv-x="416" 
d="M24 0l90 80v550l-90 80h368l-90 -80v-550l90 -80h-368zM76 799v124l264 -131v-28z" />
    <glyph glyph-name="Iacute" unicode="&#xcd;" horiz-adv-x="416" 
d="M24 0l90 80v550l-90 80h368l-90 -80v-550l90 -80h-368zM76 764v28l264 131v-124z" />
    <glyph glyph-name="Icircumflex" unicode="&#xce;" horiz-adv-x="416" 
d="M24 0l90 80v550l-90 80h368l-90 -80v-550l90 -80h-368zM48 764v28l160 131l160 -131v-28l-160 35z" />
    <glyph glyph-name="Idieresis" unicode="&#xcf;" horiz-adv-x="416" 
d="M24 0l90 80v550l-90 80h368l-90 -80v-550l90 -80h-368zM29 835c0 43 33 75 74 75c43 0 75 -32 75 -75c0 -41 -32 -74 -75 -74c-41 0 -74 33 -74 74zM237 835c0 43 33 75 74 75c43 0 75 -32 75 -75c0 -41 -32 -74 -75 -74c-41 0 -74 33 -74 74z" />
    <glyph glyph-name="Eth" unicode="&#xd0;" horiz-adv-x="738" 
d="M33 343v60h81v227l-80 80h309c247 0 356 -140 356 -347s-170 -363 -358 -363h-307l80 80v263h-81zM257 343h40v-272h19c139 0 175 78 175 257c0 189 -54 322 -183 322h-11v-247h156v-60h-156v60h-40v-60z" />
    <glyph glyph-name="Ntilde" unicode="&#xd1;" horiz-adv-x="761" 
d="M9 710h239l332 -395h2v255l-118 140h284l-100 -140v-623l-450 544h-2v-350l118 -141h-304l120 141v424zM221 844c29 43 70 79 115 79c51 0 80 -39 115 -39c29 0 61 21 77 36l29 -28c-28 -43 -70 -77 -115 -77c-49 0 -69 39 -115 39c-29 0 -61 -21 -77 -36z" />
    <glyph glyph-name="Ograve" unicode="&#xd2;" 
d="M38 354c0 204 136 369 348 369c210 0 348 -165 348 -367c0 -204 -136 -369 -348 -369c-210 0 -348 165 -348 367zM232 427c0 -189 71 -357 194 -357c77 0 114 80 114 213c0 184 -64 361 -187 361c-77 0 -121 -84 -121 -217zM259 799v124l264 -131v-28z" />
    <glyph glyph-name="Oacute" unicode="&#xd3;" 
d="M38 354c0 204 136 369 348 369c210 0 348 -165 348 -367c0 -204 -136 -369 -348 -369c-210 0 -348 165 -348 367zM232 427c0 -189 71 -357 194 -357c77 0 114 80 114 213c0 184 -64 361 -187 361c-77 0 -121 -84 -121 -217zM259 764v28l264 131v-124z" />
    <glyph glyph-name="Ocircumflex" unicode="&#xd4;" 
d="M38 354c0 204 136 369 348 369c210 0 348 -165 348 -367c0 -204 -136 -369 -348 -369c-210 0 -348 165 -348 367zM231 764v28l160 131l160 -131v-28l-160 35zM232 427c0 -189 71 -357 194 -357c77 0 114 80 114 213c0 184 -64 361 -187 361c-77 0 -121 -84 -121 -217z
" />
    <glyph glyph-name="Otilde" unicode="&#xd5;" 
d="M38 354c0 204 136 369 348 369c210 0 348 -165 348 -367c0 -204 -136 -369 -348 -369c-210 0 -348 165 -348 367zM223 844c29 43 70 79 115 79c51 0 80 -39 115 -39c29 0 61 21 77 36l29 -28c-28 -43 -70 -77 -115 -77c-49 0 -69 39 -115 39c-29 0 -61 -21 -77 -36z
M232 427c0 -189 71 -357 194 -357c77 0 114 80 114 213c0 184 -64 361 -187 361c-77 0 -121 -84 -121 -217z" />
    <glyph glyph-name="Odieresis" unicode="&#xd6;" 
d="M38 354c0 204 136 369 348 369c210 0 348 -165 348 -367c0 -204 -136 -369 -348 -369c-210 0 -348 165 -348 367zM212 835c0 43 33 75 74 75c43 0 75 -32 75 -75c0 -41 -32 -74 -75 -74c-41 0 -74 33 -74 74zM232 427c0 -189 71 -357 194 -357c77 0 114 80 114 213
c0 184 -64 361 -187 361c-77 0 -121 -84 -121 -217zM420 835c0 43 33 75 74 75c43 0 75 -32 75 -75c0 -41 -32 -74 -75 -74c-41 0 -74 33 -74 74z" />
    <glyph glyph-name="multiply" unicode="&#xd7;" horiz-adv-x="520" 
d="M43 444l58 59l161 -171l160 169l52 -54l-161 -169l164 -172l-56 -56l-164 170l-160 -168l-51 52l160 170z" />
    <glyph glyph-name="Oslash" unicode="&#xd8;" 
d="M38 354c0 204 136 369 348 369c75 0 138 -21 191 -56l31 43h82l-61 -85c68 -68 105 -162 105 -269c0 -204 -136 -369 -348 -369c-68 0 -127 16 -178 47l-24 -34h-81l52 73c-75 68 -117 168 -117 281zM232 427c0 -75 10 -143 31 -202l225 316c-32 63 -76 103 -135 103
c-77 0 -121 -84 -121 -217zM295 156c32 -53 75 -86 131 -86c77 0 114 80 114 213c0 64 -8 127 -24 183z" />
    <glyph glyph-name="Ugrave" unicode="&#xd9;" horiz-adv-x="757" 
d="M14 710h357l-89 -80v-339c0 -148 9 -231 141 -231c124 0 173 89 173 242v268l-111 140h277l-100 -140v-277c0 -165 -61 -306 -248 -306c-189 0 -320 78 -320 281v362zM296 799v124l264 -131v-28z" />
    <glyph glyph-name="Uacute" unicode="&#xda;" horiz-adv-x="757" 
d="M14 710h357l-89 -80v-339c0 -148 9 -231 141 -231c124 0 173 89 173 242v268l-111 140h277l-100 -140v-277c0 -165 -61 -306 -248 -306c-189 0 -320 78 -320 281v362zM286 764v28l264 131v-124z" />
    <glyph glyph-name="Ucircumflex" unicode="&#xdb;" horiz-adv-x="757" 
d="M14 710h357l-89 -80v-339c0 -148 9 -231 141 -231c124 0 173 89 173 242v268l-111 140h277l-100 -140v-277c0 -165 -61 -306 -248 -306c-189 0 -320 78 -320 281v362zM258 764v28l160 131l160 -131v-28l-160 35z" />
    <glyph glyph-name="Udieresis" unicode="&#xdc;" horiz-adv-x="757" 
d="M14 710h357l-89 -80v-339c0 -148 9 -231 141 -231c124 0 173 89 173 242v268l-111 140h277l-100 -140v-277c0 -165 -61 -306 -248 -306c-189 0 -320 78 -320 281v362zM249 835c0 43 33 75 74 75c43 0 75 -32 75 -75c0 -41 -32 -74 -75 -74c-41 0 -74 33 -74 74zM457 835
c0 43 33 75 74 75c43 0 75 -32 75 -75c0 -41 -32 -74 -75 -74c-41 0 -74 33 -74 74z" />
    <glyph glyph-name="Yacute" unicode="&#xdd;" horiz-adv-x="605" 
d="M-27 710h313l-49 -79l130 -215h2l89 145l-76 149h235l-217 -381v-249l96 -80h-376l97 80v224zM177 764v28l264 131v-124z" />
    <glyph glyph-name="Thorn" unicode="&#xde;" horiz-adv-x="631" 
d="M24 0l90 80v550l-90 80h368l-90 -80v-55h47c161 0 263 -44 263 -183c0 -121 -125 -208 -268 -208h-16v45h6c56 0 90 73 90 153c0 101 -63 123 -108 123h-14v-425l90 -80h-368z" />
    <glyph glyph-name="germandbls" unicode="&#xdf;" horiz-adv-x="685" 
d="M32 0l50 70v351l-50 26v43h48v6c0 181 129 227 232 227c125 0 250 -45 250 -153c0 -128 -139 -84 -139 -164c0 -85 246 -77 246 -275c0 -96 -89 -144 -165 -144c-33 0 -68 3 -96 6c-17 2 -32 4 -47 7h-51v160h41l13 -18c51 -71 98 -90 145 -90c29 0 43 11 43 32
c0 84 -245 85 -245 274c0 67 48 102 80 121v185h-140v-664h-215z" />
    <glyph glyph-name="agrave" unicode="&#xe0;" horiz-adv-x="537" 
d="M26 114c0 103 90 169 238 184l42 3v138h-93v-107h-153c-4 7 -6 20 -6 39c0 91 139 132 211 132c144 0 206 -66 206 -143v-300l45 -60l-207 -10l11 75h-2c-48 -56 -88 -78 -144 -78c-72 0 -148 25 -148 127zM142 599v124l264 -131v-28zM191 135c0 -35 23 -48 51 -48
c23 0 43 12 64 28v123l-12 -1c-56 -5 -103 -42 -103 -102z" />
    <glyph glyph-name="aacute" unicode="&#xe1;" horiz-adv-x="537" 
d="M26 114c0 103 90 169 238 184l42 3v138h-93v-107h-153c-4 7 -6 20 -6 39c0 91 139 132 211 132c144 0 206 -66 206 -143v-300l45 -60l-207 -10l11 75h-2c-48 -56 -88 -78 -144 -78c-72 0 -148 25 -148 127zM142 564v28l264 131v-124zM191 135c0 -35 23 -48 51 -48
c23 0 43 12 64 28v123l-12 -1c-56 -5 -103 -42 -103 -102z" />
    <glyph glyph-name="acircumflex" unicode="&#xe2;" horiz-adv-x="537" 
d="M26 114c0 103 90 169 238 184l42 3v138h-93v-107h-153c-4 7 -6 20 -6 39c0 91 139 132 211 132c144 0 206 -66 206 -143v-300l45 -60l-207 -10l11 75h-2c-48 -56 -88 -78 -144 -78c-72 0 -148 25 -148 127zM114 564v28l160 131l160 -131v-28l-160 35zM191 135
c0 -35 23 -48 51 -48c23 0 43 12 64 28v123l-12 -1c-56 -5 -103 -42 -103 -102z" />
    <glyph glyph-name="atilde" unicode="&#xe3;" horiz-adv-x="537" 
d="M26 114c0 103 90 169 238 184l42 3v138h-93v-107h-153c-4 7 -6 20 -6 39c0 91 139 132 211 132c144 0 206 -66 206 -143v-300l45 -60l-207 -10l11 75h-2c-48 -56 -88 -78 -144 -78c-72 0 -148 25 -148 127zM106 644c29 43 70 79 115 79c51 0 80 -39 115 -39
c29 0 61 21 77 36l29 -28c-28 -43 -70 -77 -115 -77c-49 0 -69 39 -115 39c-29 0 -61 -21 -77 -36zM191 135c0 -35 23 -48 51 -48c23 0 43 12 64 28v123l-12 -1c-56 -5 -103 -42 -103 -102z" />
    <glyph glyph-name="adieresis" unicode="&#xe4;" horiz-adv-x="537" 
d="M26 114c0 103 90 169 238 184l42 3v138h-93v-107h-153c-4 7 -6 20 -6 39c0 91 139 132 211 132c144 0 206 -66 206 -143v-300l45 -60l-207 -10l11 75h-2c-48 -56 -88 -78 -144 -78c-72 0 -148 25 -148 127zM105 635c0 43 33 75 74 75c43 0 75 -32 75 -75
c0 -41 -32 -74 -75 -74c-41 0 -74 33 -74 74zM191 135c0 -35 23 -48 51 -48c23 0 43 12 64 28v123l-12 -1c-56 -5 -103 -42 -103 -102zM313 635c0 43 33 75 74 75c43 0 75 -32 75 -75c0 -41 -32 -74 -75 -74c-41 0 -74 33 -74 74z" />
    <glyph glyph-name="aring" unicode="&#xe5;" horiz-adv-x="537" 
d="M26 114c0 103 90 169 238 184l42 3v138h-93v-107h-153c-4 7 -6 20 -6 39c0 91 139 132 211 132c144 0 206 -66 206 -143v-300l45 -60l-207 -10l11 75h-2c-48 -56 -88 -78 -144 -78c-72 0 -148 25 -148 127zM191 135c0 -35 23 -48 51 -48c23 0 43 12 64 28v123l-12 -1
c-56 -5 -103 -42 -103 -102zM202 641c0 47 36 82 81 82c47 0 82 -35 82 -82c0 -45 -35 -81 -82 -81c-45 0 -81 36 -81 81zM251 641c0 -19 13 -32 32 -32c20 0 34 13 34 32c0 20 -14 34 -34 34c-19 0 -32 -14 -32 -34z" />
    <glyph glyph-name="ae" unicode="&#xe6;" horiz-adv-x="788" 
d="M26 114c0 103 90 169 238 184l42 3v138h-93v-107h-153c-4 7 -6 20 -6 39c0 91 139 132 211 132c77 0 130 -19 163 -48c36 31 78 48 129 48c124 0 194 -81 194 -172v-50h-277c3 -110 72 -160 139 -160c61 0 90 25 127 57l23 -10c-35 -113 -103 -181 -207 -181
c-92 0 -155 45 -190 112l-32 -34c-50 -52 -103 -78 -160 -78c-72 0 -148 25 -148 127zM191 135c0 -35 23 -48 51 -48c23 0 43 12 64 28v123l-12 -1c-56 -5 -103 -42 -103 -102zM478 340h130v14c0 51 -18 76 -55 76c-31 0 -63 -31 -75 -90z" />
    <glyph glyph-name="ccedilla" unicode="&#xe7;" horiz-adv-x="481" 
d="M32 236c0 156 105 267 235 267c92 0 176 -36 176 -110c0 -17 -5 -37 -10 -49h-129v10c0 51 -17 82 -53 82c-38 0 -79 -51 -79 -144c0 -118 70 -171 139 -171c56 0 93 23 122 55l28 -8c-33 -111 -100 -178 -200 -181l-14 -42h14c56 0 98 -20 98 -69
c0 -59 -57 -84 -133 -84c-35 0 -66 8 -94 17l24 51c19 -8 44 -16 65 -16c19 0 37 6 37 29s-17 32 -44 32h-40l35 86c-117 21 -177 129 -177 245z" />
    <glyph glyph-name="egrave" unicode="&#xe8;" horiz-adv-x="486" 
d="M32 236c0 141 92 267 223 267c124 0 194 -81 194 -172v-50h-277c3 -110 72 -160 139 -160c61 0 90 25 127 57l23 -10c-35 -113 -103 -181 -207 -181c-147 0 -222 121 -222 249zM126 599v124l264 -131v-28zM176 340h130v14c0 51 -18 76 -55 76c-31 0 -63 -31 -75 -90z" />
    <glyph glyph-name="eacute" unicode="&#xe9;" horiz-adv-x="486" 
d="M32 236c0 141 92 267 223 267c124 0 194 -81 194 -172v-50h-277c3 -110 72 -160 139 -160c61 0 90 25 127 57l23 -10c-35 -113 -103 -181 -207 -181c-147 0 -222 121 -222 249zM126 564v28l264 131v-124zM176 340h130v14c0 51 -18 76 -55 76c-31 0 -63 -31 -75 -90z" />
    <glyph glyph-name="ecircumflex" unicode="&#xea;" horiz-adv-x="486" 
d="M32 236c0 141 92 267 223 267c124 0 194 -81 194 -172v-50h-277c3 -110 72 -160 139 -160c61 0 90 25 127 57l23 -10c-35 -113 -103 -181 -207 -181c-147 0 -222 121 -222 249zM98 564v28l160 131l160 -131v-28l-160 35zM176 340h130v14c0 51 -18 76 -55 76
c-31 0 -63 -31 -75 -90z" />
    <glyph glyph-name="edieresis" unicode="&#xeb;" horiz-adv-x="486" 
d="M32 236c0 141 92 267 223 267c124 0 194 -81 194 -172v-50h-277c3 -110 72 -160 139 -160c61 0 90 25 127 57l23 -10c-35 -113 -103 -181 -207 -181c-147 0 -222 121 -222 249zM83 635c0 43 33 75 74 75c43 0 75 -32 75 -75c0 -41 -32 -74 -75 -74c-41 0 -74 33 -74 74z
M176 340h130v14c0 51 -18 76 -55 76c-31 0 -63 -31 -75 -90zM291 635c0 43 33 75 74 75c43 0 75 -32 75 -75c0 -41 -32 -74 -75 -74c-41 0 -74 33 -74 74z" />
    <glyph glyph-name="igrave" unicode="&#xec;" horiz-adv-x="324" 
d="M16 490l233 10v-430l64 -70h-296l67 70v350zM36 599v124l264 -131v-28z" />
    <glyph glyph-name="iacute" unicode="&#xed;" horiz-adv-x="324" 
d="M16 490l233 10v-430l64 -70h-296l67 70v350zM36 564v28l264 131v-124z" />
    <glyph glyph-name="icircumflex" unicode="&#xee;" horiz-adv-x="324" 
d="M8 564v28l160 131l160 -131v-28l-160 35zM16 490l233 10v-430l64 -70h-296l67 70v350z" />
    <glyph glyph-name="idieresis" unicode="&#xef;" horiz-adv-x="324" 
d="M-10 635c0 43 33 75 74 75c43 0 75 -32 75 -75c0 -41 -32 -74 -75 -74c-41 0 -74 33 -74 74zM16 490l233 10v-430l64 -70h-296l67 70v350zM198 635c0 43 33 75 74 75c43 0 75 -32 75 -75c0 -41 -32 -74 -75 -74c-41 0 -74 33 -74 74z" />
    <glyph glyph-name="eth" unicode="&#xf0;" horiz-adv-x="566" 
d="M34 218c0 140 101 225 233 225c37 0 64 -8 76 -12h2c-12 35 -33 68 -60 103l-84 -20v60l41 10c-39 39 -83 74 -126 98v48c88 -29 162 -71 223 -122l122 30v-60l-71 -18c92 -96 142 -212 142 -316c0 -153 -88 -257 -256 -257c-144 0 -242 97 -242 231zM214 193
c0 -113 16 -133 55 -133c47 0 84 76 84 184c0 99 -17 126 -57 126c-52 0 -82 -77 -82 -177z" />
    <glyph glyph-name="ntilde" unicode="&#xf1;" horiz-adv-x="625" 
d="M26 0l55 70v350l-55 70l210 10l-8 -87h2c37 56 90 90 153 90c99 0 172 -64 172 -156v-277l55 -70h-272l52 70v315h-144v-315l51 -70h-271zM151 644c29 43 70 79 115 79c51 0 80 -39 115 -39c29 0 61 21 77 36l29 -28c-28 -43 -70 -77 -115 -77c-49 0 -69 39 -115 39
c-29 0 -61 -21 -77 -36z" />
    <glyph glyph-name="ograve" unicode="&#xf2;" horiz-adv-x="552" 
d="M32 249c0 147 102 254 243 254c144 0 245 -103 245 -255c0 -148 -103 -261 -242 -261c-148 0 -246 110 -246 262zM144 599v124l264 -131v-28zM205 276c0 -163 41 -216 84 -216c33 0 57 43 57 156c0 163 -41 216 -84 216c-33 0 -57 -43 -57 -156z" />
    <glyph glyph-name="oacute" unicode="&#xf3;" horiz-adv-x="552" 
d="M32 249c0 147 102 254 243 254c144 0 245 -103 245 -255c0 -148 -103 -261 -242 -261c-148 0 -246 110 -246 262zM144 564v28l264 131v-124zM205 276c0 -163 41 -216 84 -216c33 0 57 43 57 156c0 163 -41 216 -84 216c-33 0 -57 -43 -57 -156z" />
    <glyph glyph-name="ocircumflex" unicode="&#xf4;" horiz-adv-x="552" 
d="M32 249c0 147 102 254 243 254c144 0 245 -103 245 -255c0 -148 -103 -261 -242 -261c-148 0 -246 110 -246 262zM116 564v28l160 131l160 -131v-28l-160 35zM205 276c0 -163 41 -216 84 -216c33 0 57 43 57 156c0 163 -41 216 -84 216c-33 0 -57 -43 -57 -156z" />
    <glyph glyph-name="otilde" unicode="&#xf5;" horiz-adv-x="552" 
d="M32 249c0 147 102 254 243 254c144 0 245 -103 245 -255c0 -148 -103 -261 -242 -261c-148 0 -246 110 -246 262zM108 644c29 43 70 79 115 79c51 0 80 -39 115 -39c29 0 61 21 77 36l29 -28c-28 -43 -70 -77 -115 -77c-49 0 -69 39 -115 39c-29 0 -61 -21 -77 -36z
M205 276c0 -163 41 -216 84 -216c33 0 57 43 57 156c0 163 -41 216 -84 216c-33 0 -57 -43 -57 -156z" />
    <glyph glyph-name="odieresis" unicode="&#xf6;" horiz-adv-x="552" 
d="M32 249c0 147 102 254 243 254c144 0 245 -103 245 -255c0 -148 -103 -261 -242 -261c-148 0 -246 110 -246 262zM97 635c0 43 33 75 74 75c43 0 75 -32 75 -75c0 -41 -32 -74 -75 -74c-41 0 -74 33 -74 74zM205 276c0 -163 41 -216 84 -216c33 0 57 43 57 156
c0 163 -41 216 -84 216c-33 0 -57 -43 -57 -156zM305 635c0 43 33 75 74 75c43 0 75 -32 75 -75c0 -41 -32 -74 -75 -74c-41 0 -74 33 -74 74z" />
    <glyph glyph-name="divide" unicode="&#xf7;" horiz-adv-x="590" 
d="M50 247v66h490v-66h-490zM226 435c0 37 29 68 68 68s68 -31 68 -68c0 -39 -29 -69 -68 -69s-68 30 -68 69zM227 126c0 37 29 68 68 68s68 -31 68 -68c0 -39 -29 -69 -68 -69s-68 30 -68 69z" />
    <glyph glyph-name="oslash" unicode="&#xf8;" horiz-adv-x="550" 
d="M31 249c0 147 102 254 243 254c46 0 87 -10 122 -29l22 29h80l-50 -68c45 -44 71 -108 71 -187c0 -148 -103 -261 -242 -261c-52 0 -97 12 -135 37l-18 -24h-80l49 66c-41 47 -62 108 -62 183zM206 217l117 158c-16 41 -39 57 -62 57c-33 0 -57 -43 -57 -156
c0 -23 -1 -40 2 -59zM220 130c16 -51 41 -70 68 -70c33 0 57 43 57 156c0 29 -1 54 -4 77z" />
    <glyph glyph-name="ugrave" unicode="&#xf9;" horiz-adv-x="607" 
d="M18 490l213 10v-385h138v305l-60 70l225 10v-430l52 -70l-207 -10l8 92h-2c-47 -65 -100 -95 -153 -95c-92 0 -166 64 -166 156v277zM166 599v124l264 -131v-28z" />
    <glyph glyph-name="uacute" unicode="&#xfa;" horiz-adv-x="607" 
d="M18 490l213 10v-385h138v305l-60 70l225 10v-430l52 -70l-207 -10l8 92h-2c-47 -65 -100 -95 -153 -95c-92 0 -166 64 -166 156v277zM166 564v28l264 131v-124z" />
    <glyph glyph-name="ucircumflex" unicode="&#xfb;" horiz-adv-x="607" 
d="M18 490l213 10v-385h138v305l-60 70l225 10v-430l52 -70l-207 -10l8 92h-2c-47 -65 -100 -95 -153 -95c-92 0 -166 64 -166 156v277zM138 564v28l160 131l160 -131v-28l-160 35z" />
    <glyph glyph-name="udieresis" unicode="&#xfc;" horiz-adv-x="607" 
d="M18 490l213 10v-385h138v305l-60 70l225 10v-430l52 -70l-207 -10l8 92h-2c-47 -65 -100 -95 -153 -95c-92 0 -166 64 -166 156v277zM119 635c0 43 33 75 74 75c43 0 75 -32 75 -75c0 -41 -32 -74 -75 -74c-41 0 -74 33 -74 74zM327 635c0 43 33 75 74 75
c43 0 75 -32 75 -75c0 -41 -32 -74 -75 -74c-41 0 -74 33 -74 74z" />
    <glyph glyph-name="yacute" unicode="&#xfd;" horiz-adv-x="565" 
d="M10 490h278l-62 -70l116 -285h2l72 193l-73 162h204l-224 -574c-27 -73 -85 -124 -147 -124c-63 0 -134 40 -134 138h206zM185 564v28l264 131v-124z" />
    <glyph glyph-name="thorn" unicode="&#xfe;" horiz-adv-x="581" 
d="M-4 710l232 10v-272c32 33 79 55 120 55c127 0 200 -106 200 -240c0 -153 -87 -276 -244 -276c-32 0 -57 6 -76 10v-122l91 -70h-311l55 70v765zM228 72h39c52 0 111 25 111 149s-35 169 -118 169h-32v-318z" />
    <glyph glyph-name="ydieresis" unicode="&#xff;" horiz-adv-x="565" 
d="M10 490h278l-62 -70l116 -285h2l72 193l-73 162h204l-224 -574c-27 -73 -85 -124 -147 -124c-63 0 -134 40 -134 138h206zM139 635c0 43 33 75 74 75c43 0 75 -32 75 -75c0 -41 -32 -74 -75 -74c-41 0 -74 33 -74 74zM347 635c0 43 33 75 74 75c43 0 75 -32 75 -75
c0 -41 -32 -74 -75 -74c-41 0 -74 33 -74 74z" />
    <glyph glyph-name="OE" unicode="&#x152;" horiz-adv-x="995" 
d="M40 347c0 207 170 363 358 363h514v-230l-150 170h-137v-263l148 160v-360l-148 160v-287h138l208 209l-51 -269h-524c-247 0 -356 140 -356 347zM248 382c0 -189 54 -322 183 -322h11v579h-19c-139 0 -175 -78 -175 -257z" />
    <glyph glyph-name="oe" unicode="&#x153;" horiz-adv-x="833" 
d="M32 249c0 147 102 254 243 254c72 0 133 -25 176 -70c39 43 90 70 151 70c124 0 194 -81 194 -172v-50h-277c3 -110 72 -160 139 -160c61 0 90 25 127 57l23 -10c-35 -113 -103 -181 -207 -181c-68 0 -121 26 -158 66c-43 -41 -100 -66 -165 -66
c-148 0 -246 110 -246 262zM205 276c0 -163 41 -216 84 -216c33 0 57 43 57 156c0 163 -41 216 -84 216c-33 0 -57 -43 -57 -156zM523 340h130v14c0 51 -18 76 -55 76c-31 0 -63 -31 -75 -90z" />
    <glyph glyph-name="Ydieresis" unicode="&#x178;" horiz-adv-x="605" 
d="M-27 710h313l-49 -79l130 -215h2l89 145l-76 149h235l-217 -381v-249l96 -80h-376l97 80v224zM130 835c0 43 33 75 74 75c43 0 75 -32 75 -75c0 -41 -32 -74 -75 -74c-41 0 -74 33 -74 74zM338 835c0 43 33 75 74 75c43 0 75 -32 75 -75c0 -41 -32 -74 -75 -74
c-41 0 -74 33 -74 74z" />
    <glyph glyph-name="circumflex" unicode="&#x2c6;" horiz-adv-x="220" 
d="M-50 564v28l160 131l160 -131v-28l-160 35z" />
    <glyph glyph-name="tilde" unicode="&#x2dc;" horiz-adv-x="220" 
d="M-58 644c29 43 70 79 115 79c51 0 80 -39 115 -39c29 0 61 21 77 36l29 -28c-28 -43 -70 -77 -115 -77c-49 0 -69 39 -115 39c-29 0 -61 -21 -77 -36z" />
    <glyph glyph-name="uni2000" unicode="&#x2000;" horiz-adv-x="461" 
 />
    <glyph glyph-name="uni2001" unicode="&#x2001;" horiz-adv-x="923" 
 />
    <glyph glyph-name="uni2002" unicode="&#x2002;" horiz-adv-x="461" 
 />
    <glyph glyph-name="uni2003" unicode="&#x2003;" horiz-adv-x="923" 
 />
    <glyph glyph-name="uni2004" unicode="&#x2004;" horiz-adv-x="308" 
 />
    <glyph glyph-name="uni2005" unicode="&#x2005;" horiz-adv-x="230" 
 />
    <glyph glyph-name="uni2006" unicode="&#x2006;" horiz-adv-x="154" 
 />
    <glyph glyph-name="uni2007" unicode="&#x2007;" horiz-adv-x="154" 
 />
    <glyph glyph-name="uni2008" unicode="&#x2008;" horiz-adv-x="115" 
 />
    <glyph glyph-name="uni2009" unicode="&#x2009;" horiz-adv-x="185" 
 />
    <glyph glyph-name="uni200A" unicode="&#x200a;" horiz-adv-x="51" 
 />
    <glyph glyph-name="uni2010" unicode="&#x2010;" horiz-adv-x="338" 
d="M59 266v60h220v-60h-220z" />
    <glyph glyph-name="uni2011" unicode="&#x2011;" horiz-adv-x="338" 
d="M59 266v60h220v-60h-220z" />
    <glyph glyph-name="figuredash" unicode="&#x2012;" horiz-adv-x="338" 
d="M59 266v60h220v-60h-220z" />
    <glyph glyph-name="endash" unicode="&#x2013;" horiz-adv-x="518" 
d="M59 266v60h400v-60h-400z" />
    <glyph glyph-name="emdash" unicode="&#x2014;" horiz-adv-x="1018" 
d="M59 266v60h900v-60h-900z" />
    <glyph glyph-name="quoteleft" unicode="&#x2018;" horiz-adv-x="240" 
d="M41 537c0 64 46 154 138 186l12 -32c-41 -17 -81 -53 -81 -96h7c43 0 75 -32 75 -75s-33 -76 -72 -76c-38 0 -79 26 -79 93z" />
    <glyph glyph-name="quoteright" unicode="&#x2019;" horiz-adv-x="240" 
d="M54 647c0 43 33 76 72 76c37 0 79 -26 79 -93c0 -64 -46 -154 -138 -186l-12 32c41 17 81 53 81 96h-7c-43 0 -75 32 -75 75z" />
    <glyph glyph-name="quotesinglbase" unicode="&#x201a;" horiz-adv-x="248" 
d="M48 62c0 43 33 76 72 76c37 0 79 -26 79 -93c0 -64 -46 -154 -138 -186l-12 32c41 17 81 53 81 96h-7c-43 0 -75 32 -75 75z" />
    <glyph glyph-name="quotedblleft" unicode="&#x201c;" horiz-adv-x="444" 
d="M41 537c0 64 46 154 138 186l12 -32c-41 -17 -81 -53 -81 -96h7c43 0 75 -32 75 -75s-33 -76 -72 -76c-38 0 -79 26 -79 93zM245 537c0 64 46 154 138 186l12 -32c-41 -17 -81 -53 -81 -96h7c43 0 75 -32 75 -75s-33 -76 -72 -76c-38 0 -79 26 -79 93z" />
    <glyph glyph-name="quotedblright" unicode="&#x201d;" horiz-adv-x="444" 
d="M54 647c0 43 33 76 72 76c37 0 79 -26 79 -93c0 -64 -46 -154 -138 -186l-12 32c41 17 81 53 81 96h-7c-43 0 -75 32 -75 75zM258 647c0 43 33 76 72 76c37 0 79 -26 79 -93c0 -64 -46 -154 -138 -186l-12 32c41 17 81 53 81 96h-7c-43 0 -75 32 -75 75z" />
    <glyph glyph-name="quotedblbase" unicode="&#x201e;" horiz-adv-x="452" 
d="M48 62c0 43 33 76 72 76c37 0 79 -26 79 -93c0 -64 -46 -154 -138 -186l-12 32c41 17 81 53 81 96h-7c-43 0 -75 32 -75 75zM252 62c0 43 33 76 72 76c37 0 79 -26 79 -93c0 -64 -46 -154 -138 -186l-12 32c41 17 81 53 81 96h-7c-43 0 -75 32 -75 75z" />
    <glyph glyph-name="bullet" unicode="&#x2022;" horiz-adv-x="348" 
d="M78 279c0 52 43 95 96 95s96 -43 96 -95c0 -53 -43 -96 -96 -96s-96 43 -96 96z" />
    <glyph glyph-name="ellipsis" unicode="&#x2026;" horiz-adv-x="727" 
d="M48 62c0 43 32 76 75 76s76 -33 76 -76s-33 -75 -76 -75s-75 32 -75 75zM288 62c0 43 32 76 75 76s76 -33 76 -76s-33 -75 -76 -75s-75 32 -75 75zM528 62c0 43 32 76 75 76s76 -33 76 -76s-33 -75 -76 -75s-75 32 -75 75z" />
    <glyph glyph-name="uni202F" unicode="&#x202f;" horiz-adv-x="185" 
 />
    <glyph glyph-name="guilsinglleft" unicode="&#x2039;" horiz-adv-x="336" 
d="M32 243l215 207h25l-69 -207l69 -208h-25z" />
    <glyph glyph-name="guilsinglright" unicode="&#x203a;" horiz-adv-x="335" 
d="M63 35l69 207l-69 208h25l215 -208l-215 -207h-25z" />
    <glyph glyph-name="uni205F" unicode="&#x205f;" horiz-adv-x="230" 
 />
    <glyph glyph-name="Euro" unicode="&#x20ac;" horiz-adv-x="756" 
d="M37 284v66h41v4c0 23 1 44 5 67h-46v66h62c45 138 164 236 327 236c95 0 154 -13 201 -13h55v-286h-41l-32 74c-45 104 -115 158 -198 158c-77 0 -147 -56 -170 -169h198v-66h-205v-11c0 -21 2 -41 5 -60h170v-66h-150c39 -87 116 -140 220 -140c92 0 160 40 203 89
l38 -14c-32 -83 -135 -237 -304 -232c-185 0 -306 128 -333 297h-46z" />
    <glyph glyph-name="trademark" unicode="&#x2122;" horiz-adv-x="1188" 
d="M74 496v223l75 -9h274l76 9v-223l-110 160h-41v-279l95 -70h-313l93 70v279h-39zM539 307l55 70v258l-35 75h202l73 -188h2l72 188h229l-55 -75v-258l55 -70h-252l42 90v202h-2l-132 -312l-138 312h-1l1 -202l47 -90h-163z" />
    <glyph glyph-name="uniE000" unicode="&#xe000;" horiz-adv-x="490" 
d="M0 0v490h490v-490h-490z" />
    <glyph glyph-name="glyph1" horiz-adv-x="0" 
 />
  </font>
</defs>
</svg>
