<?xml version="1.0" standalone="no"?>
<!DOCTYPE svg PUBLIC "-//W3C//DTD SVG 1.1//EN" "http://www.w3.org/Graphics/SVG/1.1/DTD/svg11.dtd" >
<svg xmlns="http://www.w3.org/2000/svg" xmlns:xlink="http://www.w3.org/1999/xlink" version="1.1">
<metadata>
Created by FontForge 20150102 at Mon Jan 26 03:02:55 2015
 By uniteet7
(c)2012 Optimo.
</metadata>
<defs>
<font id="Stanley-Regular" horiz-adv-x="794" >
  <font-face 
    font-family="Stanley"
    font-weight="400"
    font-stretch="normal"
    units-per-em="1000"
    panose-1="2 5 5 6 8 4 6 2 0 3"
    ascent="800"
    descent="-200"
    x-height="490"
    cap-height="710"
    bbox="-97 -233 1079 1023"
    underline-thickness="40"
    underline-position="-100"
    stemh="28"
    stemv="95"
    unicode-range="U+000D-FB04"
  />
<missing-glyph horiz-adv-x="365" 
d="M33 0v667h266v-667h-266zM66 33h200v600h-200v-600z" />
    <glyph glyph-name="uniFB01" unicode="fi" horiz-adv-x="614" 
d="M26 0v28h52l28 32v392l-80 15v23h78v4c0 59 18 229 225 229c117 0 186 -47 186 -94c0 -15 -3 -27 -10 -36h-83l-8 19c-16 38 -40 83 -104 83c-83 0 -110 -82 -110 -192v-13h314v-430l30 -32h59v-28h-272v28h60l28 32v370l-29 27h-189v-397l30 -32h54v-28h-259z" />
    <glyph glyph-name="uniFB02" unicode="fl" horiz-adv-x="614" 
d="M26 0v28h52l28 32v397l-80 15v18h78v8c0 115 62 225 206 225c40 1 84 -6 105 -13l99 10v-660l30 -32h59v-28h-256v28h44l28 32v569c-30 44 -69 66 -117 66c-81 0 -102 -71 -102 -131v-74h176v-33h-175v-397l30 -32h70v-28h-275z" />
    <glyph glyph-name="uniFB03" unicode="ffi" horiz-adv-x="927" 
d="M26 0v28h52l28 32v392l-80 15v23h78v3c0 103 76 207 209 207c83 0 129 -22 160 -41c33 37 85 64 169 64c117 0 186 -47 186 -94c0 -15 -3 -27 -10 -36h-83l-8 19c-16 38 -40 83 -104 83c-83 0 -110 -82 -110 -192v-13h314v-430l30 -32h59v-28h-272v28h60l28 32v370
l-29 27h-189v-397l30 -32h60v-28h-270v28h57l28 32v397h-218v-397l30 -32h54v-28h-259zM201 490h216v116c-20 35 -53 66 -102 66c-62 0 -114 -51 -114 -149v-33z" />
    <glyph glyph-name="uniFB04" unicode="ffl" horiz-adv-x="927" 
d="M26 0v28h52l28 32v392l-80 15v23h78v3c0 103 76 207 209 207c73 0 127 -21 158 -40c35 39 84 63 152 63c40 1 84 -6 105 -13l99 10v-660l30 -32h59v-28h-256v28h44l28 32v569c-30 44 -69 66 -117 66c-81 0 -102 -71 -102 -131v-74h176v-33h-175v-397l30 -32h60v-28h-270
v28h57l28 32v397h-218v-397l30 -32h54v-28h-259zM201 490h216v116c-20 35 -53 66 -102 66c-62 0 -114 -51 -114 -149v-33z" />
    <glyph glyph-name=".notdef" horiz-adv-x="365" 
d="M33 0v667h266v-667h-266zM66 33h200v600h-200v-600z" />
    <glyph glyph-name="glyph3" horiz-adv-x="0" 
 />
    <glyph glyph-name="glyph3" horiz-adv-x="0" 
 />
    <glyph glyph-name="uni000D" unicode="&#xd;" horiz-adv-x="500" 
 />
    <glyph glyph-name="space" unicode=" " horiz-adv-x="244" 
 />
    <glyph glyph-name="exclam" unicode="!" horiz-adv-x="272" 
d="M68 55c0 39 29 68 68 68s68 -29 68 -68s-29 -68 -68 -68s-68 29 -68 68zM89 491v219h95v-219l-34 -293h-27z" />
    <glyph glyph-name="quotedbl" unicode="&#x22;" horiz-adv-x="342" 
d="M65 465v245h58v-245h-58zM219 465v245h58v-245h-58z" />
    <glyph glyph-name="numbersign" unicode="#" horiz-adv-x="591" 
d="M36 224l10 40h100l51 187h-100l10 39h100l60 220h50l-60 -220h149l60 220h50l-60 -220h100l-10 -39h-100l-51 -187h100l-10 -40h-101l-60 -224h-50l60 224h-149l-60 -224h-50l60 224h-99zM196 264h149l51 187h-149z" />
    <glyph glyph-name="dollar" unicode="$" horiz-adv-x="562" 
d="M63 -9v236h30l4 -9c35 -79 90 -143 163 -168v257c-96 43 -194 93 -194 225c0 95 76 176 194 189v39h53v-38c53 -4 86 -17 117 -32l16 29h29v-210h-30l-9 24c-28 73 -68 123 -123 142v-260c96 -45 198 -93 198 -230c0 -118 -93 -193 -198 -198v-37h-53v39
c-64 7 -105 24 -137 39l-30 -37h-30zM146 576c0 -69 50 -104 114 -136v242c-81 -3 -114 -54 -114 -106zM313 40h10c85 0 116 44 116 101c0 72 -57 110 -126 142v-243z" />
    <glyph glyph-name="percent" unicode="%" horiz-adv-x="902" 
d="M37 511c0 107 46 212 161 212c114 0 160 -105 160 -212s-46 -211 -160 -211c-115 0 -161 106 -161 211zM131 511c0 -83 14 -179 67 -179s65 94 65 179c0 87 -14 181 -66 181s-66 -97 -66 -181zM137 0c191 241 374 469 566 710h54l-562 -710h-58zM545 198
c0 107 46 212 161 212c114 0 160 -105 160 -212s-46 -211 -160 -211c-115 0 -161 106 -161 211zM639 198c0 -83 14 -179 67 -179s65 94 65 179c0 87 -14 181 -66 181s-66 -97 -66 -181z" />
    <glyph glyph-name="ampersand" unicode="&#x26;" horiz-adv-x="734" 
d="M64 154c0 115 91 174 176 233c-57 80 -81 136 -81 193c0 91 74 143 168 143c69 0 162 -26 162 -117c0 -72 -72 -126 -148 -180l155 -207c35 59 66 130 101 211l-40 32h-56v28h195v-18l-57 -34c-43 -100 -81 -182 -120 -249l97 -129l84 -42v-18h-177l-69 94
c-60 -72 -125 -107 -205 -107c-109 0 -185 67 -185 167zM155 201c0 -80 62 -130 133 -130c56 0 101 21 140 58l-171 235c-57 -47 -102 -98 -102 -163zM230 626c0 -51 50 -116 90 -172l4 -6c43 39 75 82 75 143c0 57 -37 102 -93 102c-43 0 -76 -24 -76 -67z" />
    <glyph glyph-name="quotesingle" unicode="'" horiz-adv-x="189" 
d="M65 465v245h59v-245h-59z" />
    <glyph glyph-name="parenleft" unicode="(" horiz-adv-x="310" 
d="M34 248c0 187 84 395 259 493l13 -22c-145 -105 -210 -297 -210 -471c0 -166 52 -337 210 -458l-12 -23c-165 88 -260 300 -260 481z" />
    <glyph glyph-name="parenright" unicode=")" horiz-adv-x="310" 
d="M4 -210c158 121 210 292 210 458c0 174 -65 366 -210 471l13 22c175 -98 259 -306 259 -493c0 -182 -96 -392 -260 -481z" />
    <glyph glyph-name="asterisk" unicode="*" horiz-adv-x="453" 
d="M45 591l53 33l114 -71l1 1l-34 129l48 40l48 -40l-33 -130l1 -1l113 72l52 -32l-23 -59l-134 -9l-1 -2l104 -84l-14 -60l-63 4l-50 125h-2l-48 -125l-62 -5l-15 61l102 85l-1 2l-132 8z" />
    <glyph glyph-name="plus" unicode="+" horiz-adv-x="510" 
d="M45 257v46h184v187h52v-187h184v-46h-184v-195h-52v195h-184z" />
    <glyph glyph-name="comma" unicode="," horiz-adv-x="242" 
d="M49 -120c40 16 84 57 84 107c-51 1 -81 31 -81 68c0 39 28 68 67 68s70 -29 70 -84c0 -80 -51 -149 -132 -180z" />
    <glyph glyph-name="hyphen" unicode="-" horiz-adv-x="342" 
d="M61 266v40h220v-40h-220z" />
    <glyph glyph-name="period" unicode="." horiz-adv-x="240" 
d="M52 55c0 39 29 68 68 68s68 -29 68 -68s-29 -68 -68 -68s-68 29 -68 68z" />
    <glyph glyph-name="slash" unicode="/" horiz-adv-x="452" 
d="M27 0l348 710h52l-348 -710h-52z" />
    <glyph glyph-name="zero" unicode="0" horiz-adv-x="632" 
d="M54 354c0 185 91 369 262 369c179 0 262 -183 262 -369c0 -184 -93 -367 -262 -367s-262 184 -262 367zM166 354c0 -144 11 -337 150 -337c140 0 149 188 149 337c0 152 -33 339 -150 339c-118 0 -149 -193 -149 -339z" />
    <glyph glyph-name="one" unicode="1" horiz-adv-x="383" 
d="M43 0v28h71l40 42v553l-107 -53v35l198 115h2v-650l40 -42h70v-28h-314z" />
    <glyph glyph-name="two" unicode="2" horiz-adv-x="552" 
d="M46 0v50c151 138 319 276 319 474c0 121 -32 170 -104 170c-76 0 -93 -72 -93 -120s13 -78 14 -82l-118 -17c-4 7 -6 20 -6 39c0 122 90 209 211 209c120 0 210 -61 210 -189c0 -176 -165 -305 -341 -441v-2h276l72 89h18l-35 -180h-423z" />
    <glyph glyph-name="three" unicode="3" horiz-adv-x="542" 
d="M35 166l23 10c40 -56 95 -99 189 -99c99 0 156 86 156 186c0 82 -52 144 -139 144c-51 0 -93 -21 -116 -34v46l189 198v2h-259l16 104h10l35 -13h330v-50l-277 -237v-2c27 12 61 23 94 23c132 0 203 -105 203 -205c0 -128 -83 -252 -237 -252c-108 0 -182 66 -217 179z
" />
    <glyph glyph-name="four" unicode="4" horiz-adv-x="531" 
d="M20 206v17c147 184 204 327 260 487h120c-69 -171 -179 -313 -334 -462v-2h214v124l74 90h18v-214h121v-40h-121v-135l40 -43h70v-28h-317v28h74l41 43v135h-260z" />
    <glyph glyph-name="five" unicode="5" horiz-adv-x="538" 
d="M38 166l23 10c40 -56 95 -99 189 -99c99 0 156 86 156 186c0 92 -49 176 -155 176c-68 0 -123 -41 -152 -113h-30l61 384h282l37 13h10l-20 -104h-265l-59 -206h2c42 42 94 63 155 63c155 0 220 -120 220 -237c0 -128 -83 -252 -237 -252c-108 0 -182 66 -217 179z" />
    <glyph glyph-name="six" unicode="6" horiz-adv-x="563" 
d="M49 244c0 179 153 417 386 479v-28c-108 -37 -219 -155 -259 -292h2c25 24 74 40 126 40c132 0 223 -85 223 -225c0 -134 -108 -231 -232 -231c-148 0 -246 120 -246 257zM158 244c0 -107 46 -224 140 -224c81 0 119 60 119 173c0 100 -41 217 -138 217
c-77 0 -121 -66 -121 -166z" />
    <glyph glyph-name="seven" unicode="7" horiz-adv-x="483" 
d="M30 529l37 194h10l35 -13h360v-50c-170 -207 -232 -468 -240 -660h-120c26 196 158 466 298 617v2h-288l-74 -90h-18z" />
    <glyph glyph-name="eight" unicode="8" horiz-adv-x="547" 
d="M53 152c0 87 74 166 159 211c-84 64 -134 121 -134 197c0 105 89 163 198 163c126 0 194 -67 194 -138c0 -68 -41 -123 -148 -180c90 -63 173 -132 173 -219c0 -122 -99 -199 -232 -199c-113 0 -210 60 -210 165zM145 178c0 -76 48 -155 144 -155c79 0 122 45 122 122
c0 72 -115 153 -182 204c-59 -40 -84 -99 -84 -171zM152 588c0 -73 90 -128 151 -170c63 44 79 90 79 145c0 56 -43 127 -118 127c-68 0 -112 -29 -112 -102z" />
    <glyph glyph-name="nine" unicode="9" horiz-adv-x="563" 
d="M36 492c0 133 108 231 232 231c148 0 246 -120 246 -257c0 -179 -153 -417 -386 -479v28c107 35 219 157 259 292h-2c-25 -24 -74 -40 -126 -40c-132 0 -223 85 -223 225zM146 517c0 -100 41 -217 138 -217c77 0 121 66 121 166c0 107 -46 224 -140 224
c-81 0 -119 -60 -119 -173z" />
    <glyph glyph-name="colon" unicode=":" horiz-adv-x="258" 
d="M61 55c0 39 29 68 68 68s68 -29 68 -68s-29 -68 -68 -68s-68 29 -68 68zM61 435c0 37 29 68 68 68s68 -31 68 -68c0 -39 -29 -69 -68 -69s-68 30 -68 69z" />
    <glyph glyph-name="semicolon" unicode=";" horiz-adv-x="264" 
d="M61 -120c40 16 84 57 84 107c-51 1 -81 31 -81 68c0 39 28 68 67 68s70 -29 70 -84c0 -80 -51 -149 -132 -180zM63 435c0 37 29 68 68 68s68 -31 68 -68c0 -39 -29 -69 -68 -69s-68 30 -68 69z" />
    <glyph glyph-name="less" unicode="&#x3c;" horiz-adv-x="510" 
d="M33 251v49l419 231v-60l-361 -194l361 -196v-60z" />
    <glyph glyph-name="equal" unicode="=" horiz-adv-x="636" 
d="M72 147v46h492v-46h-492zM72 366v46h492v-46h-492z" />
    <glyph glyph-name="greater" unicode="&#x3e;" horiz-adv-x="510" 
d="M58 21v60l361 196l-361 194v60l419 -231v-49z" />
    <glyph glyph-name="question" unicode="?" horiz-adv-x="421" 
d="M39 591c0 91 99 132 171 132c124 0 176 -67 176 -127c0 -186 -199 -166 -199 -389v-9h-24c-3 7 -14 35 -14 75c0 139 140 203 140 336c0 55 -31 81 -80 81c-52 0 -76 -47 -76 -82c0 -13 1 -23 3 -30l4 -12l-95 -14c-4 7 -6 20 -6 39zM108 55c0 39 29 68 68 68
s68 -29 68 -68s-29 -68 -68 -68s-68 29 -68 68z" />
    <glyph glyph-name="at" unicode="@" horiz-adv-x="853" 
d="M58 235c0 204 164 369 368 369s369 -165 369 -369c0 -88 -33 -171 -84 -235h-221l7 75h-2c-48 -56 -100 -88 -153 -88c-68 0 -119 46 -119 127c0 84 63 145 182 164l88 14v101c0 55 -25 81 -72 81c-45 0 -76 -46 -76 -86c0 -13 1 -23 3 -30l4 -12l-95 -14
c-4 7 -6 20 -6 39c0 91 99 132 171 132c124 0 166 -67 166 -127v-316l29 -32h76c19 23 35 48 46 75c18 41 27 85 27 132c0 188 -151 339 -339 339s-339 -151 -339 -339c0 -92 35 -174 94 -235h-39c-52 64 -85 146 -85 235zM322 134c0 -52 22 -86 65 -86c39 0 71 21 106 57
v155l-55 -11c-89 -22 -116 -68 -116 -115z" />
    <glyph glyph-name="A" unicode="A" horiz-adv-x="686" 
d="M21 0v18l56 72l215 542l-22 60l70 58h10l275 -680l54 -52v-18h-270v28h69l30 42l-62 161h-263l-53 -141l35 -62h82v-28h-226zM198 271h233l-117 305z" />
    <glyph glyph-name="B" unicode="B" horiz-adv-x="673" 
d="M30 0v28h81l39 42v570l-39 42h-81v28h325c104 0 240 -24 240 -161c0 -107 -79 -146 -159 -162v-2c68 -5 186 -38 186 -173c0 -145 -123 -212 -294 -212h-298zM253 59c19 -11 48 -19 88 -19c113 0 159 56 159 163s-77 150 -172 150h-75v-294zM253 393h75
c88 0 153 41 153 149c0 91 -59 128 -139 128c-40 0 -74 -9 -89 -16v-261z" />
    <glyph glyph-name="C" unicode="C" horiz-adv-x="712" 
d="M49 354c0 204 136 369 348 369c96 0 158 -21 201 -41l25 37h30v-216h-30l-8 16c-43 85 -99 167 -233 167c-144 -3 -239 -125 -239 -306c0 -165 118 -306 282 -306c100 0 170 50 222 135l28 -10c-27 -61 -85 -148 -181 -192c-29 -13 -62 -20 -97 -20h-10
c-210 0 -338 165 -338 367z" />
    <glyph glyph-name="D" unicode="D" horiz-adv-x="745" 
d="M30 0v28h81l39 42v570l-39 42h-81v28h309c247 0 356 -140 356 -347s-170 -363 -358 -363h-307zM253 73c9 -5 18 -8 29 -11c19 -7 43 -11 70 -11c169 0 225 98 225 277c0 188 -72 342 -243 342c-23 0 -43 -4 -58 -8c-9 -3 -16 -5 -23 -8v-581z" />
    <glyph glyph-name="E" unicode="E" horiz-adv-x="655" 
d="M30 0v28h81l39 42v570l-39 42h-81v28h550v-170h-18l-72 130h-237v-273h148l62 120h18v-280h-18l-62 120h-148v-317h245l107 140h18l-35 -180h-558z" />
    <glyph glyph-name="F" unicode="F" horiz-adv-x="606" 
d="M30 0v28h81l39 42v570l-39 42h-81v28h550v-170h-18l-72 130h-237v-273h148l62 120h18v-280h-18l-62 120h-148v-287l41 -42h104v-28h-368z" />
    <glyph glyph-name="G" unicode="G" horiz-adv-x="742" 
d="M49 354c0 204 136 369 348 369c96 0 158 -21 201 -41l25 37h30v-216h-30l-8 16c-43 85 -99 167 -233 167c-144 -3 -239 -125 -239 -306c0 -165 118 -306 282 -306c56 0 105 16 146 47v151l-40 34h-84v26h231v-341h-30l-59 81c-37 -37 -83 -66 -141 -80
c-17 -3 -34 -5 -52 -5h-9c-210 0 -338 165 -338 367z" />
    <glyph glyph-name="H" unicode="H" horiz-adv-x="811" 
d="M30 0v28h81l39 42v570l-39 42h-81v28h346v-28h-85l-38 -42v-237h305v237l-39 42h-84v28h346v-28h-82l-38 -42v-570l38 -42h82v-28h-346v28h84l39 42v293h-305v-293l38 -42h85v-28h-346z" />
    <glyph glyph-name="I" unicode="I" horiz-adv-x="408" 
d="M30 0v28h81l39 42v570l-39 42h-81v28h348v-28h-82l-38 -42v-570l38 -42h82v-28h-348z" />
    <glyph glyph-name="J" unicode="J" horiz-adv-x="452" 
d="M6 66l97 31c11 -45 31 -74 68 -74c43 0 51 38 51 109v508l-41 42h-105v28h349v-28h-61l-39 -42v-459c0 -113 -62 -194 -177 -194c-57 0 -131 31 -142 79z" />
    <glyph glyph-name="K" unicode="K" horiz-adv-x="705" 
d="M30 0v28h79l41 43v567l-41 44h-79v28h334v-28h-72l-39 -44v-263h2l254 265v42h-75v28h228v-18l-90 -52l-228 -224l303 -346l79 -52v-18h-279v28h58v42l-250 288h-2v-287l39 -43h71v-28h-333z" />
    <glyph glyph-name="L" unicode="L" horiz-adv-x="602" 
d="M30 0v28h81l39 42v570l-39 42h-81v28h361v-28h-100l-38 -42v-570l30 -30h183l107 140h18l-35 -180h-526z" />
    <glyph glyph-name="M" unicode="M" horiz-adv-x="953" 
d="M30 0v28h80l40 62v550l-22 42h-98v28h217l242 -551h2l221 551h211v-28h-100l-20 -32v-580l40 -42h80v-28h-326v28h62l41 42v485h-2l-233 -565h-24l-243 565h-2v-465l47 -62h82v-28h-295z" />
    <glyph glyph-name="N" unicode="N" horiz-adv-x="789" 
d="M31 0v28h79l41 63v528l-46 63h-74v28h198l372 -504h2v414l-47 62h-71v28h284v-28h-77l-43 -62v-630h-35l-415 574h-2v-473l47 -63h71v-28h-284z" />
    <glyph glyph-name="O" unicode="O" 
d="M49 354c0 204 136 369 348 369c210 0 348 -165 348 -367c0 -204 -136 -369 -348 -369c-210 0 -348 165 -348 367zM163 427c0 -208 101 -392 274 -392c107 0 194 95 194 248c0 203 -94 397 -267 397c-107 0 -201 -100 -201 -253z" />
    <glyph glyph-name="P" unicode="P" horiz-adv-x="625" 
d="M30 0v28h79l41 42v570l-41 42h-79v28h305c161 0 263 -44 263 -183c0 -121 -114 -208 -258 -208h-46v35h38c97 0 153 54 153 163c0 102 -71 153 -143 153c-35 0 -70 -8 -89 -17v-583l39 -42h110v-28h-372z" />
    <glyph glyph-name="Q" unicode="Q" 
d="M49 354c0 204 136 369 348 369c210 0 348 -165 348 -367c0 -181 -106 -330 -275 -362v-7l270 -163v-19h-177l-180 183c-202 8 -334 168 -334 366zM163 427c0 -182 77 -395 272 -395c117 0 196 98 196 251c0 182 -77 395 -272 395c-107 0 -196 -98 -196 -251z" />
    <glyph glyph-name="R" unicode="R" horiz-adv-x="701" 
d="M30 0v28h80l40 43v569l-40 42h-80v28h348c152 0 237 -71 237 -186c0 -88 -72 -170 -211 -189v-2l59 -27l163 -246l69 -42v-18h-163l-169 268c-20 32 -44 54 -75 54h-35v-251l40 -43h94v-28h-357zM253 362h84c81 0 165 48 165 148c0 109 -71 160 -155 160
c-24 0 -46 -4 -65 -8l-29 -8v-292z" />
    <glyph glyph-name="S" unicode="S" horiz-adv-x="565" 
d="M65 -9v236h30l4 -9c43 -99 123 -178 226 -178c85 0 116 44 116 101c0 186 -373 134 -373 391c0 101 89 191 223 191c67 0 106 -17 141 -33l16 29h29v-210h-30l-9 24c-35 92 -92 149 -168 149c-85 0 -122 -53 -122 -106c0 -184 365 -133 365 -391
c0 -122 -99 -198 -208 -198c-90 0 -141 25 -180 41l-30 -37h-30z" />
    <glyph glyph-name="T" unicode="T" horiz-adv-x="647" 
d="M31 510v213h20l35 -13h474l36 13h20v-213h-18l-72 160h-151v-599l40 -43h87v-28h-357v28h86l41 43v599h-151l-72 -160h-18z" />
    <glyph glyph-name="U" unicode="U" horiz-adv-x="761" 
d="M26 682v28h327v-28h-79l-40 -42v-369c0 -157 39 -231 171 -231c125 0 183 79 183 232v348l-47 62h-74v28h267v-28h-59l-41 -62v-337c0 -164 -56 -296 -238 -296c-189 0 -270 98 -270 271v382l-41 42h-59z" />
    <glyph glyph-name="V" unicode="V" horiz-adv-x="671" 
d="M11 692v18h295v-28h-85l-33 -42l187 -479h2l174 450l-41 71h-72v28h220v-18l-60 -72l-252 -630h-22l-259 650z" />
    <glyph glyph-name="W" unicode="W" horiz-adv-x="953" 
d="M13 692v18h272v-28h-70l-44 -42l168 -462h2l120 354l-52 150h-64v28h312v-28h-103l-17 -32l155 -461h2l144 434l-34 59h-87v28h216v-18l-47 -74l-217 -628h-23l-161 472h-2l-165 -472h-22l-245 650z" />
    <glyph glyph-name="X" unicode="X" horiz-adv-x="653" 
d="M5 0v18l70 62l198 269l-195 291l-62 52v18h274v-28h-81v-42l145 -213l138 201l-40 54h-62v28h233v-18l-75 -64l-171 -235l220 -323l62 -52v-18h-277v28h79v42l-164 243l-161 -233l40 -52h75v-28h-246z" />
    <glyph glyph-name="Y" unicode="Y" horiz-adv-x="646" 
d="M16 692v18h293v-28h-84l-32 -42l169 -273h2l155 273l-39 42h-75v28h225v-18l-63 -52l-184 -301v-269l47 -42h69v-28h-336v28h68l49 42v244l-209 326z" />
    <glyph glyph-name="Z" unicode="Z" horiz-adv-x="593" 
d="M33 0v28l372 640v2h-209l-99 -160h-18v213h20l35 -13h411v-28l-373 -640v-2h248l99 160h18v-200h-504z" />
    <glyph glyph-name="bracketleft" unicode="[" horiz-adv-x="294" 
d="M90 -28v766h185v-28h-132v-710h132v-28h-185z" />
    <glyph glyph-name="backslash" unicode="\" horiz-adv-x="452" 
d="M25 710h52l348 -710h-52z" />
    <glyph glyph-name="bracketright" unicode="]" horiz-adv-x="294" 
d="M19 0h132v710h-132v28h185v-766h-185v28z" />
    <glyph glyph-name="asciicircum" unicode="^" horiz-adv-x="487" 
d="M44 303l169 420h60l170 -420h-59l-141 379l-139 -379h-60z" />
    <glyph glyph-name="underscore" unicode="_" horiz-adv-x="614" 
d="M61 -85h492v-46h-492v46z" />
    <glyph glyph-name="grave" unicode="`" horiz-adv-x="220" 
d="M-22 639v84l264 -131v-28z" />
    <glyph glyph-name="a" unicode="a" horiz-adv-x="495" 
d="M38 114c0 84 63 145 182 164l88 14v101c0 55 -25 81 -72 81c-45 0 -76 -46 -76 -86c0 -13 1 -23 3 -30l4 -12l-95 -14c-4 7 -6 20 -6 39c0 91 99 132 171 132c124 0 166 -67 166 -127v-316l29 -32h41v-28l-172 -10l11 85h-2c-48 -56 -100 -88 -153 -88
c-68 0 -119 46 -119 127zM137 134c0 -52 22 -86 65 -86c39 0 71 21 106 57v155l-55 -11c-89 -22 -116 -68 -116 -115z" />
    <glyph glyph-name="b" unicode="b" horiz-adv-x="559" 
d="M-1 682v28l168 10v-292h2c44 44 82 75 148 75c127 0 200 -106 200 -240c0 -153 -87 -276 -244 -276c-81 0 -152 13 -201 44v619l-29 32h-44zM167 86c23 -36 66 -67 118 -67c96 0 132 111 132 207c0 108 -52 216 -148 216c-47 0 -74 -25 -102 -52v-304z" />
    <glyph glyph-name="c" unicode="c" horiz-adv-x="497" 
d="M41 236c0 141 88 267 250 267c66 0 161 -36 161 -110c0 -8 0 -21 -3 -29l-101 -13c3 7 4 23 4 34c0 49 -27 85 -86 85c-71 0 -137 -65 -137 -189c0 -132 65 -209 168 -209c63 0 112 35 145 104l23 -10c-35 -113 -98 -179 -202 -179c-140 0 -222 121 -222 249z" />
    <glyph glyph-name="d" unicode="d" horiz-adv-x="586" 
d="M42 227c0 153 87 276 244 276c37 0 73 -12 104 -27h2v174l-29 32h-71v28l195 10v-660l29 -32h60v-28l-184 -10l11 85h-2c-49 -56 -92 -88 -159 -88c-127 0 -200 106 -200 240zM142 264c0 -108 52 -216 148 -216c48 0 74 25 102 52v284c-16 46 -66 87 -118 87
c-96 0 -132 -111 -132 -207z" />
    <glyph glyph-name="e" unicode="e" horiz-adv-x="497" 
d="M41 239c0 144 95 264 223 264c76 0 123 -31 151 -70c15 -20 24 -41 28 -63c3 -13 5 -26 4 -38c0 -7 0 -14 -1 -20l-12 -11l-305 8c-1 -11 -1 -21 -1 -32c0 -125 63 -209 159 -209c77 0 116 31 159 111l24 -11c-29 -84 -83 -181 -213 -181c-126 0 -216 100 -216 252z
M133 340h182l21 18c0 60 -20 112 -94 112c-64 0 -101 -65 -109 -130z" />
    <glyph glyph-name="f" unicode="f" horiz-adv-x="349" 
d="M26 0v28h52l28 32v392l-80 15v23h78v18c0 124 46 215 160 215c85 0 135 -54 135 -108c0 -14 -2 -24 -6 -31l-82 13c3 8 5 19 5 31c0 35 -22 67 -58 67c-41 0 -58 -28 -58 -80v-125h138v-33h-137v-397l30 -32h60v-28h-265z" />
    <glyph glyph-name="g" unicode="g" horiz-adv-x="531" 
d="M44 -136c0 33 24 54 79 98c-31 8 -69 37 -69 84c0 25 11 52 32 75l53 58c-40 26 -85 76 -85 142c0 107 92 182 201 182c40 0 94 -4 132 -37v24h134v-27l-100 -42c17 -23 26 -67 26 -102c0 -102 -95 -166 -198 -166c-8 0 -66 2 -85 13c-23 -28 -40 -48 -40 -73
c0 -32 30 -35 51 -35c8 0 15 1 22 2l141 22c16 3 30 5 39 6c5 1 10 1 14 1c65 0 91 -57 91 -110c0 -133 -168 -187 -285 -187c-97 0 -153 24 -153 72zM122 -105c0 -41 60 -60 128 -60c92 0 181 43 181 118c0 29 -15 44 -44 44c-4 0 -29 -5 -61 -10l-174 -25
c-17 -17 -30 -42 -30 -67zM154 353c0 -69 34 -168 115 -168c63 0 83 42 83 101c0 62 -30 184 -115 184c-70 0 -83 -61 -83 -117z" />
    <glyph glyph-name="h" unicode="h" horiz-adv-x="586" 
d="M18 0v28h51l29 32v590l-29 32h-51v28l175 10v-310h2c61 77 119 93 154 93c93 0 143 -63 143 -156v-287l30 -32h50v-28h-257v28h54l28 32v273c0 74 -43 107 -88 107c-48 0 -84 -32 -116 -65v-315l28 -32h53v-28h-256z" />
    <glyph glyph-name="i" unicode="i" horiz-adv-x="304" 
d="M26 462v28l178 10v-440l30 -32h59v-28h-266v28h54l28 32v370l-29 32h-54zM96 649c0 35 26 61 61 61s61 -26 61 -61s-26 -61 -61 -61s-61 26 -61 61z" />
    <glyph glyph-name="j" unicode="j" horiz-adv-x="274" 
d="M-97 -152l75 49c8 -29 43 -74 75 -74c31 0 47 23 47 94v513l-29 32h-66v28l190 10v-514c0 -103 -55 -194 -169 -194c-73 0 -112 31 -123 56zM78 649c0 35 26 61 61 61s61 -26 61 -61s-26 -61 -61 -61s-61 26 -61 61z" />
    <glyph glyph-name="k" unicode="k" horiz-adv-x="533" 
d="M18 0v28h51l29 32v590l-29 32h-51v28l175 10v-460h2l160 170v32h-60v28h188v-18l-64 -42l-152 -138l207 -232l68 -42v-18h-234v28h50v32l-165 187h-2v-187l30 -32h46v-28h-249z" />
    <glyph glyph-name="l" unicode="l" horiz-adv-x="294" 
d="M17 0v28h54l28 32v590l-29 32h-53v28l177 10v-660l30 -32h59v-28h-266z" />
    <glyph glyph-name="m" unicode="m" horiz-adv-x="873" 
d="M27 0v28h51l29 32v370l-29 32h-51v28l175 10l-8 -96h2c67 83 122 99 156 99c75 0 117 -35 132 -99c67 83 122 99 156 99c93 0 138 -63 138 -156v-287l30 -32h50v-28h-251v28h48l28 32v273c0 75 -26 107 -73 107s-88 -32 -120 -65v-315l30 -32h46v-28h-247v28h48l28 32
v273c0 75 -26 107 -71 107c-49 0 -90 -32 -122 -65v-315l28 -32h48v-28h-251z" />
    <glyph glyph-name="n" unicode="n" horiz-adv-x="595" 
d="M27 0v28h51l29 32v370l-29 32h-51v28l175 10l-8 -97h2c67 83 128 100 162 100c93 0 143 -63 143 -156v-287l30 -32h50v-28h-257v28h54l28 32v273c0 75 -42 107 -89 107s-83 -32 -115 -65v-315l28 -32h53v-28h-256z" />
    <glyph glyph-name="o" unicode="o" horiz-adv-x="570" 
d="M41 249c0 147 102 254 243 254c144 0 245 -103 245 -255c0 -148 -103 -261 -242 -261c-148 0 -246 110 -246 262zM144 277c0 -100 49 -257 156 -257c90 0 125 103 125 195c0 99 -47 255 -154 255c-91 0 -127 -100 -127 -193z" />
    <glyph glyph-name="p" unicode="p" horiz-adv-x="583" 
d="M21 -167h47l28 32v565l-29 32h-46v28l170 10l-11 -85h2c49 56 92 88 159 88c127 0 200 -106 200 -240c0 -153 -87 -276 -244 -276c-37 0 -75 12 -106 27v-149l30 -32h70v-28h-270v28zM191 106c31 -51 66 -87 118 -87c96 0 132 111 132 207c0 108 -52 216 -148 216
c-47 0 -74 -25 -102 -52v-284z" />
    <glyph glyph-name="q" unicode="q" horiz-adv-x="566" 
d="M42 227c0 153 87 276 244 276c37 0 75 -12 106 -27l95 24v-635l28 -32h55v-28h-280v28h70l32 32v200h-2c-45 -51 -85 -78 -148 -78c-127 0 -200 106 -200 240zM142 264c0 -108 52 -216 148 -216c48 0 74 25 102 52v284c-19 43 -66 86 -118 86c-96 0 -132 -110 -132 -206z
" />
    <glyph glyph-name="r" unicode="r" horiz-adv-x="415" 
d="M27 0v28h51l29 32v370l-29 32h-51v28l159 10v-141h4c27 64 77 144 143 144c37 0 64 -16 75 -31l-40 -99h-4c-20 23 -41 30 -68 30c-35 0 -70 -27 -97 -64v-279l28 -32h79v-28h-279z" />
    <glyph glyph-name="s" unicode="s" horiz-adv-x="436" 
d="M52 -10v190h30l12 -24c39 -80 99 -134 159 -134c44 0 73 23 73 63c0 125 -269 124 -269 285c0 86 70 133 158 133c47 0 91 -13 114 -22l10 19h27v-175h-30l-7 23c-23 72 -74 123 -134 123c-33 0 -68 -20 -68 -64c0 -110 267 -111 267 -276c0 -96 -77 -144 -153 -144
c-69 0 -125 26 -143 41l-20 -38h-26z" />
    <glyph glyph-name="t" unicode="t" horiz-adv-x="327" 
d="M22 467v23h65l79 132h18v-132h134v-33h-134v-281c0 -55 -4 -130 54 -130c21 0 38 12 65 39l16 -14c-29 -45 -63 -84 -125 -84c-96 0 -105 87 -105 172v293z" />
    <glyph glyph-name="u" unicode="u" horiz-adv-x="579" 
d="M19 462v28l168 10v-343c0 -75 38 -107 85 -107c48 0 81 32 113 65v315l-29 32h-51v28l175 10v-440l29 -32h58v-28l-182 -10l8 102h-2c-69 -88 -123 -105 -159 -105c-93 0 -140 63 -140 156v287l-29 32h-44z" />
    <glyph glyph-name="v" unicode="v" horiz-adv-x="518" 
d="M20 472v18h228v-28h-50l-28 -32l122 -318h2l116 318l-28 32h-50v28h157v-18l-33 -42l-180 -440h-34l-179 440z" />
    <glyph glyph-name="w" unicode="w" horiz-adv-x="770" 
d="M21 472v18h209v-28h-37l-28 -32l116 -314h2l85 217l-53 129h-38v28h236v-28h-67l-11 -34l116 -312h2l106 314l-28 32h-50v28h161v-18l-36 -42l-165 -440h-35l-120 297h-2l-113 -297h-35l-178 440z" />
    <glyph glyph-name="x" unicode="x" horiz-adv-x="512" 
d="M8 0v17l67 43l138 176l-140 194l-50 42v18h221v-28h-57v-32l92 -129h2l87 129l-28 32h-45v28h181v-18l-57 -42l-120 -156l155 -214l58 -42v-18h-241v28h67v32l-106 150h-2l-103 -150l26 -32h67v-28h-212z" />
    <glyph glyph-name="y" unicode="y" horiz-adv-x="537" 
d="M2 -154l84 58c11 -32 38 -53 82 -53c48 0 71 51 71 90c0 41 -15 87 -30 120l-145 369l-45 42v18h228v-28h-50l-28 -32l132 -360h2l111 360l-28 32h-50v28h170v-18l-39 -42l-161 -443c-37 -100 -93 -195 -184 -195c-70 0 -104 33 -120 54z" />
    <glyph glyph-name="z" unicode="z" horiz-adv-x="463" 
d="M30 0v18l277 442v2h-150l-78 -135h-18v163h360v-18l-279 -442v-2h179l77 136h18v-164h-386z" />
    <glyph glyph-name="braceleft" unicode="{" horiz-adv-x="325" 
d="M25 226v65c56 3 79 42 79 122v167c0 135 75 167 135 167c31 0 57 -5 78 -14l-8 -23c-19 5 -37 9 -53 9c-75 0 -93 -94 -93 -155v-167c0 -101 -69 -129 -91 -135v-5c22 -6 91 -37 91 -138v-168c0 -62 18 -156 93 -156c17 0 34 3 53 10l8 -24c-21 -9 -47 -14 -78 -14
c-60 0 -135 33 -135 167v169c0 80 -23 120 -79 123z" />
    <glyph glyph-name="bar" unicode="|" horiz-adv-x="237" 
d="M92 0v710h53v-710h-53z" />
    <glyph glyph-name="braceright" unicode="}" horiz-adv-x="325" 
d="M8 -219l8 24c19 -7 36 -10 53 -10c75 0 93 94 93 156v168c0 101 69 132 91 138v5c-22 6 -91 34 -91 135v167c0 61 -18 155 -93 155c-16 0 -34 -4 -53 -9l-8 23c21 9 47 14 78 14c60 0 135 -32 135 -167v-167c0 -80 23 -119 79 -122v-65c-56 -3 -79 -43 -79 -123v-169
c0 -134 -75 -167 -135 -167c-31 0 -57 5 -78 14z" />
    <glyph glyph-name="asciitilde" unicode="~" horiz-adv-x="640" 
d="M72 284c47 27 97 45 144 45c70 0 135 -41 206 -41c44 0 78 9 123 36l24 -38c-47 -31 -96 -46 -148 -46c-69 0 -133 42 -203 42c-41 0 -78 -11 -123 -35c-9 13 -15 22 -23 37z" />
    <glyph glyph-name="uni00A0" unicode="&#xa0;" horiz-adv-x="244" 
 />
    <glyph glyph-name="exclamdown" unicode="&#xa1;" horiz-adv-x="271" 
d="M67 642c0 39 29 68 68 68s68 -29 68 -68s-29 -68 -68 -68s-68 29 -68 68zM88 -13v219l34 293h27l34 -293v-219h-95z" />
    <glyph glyph-name="cent" unicode="&#xa2;" horiz-adv-x="511" 
d="M46 236c0 125 71 242 203 263v41h53v-37c65 -3 155 -38 155 -110c0 -8 0 -21 -3 -29l-101 -13c3 7 4 23 4 34c0 39 -18 70 -55 81v-394c63 0 112 35 145 104l23 -10c-31 -100 -84 -163 -168 -176v-40h-53v38c-128 11 -203 125 -203 248zM137 281c0 -108 40 -178 112 -201
v388c-63 -13 -112 -76 -112 -187z" />
    <glyph glyph-name="sterling" unicode="&#xa3;" horiz-adv-x="609" 
d="M54 0v47c52 27 88 90 88 299h-85v46h85v118c0 127 75 212 204 212c99 0 194 -43 194 -150c0 -8 -3 -26 -6 -35l-117 -14c3 7 4 23 4 34c0 101 -36 126 -100 126c-76 0 -87 -74 -87 -156v-135h204v-46h-203c0 -168 -7 -198 -74 -271l6 -6c35 41 85 54 117 54
c35 0 63 -14 88 -29s47 -27 74 -27c51 0 81 29 105 56c8 -5 10 -8 17 -13c-35 -69 -101 -123 -146 -123c-35 0 -56 12 -79 25c-25 15 -48 27 -84 27c-43 0 -97 -15 -129 -39h-76z" />
    <glyph glyph-name="currency" unicode="&#xa4;" horiz-adv-x="534" 
d="M61 154l61 61c-27 33 -41 72 -41 117c0 44 15 84 40 116l-60 61l29 28l60 -60c33 27 72 41 117 41c44 0 85 -14 117 -41l60 60l29 -28l-61 -61c27 -32 41 -72 41 -116c0 -45 -14 -84 -41 -117l61 -61l-28 -29l-62 61c-32 -25 -72 -40 -116 -40s-85 15 -117 40l-61 -61z
M137 332c0 -73 57 -134 130 -134s130 61 130 134s-57 134 -130 134s-130 -61 -130 -134z" />
    <glyph glyph-name="yen" unicode="&#xa5;" horiz-adv-x="683" 
d="M32 692v18h293v-28h-84l-32 -42l169 -273h2l155 273l-39 42h-75v28h225v-18l-63 -52l-152 -248h155v-46h-183l-4 -7v-86h187v-46h-187v-137l47 -42h69v-28h-336v28h68l49 42v137h-172v46h172v61l-21 32h-151v46h122l-159 248z" />
    <glyph glyph-name="brokenbar" unicode="&#xa6;" horiz-adv-x="237" 
d="M92 0v290h53v-290h-53zM92 420v290h53v-290h-53z" />
    <glyph glyph-name="section" unicode="&#xa7;" horiz-adv-x="577" 
d="M63 32h30l4 -9c43 -99 123 -178 226 -178c85 0 116 44 116 101c0 187 -373 94 -373 351c0 45 17 83 51 115c-25 29 -41 67 -41 120c0 101 89 191 223 191c67 0 106 -17 141 -33l16 29h29v-210h-30l-9 24c-35 92 -92 149 -168 149c-85 0 -122 -53 -122 -106
c0 -184 365 -94 365 -351c0 -47 -20 -87 -47 -119c23 -28 37 -65 37 -116c0 -122 -99 -198 -208 -198c-90 0 -141 25 -180 41l-30 -37h-30v236zM146 341c0 -132 187 -123 294 -202c5 15 9 30 9 42c0 133 -187 123 -295 199c-5 -15 -8 -28 -8 -39z" />
    <glyph glyph-name="dieresis" unicode="&#xa8;" horiz-adv-x="220" 
d="M-55 649c0 35 26 61 61 61s61 -26 61 -61s-26 -61 -61 -61s-61 26 -61 61zM153 649c0 35 26 61 61 61s61 -26 61 -61s-26 -61 -61 -61s-61 26 -61 61z" />
    <glyph glyph-name="copyright" unicode="&#xa9;" horiz-adv-x="836" 
d="M50 355c0 203 165 368 368 368s368 -165 368 -368s-165 -368 -368 -368s-368 165 -368 368zM82 355c0 -184 151 -338 336 -338s336 154 336 338s-151 338 -336 338s-336 -154 -336 -338zM217 351c0 127 83 216 216 216c52 0 85 -15 102 -23l18 19h25v-136h-30l-12 25
c-25 53 -53 82 -114 82s-112 -55 -112 -154s67 -149 136 -149c73 0 109 38 132 82l23 -10c-26 -68 -75 -159 -182 -159c-104 0 -202 79 -202 207z" />
    <glyph glyph-name="ordfeminine" unicode="&#xaa;" horiz-adv-x="483" 
d="M43 407c0 84 87 122 172 138l68 13v61c0 41 -9 75 -52 75c-47 0 -66 -30 -66 -70c0 -13 1 -23 3 -30l4 -12l-95 -14c-4 7 -6 20 -6 39c0 87 89 116 161 116c123 0 146 -57 146 -117v-233l29 -32h41v-28l-172 -10l11 85h-2c-48 -56 -97 -88 -144 -88c-50 0 -98 24 -98 107
zM142 427c0 -39 16 -66 47 -66s59 21 94 57v108l-35 -10c-84 -24 -106 -54 -106 -89z" />
    <glyph glyph-name="guillemotleft" unicode="&#xab;" horiz-adv-x="466" 
d="M47 230v28l175 192h15l-109 -207l109 -208h-15zM226 232v28l174 192h16l-109 -207l109 -208h-16z" />
    <glyph glyph-name="logicalnot" unicode="&#xac;" horiz-adv-x="410" 
d="M78 266v40h260v-120h-40v80h-220z" />
    <glyph glyph-name="uni00AD" unicode="&#xad;" horiz-adv-x="342" 
d="M61 266v40h220v-40h-220z" />
    <glyph glyph-name="registered" unicode="&#xae;" horiz-adv-x="836" 
d="M50 355c0 203 165 368 368 368s368 -165 368 -368s-165 -368 -368 -368s-368 165 -368 368zM82 355c0 -184 151 -338 336 -338s336 154 336 338s-151 338 -336 338s-336 -154 -336 -338zM216 154v28h37l28 32v283l-28 32h-37v28h199c124 0 183 -29 183 -101
c0 -70 -63 -98 -130 -106v-2l49 -18l113 -164v-12h-108l-92 147c-13 22 -30 33 -49 33h-5v-120l28 -32h40v-28h-228zM376 368h35c43 0 86 19 86 80s-44 75 -87 75h-34v-155z" />
    <glyph glyph-name="overscore" unicode="&#xaf;" horiz-adv-x="220" 
d="M0 670v40h220v-40h-220z" />
    <glyph glyph-name="degree" unicode="&#xb0;" horiz-adv-x="332" 
d="M42 586c0 68 56 124 124 124s124 -56 124 -124s-56 -124 -124 -124s-124 56 -124 124zM90 586c0 -43 33 -78 76 -78s76 35 76 78s-33 78 -76 78s-76 -35 -76 -78z" />
    <glyph glyph-name="plusminus" unicode="&#xb1;" horiz-adv-x="554" 
d="M67 0v46h420v-46h-420zM67 327v46h186v188h48v-188h186v-46h-186v-196h-48v196h-186z" />
    <glyph glyph-name="uni00B2" unicode="&#xb2;" horiz-adv-x="411" 
d="M58 613c0 57 60 110 152 110c59 0 136 -21 136 -104c0 -79 -102 -164 -214 -220v-2h170l49 65h12l-28 -142h-275v50c105 89 198 172 198 258c0 39 -17 69 -53 69c-28 0 -47 -18 -47 -49c0 -24 6 -41 7 -44l-103 -18c-3 5 -4 12 -4 27z" />
    <glyph glyph-name="uni00B3" unicode="&#xb3;" horiz-adv-x="374" 
d="M39 406l21 7c25 -23 59 -41 108 -41c61 0 84 43 84 90s-38 74 -75 74c-23 0 -48 -8 -71 -21v34l101 82v2h-149l16 90h10l35 -13h200v-41l-162 -112v-2c21 9 47 9 59 9c59 0 111 -43 111 -125c0 -84 -70 -139 -142 -139s-119 38 -146 106z" />
    <glyph glyph-name="acute" unicode="&#xb4;" horiz-adv-x="220" 
d="M-22 564v28l264 131v-84z" />
    <glyph glyph-name="uni00B5" unicode="&#xb5;" horiz-adv-x="626" 
d="M42 462v28l168 10v-343c0 -75 38 -107 85 -107c48 0 81 32 113 65v315l-29 32h-51v28l175 10v-440l29 -32h58v-28l-182 -10l8 102h-2c-69 -88 -123 -105 -159 -105c-17 0 -32 2 -45 6v-188h-95v625l-29 32h-44z" />
    <glyph glyph-name="paragraph" unicode="&#xb6;" horiz-adv-x="605" 
d="M37 513c0 108 87 197 195 197h341v-28h-132v-682h-53v682h-93v-682h-53v317h-10c-108 0 -195 88 -195 196z" />
    <glyph glyph-name="middot" unicode="&#xb7;" horiz-adv-x="266" 
d="M53 350c0 44 36 80 80 80s80 -36 80 -80s-36 -80 -80 -80s-80 36 -80 80z" />
    <glyph glyph-name="cedilla" unicode="&#xb8;" horiz-adv-x="220" 
d="M15 -191c8 16 13 28 20 41c19 -8 44 -16 65 -16c25 0 53 8 53 41c0 21 -19 35 -46 35c-19 0 -26 -2 -41 -5l-7 6l42 101h37l-25 -70c12 3 20 3 31 3c47 0 88 -20 88 -69c0 -58 -62 -84 -123 -84c-35 0 -66 8 -94 17z" />
    <glyph glyph-name="uni00B9" unicode="&#xb9;" horiz-adv-x="405" 
d="M57 320v28h74l40 42v233l-110 -53v35l195 115h2v-330l40 -42h73v-28h-314z" />
    <glyph glyph-name="ordmasculine" unicode="&#xba;" horiz-adv-x="478" 
d="M39 515c0 119 84 208 199 208c117 0 201 -84 201 -209c0 -121 -84 -214 -198 -214c-122 0 -202 91 -202 215zM127 537c0 -79 39 -204 124 -204c72 0 100 82 100 155c0 79 -39 203 -123 203c-72 0 -101 -79 -101 -154z" />
    <glyph glyph-name="guillemotright" unicode="&#xbb;" horiz-adv-x="465" 
d="M49 37l110 208l-110 207h16l174 -193v-27l-174 -195h-16zM228 35l109 208l-109 207h15l175 -193v-27l-175 -195h-15z" />
    <glyph glyph-name="onequarter" unicode="&#xbc;" horiz-adv-x="880" 
d="M49 320v28h74l40 42v233l-110 -53v35l195 115h2v-330l40 -42h73v-28h-314zM183 0c191 241 374 469 566 710h54l-562 -710h-58zM530 86v19c66 98 113 175 142 285h114c-48 -86 -137 -184 -210 -270v-2h97v31l68 85h18v-116h84v-32h-84v-86h-86v86h-143z" />
    <glyph glyph-name="onehalf" unicode="&#xbd;" horiz-adv-x="934" 
d="M48 320v28h74l40 42v233l-110 -53v35l195 115h2v-330l40 -42h73v-28h-314zM182 0c191 241 374 469 566 710h54l-562 -710h-58zM591 293c0 57 60 110 152 110c59 0 136 -21 136 -104c0 -79 -102 -164 -214 -220v-2h170l49 65h12l-28 -142h-275v50c105 89 198 172 198 258
c0 39 -17 69 -53 69c-28 0 -47 -18 -47 -49c0 -24 6 -41 7 -44l-103 -18c-3 5 -4 12 -4 27z" />
    <glyph glyph-name="threequarters" unicode="&#xbe;" horiz-adv-x="873" 
d="M36 406l21 7c25 -23 59 -41 108 -41c61 0 84 43 84 90s-38 74 -75 74c-23 0 -48 -8 -71 -21v34l101 82v2h-149l16 90h10l35 -13h200v-41l-162 -112v-2c21 9 47 9 59 9c59 0 111 -43 111 -125c0 -84 -70 -139 -142 -139s-119 38 -146 106zM176 0c191 241 374 469 566 710
h54l-562 -710h-58zM523 86v19c66 98 113 175 142 285h114c-48 -86 -137 -184 -210 -270v-2h97v31l68 85h18v-116h84v-32h-84v-86h-86v86h-143z" />
    <glyph glyph-name="questiondown" unicode="&#xbf;" horiz-adv-x="421" 
d="M34 114c0 186 199 166 199 389v9h24c3 -7 14 -35 14 -75c0 -137 -140 -204 -140 -336c0 -55 31 -81 80 -81c52 0 76 47 76 82c0 12 -1 23 -4 30l-3 12l95 14c4 -7 6 -20 6 -39c0 -91 -99 -132 -171 -132c-124 0 -176 67 -176 127zM176 655c0 39 29 68 68 68
s68 -29 68 -68s-29 -68 -68 -68s-68 29 -68 68z" />
    <glyph glyph-name="Agrave" unicode="&#xc0;" horiz-adv-x="686" 
d="M21 0v18l56 72l215 542l-22 60l70 58h10l275 -680l54 -52v-18h-270v28h69l30 42l-62 161h-263l-53 -141l35 -62h82v-28h-226zM198 271h233l-117 305zM220 839v84l264 -131v-28z" />
    <glyph glyph-name="Aacute" unicode="&#xc1;" horiz-adv-x="686" 
d="M21 0v18l56 72l215 542l-22 60l70 58h10l275 -680l54 -52v-18h-270v28h69l30 42l-62 161h-263l-53 -141l35 -62h82v-28h-226zM198 271h233l-117 305zM200 764v28l264 131v-84z" />
    <glyph glyph-name="Acircumflex" unicode="&#xc2;" horiz-adv-x="686" 
d="M21 0v18l56 72l215 542l-22 60l70 58h10l275 -680l54 -52v-18h-270v28h69l30 42l-62 161h-263l-53 -141l35 -62h82v-28h-226zM182 764v28l160 131l160 -131v-28l-160 75zM198 271h233l-117 305z" />
    <glyph glyph-name="Atilde" unicode="&#xc3;" horiz-adv-x="686" 
d="M21 0v18l56 72l215 542l-22 60l70 58h10l275 -680l54 -52v-18h-270v28h69l30 42l-62 161h-263l-53 -141l35 -62h82v-28h-226zM182 837c29 43 62 86 107 86c51 0 80 -49 115 -49c28 0 62 31 77 46l21 -19c-29 -43 -61 -86 -107 -86c-49 0 -69 49 -115 49
c-28 0 -62 -31 -77 -46zM198 271h233l-117 305z" />
    <glyph glyph-name="Adieresis" unicode="&#xc4;" horiz-adv-x="686" 
d="M21 0v18l56 72l215 542l-22 60l70 58h10l275 -680l54 -52v-18h-270v28h69l30 42l-62 161h-263l-53 -141l35 -62h82v-28h-226zM177 849c0 35 26 61 61 61s61 -26 61 -61s-26 -61 -61 -61s-61 26 -61 61zM198 271h233l-117 305zM385 849c0 35 26 61 61 61s61 -26 61 -61
s-26 -61 -61 -61s-61 26 -61 61z" />
    <glyph glyph-name="Aring" unicode="&#xc5;" horiz-adv-x="686" 
d="M21 0v18l56 72l215 542l-22 60l70 58h10l275 -680l54 -52v-18h-270v28h69l30 42l-62 161h-263l-53 -141l35 -62h82v-28h-226zM198 271h233l-117 305zM261 841c0 47 36 82 81 82c47 0 82 -35 82 -82c0 -45 -35 -81 -82 -81c-45 0 -81 36 -81 81zM294 841
c0 -27 21 -48 48 -48c28 0 50 21 50 48c0 28 -22 50 -50 50c-27 0 -48 -22 -48 -50z" />
    <glyph glyph-name="AE" unicode="&#xc6;" horiz-adv-x="988" 
d="M-4 0v18l465 645l-17 19h-81v28h550v-170h-18l-72 130h-237v-273h148l62 120h18v-280h-18l-62 120h-148v-317h245l107 140h18l-35 -180h-558v28h81l39 42v161h-277l-101 -141l35 -62h82v-28h-226zM234 271h249v345h-2z" />
    <glyph glyph-name="Ccedilla" unicode="&#xc7;" horiz-adv-x="713" 
d="M50 354c0 204 136 369 348 369c96 0 158 -21 201 -41l25 37h30v-216h-30l-8 16c-43 85 -99 167 -233 167c-144 -3 -239 -125 -239 -306c0 -165 118 -306 282 -306c100 0 170 50 222 135l28 -10c-34 -78 -129 -217 -288 -212h-2l-16 -45c12 3 20 3 31 3
c47 0 88 -20 88 -69c0 -58 -62 -84 -123 -84c-35 0 -66 8 -94 17c8 16 13 28 20 41c19 -8 44 -16 65 -16c25 0 53 8 53 41c0 21 -19 35 -46 35c-19 0 -26 -2 -41 -5l-7 6l32 78c-186 19 -298 177 -298 365z" />
    <glyph glyph-name="Egrave" unicode="&#xc8;" horiz-adv-x="655" 
d="M30 0v28h81l39 42v570l-39 42h-81v28h550v-170h-18l-72 130h-237v-273h148l62 120h18v-280h-18l-62 120h-148v-317h245l107 140h18l-35 -180h-558zM214 839v84l264 -131v-28z" />
    <glyph glyph-name="Eacute" unicode="&#xc9;" horiz-adv-x="655" 
d="M30 0v28h81l39 42v570l-39 42h-81v28h550v-170h-18l-72 130h-237v-273h148l62 120h18v-280h-18l-62 120h-148v-317h245l107 140h18l-35 -180h-558zM214 764v28l264 131v-84z" />
    <glyph glyph-name="Ecircumflex" unicode="&#xca;" horiz-adv-x="655" 
d="M30 0v28h81l39 42v570l-39 42h-81v28h550v-170h-18l-72 130h-237v-273h148l62 120h18v-280h-18l-62 120h-148v-317h245l107 140h18l-35 -180h-558zM186 764v28l160 131l160 -131v-28l-160 75z" />
    <glyph glyph-name="Edieresis" unicode="&#xcb;" horiz-adv-x="655" 
d="M30 0v28h81l39 42v570l-39 42h-81v28h550v-170h-18l-72 130h-237v-273h148l62 120h18v-280h-18l-62 120h-148v-317h245l107 140h18l-35 -180h-558zM191 849c0 35 26 61 61 61s61 -26 61 -61s-26 -61 -61 -61s-61 26 -61 61zM399 849c0 35 26 61 61 61s61 -26 61 -61
s-26 -61 -61 -61s-61 26 -61 61z" />
    <glyph glyph-name="Igrave" unicode="&#xcc;" horiz-adv-x="408" 
d="M30 0v28h81l39 42v570l-39 42h-81v28h348v-28h-82l-38 -42v-570l38 -42h82v-28h-348zM72 839v84l264 -131v-28z" />
    <glyph glyph-name="Iacute" unicode="&#xcd;" horiz-adv-x="408" 
d="M30 0v28h81l39 42v570l-39 42h-81v28h348v-28h-82l-38 -42v-570l38 -42h82v-28h-348zM72 764v28l264 131v-84z" />
    <glyph glyph-name="Icircumflex" unicode="&#xce;" horiz-adv-x="408" 
d="M30 0v28h81l39 42v570l-39 42h-81v28h348v-28h-82l-38 -42v-570l38 -42h82v-28h-348zM44 764v28l160 131l160 -131v-28l-160 75z" />
    <glyph glyph-name="Idieresis" unicode="&#xcf;" horiz-adv-x="408" 
d="M30 0v28h81l39 42v570l-39 42h-81v28h348v-28h-82l-38 -42v-570l38 -42h82v-28h-348zM39 849c0 35 26 61 61 61s61 -26 61 -61s-26 -61 -61 -61s-61 26 -61 61zM247 849c0 35 26 61 61 61s61 -26 61 -61s-26 -61 -61 -61s-61 26 -61 61z" />
    <glyph glyph-name="Eth" unicode="&#xd0;" horiz-adv-x="748" 
d="M32 363v40h121v237l-39 42h-81v28h309c247 0 356 -140 356 -347s-170 -363 -358 -363h-307v28h81l39 42v293h-121zM256 73c9 -5 18 -8 29 -11c19 -7 43 -11 70 -11c169 0 225 98 225 277c0 188 -72 342 -243 342c-23 0 -43 -4 -58 -8c-9 -3 -16 -5 -23 -8v-251h196v-40
h-196v-290z" />
    <glyph glyph-name="Ntilde" unicode="&#xd1;" horiz-adv-x="789" 
d="M31 0v28h79l41 63v528l-46 63h-74v28h198l372 -504h2v414l-47 62h-71v28h284v-28h-77l-43 -62v-630h-35l-415 574h-2v-473l47 -63h71v-28h-284zM240 837c29 43 62 86 107 86c51 0 80 -49 115 -49c28 0 62 31 77 46l21 -19c-29 -43 -61 -86 -107 -86c-49 0 -69 49 -115 49
c-28 0 -62 -31 -77 -46z" />
    <glyph glyph-name="Ograve" unicode="&#xd2;" 
d="M49 354c0 204 136 369 348 369c210 0 348 -165 348 -367c0 -204 -136 -369 -348 -369c-210 0 -348 165 -348 367zM163 427c0 -208 101 -392 274 -392c107 0 194 95 194 248c0 203 -94 397 -267 397c-107 0 -201 -100 -201 -253zM265 839v84l264 -131v-28z" />
    <glyph glyph-name="Oacute" unicode="&#xd3;" 
d="M49 354c0 204 136 369 348 369c210 0 348 -165 348 -367c0 -204 -136 -369 -348 -369c-210 0 -348 165 -348 367zM163 427c0 -208 101 -392 274 -392c107 0 194 95 194 248c0 203 -94 397 -267 397c-107 0 -201 -100 -201 -253zM265 764v28l264 131v-84z" />
    <glyph glyph-name="Ocircumflex" unicode="&#xd4;" 
d="M49 354c0 204 136 369 348 369c210 0 348 -165 348 -367c0 -204 -136 -369 -348 -369c-210 0 -348 165 -348 367zM163 427c0 -208 101 -392 274 -392c107 0 194 95 194 248c0 203 -94 397 -267 397c-107 0 -201 -100 -201 -253zM237 764v28l160 131l160 -131v-28l-160 75
z" />
    <glyph glyph-name="Otilde" unicode="&#xd5;" 
d="M49 354c0 204 136 369 348 369c210 0 348 -165 348 -367c0 -204 -136 -369 -348 -369c-210 0 -348 165 -348 367zM163 427c0 -208 101 -392 274 -392c107 0 194 95 194 248c0 203 -94 397 -267 397c-107 0 -201 -100 -201 -253zM237 837c29 43 62 86 107 86
c51 0 80 -49 115 -49c28 0 62 31 77 46l21 -19c-29 -43 -61 -86 -107 -86c-49 0 -69 49 -115 49c-28 0 -62 -31 -77 -46z" />
    <glyph glyph-name="Odieresis" unicode="&#xd6;" 
d="M49 354c0 204 136 369 348 369c210 0 348 -165 348 -367c0 -204 -136 -369 -348 -369c-210 0 -348 165 -348 367zM163 427c0 -208 101 -392 274 -392c107 0 194 95 194 248c0 203 -94 397 -267 397c-107 0 -201 -100 -201 -253zM232 849c0 35 26 61 61 61s61 -26 61 -61
s-26 -61 -61 -61s-61 26 -61 61zM440 849c0 35 26 61 61 61s61 -26 61 -61s-26 -61 -61 -61s-61 26 -61 61z" />
    <glyph glyph-name="multiply" unicode="&#xd7;" horiz-adv-x="519" 
d="M53 96l170 180l-170 179l37 38l169 -179l170 179l37 -38l-171 -179l171 -180l-36 -36l-171 178l-170 -178z" />
    <glyph glyph-name="Oslash" unicode="&#xd8;" 
d="M49 354c0 204 136 369 348 369c73 0 137 -19 189 -54l29 41h52l-46 -67c79 -68 124 -170 124 -287c0 -204 -136 -369 -348 -369c-73 0 -137 19 -190 54l-28 -41h-52l46 67c-80 68 -124 170 -124 287zM163 427c0 -104 23 -200 70 -272l302 439c-43 53 -99 86 -171 86
c-107 0 -201 -100 -201 -253zM261 118c45 -52 104 -83 176 -83c107 0 194 95 194 248c0 101 -24 199 -69 274z" />
    <glyph glyph-name="Ugrave" unicode="&#xd9;" horiz-adv-x="761" 
d="M26 682v28h327v-28h-79l-40 -42v-369c0 -157 39 -231 171 -231c125 0 183 79 183 232v348l-47 62h-74v28h267v-28h-59l-41 -62v-337c0 -164 -56 -296 -238 -296c-189 0 -270 98 -270 271v382l-41 42h-59zM278 839v84l264 -131v-28z" />
    <glyph glyph-name="Uacute" unicode="&#xda;" horiz-adv-x="761" 
d="M26 682v28h327v-28h-79l-40 -42v-369c0 -157 39 -231 171 -231c125 0 183 79 183 232v348l-47 62h-74v28h267v-28h-59l-41 -62v-337c0 -164 -56 -296 -238 -296c-189 0 -270 98 -270 271v382l-41 42h-59zM278 764v28l264 131v-84z" />
    <glyph glyph-name="Ucircumflex" unicode="&#xdb;" horiz-adv-x="761" 
d="M26 682v28h327v-28h-79l-40 -42v-369c0 -157 39 -231 171 -231c125 0 183 79 183 232v348l-47 62h-74v28h267v-28h-59l-41 -62v-337c0 -164 -56 -296 -238 -296c-189 0 -270 98 -270 271v382l-41 42h-59zM250 764v28l160 131l160 -131v-28l-160 75z" />
    <glyph glyph-name="Udieresis" unicode="&#xdc;" horiz-adv-x="761" 
d="M26 682v28h327v-28h-79l-40 -42v-369c0 -157 39 -231 171 -231c125 0 183 79 183 232v348l-47 62h-74v28h267v-28h-59l-41 -62v-337c0 -164 -56 -296 -238 -296c-189 0 -270 98 -270 271v382l-41 42h-59zM245 849c0 35 26 61 61 61s61 -26 61 -61s-26 -61 -61 -61
s-61 26 -61 61zM453 849c0 35 26 61 61 61s61 -26 61 -61s-26 -61 -61 -61s-61 26 -61 61z" />
    <glyph glyph-name="Yacute" unicode="&#xdd;" horiz-adv-x="646" 
d="M16 692v18h293v-28h-84l-32 -42l169 -273h2l155 273l-39 42h-75v28h225v-18l-63 -52l-184 -301v-269l47 -42h69v-28h-336v28h68l49 42v244l-209 326zM221 864v28l264 131v-84z" />
    <glyph glyph-name="Thorn" unicode="&#xde;" horiz-adv-x="629" 
d="M30 0v28h81l39 42v570l-39 42h-81v28h348v-28h-82l-38 -42v-65h77c161 0 263 -44 263 -183c0 -121 -114 -208 -258 -208h-46v35h38c97 0 153 54 153 163c0 102 -71 153 -143 153c-31 0 -64 -7 -84 -15v-450l38 -42h82v-28h-348z" />
    <glyph glyph-name="germandbls" unicode="&#xdf;" horiz-adv-x="598" 
d="M26 0v28h52l28 32v392l-80 15v23h78v18c0 128 65 215 189 215c126 0 210 -65 210 -153c0 -49 -16 -76 -31 -92l-7 -8l-9 -8l-19 2c-52 -1 -96 -23 -96 -70c0 -116 232 -94 232 -263c0 -96 -70 -144 -138 -144c-43 0 -73 16 -104 29l-14 -26h-26v160h30l5 -10
c27 -56 78 -106 127 -106c36 0 57 24 57 52c0 116 -230 92 -230 268c0 57 38 103 97 127c23 35 27 56 27 87c0 72 -46 126 -107 126c-57 0 -97 -40 -97 -128v-566h-174z" />
    <glyph glyph-name="agrave" unicode="&#xe0;" horiz-adv-x="495" 
d="M38 114c0 84 63 145 182 164l88 14v101c0 55 -25 81 -72 81c-45 0 -76 -46 -76 -86c0 -13 1 -23 3 -30l4 -12l-95 -14c-4 7 -6 20 -6 39c0 91 99 132 171 132c124 0 166 -67 166 -127v-316l29 -32h41v-28l-172 -10l11 85h-2c-48 -56 -100 -88 -153 -88
c-68 0 -119 46 -119 127zM116 639v84l264 -131v-28zM137 134c0 -52 22 -86 65 -86c39 0 71 21 106 57v155l-55 -11c-89 -22 -116 -68 -116 -115z" />
    <glyph glyph-name="aacute" unicode="&#xe1;" horiz-adv-x="495" 
d="M38 114c0 84 63 145 182 164l88 14v101c0 55 -25 81 -72 81c-45 0 -76 -46 -76 -86c0 -13 1 -23 3 -30l4 -12l-95 -14c-4 7 -6 20 -6 39c0 91 99 132 171 132c124 0 166 -67 166 -127v-316l29 -32h41v-28l-172 -10l11 85h-2c-48 -56 -100 -88 -153 -88
c-68 0 -119 46 -119 127zM116 564v28l264 131v-84zM137 134c0 -52 22 -86 65 -86c39 0 71 21 106 57v155l-55 -11c-89 -22 -116 -68 -116 -115z" />
    <glyph glyph-name="acircumflex" unicode="&#xe2;" horiz-adv-x="495" 
d="M38 114c0 84 63 145 182 164l88 14v101c0 55 -25 81 -72 81c-45 0 -76 -46 -76 -86c0 -13 1 -23 3 -30l4 -12l-95 -14c-4 7 -6 20 -6 39c0 91 99 132 171 132c124 0 166 -67 166 -127v-316l29 -32h41v-28l-172 -10l11 85h-2c-48 -56 -100 -88 -153 -88
c-68 0 -119 46 -119 127zM88 564v28l160 131l160 -131v-28l-160 75zM137 134c0 -52 22 -86 65 -86c39 0 71 21 106 57v155l-55 -11c-89 -22 -116 -68 -116 -115z" />
    <glyph glyph-name="atilde" unicode="&#xe3;" horiz-adv-x="495" 
d="M38 114c0 84 63 145 182 164l88 14v101c0 55 -25 81 -72 81c-45 0 -76 -46 -76 -86c0 -13 1 -23 3 -30l4 -12l-95 -14c-4 7 -6 20 -6 39c0 91 99 132 171 132c124 0 166 -67 166 -127v-316l29 -32h41v-28l-172 -10l11 85h-2c-48 -56 -100 -88 -153 -88
c-68 0 -119 46 -119 127zM88 637c29 43 62 86 107 86c51 0 80 -49 115 -49c28 0 62 31 77 46l21 -19c-29 -43 -61 -86 -107 -86c-49 0 -69 49 -115 49c-28 0 -62 -31 -77 -46zM137 134c0 -52 22 -86 65 -86c39 0 71 21 106 57v155l-55 -11c-89 -22 -116 -68 -116 -115z" />
    <glyph glyph-name="adieresis" unicode="&#xe4;" horiz-adv-x="495" 
d="M38 114c0 84 63 145 182 164l88 14v101c0 55 -25 81 -72 81c-45 0 -76 -46 -76 -86c0 -13 1 -23 3 -30l4 -12l-95 -14c-4 7 -6 20 -6 39c0 91 99 132 171 132c124 0 166 -67 166 -127v-316l29 -32h41v-28l-172 -10l11 85h-2c-48 -56 -100 -88 -153 -88
c-68 0 -119 46 -119 127zM83 649c0 35 26 61 61 61s61 -26 61 -61s-26 -61 -61 -61s-61 26 -61 61zM137 134c0 -52 22 -86 65 -86c39 0 71 21 106 57v155l-55 -11c-89 -22 -116 -68 -116 -115zM291 649c0 35 26 61 61 61s61 -26 61 -61s-26 -61 -61 -61s-61 26 -61 61z" />
    <glyph glyph-name="aring" unicode="&#xe5;" horiz-adv-x="495" 
d="M38 114c0 84 63 145 182 164l88 14v101c0 55 -25 81 -72 81c-45 0 -76 -46 -76 -86c0 -13 1 -23 3 -30l4 -12l-95 -14c-4 7 -6 20 -6 39c0 91 99 132 171 132c124 0 166 -67 166 -127v-316l29 -32h41v-28l-172 -10l11 85h-2c-48 -56 -100 -88 -153 -88
c-68 0 -119 46 -119 127zM137 134c0 -52 22 -86 65 -86c39 0 71 21 106 57v155l-55 -11c-89 -22 -116 -68 -116 -115zM167 641c0 47 36 82 81 82c47 0 82 -35 82 -82c0 -45 -35 -81 -82 -81c-45 0 -81 36 -81 81zM200 641c0 -27 21 -48 48 -48c28 0 50 21 50 48
c0 28 -22 50 -50 50c-27 0 -48 -22 -48 -50z" />
    <glyph glyph-name="ae" unicode="&#xe6;" horiz-adv-x="772" 
d="M38 114c0 84 63 145 182 164l88 14v101c0 55 -25 81 -72 81c-45 0 -76 -46 -76 -86c0 -13 1 -23 3 -30l4 -12l-95 -14c-4 7 -6 20 -6 39c0 91 99 132 171 132c83 0 129 -30 150 -69c39 43 92 69 152 69c150 0 193 -124 182 -191l-12 -11l-305 8c-1 -3 -1 -8 -1 -13v-29
c3 -120 66 -199 159 -199c77 0 116 31 159 111l24 -11c-29 -84 -83 -181 -213 -181c-84 0 -152 43 -188 118l-30 -35c-48 -56 -104 -83 -157 -83c-68 0 -119 46 -119 127zM137 134c0 -52 22 -86 65 -86c39 0 71 21 106 57v155l-55 -11c-89 -22 -116 -68 -116 -115zM408 340
h182l21 18c0 60 -20 112 -94 112c-64 0 -101 -65 -109 -130z" />
    <glyph glyph-name="ccedilla" unicode="&#xe7;" horiz-adv-x="497" 
d="M41 236c0 141 88 267 250 267c66 0 161 -36 161 -110c0 -8 0 -21 -3 -29l-101 -13c3 7 4 23 4 34c0 49 -27 85 -86 85c-71 0 -137 -65 -137 -189c0 -132 65 -209 168 -209c63 0 112 35 145 104l23 -10c-33 -108 -93 -173 -189 -178l-16 -46c12 3 20 3 31 3
c47 0 88 -20 88 -69c0 -58 -62 -84 -123 -84c-35 0 -66 8 -94 17c8 16 13 28 20 41c19 -8 44 -16 65 -16c25 0 53 8 53 41c0 21 -19 35 -46 35c-19 0 -26 -2 -41 -5l-7 6l32 78c-124 13 -197 126 -197 247z" />
    <glyph glyph-name="egrave" unicode="&#xe8;" horiz-adv-x="497" 
d="M41 239c0 144 95 264 223 264c150 0 193 -124 182 -191l-12 -11l-305 8c-1 -11 -1 -21 -1 -32c0 -125 63 -209 159 -209c77 0 116 31 159 111l24 -11c-29 -84 -83 -181 -213 -181c-126 0 -216 100 -216 252zM133 340h182l21 18c0 60 -20 112 -94 112
c-64 0 -101 -65 -109 -130zM141 639v84l264 -131v-28z" />
    <glyph glyph-name="eacute" unicode="&#xe9;" horiz-adv-x="497" 
d="M41 239c0 144 95 264 223 264c150 0 193 -124 182 -191l-12 -11l-305 8c-1 -11 -1 -21 -1 -32c0 -125 63 -209 159 -209c77 0 116 31 159 111l24 -11c-29 -84 -83 -181 -213 -181c-126 0 -216 100 -216 252zM133 340h182l21 18c0 60 -20 112 -94 112
c-64 0 -101 -65 -109 -130zM141 564v28l264 131v-84z" />
    <glyph glyph-name="ecircumflex" unicode="&#xea;" horiz-adv-x="497" 
d="M41 239c0 144 95 264 223 264c150 0 193 -124 182 -191l-12 -11l-305 8c-1 -11 -1 -21 -1 -32c0 -125 63 -209 159 -209c77 0 116 31 159 111l24 -11c-29 -84 -83 -181 -213 -181c-126 0 -216 100 -216 252zM113 564v28l160 131l160 -131v-28l-160 75zM133 340h182l21 18
c0 60 -20 112 -94 112c-64 0 -101 -65 -109 -130z" />
    <glyph glyph-name="edieresis" unicode="&#xeb;" horiz-adv-x="497" 
d="M41 239c0 144 95 264 223 264c150 0 193 -124 182 -191l-12 -11l-305 8c-1 -11 -1 -21 -1 -32c0 -125 63 -209 159 -209c77 0 116 31 159 111l24 -11c-29 -84 -83 -181 -213 -181c-126 0 -216 100 -216 252zM108 649c0 35 26 61 61 61s61 -26 61 -61s-26 -61 -61 -61
s-61 26 -61 61zM133 340h182l21 18c0 60 -20 112 -94 112c-64 0 -101 -65 -109 -130zM316 649c0 35 26 61 61 61s61 -26 61 -61s-26 -61 -61 -61s-61 26 -61 61z" />
    <glyph glyph-name="igrave" unicode="&#xec;" horiz-adv-x="304" 
d="M24 639v84l264 -131v-28zM26 462v28l178 10v-440l30 -32h59v-28h-266v28h54l28 32v370l-29 32h-54z" />
    <glyph glyph-name="iacute" unicode="&#xed;" horiz-adv-x="304" 
d="M24 564v28l264 131v-84zM26 462v28l178 10v-440l30 -32h59v-28h-266v28h54l28 32v370l-29 32h-54z" />
    <glyph glyph-name="icircumflex" unicode="&#xee;" horiz-adv-x="304" 
d="M-4 564v28l160 131l160 -131v-28l-160 75zM26 462v28l178 10v-440l30 -32h59v-28h-266v28h54l28 32v370l-29 32h-54z" />
    <glyph glyph-name="idieresis" unicode="&#xef;" horiz-adv-x="304" 
d="M-9 649c0 35 26 61 61 61s61 -26 61 -61s-26 -61 -61 -61s-61 26 -61 61zM26 462v28l178 10v-440l30 -32h59v-28h-266v28h54l28 32v370l-29 32h-54zM199 649c0 35 26 61 61 61s61 -26 61 -61s-26 -61 -61 -61s-61 26 -61 61z" />
    <glyph glyph-name="eth" unicode="&#xf0;" horiz-adv-x="563" 
d="M43 218c0 140 91 225 223 225c52 0 101 -16 126 -40h2c-15 49 -39 96 -68 137l-107 -26v40l81 20c-48 57 -106 101 -165 121v28c88 -23 164 -73 227 -134l117 29v-40l-87 -22c83 -96 129 -212 129 -312c0 -137 -98 -257 -246 -257c-124 0 -232 97 -232 231zM153 193
c0 -113 38 -173 119 -173c94 0 140 117 140 224c0 100 -44 166 -121 166c-97 0 -138 -117 -138 -217z" />
    <glyph glyph-name="ntilde" unicode="&#xf1;" horiz-adv-x="595" 
d="M27 0v28h51l29 32v370l-29 32h-51v28l175 10l-8 -97h2c67 83 128 100 162 100c93 0 143 -63 143 -156v-287l30 -32h50v-28h-257v28h54l28 32v273c0 75 -42 107 -89 107s-83 -32 -115 -65v-315l28 -32h53v-28h-256zM150 637c29 43 62 86 107 86c51 0 80 -49 115 -49
c28 0 62 31 77 46l21 -19c-29 -43 -61 -86 -107 -86c-49 0 -69 49 -115 49c-28 0 -62 -31 -77 -46z" />
    <glyph glyph-name="ograve" unicode="&#xf2;" horiz-adv-x="570" 
d="M41 249c0 147 102 254 243 254c144 0 245 -103 245 -255c0 -148 -103 -261 -242 -261c-148 0 -246 110 -246 262zM144 277c0 -100 49 -257 156 -257c90 0 125 103 125 195c0 99 -47 255 -154 255c-91 0 -127 -100 -127 -193zM153 639v84l264 -131v-28z" />
    <glyph glyph-name="oacute" unicode="&#xf3;" horiz-adv-x="570" 
d="M41 249c0 147 102 254 243 254c144 0 245 -103 245 -255c0 -148 -103 -261 -242 -261c-148 0 -246 110 -246 262zM144 277c0 -100 49 -257 156 -257c90 0 125 103 125 195c0 99 -47 255 -154 255c-91 0 -127 -100 -127 -193zM153 564v28l264 131v-84z" />
    <glyph glyph-name="ocircumflex" unicode="&#xf4;" horiz-adv-x="570" 
d="M41 249c0 147 102 254 243 254c144 0 245 -103 245 -255c0 -148 -103 -261 -242 -261c-148 0 -246 110 -246 262zM125 564v28l160 131l160 -131v-28l-160 75zM144 277c0 -100 49 -257 156 -257c90 0 125 103 125 195c0 99 -47 255 -154 255c-91 0 -127 -100 -127 -193z
" />
    <glyph glyph-name="otilde" unicode="&#xf5;" horiz-adv-x="570" 
d="M41 249c0 147 102 254 243 254c144 0 245 -103 245 -255c0 -148 -103 -261 -242 -261c-148 0 -246 110 -246 262zM125 637c29 43 62 86 107 86c51 0 80 -49 115 -49c28 0 62 31 77 46l21 -19c-29 -43 -61 -86 -107 -86c-49 0 -69 49 -115 49c-28 0 -62 -31 -77 -46z
M144 277c0 -100 49 -257 156 -257c90 0 125 103 125 195c0 99 -47 255 -154 255c-91 0 -127 -100 -127 -193z" />
    <glyph glyph-name="odieresis" unicode="&#xf6;" horiz-adv-x="570" 
d="M41 249c0 147 102 254 243 254c144 0 245 -103 245 -255c0 -148 -103 -261 -242 -261c-148 0 -246 110 -246 262zM120 649c0 35 26 61 61 61s61 -26 61 -61s-26 -61 -61 -61s-61 26 -61 61zM144 277c0 -100 49 -257 156 -257c90 0 125 103 125 195c0 99 -47 255 -154 255
c-91 0 -127 -100 -127 -193zM328 649c0 35 26 61 61 61s61 -26 61 -61s-26 -61 -61 -61s-61 26 -61 61z" />
    <glyph glyph-name="divide" unicode="&#xf7;" horiz-adv-x="613" 
d="M61 257v46h490v-46h-490zM237 435c0 37 29 68 68 68s68 -31 68 -68c0 -39 -29 -69 -68 -69s-68 30 -68 69zM238 126c0 37 29 68 68 68s68 -31 68 -68c0 -39 -29 -69 -68 -69s-68 30 -68 69z" />
    <glyph glyph-name="oslash" unicode="&#xf8;" horiz-adv-x="570" 
d="M41 249c0 147 102 254 243 254c47 0 88 -10 123 -30l21 30h52l-37 -54c55 -45 86 -114 86 -201c0 -148 -103 -261 -242 -261c-53 0 -99 13 -136 38l-17 -25h-52l35 52c-48 47 -76 116 -76 197zM144 277c0 -44 9 -98 28 -145l195 282c-24 33 -56 56 -96 56
c-91 0 -127 -100 -127 -193zM194 88c25 -40 59 -68 106 -68c90 0 125 103 125 195c0 47 -11 107 -34 158z" />
    <glyph glyph-name="ugrave" unicode="&#xf9;" horiz-adv-x="579" 
d="M19 462v28l168 10v-343c0 -75 38 -107 85 -107c48 0 81 32 113 65v315l-29 32h-51v28l175 10v-440l29 -32h58v-28l-182 -10l8 102h-2c-69 -88 -123 -105 -159 -105c-93 0 -140 63 -140 156v287l-29 32h-44zM164 639v84l264 -131v-28z" />
    <glyph glyph-name="uacute" unicode="&#xfa;" horiz-adv-x="579" 
d="M19 462v28l168 10v-343c0 -75 38 -107 85 -107c48 0 81 32 113 65v315l-29 32h-51v28l175 10v-440l29 -32h58v-28l-182 -10l8 102h-2c-69 -88 -123 -105 -159 -105c-93 0 -140 63 -140 156v287l-29 32h-44zM164 564v28l264 131v-84z" />
    <glyph glyph-name="ucircumflex" unicode="&#xfb;" horiz-adv-x="579" 
d="M19 462v28l168 10v-343c0 -75 38 -107 85 -107c48 0 81 32 113 65v315l-29 32h-51v28l175 10v-440l29 -32h58v-28l-182 -10l8 102h-2c-69 -88 -123 -105 -159 -105c-93 0 -140 63 -140 156v287l-29 32h-44zM136 564v28l160 131l160 -131v-28l-160 75z" />
    <glyph glyph-name="udieresis" unicode="&#xfc;" horiz-adv-x="579" 
d="M19 462v28l168 10v-343c0 -75 38 -107 85 -107c48 0 81 32 113 65v315l-29 32h-51v28l175 10v-440l29 -32h58v-28l-182 -10l8 102h-2c-69 -88 -123 -105 -159 -105c-93 0 -140 63 -140 156v287l-29 32h-44zM131 649c0 35 26 61 61 61s61 -26 61 -61s-26 -61 -61 -61
s-61 26 -61 61zM339 649c0 35 26 61 61 61s61 -26 61 -61s-26 -61 -61 -61s-61 26 -61 61z" />
    <glyph glyph-name="yacute" unicode="&#xfd;" horiz-adv-x="537" 
d="M2 -154l84 58c11 -32 38 -53 82 -53c48 0 71 51 71 90c0 41 -15 87 -30 120l-145 369l-45 42v18h228v-28h-50l-28 -32l132 -360h2l111 360l-28 32h-50v28h170v-18l-39 -42l-161 -443c-37 -100 -93 -195 -184 -195c-70 0 -104 33 -120 54zM158 564v28l264 131v-84z" />
    <glyph glyph-name="thorn" unicode="&#xfe;" horiz-adv-x="562" 
d="M-7 682v28l177 10v-295c45 49 87 78 150 78c127 0 200 -106 200 -240c0 -153 -87 -276 -244 -276c-37 0 -75 12 -106 27v-149l30 -32h70v-28h-270v28h47l28 32v785l-29 32h-53zM170 106c31 -51 66 -87 118 -87c96 0 132 111 132 207c0 108 -52 216 -148 216
c-47 0 -74 -25 -102 -52v-284z" />
    <glyph glyph-name="ydieresis" unicode="&#xff;" horiz-adv-x="537" 
d="M2 -154l84 58c11 -32 38 -53 82 -53c48 0 71 51 71 90c0 41 -15 87 -30 120l-145 369l-45 42v18h228v-28h-50l-28 -32l132 -360h2l111 360l-28 32h-50v28h170v-18l-39 -42l-161 -443c-37 -100 -93 -195 -184 -195c-70 0 -104 33 -120 54zM125 649c0 35 26 61 61 61
s61 -26 61 -61s-26 -61 -61 -61s-61 26 -61 61zM333 649c0 35 26 61 61 61s61 -26 61 -61s-26 -61 -61 -61s-61 26 -61 61z" />
    <glyph glyph-name="OE" unicode="&#x152;" horiz-adv-x="998" 
d="M51 347c0 207 170 363 358 363h514v-170h-18l-72 130h-237v-273h148l62 120h18v-280h-18l-62 120h-148v-317h245l107 140h18l-35 -180h-524c-247 0 -356 140 -356 347zM169 382c0 -188 72 -342 243 -342c23 0 43 4 58 8c8 3 16 5 23 8v581c-9 4 -18 8 -29 11
c-19 5 -43 11 -70 11c-169 0 -225 -99 -225 -277z" />
    <glyph glyph-name="oe" unicode="&#x153;" horiz-adv-x="898" 
d="M41 249c0 147 102 254 243 254c88 0 160 -38 203 -103c40 63 102 103 178 103c150 0 193 -124 182 -191l-12 -11l-305 8c-1 -11 -1 -21 -1 -32c0 -125 63 -209 159 -209c77 0 116 31 159 111l24 -11c-29 -84 -83 -181 -213 -181c-77 0 -139 35 -178 99
c-44 -61 -112 -99 -193 -99c-148 0 -246 110 -246 262zM144 277c0 -100 49 -257 156 -257c90 0 125 103 125 195c0 99 -47 255 -154 255c-91 0 -127 -100 -127 -193zM534 340h182l21 18c0 60 -20 112 -94 112c-64 0 -101 -65 -109 -130z" />
    <glyph glyph-name="Ydieresis" unicode="&#x178;" horiz-adv-x="646" 
d="M16 692v18h293v-28h-84l-32 -42l169 -273h2l155 273l-39 42h-75v28h225v-18l-63 -52l-184 -301v-269l47 -42h69v-28h-336v28h68l49 42v244l-209 326zM188 849c0 35 26 61 61 61s61 -26 61 -61s-26 -61 -61 -61s-61 26 -61 61zM396 849c0 35 26 61 61 61s61 -26 61 -61
s-26 -61 -61 -61s-61 26 -61 61z" />
    <glyph glyph-name="circumflex" unicode="&#x2c6;" horiz-adv-x="220" 
d="M-50 564v28l160 131l160 -131v-28l-160 75z" />
    <glyph glyph-name="tilde" unicode="&#x2dc;" horiz-adv-x="220" 
d="M-50 637c29 43 62 86 107 86c51 0 80 -49 115 -49c28 0 62 31 77 46l21 -19c-29 -43 -61 -86 -107 -86c-49 0 -69 49 -115 49c-28 0 -62 -31 -77 -46z" />
    <glyph glyph-name="uni2000" unicode="&#x2000;" horiz-adv-x="511" 
 />
    <glyph glyph-name="uni2001" unicode="&#x2001;" horiz-adv-x="1023" 
 />
    <glyph glyph-name="uni2002" unicode="&#x2002;" horiz-adv-x="511" 
 />
    <glyph glyph-name="uni2003" unicode="&#x2003;" horiz-adv-x="1023" 
 />
    <glyph glyph-name="uni2004" unicode="&#x2004;" horiz-adv-x="341" 
 />
    <glyph glyph-name="uni2005" unicode="&#x2005;" horiz-adv-x="255" 
 />
    <glyph glyph-name="uni2006" unicode="&#x2006;" horiz-adv-x="170" 
 />
    <glyph glyph-name="uni2007" unicode="&#x2007;" horiz-adv-x="170" 
 />
    <glyph glyph-name="uni2008" unicode="&#x2008;" horiz-adv-x="127" 
 />
    <glyph glyph-name="uni2009" unicode="&#x2009;" horiz-adv-x="205" 
 />
    <glyph glyph-name="uni200A" unicode="&#x200a;" horiz-adv-x="57" 
 />
    <glyph glyph-name="uni2010" unicode="&#x2010;" horiz-adv-x="342" 
d="M61 266v40h220v-40h-220z" />
    <glyph glyph-name="uni2011" unicode="&#x2011;" horiz-adv-x="342" 
d="M61 266v40h220v-40h-220z" />
    <glyph glyph-name="figuredash" unicode="&#x2012;" horiz-adv-x="342" 
d="M61 266v40h220v-40h-220z" />
    <glyph glyph-name="endash" unicode="&#x2013;" horiz-adv-x="522" 
d="M61 266v40h400v-40h-400z" />
    <glyph glyph-name="emdash" unicode="&#x2014;" horiz-adv-x="1022" 
d="M61 266v40h900v-40h-900z" />
    <glyph glyph-name="quoteleft" unicode="&#x2018;" horiz-adv-x="232" 
d="M45 543c0 80 51 149 132 180l8 -21c-40 -16 -84 -57 -84 -107c51 -1 81 -31 81 -68c0 -39 -28 -68 -67 -68s-70 29 -70 84z" />
    <glyph glyph-name="quoteright" unicode="&#x2019;" horiz-adv-x="235" 
d="M56 480c40 16 84 57 84 107c-51 1 -81 31 -81 68c0 39 28 68 67 68s70 -29 70 -84c0 -80 -51 -149 -132 -180z" />
    <glyph glyph-name="quotesinglbase" unicode="&#x201a;" horiz-adv-x="242" 
d="M49 -120c40 16 84 57 84 107c-51 1 -81 31 -81 68c0 39 28 68 67 68s70 -29 70 -84c0 -80 -51 -149 -132 -180z" />
    <glyph glyph-name="quotedblleft" unicode="&#x201c;" horiz-adv-x="437" 
d="M45 543c0 80 51 149 132 180l8 -21c-40 -16 -84 -57 -84 -107c51 -1 81 -31 81 -68c0 -39 -28 -68 -67 -68s-70 29 -70 84zM250 543c0 80 51 149 132 180l8 -21c-40 -16 -84 -57 -84 -107c51 -1 81 -31 81 -68c0 -39 -28 -68 -67 -68s-70 29 -70 84z" />
    <glyph glyph-name="quotedblright" unicode="&#x201d;" horiz-adv-x="440" 
d="M56 480c40 16 84 57 84 107c-51 1 -81 31 -81 68c0 39 28 68 67 68s70 -29 70 -84c0 -80 -51 -149 -132 -180zM261 480c40 16 84 57 84 107c-51 1 -81 31 -81 68c0 39 28 68 67 68s70 -29 70 -84c0 -80 -51 -149 -132 -180z" />
    <glyph glyph-name="quotedblbase" unicode="&#x201e;" horiz-adv-x="447" 
d="M49 -120c40 16 84 57 84 107c-51 1 -81 31 -81 68c0 39 28 68 67 68s70 -29 70 -84c0 -80 -51 -149 -132 -180zM254 -120c40 16 84 57 84 107c-51 1 -81 31 -81 68c0 39 28 68 67 68s70 -29 70 -84c0 -80 -51 -149 -132 -180z" />
    <glyph glyph-name="bullet" unicode="&#x2022;" horiz-adv-x="342" 
d="M91 279c0 43 36 79 80 79s80 -36 80 -79c0 -44 -36 -80 -80 -80s-80 36 -80 80z" />
    <glyph glyph-name="ellipsis" unicode="&#x2026;" horiz-adv-x="721" 
d="M52 55c0 39 29 68 68 68s69 -29 69 -68s-30 -68 -69 -68s-68 29 -68 68zM292 55c0 39 29 68 68 68s68 -29 68 -68s-29 -68 -68 -68s-68 29 -68 68zM532 55c0 39 30 68 69 68s68 -29 68 -68s-29 -68 -68 -68s-69 29 -69 68z" />
    <glyph glyph-name="uni202F" unicode="&#x202f;" horiz-adv-x="205" 
 />
    <glyph glyph-name="guilsinglleft" unicode="&#x2039;" horiz-adv-x="286" 
d="M47 230v28l175 192h15l-109 -207l109 -208h-15z" />
    <glyph glyph-name="guilsinglright" unicode="&#x203a;" horiz-adv-x="286" 
d="M49 37l110 208l-110 207h16l174 -193v-27l-174 -195h-16z" />
    <glyph glyph-name="uni205F" unicode="&#x205f;" horiz-adv-x="255" 
 />
    <glyph glyph-name="Euro" unicode="&#x20ac;" horiz-adv-x="698" 
d="M40 267v46h69c-1 13 -1 26 -1 41c0 17 1 35 2 52h-70v46h77c32 156 139 271 299 271c68 0 108 -17 151 -41l25 37h30v-216h-30l-10 25c-35 88 -87 156 -191 156c-92 0 -156 -95 -172 -232h223v-46h-227v-23c0 -24 1 -47 4 -70h193v-46h-185c24 -110 93 -190 217 -190
c79 0 130 47 182 132l28 -10c-34 -78 -110 -217 -248 -212c-162 0 -264 119 -291 280h-75z" />
    <glyph glyph-name="trademark" unicode="&#x2122;" horiz-adv-x="1148" 
d="M86 516v203h29l26 -9h274l27 9h29v-203h-18l-72 160h-56v-309l30 -32h70v-28h-293v28h70l28 32v309h-54l-72 -160h-18zM541 307v28h35l30 32v278l-19 37h-46v28h172l102 -262h2l103 262h159v-28h-46l-19 -37v-278l30 -32h35v-28h-218v28h30l28 32v232h-2l-116 -292h-34
l-120 292h-1v-232l28 -32h40v-28h-173z" />
    <glyph glyph-name="uniE000" unicode="&#xe000;" horiz-adv-x="490" 
d="M0 0v490h490v-490h-490z" />
    <glyph glyph-name="glyph1" horiz-adv-x="0" 
 />
  </font>
</defs>
</svg>
