<?xml version="1.0" standalone="no"?>
<!DOCTYPE svg PUBLIC "-//W3C//DTD SVG 1.1//EN" "http://www.w3.org/Graphics/SVG/1.1/DTD/svg11.dtd" >
<svg xmlns="http://www.w3.org/2000/svg" xmlns:xlink="http://www.w3.org/1999/xlink" version="1.1">
<metadata></metadata>
<defs>
<font id="detectives_incregular" horiz-adv-x="352" >
<font-face units-per-em="2048" ascent="1638" descent="-410" />
<missing-glyph horiz-adv-x="260" />
<glyph horiz-adv-x="0" />
<glyph unicode="&#xd;" horiz-adv-x="260" />
<glyph unicode=" "  horiz-adv-x="260" />
<glyph unicode="&#x09;" horiz-adv-x="260" />
<glyph unicode="&#xa0;" horiz-adv-x="260" />
<glyph unicode="!" horiz-adv-x="320" d="M62 1720h216l-36 -1372h-144zM82 0v178h176v-178h-176z" />
<glyph unicode="&#x22;" horiz-adv-x="542" d="M62 1544v176h178v-176l-48 -150h-74zM316 1544v176h178v-176l-48 -150h-74z" />
<glyph unicode="#" horiz-adv-x="640" d="M54 922v178l58 14v122l-58 -12v178l58 14v304h180v-264l70 18v246h176v-206l54 12v-180l-54 -12v-122l54 12v-180l-54 -12v-384h-176v344l-70 -16v-328h-180v286zM292 1154l70 18v122l-70 -18v-122z" />
<glyph unicode="$" horiz-adv-x="494" d="M32 1246q4 190 136 264v210h64v-184q18 4 42 10v174h66v-170q34 2 86 -4q0 -60 8 -168q-38 4 -70 4q-172 0 -172 -160q0 -100 70 -244q46 -94 108 -196q106 -178 106 -316q0 -176 -136 -248v-218h-66v192q-12 -4 -42 -10v-182h-64v178q-44 0 -66 2q-6 100 -6 172 q210 -6 210 108q0 18 -6 40q-38 154 -120 294q-152 262 -148 452z" />
<glyph unicode="%" horiz-adv-x="1002" d="M46 1208v268q0 108 110 108h222q110 0 110 -108v-72l54 316h178l-142 -818q24 14 56 14h218q110 0 110 -110v-266q0 -110 -110 -110h-218q-110 0 -110 110v36l-102 -576h-176l192 1116q-24 -16 -60 -16h-222q-110 0 -110 108zM234 1306q0 -34 34 -34q28 2 32 34v74 q0 28 -30 28h-8q-28 0 -28 -28v-74zM710 634q0 -34 36 -34q26 4 32 34v74q0 30 -32 30h-6q-30 0 -30 -30v-74z" />
<glyph unicode="&#x26;" horiz-adv-x="560" d="M60 110v810q0 26 25 57t51 35q-26 0 -51 30t-25 58v510q0 110 110 110h222q110 0 110 -110v-132h-188v36q0 30 -34 30h-4q-28 0 -28 -30v-414h292v-180h-38v-992h-188v72h-144q-110 0 -110 110zM248 206q0 -26 26 -26h4q36 0 36 26v714h-66v-714z" />
<glyph unicode="'" horiz-adv-x="288" d="M58 1544v176h178v-176q0 -96 -72 -150h-102q82 88 78 150h-82z" />
<glyph unicode="(" horiz-adv-x="396" d="M44 868q-6 484 182 966h176q-212 -482 -204 -966q10 -484 204 -966h-176q-176 482 -182 966z" />
<glyph unicode=")" horiz-adv-x="426" d="M16 -98q192 482 202 966t-202 966h178q186 -482 180 -966t-180 -966h-178z" />
<glyph unicode="," horiz-adv-x="290" d="M66 2v178h178v-178q0 -90 -72 -146h-102q82 88 78 146h-82z" />
<glyph unicode="-" d="M40 922v178h286v-178h-286z" />
<glyph unicode="." horiz-adv-x="288" d="M66 0v178h178v-178h-178z" />
<glyph unicode="/" horiz-adv-x="532" d="M30 0l298 1720h178l-298 -1720h-178z" />
<glyph unicode="0" horiz-adv-x="578" d="M76 110v1500q0 110 110 110h222q110 0 110 -110v-1500q0 -110 -110 -110h-222q-110 0 -110 110zM264 206q0 -26 30 -26h6q30 0 30 26v1308q0 30 -34 30h-4q-28 0 -28 -30v-1308z" />
<glyph unicode="1" horiz-adv-x="416" d="M52 1544v176h304v-1720h-180v1544h-124z" />
<glyph unicode="2" horiz-adv-x="510" d="M30 0v348q0 182 108 410q176 372 176 578q0 212 -174 212q-30 0 -64 -4q0 86 4 176q44 8 82 8q226 0 296 -230q22 -76 22 -164q0 -232 -152 -558q-46 -98 -86 -216q-36 -104 -36 -212v-170h206v-178h-382z" />
<glyph unicode="3" horiz-adv-x="478" d="M30 1544v176h382v-176l-144 -452q14 -46 60 -146q152 -330 152 -558q0 -90 -22 -164q-72 -230 -300 -230q-36 0 -78 6q-4 86 -4 178q36 -6 68 -6q170 0 170 212q0 132 -72 326q-58 158 -104 252q-36 76 -52 130l140 452h-196z" />
<glyph unicode="4" horiz-adv-x="544" d="M12 920l50 800h180l-40 -620h90v446h178v-446h58v-178h-58v-922h-178v920h-280z" />
<glyph unicode="5" horiz-adv-x="488" d="M30 1372v348h382v-176h-206v-172q0 -110 36 -212q38 -112 86 -214q152 -326 152 -558q0 -88 -22 -164q-72 -230 -300 -230q-36 0 -78 6q-4 86 -4 178q38 -8 68 -8q170 0 170 212q0 134 -72 328q-56 152 -104 252q-108 228 -108 410z" />
<glyph unicode="6" horiz-adv-x="560" d="M66 110v1500q0 110 110 110h222q110 0 110 -110v-130h-188v36q0 28 -30 28h-8q-28 0 -28 -28v-416h138q116 0 116 -92v-898q0 -110 -110 -110h-222q-110 0 -110 110zM254 208q0 -28 30 -28h6q30 0 30 28v714h-66v-714z" />
<glyph unicode="7" horiz-adv-x="502" d="M40 920v176h204l44 448h-248v176h444l-62 -624h42v-176h-62l-94 -920h-176l92 920h-184z" />
<glyph unicode="8" horiz-adv-x="572" d="M68 110v810q0 26 25 57t51 35q-26 0 -51 30t-25 58v510q0 110 110 110h222q110 0 110 -110v-510q0 -32 -27 -58t-57 -26q30 -4 57 -35t27 -61v-810q0 -110 -110 -110h-222q-110 0 -110 110zM256 208q0 -28 30 -28h6q30 0 30 28v714h-66v-714zM256 1100h66v416 q0 28 -30 28h-8q-28 0 -28 -28v-416z" />
<glyph unicode="9" horiz-adv-x="578" d="M66 110v130h188v-34q0 -28 30 -28h8q28 0 28 28v416h-138q-116 0 -116 90v898q0 110 110 110h222q110 0 110 -110v-1500q0 -110 -110 -110h-222q-110 0 -110 110zM254 802h66v710q0 28 -34 28h-4q-28 0 -28 -28v-710z" />
<glyph unicode=":" horiz-adv-x="270" d="M54 0v178h178v-178h-178zM54 362v180h178v-180h-178z" />
<glyph unicode=";" horiz-adv-x="270" d="M52 362v180h178v-180h-178zM54 2v178h178v-178q0 -90 -72 -146h-100q80 88 76 146h-82z" />
<glyph unicode="&#x3c;" horiz-adv-x="440" d="M8 866l230 854h178l-230 -848l230 -872h-178z" />
<glyph unicode="&#x3e;" horiz-adv-x="458" d="M38 0l230 872l-230 848h178l230 -854l-230 -866h-178z" />
<glyph unicode="?" horiz-adv-x="504" d="M54 0v178h178v-178h-178zM54 346q0 188 108 410q176 362 176 576t-174 214q-30 0 -64 -6q0 90 4 176q44 6 82 6q226 0 296 -230q22 -74 22 -162q0 -230 -152 -558q-130 -278 -122 -426h-176z" />
<glyph unicode="@" horiz-adv-x="1072" d="M72 110v1500q0 110 110 110h716q110 0 110 -110v-1500q0 -110 -110 -110h-312v288h-152q-110 0 -110 110v266q0 112 110 112h152v146h-190v178h278q88 0 90 -94v-414v-412h20q36 0 36 28v1308q0 28 -30 28h-500q-30 0 -30 -28v-1308q0 -28 32 -28h76v-180h-186 q-110 0 -110 110zM512 494q0 -26 30 -26h6q30 0 30 26v78q0 26 -34 26h-6q-26 0 -26 -26v-78z" />
<glyph unicode="A" horiz-adv-x="546" d="M24 0l156 1720h190l156 -1720h-178l-16 178h-114l-16 -178h-178zM236 358h78l-38 444z" />
<glyph unicode="B" horiz-adv-x="566" d="M68 0v1720h350q84 0 84 -80v-544q0 -74 -72 -80q72 -10 72 -82v-850q0 -84 -84 -84h-350zM248 182h34q36 0 36 34v668q0 36 -36 36h-34v-738zM248 1096h34q36 0 36 36v378q0 36 -36 36h-34v-450z" />
<glyph unicode="C" horiz-adv-x="488" d="M66 110v1500q0 110 110 110h272v-176h-166q-28 0 -28 -30v-1308q0 -26 30 -26h164v-180h-272q-110 0 -110 110z" />
<glyph unicode="D" horiz-adv-x="578" d="M76 0v1720h332q110 0 110 -110v-1500q0 -110 -110 -110h-332zM264 182l22 -2h8q36 0 36 28v1308q0 30 -30 30h-36v-1364z" />
<glyph unicode="E" horiz-adv-x="484" d="M70 0v1720h350v-176h-172v-448h172v-176h-172v-740h172v-180h-350z" />
<glyph unicode="F" horiz-adv-x="474" d="M68 0v1720h350v-176h-170v-448h170v-176h-170v-920h-180z" />
<glyph unicode="G" horiz-adv-x="564" d="M70 110v1500q0 110 110 110h274v-176h-168q-28 0 -28 -30v-1308q0 -26 30 -26h6q30 0 30 26v894h188l-2 -1172h-178v72h-152q-110 0 -110 110z" />
<glyph unicode="H" horiz-adv-x="538" d="M62 0v1720h178v-624h70v624h180v-1720h-180v920h-70v-920h-178z" />
<glyph unicode="I" horiz-adv-x="288" d="M58 0v1720h178v-1720h-178z" />
<glyph unicode="J" horiz-adv-x="566" d="M66 110v990h188v-894q0 -26 28 -26h8q30 0 30 26l2 1514h186v-1610q0 -110 -110 -110h-222q-110 0 -110 110z" />
<glyph unicode="K" horiz-adv-x="546" d="M68 0v1720h178v-632l100 632h178l-110 -712l110 -1008h-178l-100 902v-902h-178z" />
<glyph unicode="L" horiz-adv-x="450" d="M68 0v1720h178v-1540h172v-180h-350z" />
<glyph unicode="M" horiz-adv-x="784" d="M14 0l136 1720h192l54 -638l50 638h192l136 -1720h-176l-56 692l-56 -692h-184l-56 692l-54 -692h-178z" />
<glyph unicode="N" horiz-adv-x="552" d="M62 0v1720h192l72 -604v604h178v-1720h-178l-86 772v-772h-178z" />
<glyph unicode="O" horiz-adv-x="578" d="M72 110v1500q0 110 110 110h222q110 0 110 -110v-1500q0 -110 -110 -110h-222q-110 0 -110 110zM260 206q0 -26 26 -26h4q36 0 36 26v1308q0 30 -34 30h-4q-28 0 -28 -30v-1308z" />
<glyph unicode="P" horiz-adv-x="542" d="M62 0v1720h350q84 0 84 -80v-640q0 -80 -84 -80h-172v-920h-178zM242 1096h34q36 0 36 36v378q0 36 -36 36h-34v-450z" />
<glyph unicode="Q" horiz-adv-x="558" d="M64 110v1500q0 110 110 110h222q110 0 110 -110v-1500q0 -110 -110 -110h-16q24 -48 96 -70q-84 -48 -144 -90q-120 32 -138 160h-20q-110 0 -110 110zM252 208q0 -32 34 -32q32 8 32 32v1308q0 28 -30 28h-8q-28 0 -28 -28v-1308z" />
<glyph unicode="R" horiz-adv-x="546" d="M62 0v1720h350q84 0 84 -80v-560q0 -56 -50 -74q50 -26 50 -78v-928h-184v884q0 36 -36 36h-34l-2 -920h-178zM242 1100h34q36 0 36 32v378q0 34 -36 34h-34v-444z" />
<glyph unicode="S" horiz-adv-x="474" d="M12 1332q0 88 22 160q68 230 296 230q38 0 82 -6q0 -88 4 -176q-34 6 -64 6q-174 0 -174 -216q0 -134 70 -324q50 -132 106 -250q112 -230 112 -400q0 -94 -34 -170q-84 -188 -292 -188q-26 0 -54 2q-6 86 -6 176q11 -1 22 -1q92 0 137.5 47t45.5 136q0 11 -1 22 q-8 152 -120 392q-152 330 -152 560z" />
<glyph unicode="T" horiz-adv-x="462" d="M18 1540v180h430v-180h-126v-1540h-180v1540h-124z" />
<glyph unicode="U" horiz-adv-x="566" d="M62 110v1610h188v-1512q0 -28 30 -28h6q30 0 30 28v1512h188v-1610q0 -110 -110 -110h-222q-110 0 -110 110z" />
<glyph unicode="V" horiz-adv-x="528" d="M18 1720h178l74 -800l72 800h178l-156 -1720h-190z" />
<glyph unicode="W" horiz-adv-x="796" d="M18 1720h178l54 -690l56 690h184l56 -690l56 690h176l-136 -1720h-192l-50 638l-54 -638h-192z" />
<glyph unicode="X" horiz-adv-x="594" d="M38 0l166 862l-166 858h188l72 -374l72 374h186l-166 -858l166 -862h-186l-72 374l-72 -374h-188z" />
<glyph unicode="Y" horiz-adv-x="576" d="M32 1720h188l72 -374l72 374h186l-170 -882v-838h-178v838z" />
<glyph unicode="Z" horiz-adv-x="554" d="M68 0v180l250 1364h-250v180h430v-180l-252 -1366h252v-178h-430z" />
<glyph unicode="\" horiz-adv-x="536" d="M30 1720h178l298 -1720h-178z" />
<glyph unicode="_" horiz-adv-x="692" d="M56 0v176h580v-176h-580z" />
<glyph unicode="a" horiz-adv-x="490" d="M26 0l142 1548h170l142 -1548h-162l-14 160h-102l-16 -160h-160zM216 322h74l-36 398z" />
<glyph unicode="b" horiz-adv-x="506" d="M64 0v1548h316q76 0 76 -72v-490q0 -66 -66 -74q66 -10 66 -72v-764q0 -76 -76 -76h-316zM224 164h32q34 0 34 30v600q0 32 -34 32h-32v-662zM224 988h32q34 0 34 32v338q0 34 -34 34h-32v-404z" />
<glyph unicode="c" horiz-adv-x="422" d="M48 98v1352q0 98 98 98h246v-158h-150q-26 0 -26 -26v-1176q0 -28 26 -28h22h128v-160h-246q-98 0 -98 98z" />
<glyph unicode="d" horiz-adv-x="512" d="M64 0v1548l298 2h4q94 0 94 -100v-1350q0 -100 -98 -100h-298zM232 164h28q34 0 34 24v1178q0 24 -30 24h-32v-1226z" />
<glyph unicode="e" horiz-adv-x="412" d="M48 0v1548h314v-160h-154v-402h154v-158h-154v-668h154v-160h-314z" />
<glyph unicode="f" horiz-adv-x="418" d="M58 0v1548h314v-160h-154v-402h154v-160h-154v-826h-160z" />
<glyph unicode="g" horiz-adv-x="506" d="M62 98v1352q0 98 98 98h248v-158h-152q-26 0 -26 -26v-1176q0 -26 28 -28q30 0 34 28v800h166v-1052h-160v64h-138q-98 0 -98 98z" />
<glyph unicode="h" horiz-adv-x="506" d="M64 0v1548h160v-562h64v562h160v-1548h-160v828h-64v-828h-160z" />
<glyph unicode="i" horiz-adv-x="282" d="M64 0v1548h160v-1548h-160z" />
<glyph unicode="j" horiz-adv-x="520" d="M66 98v890h168v-800q0 -30 32 -28q28 0 28 28l2 1360h166v-1450q0 -98 -98 -98h-200q-98 0 -98 98z" />
<glyph unicode="k" horiz-adv-x="500" d="M62 0v1548h160v-568l90 568h160l-100 -640l100 -908h-160l-90 814v-814h-160z" />
<glyph unicode="l" horiz-adv-x="400" d="M54 0v1548h160v-1388h154v-160h-314z" />
<glyph unicode="m" horiz-adv-x="724" d="M20 0l124 1548h174l46 -574l44 574h174l122 -1548h-158l-50 622l-52 -622h-164l-48 622l-52 -622h-160z" />
<glyph unicode="n" horiz-adv-x="520" d="M66 0v1548h172l66 -542v542h160v-1548h-160l-78 696v-696h-160z" />
<glyph unicode="o" horiz-adv-x="510" d="M60 98v1352q0 98 98 98h200q98 0 98 -98v-1352q0 -98 -98 -98h-200q-98 0 -98 98zM228 188q0 -28 28 -28q34 2 34 28v1176q0 26 -30 26h-6q-26 0 -26 -26v-1176z" />
<glyph unicode="p" horiz-adv-x="496" d="M66 0v1548l316 2q76 0 76 -74v-574q0 -76 -76 -76h-156v-826h-160zM226 988h32q34 0 34 32v338q0 34 -34 34h-32v-404z" />
<glyph unicode="q" horiz-adv-x="508" d="M64 98v1352q0 98 98 98h200q98 0 98 -98v-1352q0 -98 -98 -98h-12q18 -46 84 -62l-128 -82q-112 28 -124 144h-20q-98 0 -98 98zM232 188q0 -28 30 -28q32 0 32 28v1176q0 26 -30 26h-6q-26 0 -26 -26v-1176z" />
<glyph unicode="r" horiz-adv-x="504" d="M66 0v1548h316q76 0 76 -74v-502q0 -48 -46 -68q46 -20 46 -66v-838h-166v794q0 34 -34 34h-32v-828h-160zM226 988h32q34 0 34 32v338q0 32 -34 32h-32v-402z" />
<glyph unicode="s" horiz-adv-x="436" d="M20 1194q0 82 20 148q62 208 262 208q36 0 76 -6q0 -82 6 -160q-32 6 -60 6q-156 0 -156 -194q0 -120 62 -290q44 -122 96 -226q102 -208 102 -362q0 -84 -30 -152q-76 -168 -264 -168q-22 0 -48 2q-6 72 -6 156h15q175 0 175 136q0 22 -6 48q-34 192 -108 354 q-136 292 -136 500z" />
<glyph unicode="t" horiz-adv-x="438" d="M28 1388v160h386v-160h-112v-1388h-162v1388h-112z" />
<glyph unicode="u" horiz-adv-x="520" d="M66 98v1450h168v-1360q0 -28 28 -28q34 2 34 28v1360h166v-1450q0 -98 -98 -98h-200q-98 0 -98 98z" />
<glyph unicode="v" horiz-adv-x="496" d="M30 1548h160l66 -720l64 720h162l-140 -1548h-172z" />
<glyph unicode="w" horiz-adv-x="724" d="M24 1548h160l48 -622l52 622h164l52 -622l48 622h160l-122 -1548h-174l-44 574l-48 -574h-174z" />
<glyph unicode="x" horiz-adv-x="552" d="M42 0l148 776l-148 772h168l64 -336l66 336h170l-148 -772l148 -776h-170l-66 336l-64 -336h-168z" />
<glyph unicode="y" horiz-adv-x="536" d="M36 1548h168l64 -336l66 336h168l-152 -794v-754h-160v754z" />
<glyph unicode="z" horiz-adv-x="486" d="M54 0v160l226 1230h-226v160h386v-160l-228 -1230h228v-160h-386z" />
<glyph unicode="&#xa9;" horiz-adv-x="1008" d="M100 92v1250q0 92 92 92h596q92 0 92 -92v-1250q0 -92 -92 -92h-596q-92 0 -92 92zM256 172q0 -22 28 -22h410q30 0 30 22v1090q0 24 -28 24h-414q-26 0 -26 -24v-1090zM380 286v862q0 64 64 64h156v-102h-96q-16 0 -16 -16v-752q0 -16 18 -16h92v-104h-154q-64 0 -64 64 z" />
<glyph unicode="&#xad;" d="M40 922v178h286v-178h-286z" />
<glyph unicode="&#x2000;" horiz-adv-x="917" />
<glyph unicode="&#x2001;" horiz-adv-x="1834" />
<glyph unicode="&#x2002;" horiz-adv-x="917" />
<glyph unicode="&#x2003;" horiz-adv-x="1834" />
<glyph unicode="&#x2004;" horiz-adv-x="611" />
<glyph unicode="&#x2005;" horiz-adv-x="458" />
<glyph unicode="&#x2006;" horiz-adv-x="305" />
<glyph unicode="&#x2007;" horiz-adv-x="305" />
<glyph unicode="&#x2008;" horiz-adv-x="229" />
<glyph unicode="&#x2009;" horiz-adv-x="366" />
<glyph unicode="&#x200a;" horiz-adv-x="101" />
<glyph unicode="&#x2010;" d="M40 922v178h286v-178h-286z" />
<glyph unicode="&#x2011;" d="M40 922v178h286v-178h-286z" />
<glyph unicode="&#x2012;" d="M40 922v178h286v-178h-286z" />
<glyph unicode="&#x2013;" horiz-adv-x="1090" d="M40 922v178h1024v-178h-1024z" />
<glyph unicode="&#x2014;" horiz-adv-x="2114" d="M40 922v178h2048v-178h-2048z" />
<glyph unicode="&#x2018;" horiz-adv-x="284" d="M60 1544v176h178v-176h-82q-12 -56 74 -150h-98q-72 54 -72 150z" />
<glyph unicode="&#x2019;" horiz-adv-x="288" d="M62 1544v176h178v-176q0 -96 -72 -150h-102q82 88 78 150h-82z" />
<glyph unicode="&#x201c;" horiz-adv-x="540" d="M60 1394v178q0 94 72 148h98q-86 -92 -74 -148h82v-178h-178zM316 1394v178q0 94 72 148h100q-86 -92 -78 -148h84v-178h-178z" />
<glyph unicode="&#x201d;" horiz-adv-x="544" d="M62 1544v176h178v-176q0 -96 -72 -150h-102q82 88 78 150h-82zM318 1544v176h178v-176q0 -96 -72 -150h-100q80 88 76 150h-82z" />
<glyph unicode="&#x202f;" horiz-adv-x="366" />
<glyph unicode="&#x205f;" horiz-adv-x="458" />
<glyph unicode="&#x2122;" horiz-adv-x="730" d="M82 1638v74h184v-74h-54v-656h-76v656h-54zM304 982l58 730h82l22 -270l22 270h82l58 -730h-76l-24 294l-24 -294h-78l-22 294l-24 -294h-76z" />
<glyph unicode="&#x25fc;" horiz-adv-x="1550" d="M0 0v1550h1550v-1550h-1550z" />
</font>
</defs>
</svg>
