<?xml version="1.0" standalone="no"?> 
<!DOCTYPE svg PUBLIC "-//W3C//DTD SVG 1.1//EN" "http://www.w3.org/Graphics/SVG/1.1/DTD/svg11.dtd" >
<svg xmlns="http://www.w3.org/2000/svg">
<defs>
  <font id="octicons" horiz-adv-x="45">
    <font-face font-family="octicons"
      units-per-em="1000" ascent="820"
      descent="180" />
    <missing-glyph horiz-adv-x="0" />
    <glyph glyph-name="alert"
      unicode="&#xF02D;"
      horiz-adv-x="1000" d=" M555.8125 726.25C544.375 745.625 523.3125000000001 757.5 500.375 757.5S456.4375 745.625 445 726.25L8.625 -23.6875A61.25000000000001 61.25000000000001 0 0 1 8.625 -86.25C20.6875 -105.625 41.75 -117.5625 64 -117.5625H936.75C959.6875 -117.5625 980.75 -105.6875 991.5625 -86.3125A64.375 64.375 0 0 1 992.1875 -23.6874999999999L555.8125 726.25zM564.125 7.6875H436.6875V132.875H564.125V7.6875zM564.125 195.4375H436.6875V445.8125H564.125V195.4375z" />
    <glyph glyph-name="archive"
      unicode="&#xF101;"
      horiz-adv-x="875" d=" M250 382.5H625V320H250z M812.5 757.5H62.5C25 757.5 0 732.5 0 695V570C0 532.5 25 507.5 62.5 507.5V-55C62.5 -92.5 87.5 -117.5 125 -117.5H750C787.5 -117.5 812.5 -92.5 812.5 -55V507.5C850 507.5 875 532.5 875 570V695C875 732.5 850 757.5 812.5 757.5zM750 -55H125V507.5H750zM812.5 570H62.5V695H812.5z" />
    <glyph glyph-name="arrow-both"
      unicode="&#xF102;"
      horiz-adv-x="1250" d=" M0 320L375 632.5V445H875V632.5L1250 320L875 7.5V195H375V7.5L0 320z" />
    <glyph glyph-name="arrow-down"
      unicode="&#xF03F;"
      horiz-adv-x="625" d=" M437.5 382.5V632.5H187.5V382.5H0L312.5 7.5L625 382.5H437.5z" />
    <glyph glyph-name="arrow-left"
      unicode="&#xF040;"
      horiz-adv-x="625" d=" M375 632.5L0 320L375 7.5V195H625V445H375V632.5z" />
    <glyph glyph-name="arrow-right"
      unicode="&#xF03E;"
      horiz-adv-x="625" d=" M625 320L250 632.5V445H0V195H250V7.5L625 320z" />
    <glyph glyph-name="arrow-small-down"
      unicode="&#xF0A0;"
      horiz-adv-x="375" d=" M250 382.5V507.5H125V382.5H0L187.5 132.5L375 382.5H250z" />
    <glyph glyph-name="arrow-small-left"
      unicode="&#xF0A1;"
      horiz-adv-x="375" d=" M250 382.5V507.5L0 320L250 132.5V257.5H375V382.5H250z" />
    <glyph glyph-name="arrow-small-right"
      unicode="&#xF071;"
      horiz-adv-x="375" d=" M375 320L125 507.5V382.5H0V257.5H125V132.5L375 320z" />
    <glyph glyph-name="arrow-small-up"
      unicode="&#xF09F;"
      horiz-adv-x="375" d=" M187.5 507.5L0 257.5H125V132.5H250V257.5H375L187.5 507.5z" />
    <glyph glyph-name="arrow-up"
      unicode="&#xF03D;"
      horiz-adv-x="625" d=" M312.5 632.5L0 257.5H187.5V7.5H437.5V257.5H625L312.5 632.5z" />
    <glyph glyph-name="beaker"
      unicode="&#xF0DD;"
      horiz-adv-x="1000" d=" M898.75 -91.875L687.5 382.5V632.5H750V695H187.5V632.5H250V382.5L39.375 -91.875A62.5 62.5 0 0 1 96.25 -180H842.5C887.5000000000001 -180 917.5 -133.125 899.375 -91.875H898.75zM234.375 195L312.5 382.5V632.5H625V382.5L703.125 195H234.375zM500 320H562.5V257.5H500V320zM437.5 382.5H375V445H437.5V382.5zM437.5 570H500V507.5H437.5V570zM437.5 757.5H375V820H437.5V757.5z" />
    <glyph glyph-name="bell"
      unicode="&#xF0DE;"
      horiz-adv-x="937.5" d=" M875 70V7.5H0V70L45.625 106.25C93.75 154.375 96.25 265.6249999999999 120 382.5C168.125 618.125 375 695 375 695C375 729.375 403.125 757.5 437.5 757.5S500 729.375 500 695C500 695 711.875 618.125 760 382.5C783.7500000000001 265.0000000000001 786.25 153.75 834.375 106.25L875.625 70H875zM437.5 -180C506.8749999999999 -180 562.5 -124.375 562.5 -55H312.5C312.5 -124.375 368.125 -180 437.5 -180z" />
    <glyph glyph-name="bold"
      unicode="&#xF282;"
      horiz-adv-x="625" d=" M62.5 695H301.875C456.8750000000001 695 570.6249999999999 648.125 570.6249999999999 510.625C570.6249999999999 439.375 531.2499999999999 371.25 466.2499999999999 347.5V343.75C549.375 325 609.9999999999999 266.875 609.9999999999999 165C609.9999999999999 15.6249999999999 486.8749999999999 -55 321.8749999999999 -55H62.5V695zM291.25 385.625C395.625 385.625 440 426.875 440 491.25C440 564.375 391.25 591.875 293.75 591.875H195.625V385.6250000000001H291.25zM308.125 48.75C418.75 48.75 480 88.75 480 172.5C480 251.875 420.625 285.6250000000001 308.125 285.6250000000001H195.625V48.1250000000001H308.125V48.7500000000001z" />
    <glyph glyph-name="book"
      unicode="&#xF007;"
      horiz-adv-x="1000" d=" M187.5 507.5H437.5V445H187.5V507.5zM187.5 320H437.5V382.5H187.5V320zM187.5 195H437.5V257.5H187.5V195zM875 507.5H625V445H875V507.5zM875 382.5H625V320H875V382.5zM875 257.5H625V195H875V257.5zM1000 632.5V70C1000 35.625 971.875 7.5 937.5 7.5H593.75L531.25 -55L468.75 7.5H125C90.625 7.5 62.5 35.625 62.5 70V632.5C62.5 666.875 90.625 695 125 695H468.75L531.25 632.5L593.75 695H937.5C971.875 695 1000 666.875 1000 632.5zM500 601.25L468.75 632.5H125V70H500V601.25zM937.5 632.5H593.75L562.5 601.25V70H937.5V632.5z" />
    <glyph glyph-name="bookmark"
      unicode="&#xF07B;"
      horiz-adv-x="625" d=" M562.5 820H62.5C16.875 820 0 803.125 0 757.5V-180L312.5 13.125L625 -180V757.5C625 803.125 608.125 820 562.5 820zM513.75 554.375L397.5 469.375L442.5 334.375C446.25 320.625 441.2500000000001 316.875 430 323.75L312.5 407.5L195 323.75C183.125 316.875 179.375 320.625 182.5 334.375L227.5 469.375L111.25 554.375C100.625 564.375 102.5 568.75 116.875 568.75L260.625 570.625L304.375 705.625H320L363.75 570.625L507.5000000000001 568.75C521.8750000000001 568.75 524.375 563.75 513.125 554.375H513.75z" />
    <glyph glyph-name="briefcase"
      unicode="&#xF0D3;"
      horiz-adv-x="875" d=" M562.5 570V632.5C562.5 666.875 534.375 695 500 695H375C340.625 695 312.5 666.875 312.5 632.5V570H62.5C28.125 570 0 541.875 0 507.5V7.5C0 -26.875 28.125 -55 62.5 -55H812.5C846.875 -55 875 -26.875 875 7.5V507.5C875 541.875 846.875 570 812.5 570H562.5zM375 632.5H500V570H375V632.5zM812.5 257.5H500V195H375V257.5H62.5V507.5H125V320H750V507.5H812.5V257.5z" />
    <glyph glyph-name="broadcast"
      unicode="&#xF048;"
      horiz-adv-x="1000" d=" M562.5 257.5H500C534.375 257.5 562.5 285.625 562.5 320V382.5C562.5 416.875 534.375 445 500 445H437.5C403.125 445 375 416.875 375 382.5V320C375 285.625 403.125 257.5 437.5 257.5H375C340.625 257.5 312.5 229.375 312.5 195V70H375V-117.5C375 -151.875 403.125 -180 437.5 -180H500C534.375 -180 562.5 -151.875 562.5 -117.5V70H625V195C625 229.375 596.875 257.5 562.5 257.5zM437.5 382.5H500V320H437.5V382.5zM562.5 132.5H500V-117.5H437.5V132.5H375V195H562.5V132.5zM693.125 351.25C693.125 475 592.5 575.625 468.75 575.625A224.56249999999997 224.56249999999997 0 0 1 250 300.625V176.8749999999999C211.875 224.9999999999999 187.5 285 187.5 351.875C187.5 506.8749999999999 313.75 633.125 468.75 633.125S750 506.875 750 351.875C750 285.625 725.625 225 687.5 176.875V300.625C691.25 317.5 693.125 333.75 693.125 351.25zM937.5 351.25C937.5 171.2500000000001 835.6250000000001 15.0000000000001 687.5 -63.1249999999999V2.5000000000001A409.56250000000006 409.56250000000006 0 0 1 880.625 351.2500000000001A411.875 411.875 0 0 1 468.75 763.125A411.875 411.875 0 0 1 56.875 351.25C56.875 203.75 133.75 75 250 2.5V-63.125A468.56249999999994 468.56249999999994 0 0 0 468.75 820C727.5 820 937.5 610 937.5 351.25z" />
    <glyph glyph-name="browser"
      unicode="&#xF0C5;"
      horiz-adv-x="875" d=" M312.5 632.5H375V570H312.5V632.5zM187.5 632.5H250V570H187.5V632.5zM62.5 632.5H125V570H62.5V632.5zM812.5 7.5H62.5V507.5H812.5V7.5zM812.5 570H437.5V632.5H812.5V570zM875 632.5C875 666.875 846.875 695 812.5 695H62.5C28.125 695 0 666.875 0 632.5V7.5C0 -26.875 28.125 -55 62.5 -55H812.5C846.875 -55 875 -26.875 875 7.5V632.5z" />
    <glyph glyph-name="bug"
      unicode="&#xF091;"
      horiz-adv-x="1000" d=" M687.5 195H875V257.5H687.5V320L885.625 384.375L864.375 443.1250000000001L687.5 382.5V445C687.5 479.375 659.375 507.5 625 507.5V570C625 600 602.5 625 573.125 630.625L637.5 695H750V757.5H612.5L487.5000000000001 632.5H450.6250000000001L325 757.5H187.5V695H300L364.375 630.625C335 625 312.5 600.625 312.5 570V507.5C278.125 507.5 250 479.375 250 445V382.5L73.125 443.125L51.875 384.375L250 320V257.5H62.5V195H250V132.5L51.875 68.125L73.125 9.3750000000001L250 70V7.5C250 -26.875 278.125 -55 312.5 -55H375L437.5 7.5V445H500V7.5L562.5 -55H625C659.375 -55 687.5 -26.875 687.5 7.5V70L864.375 9.375L885.625 68.1249999999999L687.5 132.5V195zM562.5 507.5H375V570H562.5V507.5z" />
    <glyph glyph-name="calendar"
      unicode="&#xF068;"
      horiz-adv-x="875" d=" M812.5 695H750V601.25C750 583.75 736.25 570 718.75 570H593.75C576.25 570 562.5 583.75 562.5 601.25V695H375V601.25C375 583.75 361.25 570 343.75 570H218.75C201.25 570 187.5 583.75 187.5 601.25V695H125C90.625 695 62.5 666.875 62.5 632.5V-55C62.5 -89.375 90.625 -117.5 125 -117.5H812.5C846.875 -117.5 875 -89.375 875 -55V632.5C875 666.875 846.875 695 812.5 695zM812.5 -55H125V507.5H812.5V-55zM312.5 632.5H250V757.5H312.5V632.5zM687.5 632.5H625V757.5H687.5V632.5zM375 382.5H312.5V445H375V382.5zM500 382.5H437.5V445H500V382.5zM625 382.5H562.5V445H625V382.5zM750 382.5H687.5V445H750V382.5zM250 257.5H187.5V320H250V257.5zM375 257.5H312.5V320H375V257.5zM500 257.5H437.5V320H500V257.5zM625 257.5H562.5V320H625V257.5zM750 257.5H687.5V320H750V257.5zM250 132.5H187.5V195H250V132.5zM375 132.5H312.5V195H375V132.5zM500 132.5H437.5V195H500V132.5zM625 132.5H562.5V195H625V132.5zM750 132.5H687.5V195H750V132.5zM250 7.5H187.5V70H250V7.5zM375 7.5H312.5V70H375V7.5zM500 7.5H437.5V70H500V7.5zM625 7.5H562.5V70H625V7.5z" />
    <glyph glyph-name="check"
      unicode="&#xF03A;"
      horiz-adv-x="750" d=" M750 507.5L250 7.5L0 257.5L93.75 351.25L250 195L656.25 601.25L750 507.5z" />
    <glyph glyph-name="checklist"
      unicode="&#xF076;"
      horiz-adv-x="1000" d=" M1000 288.75L625 -86.25L437.5 101.25L531.25 195L625 101.25L906.25 382.5L1000 288.75zM356.25 57.5L406.25 7.5H125C90.625 7.5 62.5 35.625 62.5 70V632.5C62.5 666.875 90.625 695 125 695H562.5C596.875 695 625 666.875 625 632.5V226.25L575 276.25C550.6249999999999 300.6250000000001 510.625 300.6250000000001 486.2499999999999 276.25L356.25 145A62.25000000000001 62.25000000000001 0 0 1 356.25 56.875V57.4999999999999zM250 570H562.5V632.5H250V570zM250 445H562.5V507.5H250V445zM250 320H437.5V382.5H250V320zM187.5 257.5H125V195H187.5V257.5zM187.5 382.5H125V320H187.5V382.5zM187.5 507.5H125V445H187.5V507.5zM187.5 632.5H125V570H187.5V632.5z" />
    <glyph glyph-name="chevron-down"
      unicode="&#xF0A3;"
      horiz-adv-x="625" d=" M312.5 132.5L0 445L93.75 538.75L312.5 304.375L531.25 538.75L625 445L312.5 132.5z" />
    <glyph glyph-name="chevron-left"
      unicode="&#xF0A4;"
      horiz-adv-x="500" d=" M343.75 632.5L437.5 538.75L203.125 320L437.5 101.25L343.75 7.5L31.25 320L343.75 632.5z" />
    <glyph glyph-name="chevron-right"
      unicode="&#xF078;"
      horiz-adv-x="500" d=" M468.75 320L156.25 7.5L62.5 101.25L296.875 320L62.5 538.75L156.25 632.5L468.75 320z" />
    <glyph glyph-name="chevron-up"
      unicode="&#xF0A2;"
      horiz-adv-x="625" d=" M625 195L531.25 101.25L312.5 335.625L93.75 101.25L0 195L312.5 507.5L625 195z" />
    <glyph glyph-name="circle-slash"
      unicode="&#xF084;"
      horiz-adv-x="875" d=" M437.5 757.5C196.25 757.5 0 561.25 0 320S196.25 -117.5 437.5 -117.5S875 78.75 875 320S678.75 757.5 437.5 757.5zM437.5 676.25C518.75 676.25 593.75 648.75 654.375 603.125L154.375 103.1250000000001A359.6875 359.6875 0 0 0 81.25 320C81.25 516.25 241.2500000000001 676.25 437.5 676.25zM437.5 -36.875C356.25 -36.875 281.25 -9.3750000000001 220.625 36.2499999999999L720.625 536.25C766.25 475.6249999999999 793.75 400.625 793.75 319.3749999999999C793.75 123.1249999999999 633.7499999999999 -36.875 437.5 -36.875z" />
    <glyph glyph-name="circuit-board"
      unicode="&#xF0D6;"
      horiz-adv-x="875" d=" M187.5 507.5C187.5 541.875 215.625 570 250 570S312.5 541.875 312.5 507.5S284.375 445 250 445S187.5 473.125 187.5 507.5zM687.5 507.5C687.5 541.875 659.375 570 625 570S562.5 541.875 562.5 507.5S590.625 445 625 445S687.5 473.125 687.5 507.5zM687.5 132.5C687.5 166.875 659.375 195 625 195S562.5 166.875 562.5 132.5S590.625 70 625 70S687.5 98.125 687.5 132.5zM812.5 757.5H312.5V621.875C335 610 352.5 592.5 364.375 570H510.625C536.875 618.75 593.75 650 656.875 635.625C703.75 623.75 741.875 585.625 752.5 538.75C771.875 452.5 707.4999999999999 376.875 624.3749999999999 376.875C574.3749999999999 376.875 531.8749999999999 404.3750000000001 509.9999999999999 445H364.375C338.125 395 281.25 365 218.125 380.625C172.5 391.25 134.375 429.375 123.125 475.625C107.5 539.375 137.5 595.625 187.5 621.875V757.5H62.5C28.125 757.5 0 729.375 0 695V-55C0 -89.375 28.125 -117.5 62.5 -117.5L375 195H510.625C536.875 243.75 593.75 275 656.875 260.625C703.75 248.7500000000001 741.875 210.625 752.5 163.75C771.875 77.5000000000001 707.4999999999999 1.875 624.3749999999999 1.875C574.3749999999999 1.875 531.8749999999999 29.375 509.9999999999999 70H436.875L250 -117.5H812.5C846.875 -117.5 875 -89.375 875 -55V695C875 729.375 846.875 757.5 812.5 757.5z" />
    <glyph glyph-name="clippy"
      unicode="&#xF035;"
      horiz-adv-x="875" d=" M125 7.5H375V-55H125V7.5zM437.5 382.5H125V320H437.5V382.5zM562.5 195V320L375 132.5L562.5 -55V70H875V195H562.5zM281.25 257.5H125V195H281.25V257.5zM125 70H281.25V132.5H125V70zM687.5 7.5H750V-117.5C748.75 -135 743.125 -150 731.25 -161.25C719.375 -172.4999999999999 705 -178.7499999999999 687.5 -180H62.5C28.125 -180 0 -151.875 0 -117.5V570C0 604.375 28.125 632.5 62.5 632.5H250C250 701.875 305.625 757.5 375 757.5C444.375 757.5 500 701.875 500 632.5H687.5C721.875 632.5 750 604.375 750 570V257.5H687.5V445H62.5V-117.5H687.5V7.5zM125 507.5H625C625 541.875 596.875 570 562.5 570H500C465.625 570 437.5 598.125 437.5 632.5S409.375 695 375 695S312.5 666.875 312.5 632.5S284.375 570 250 570H187.5C153.125 570 125 541.875 125 507.5z" />
    <glyph glyph-name="clock"
      unicode="&#xF046;"
      horiz-adv-x="875" d=" M500 320H687.5V195H437.5C403.125 195 375 223.125 375 257.5V570H500V320zM437.5 676.25C633.75 676.25 793.75 516.25 793.75 320S633.7499999999999 -36.25 437.5 -36.25A356.87500000000006 356.87500000000006 0 0 0 81.25 320C81.25 516.25 241.2500000000001 676.25 437.5 676.25zM437.5 757.5C196.25 757.5 0 561.25 0 320S196.25 -117.5 437.5 -117.5S875 78.75 875 320S678.75 757.5 437.5 757.5z" />
    <glyph glyph-name="cloud-download"
      unicode="&#xF00B;"
      horiz-adv-x="1000" d=" M562.5 70H687.5L500 -117.5L312.5 70H437.5V382.5H562.5V70zM750 570C750 597.5 693.125 757.5 468.75 757.5C317.5 757.5 187.5 637.5 187.5 507.5C63.75 507.5 0 412.5 0 320C0 224.375 62.5 132.5 187.5 132.5H375V213.75H187.5C86.25 213.75 81.25 302.5 81.25 320C81.25 330.625 84.375 426.25 187.5 426.25H268.75V507.5C268.75 594.375 366.25 676.25 468.75 676.25C628.125 676.25 664.3749999999999 579.375 668.75 563.75V488.75H750C800.625 488.75 918.75 475 918.75 351.25C918.75 220.625 778.125 213.75 750 213.75H625V132.5H750C880 132.5 1000 205 1000 351.25C1000 503.75 880 570 750 570z" />
    <glyph glyph-name="cloud-upload"
      unicode="&#xF00C;"
      horiz-adv-x="1000" d=" M437.5 257.5H312.5L500 445L687.5 257.5H562.5V-55H437.5V257.5zM750 507.5C750 535 693.125 695 468.75 695C317.5 695 187.5 575 187.5 445C63.75 445 0 350 0 257.5C0 161.875 62.5 70 187.5 70H375V151.25H187.5C86.25 151.25 81.25 240 81.25 257.5C81.25 268.125 84.375 363.75 187.5 363.75H268.75V445C268.75 531.875 366.25 613.75 468.75 613.75C628.125 613.75 664.3749999999999 516.875 668.75 501.25V426.25H750C800.625 426.25 918.75 412.5 918.75 288.75C918.75 158.125 778.125 151.25 750 151.25H625V70H750C880 70 1000 142.5 1000 288.75C1000 441.25 880 507.5 750 507.5z" />
    <glyph glyph-name="code"
      unicode="&#xF05F;"
      horiz-adv-x="875" d=" M593.75 632.5L500 538.75L718.75 320L500 101.25L593.75 7.5L875 320L593.75 632.5zM281.25 632.5L0 320L281.25 7.5L375 101.25L156.25 320L375 538.75L281.25 632.5z" />
    <glyph glyph-name="color-mode"
      unicode="&#xF065;"
      horiz-adv-x="1000" d=" M812.5 695H187.5C153.32 695 125 666.68 125 632.5V7.5C125 -26.6812500000001 153.32 -55 187.5 -55H812.5C846.6812500000001 -55 875 -26.6812500000001 875 7.5V632.5C875 666.68 846.6812500000001 695 812.5 695zM187.5 7.5V632.5H812.5L187.5 7.5z" />
    <glyph glyph-name="comment-discussion"
      unicode="&#xF04F;"
      horiz-adv-x="1000" d=" M937.5 757.5H375C340.625 757.5 312.5 729.375 312.5 695V570H62.5C28.125 570 0 541.875 0 507.5V132.5C0 98.125 28.125 70 62.5 70H125V-117.5L312.5 70H562.5C596.875 70 625 98.125 625 132.5V257.5H687.5L875 70V257.5H937.5C971.875 257.5 1000 285.625 1000 320V695C1000 729.375 971.875 757.5 937.5 757.5zM562.5 132.5H281.25L187.5 38.75V132.5H62.5V507.5H312.5V320C312.5 285.625 340.625 257.5 375 257.5H562.5V132.5zM937.5 320H812.5V226.25L718.75 320H375V695H937.5V320z" />
    <glyph glyph-name="comment"
      unicode="&#xF02B;"
      horiz-adv-x="1000" d=" M875 757.5H125C90.625 757.5 62.5 729.375 62.5 695V195C62.5 160.625 90.625 132.5 125 132.5H250V-86.25L468.75 132.5H875C909.375 132.5 937.5 160.625 937.5 195V695C937.5 729.375 909.375 757.5 875 757.5zM875 195H437.5L312.5 70V195H125V695H875V195z" />
    <glyph glyph-name="credit-card"
      unicode="&#xF045;"
      horiz-adv-x="1000" d=" M750 257.5H125V320H750V257.5zM1000 632.5V70C1000 35.625 971.875 7.5 937.5 7.5H62.5C28.125 7.5 0 35.625 0 70V632.5C0 666.875 28.125 695 62.5 695H937.5C971.875 695 1000 666.875 1000 632.5zM937.5 445H62.5V70H937.5V445zM937.5 632.5H62.5V570H937.5V632.5zM375 195H125V132.5H375V195z" />
    <glyph glyph-name="dash"
      unicode="&#xF0CA;"
      horiz-adv-x="500" d=" M0 382.5V257.5H500V382.5H0z" />
    <glyph glyph-name="dashboard"
      unicode="&#xF07D;"
      horiz-adv-x="1000" d=" M562.5 507.5H500V570H562.5V507.5zM812.5 320H750V257.5H812.5V320zM375 507.5H312.5V445H375V507.5zM312.5 320H250V257.5H312.5V320zM1000 663.75L968.75 695L562.5 382.5C558.75 383.75 500 382.5 500 382.5C465.625 382.5 437.5 354.375 437.5 320V257.5C437.5 223.125 465.625 195 500 195H562.5C596.875 195 625 223.125 625 257.5V315L1000 663.75zM900.625 408.125C912.5 370 919.375 330 919.375 288.75C919.375 75 745.6250000000001 -98.75 531.8750000000001 -98.75C318.1250000000001 -98.75 143.7500000000001 75 143.7500000000001 288.75C143.7500000000001 502.5 317.5000000000001 676.25 531.2500000000001 676.25C606.2500000000001 676.25 675.6250000000001 655 735.6250000000001 617.5L794.375 676.25A466.18749999999994 466.18749999999994 0 0 1 531.875 757.5C272.5 757.5 62.5 547.5 62.5 288.75C62.5 30 272.5 -180 531.25 -180C790 -180 1000 30 1000 288.75C1000 353.125 987.5 415 963.125 470.625L900.625 408.125z" />
    <glyph glyph-name="database"
      unicode="&#xF096;"
      horiz-adv-x="750" d=" M375 -117.5C168.125 -117.5 0 -61.25 0 7.5V132.5C0 143.125 5.625 153.75 13.125 163.75C55 110 200.625 70 375 70S695.0000000000001 110 736.875 163.75C745 153.75 750 143.125 750 132.5V7.5C750 -61.25 581.875 -117.5 375 -117.5zM375 132.5C168.125 132.5 0 188.75 0 257.5V382.5C0 389.375 2.5 395.625 5.625 401.875C7.5 405.625 10 410 13.125 413.75C55 360 200.625 320 375 320S695.0000000000001 360 736.875 413.75C740 410 742.4999999999999 405.625 744.3749999999999 401.875C747.4999999999999 395.625 749.9999999999999 388.75 749.9999999999999 382.5V257.5C749.9999999999999 188.75 581.8749999999999 132.5 374.9999999999999 132.5zM375 382.5C168.125 382.5 0 438.75 0 507.5V632.5C0 701.25 168.125 757.5 375 757.5S750 701.25 750 632.5V507.5C750 438.75 581.875 382.5 375 382.5zM375 695C236.875 695 125 666.875 125 632.5S236.875 570 375 570S625 598.125 625 632.5S513.125 695 375 695z" />
    <glyph glyph-name="desktop-download"
      unicode="&#xF0DC;"
      horiz-adv-x="1000" d=" M250 445H437.5V820H562.5V445H750L500 195L250 445zM937.5 695H687.5V632.5H937.5V132.5H62.5V632.5H312.5V695H62.5C28.125 695 0 666.875 0 632.5V70C0 35.625 28.125 7.5 62.5 7.5H396.25C380.625 -30.625 342.5 -79.375 250 -117.5H750C657.5 -79.375 619.375 -30.625 603.75 7.5H937.5C971.875 7.5 1000 35.625 1000 70V632.5C1000 666.875 971.875 695 937.5 695z" />
    <glyph glyph-name="device-camera-video"
      unicode="&#xF057;"
      horiz-adv-x="1000" d=" M950 689.375L625 462.5V632.5C625 666.875 596.875 695 562.5 695H62.5C28.125 695 0 666.875 0 632.5V70C0 35.625 28.125 7.5 62.5 7.5H562.5C596.875 7.5 625 35.625 625 70V240L950 13.125C970.625 -1.25 1000 13.125 1000 38.75V663.75C1000 689.375 970.625 703.75 950 689.375z" />
    <glyph glyph-name="device-camera"
      unicode="&#xF056;"
      horiz-adv-x="1000" d=" M937.5 632.5H437.5C437.5 666.875 409.375 695 375 695H125C90.625 695 62.5 666.875 62.5 632.5C28.125 632.5 0 604.375 0 570V7.5C0 -26.875 28.125 -55 62.5 -55H937.5C971.875 -55 1000 -26.875 1000 7.5V570C1000 604.375 971.875 632.5 937.5 632.5zM375 507.5H125V570H375V507.5zM656.25 70C535 70 437.5 167.5 437.5 288.75S535 507.5 656.25 507.5S875 410 875 288.75S777.5 70 656.25 70zM812.5 288.75C812.5 202.5000000000001 741.8750000000001 132.5 656.25 132.5S500 203.125 500 288.75S570.625 445 656.25 445S812.5 374.375 812.5 288.75z" />
    <glyph glyph-name="device-desktop"
      unicode="&#xF27C;"
      horiz-adv-x="1000" d=" M937.5 695H62.5C28.125 695 0 666.875 0 632.5V70C0 35.625 28.125 7.5 62.5 7.5H396.25C380.625 -30.625 342.5 -79.375 250 -117.5H750C657.5 -79.375 619.375 -30.625 603.75 7.5H937.5C971.875 7.5 1000 35.625 1000 70V632.5C1000 666.875 971.875 695 937.5 695zM937.5 132.5H62.5V632.5H937.5V132.5z" />
    <glyph glyph-name="device-mobile"
      unicode="&#xF038;"
      horiz-adv-x="625" d=" M562.5 820H62.5C28.125 820 0 791.875 0 757.5V-117.5C0 -151.875 28.125 -180 62.5 -180H562.5C596.875 -180 625 -151.875 625 -117.5V757.5C625 791.875 596.875 820 562.5 820zM312.5 -136.25C267.5 -136.25 231.25 -100 231.25 -55C231.25 -10 267.5 26.25 312.5 26.25C357.5 26.25 393.75 -10 393.75 -55C393.75 -100 357.5 -136.25 312.5 -136.25zM562.5 70H62.5V695H562.5V70z" />
    <glyph glyph-name="diff-added"
      unicode="&#xF06B;"
      horiz-adv-x="875" d=" M812.5 757.5H62.5C28.125 757.5 0 729.375 0 695V-55C0 -89.375 28.125 -117.5 62.5 -117.5H812.5C846.875 -117.5 875 -89.375 875 -55V695C875 729.375 846.875 757.5 812.5 757.5zM812.5 -55H62.5V695H812.5V-55zM375 257.5H187.5V382.5H375V570H500V382.5H687.5V257.5H500V70H375V257.5z" />
    <glyph glyph-name="diff-ignored"
      unicode="&#xF099;"
      horiz-adv-x="875" d=" M812.5 757.5H62.5C28.125 757.5 0 729.375 0 695V-55C0 -89.375 28.125 -117.5 62.5 -117.5H812.5C846.875 -117.5 875 -89.375 875 -55V695C875 729.375 846.875 757.5 812.5 757.5zM812.5 -55H62.5V695H812.5V-55zM281.25 70H187.5V163.75L593.75 570H687.5V476.25L281.25 70z" />
    <glyph glyph-name="diff-modified"
      unicode="&#xF06D;"
      horiz-adv-x="875" d=" M812.5 757.5H62.5C28.125 757.5 0 729.375 0 695V-55C0 -89.375 28.125 -117.5 62.5 -117.5H812.5C846.875 -117.5 875 -89.375 875 -55V695C875 729.375 846.875 757.5 812.5 757.5zM812.5 -55H62.5V695H812.5V-55zM250 320C250 423.75 333.75 507.5 437.5 507.5S625 423.75 625 320S541.25 132.5 437.5 132.5S250 216.25 250 320z" />
    <glyph glyph-name="diff-removed"
      unicode="&#xF06C;"
      horiz-adv-x="875" d=" M812.5 757.5H62.5C28.125 757.5 0 729.375 0 695V-55C0 -89.375 28.125 -117.5 62.5 -117.5H812.5C846.875 -117.5 875 -89.375 875 -55V695C875 729.375 846.875 757.5 812.5 757.5zM812.5 -55H62.5V695H812.5V-55zM687.5 257.5H187.5V382.5H687.5V257.5z" />
    <glyph glyph-name="diff-renamed"
      unicode="&#xF06E;"
      horiz-adv-x="875" d=" M375 257.5H187.5V382.5H375V570L687.5 320L375 70V257.5zM875 695V-55C875 -89.375 846.875 -117.5 812.5 -117.5H62.5C28.125 -117.5 0 -89.375 0 -55V695C0 729.375 28.125 757.5 62.5 757.5H812.5C846.875 757.5 875 729.375 875 695zM812.5 695H62.5V-55H812.5V695z" />
    <glyph glyph-name="diff"
      unicode="&#xF04D;"
      horiz-adv-x="812.5" d=" M375 382.5H500V320H375V195H312.5V320H187.5V382.5H312.5V507.5H375V382.5zM187.5 7.5H500V70H187.5V7.5zM468.75 695L687.5 476.25V-117.5C687.5 -151.875 659.375 -180 625 -180H62.5C28.125 -180 0 -151.875 0 -117.5V632.5C0 666.875 28.125 695 62.5 695H468.75zM625 445L437.5 632.5H62.5V-117.5H625V445zM531.25 820H187.5V757.5H500L750 507.5V7.5H812.5V538.75L531.25 820z" />
    <glyph glyph-name="ellipsis"
      unicode="&#xF09A;"
      horiz-adv-x="750" d=" M687.5 507.5H62.5C28.125 507.5 0 479.375 0 445V195C0 160.625 28.125 132.5 62.5 132.5H687.5C721.875 132.5 750 160.625 750 195V445C750 479.375 721.875 507.5 687.5 507.5zM250 257.5H125V382.5H250V257.5zM437.5 257.5H312.5V382.5H437.5V257.5zM625 257.5H500V382.5H625V257.5z" />
    <glyph glyph-name="eye-closed"
      unicode="&#xF103;"
      horiz-adv-x="1142.857142857143" d=" M1057.142857142857 812.8571428571429C1042.857142857143 827.1428571428571 1021.4285714285716 827.1428571428571 1007.1428571428572 812.8571428571429L857.1428571428573 655.7142857142857C778.5714285714288 712.8571428571429 685.7142857142858 748.5714285714286 578.5714285714287 748.5714285714286C214.2857142857144 755.7142857142857 1e-13 327.1428571428571 1e-13 327.1428571428571S85.7142857142858 162.8571428571429 235.7142857142859 34.2857142857142L85.7142857142858 -115.7142857142857C71.4285714285716 -130 71.4285714285716 -151.4285714285714 85.7142857142858 -165.7142857142857S121.4285714285716 -179.9999999999999 135.7142857142858 -165.7142857142857L1057.1428571428573 755.7142857142858C1071.4285714285716 770.0000000000001 1071.4285714285716 798.5714285714287 1057.1428571428573 812.857142857143zM642.8571428571429 448.5714285714286C621.4285714285714 462.8571428571429 600 470 571.4285714285714 470C492.8571428571429 470 428.5714285714286 405.7142857142857 428.5714285714286 327.1428571428572C428.5714285714286 298.5714285714286 435.7142857142857 277.1428571428571 450 255.7142857142858L350.0000000000001 148.5714285714287C307.1428571428572 198.5714285714286 285.7142857142857 255.7142857142858 285.7142857142857 327.1428571428572C285.7142857142857 484.2857142857144 414.2857142857143 612.8571428571429 571.4285714285714 612.8571428571429C635.7142857142858 612.8571428571429 700.0000000000001 591.4285714285716 750 548.5714285714287z M992.8571428571428 541.4285714285714L850 398.5714285714286C857.1428571428571 377.1428571428571 857.1428571428571 348.5714285714285 857.1428571428571 327.1428571428571C857.1428571428571 169.9999999999999 728.5714285714286 41.4285714285713 571.4285714285714 41.4285714285713C542.8571428571429 41.4285714285713 521.4285714285714 41.4285714285713 500 48.5714285714286L385.7142857142857 -65.7142857142858C442.8571428571429 -94.2857142857143 507.1428571428572 -108.5714285714285 578.5714285714287 -108.5714285714285C928.5714285714286 -108.5714285714285 1142.857142857143 320 1142.857142857143 320C1100 405.7142857142857 1050 477.1428571428572 992.8571428571428 541.4285714285714z" />
    <glyph glyph-name="eye"
      unicode="&#xF04E;"
      horiz-adv-x="1000" d=" M503.7500000000001 695C187.5 695 0 320 0 320S187.5 -55 503.7500000000001 -55C812.5 -55 1000 320 1000 320S812.5 695 503.7499999999999 695zM500 70C362.5 70 250 181.25 250 320C250 457.5 362.5 570 500 570C638.75 570 750 457.5 750 320C750 181.25 638.75 70 500 70zM625 320C625 250.625 569.375 195 500 195C430.625 195 375 250.625 375 320C375 389.375 430.625 445 500 445C569.375 445 625 389.375 625 320z" />
    <glyph glyph-name="file-binary"
      unicode="&#xF094;"
      horiz-adv-x="750" d=" M250 70H312.5V7.5H125V70H187.5V195H125V257.5H250V70zM750 538.75V-55C750 -89.375 721.875 -117.5 687.5 -117.5H62.5C28.125 -117.5 0 -89.375 0 -55V695C0 729.375 28.125 757.5 62.5 757.5H531.25L750 538.75zM687.5 507.5L500 695H62.5V-55H687.5V507.5zM500 570H375V507.5H437.5V382.5H375V320H562.5V382.5H500V570zM125 570H312.5V320H125V570zM187.5 382.5H250V507.5H187.5V382.5zM375 257.5H562.5V7.5H375V257.5zM437.5 70H500V195H437.5V70z" />
    <glyph glyph-name="file-code"
      unicode="&#xF010;"
      horiz-adv-x="750" d=" M531.25 757.5H62.5C28.125 757.5 0 729.375 0 695V-55C0 -89.375 28.125 -117.5 62.5 -117.5H687.5C721.875 -117.5 750 -89.375 750 -55V538.75L531.25 757.5zM687.5 -55H62.5V695H500L687.5 507.5V-55zM312.5 383.75L218.75 288.75L312.5 195L281.25 132.5L125 288.75L281.25 445L312.5 383.75zM468.75 445L625 288.75L468.75 132.5L437.5 193.75L531.25 288.75L437.5 382.5L468.75 445z" />
    <glyph glyph-name="file-directory"
      unicode="&#xF016;"
      horiz-adv-x="875" d=" M812.5 570H437.5V632.5C437.5 673.75 418.125 695 375 695H62.5C28.125 695 0 666.875 0 632.5V7.5C0 -26.875 28.125 -55 62.5 -55H812.5C846.875 -55 875 -26.875 875 7.5V507.5C875 541.875 846.875 570 812.5 570zM375 570H62.5V632.5H375V570z" />
    <glyph glyph-name="file-media"
      unicode="&#xF012;"
      horiz-adv-x="750" d=" M375 507.5H500V382.5H375V507.5zM750 538.75V-55C750 -89.375 721.875 -117.5 687.5 -117.5H62.5C28.125 -117.5 0 -89.375 0 -55V695C0 729.375 28.125 757.5 62.5 757.5H531.25L750 538.75zM687.5 507.5L500 695H62.5V7.5L250 320L375 70L500 195L687.5 7.5V507.5z" />
    <glyph glyph-name="file-pdf"
      unicode="&#xF014;"
      horiz-adv-x="750" d=" M531.25 757.5H62.5A62.5 62.5 0 0 1 0 695V-55A62.5 62.5 0 0 1 62.5 -117.5H687.5A62.5 62.5 0 0 1 750 -55V538.75L531.25 757.5zM62.5 695H312.5A42.50000000000001 42.50000000000001 0 0 1 293.125 682.5A67.5 67.5 0 0 1 278.75 653.125A263.75 263.75 0 0 1 273.125 561.25C276.875 523.1875 283.9375 485.5625 294.375 448.7500000000001A1361.2500000000002 1361.2500000000002 0 0 0 225 282.5C193.75 220 175 178.75 168.125 167.5A447.25 447.25 0 0 1 125 148.75C102.375 138.4375 81.3125 124.9999999999999 62.5 108.75V695zM338.75 395A353.125 353.125 0 0 1 411.875 264.375C429.0625 249.5625 449.0625 238.3125 470.6249999999999 231.25C430.625 225.625 393.75 218.75 357.5 210.625C318.8749999999999 201.25 281.0625 188.9375 244.3749999999999 173.75S258.125 201.25 282.5 251.875C305.3125 298.125 324.3749999999999 346.25 339.375 395.625L338.75 395zM687.5 -55H93.75A46.4375 46.4375 0 0 0 83.125 -55A132.5 132.5 0 0 1 128.75 -27.5A633.7500000000001 633.7500000000001 0 0 1 240 121.25C259.375 129.3750000000001 276.25 135.625 290.625 140.625L316.875 149.3750000000001C345.0000000000001 157.5000000000001 375.625 163.7500000000001 406.875 170.0000000000001S469.375 180.0000000000001 499.375 182.5C527.3125 169.0000000000001 556.3750000000001 157.875 586.25 149.3750000000001C611.4375000000001 142.5000000000001 637.125 137.625 663.1250000000001 135.0000000000001H686.8750000000001V-55H687.5zM687.5 248.75A233.93750000000003 233.93750000000003 0 0 1 647.5 266.2499999999999A263.8125 263.8125 0 0 1 600.625 273.1249999999999C574.9375 272.9374999999999 549.25 271.2499999999999 523.7499999999999 268.1249999999999A187.5 187.5 0 0 0 461.2499999999999 308.125A379.375 379.375 0 0 0 380.625 453.7499999999999C387.5625 495.0624999999999 391.75 536.875 393.125 578.7499999999999C394.375 594.3749999999999 394.375 609.9999999999999 393.125 625.6249999999999A65.625 65.625 0 0 1 380.625 680.6249999999999A51.24999999999999 51.24999999999999 0 0 1 342.5 694.9999999999999H500L687.5 507.4999999999999V248.75z" />
    <glyph glyph-name="file-submodule"
      unicode="&#xF017;"
      horiz-adv-x="875" d=" M625 382.5H250V-55H812.5C846.875 -55 875 -26.875 875 7.5V320H625V382.5zM562.5 257.5H312.5V320H562.5V257.5zM812.5 570H437.5V632.5C437.5 673.75 418.125 695 375 695H62.5C28.125 695 0 666.875 0 632.5V7.5C0 -26.875 28.125 -55 62.5 -55H187.5V382.5C187.5 416.875 215.625 445 250 445H625C659.375 445 687.5 416.875 687.5 382.5H875V507.5C875 541.875 846.875 570 812.5 570zM375 570H62.5V632.5H375V570z" />
    <glyph glyph-name="file-symlink-directory"
      unicode="&#xF0B1;"
      horiz-adv-x="875" d=" M812.5 570H437.5V632.5C437.5 673.75 418.125 695 375 695H62.5C28.125 695 0 666.875 0 632.5V7.5C0 -26.875 28.125 -55 62.5 -55H812.5C846.875 -55 875 -26.875 875 7.5V507.5C875 541.875 846.875 570 812.5 570zM62.5 632.5H375V570H62.5V632.5zM437.5 70V195C376.25 196.25 322.5 181.25 278.125 151.25C233.75 121.25 203.75 73.125 187.5 7.5C188.75 110 211.875 187.4999999999999 258.125 240.625C303.75 293.125 363.75 320 438.125 320V445L688.125 257.5L438.125 70H437.5z" />
    <glyph glyph-name="file-symlink-file"
      unicode="&#xF0B0;"
      horiz-adv-x="750" d=" M531.25 757.5H62.5C28.125 757.5 0 729.375 0 695V-55C0 -89.375 28.125 -117.5 62.5 -117.5H687.5C721.875 -117.5 750 -89.375 750 -55V538.75L531.25 757.5zM687.5 -55H62.5V695H500L687.5 507.5V-55zM375 538.75L625 351.25L375 163.75V288.75C313.75 290 260 275 215.625 245C171.25 215 141.25 166.875 125 101.25C126.25 203.75 149.375 281.2499999999999 195.625 334.375C241.25 386.875 301.25 413.75 375.625 413.75V538.75H375z" />
    <glyph glyph-name="file-zip"
      unicode="&#xF013;"
      horiz-adv-x="750" d=" M531.25 757.5H62.5A62.5 62.5 0 0 1 0 695V-55A62.5 62.5 0 0 1 62.5 -117.5H687.5A62.5 62.5 0 0 1 750 -55V538.75L531.25 757.5zM687.5 -55H62.5V695H250V632.5H312.5V695H500L687.5 507.5V-55zM312.5 570V632.5H375V570H312.5zM250 570H312.5V507.5H250V570zM312.5 445V507.5H375V445H312.5zM250 445H312.5V382.5H250V445zM312.5 320V382.5H375V320H312.5zM250 240A125 125 0 0 1 187.5 132.5V70H437.5V132.5A125 125 0 0 1 312.5 257.5V320H250V240zM375 195V132.5H250V195H375z" />
    <glyph glyph-name="file"
      unicode="&#xF283;"
      horiz-adv-x="750" d=" M375 507.5H125V570H375V507.5zM125 320H562.5V382.5H125V320zM125 195H562.5V257.5H125V195zM125 70H562.5V132.5H125V70zM750 538.75V-55C750 -89.375 721.875 -117.5 687.5 -117.5H62.5C28.125 -117.5 0 -89.375 0 -55V695C0 729.375 28.125 757.5 62.5 757.5H531.25L750 538.75zM687.5 507.5L500 695H62.5V-55H687.5V507.5z" />
    <glyph glyph-name="flame"
      unicode="&#xF0D2;"
      horiz-adv-x="750" d=" M315.625 800.625C366.25 665 341.25 589.375 283.125 531.25C221.875 465.625 123.75 416.875 56.25 321.25C-34.375 193.1249999999999 -50 -86.8750000000001 276.875 -160C139.375 -87.5 110 122.5 258.125 253.125C220 126.25 291.25 45 379.375 74.375C466.25 103.7500000000001 523.1250000000001 41.2500000000001 521.25 -30C520 -78.7499999999999 501.8749999999999 -120 450.625 -143.125C664.3749999999999 -106.25 749.375 70.625 749.375 204.3749999999999C749.375 381.8749999999999 591.25 405.625 671.25 555C576.25 546.875 544.375 484.3749999999999 553.125 383.125C558.75 315.625 489.375 270.6249999999999 436.875 300C395 325.625 395.625 374.375 433.125 411.25C511.25 488.125 542.5 666.875 315.625 800L314.375 801.25L315.625 800.625z" />
    <glyph glyph-name="fold-down"
      unicode="&#xF104;"
      horiz-adv-x="875" d=" M250 132.5L437.5 -55L625 132.5H500V507.5H375V132.5H250zM0 132.5C0 98.125 28.125 70 62.5 70H218.75L156.25 132.5H93.75L218.75 257.5H312.5V320H218.75L93.75 445H312.5V507.5H62.5C28.125 507.5 0 479.375 0 445L156.25 288.75L0 132.5zM656.25 257.5H562.5V320H656.25L781.25 445H562.5V507.5H812.5C846.875 507.5 875 479.375 875 445L718.75 288.75L875 132.5C875 98.125 846.875 70 812.5 70H656.25L718.75 132.5H781.25L656.25 257.5z" />
    <glyph glyph-name="fold-up"
      unicode="&#xF105;"
      horiz-adv-x="875" d=" M625 445L437.5 632.5L250 445H375V70H500V445H625zM875 445C875 479.375 846.875 507.5 812.5 507.5H656.25L718.75 445H781.25L656.25 320H562.5V257.5H656.25L781.25 132.5H562.5V70H812.5C846.875 70 875 98.125 875 132.5L718.75 288.75L875 445zM218.75 320H312.5V257.5H218.75L93.75 132.5H312.5V70H62.5C28.125 70 0 98.125 0 132.5L156.25 288.75L0 445C0 479.375 28.125 507.5 62.5 507.5H218.75L156.25 445H93.75L218.75 320z" />
    <glyph glyph-name="fold"
      unicode="&#xF0CC;"
      horiz-adv-x="875" d=" M437.5 257.5L625 70H500V-117.5H375V70H250L437.5 257.5zM625 632.5H500V820H375V632.5H250L437.5 445L625 632.5zM875 507.5C875 541.875 846.875 570 812.5 570H656.25L593.75 507.5H781.25L656.25 382.5H218.75L93.75 507.5H281.25L218.75 570H62.5C28.125 570 0 541.875 0 507.5L156.25 351.25L0 195C0 160.625 28.125 132.5 62.5 132.5H218.75L281.25 195H93.75L218.75 320H656.25L781.25 195H593.75L656.25 132.5H812.5C846.875 132.5 875 160.625 875 195L718.75 351.25L875 507.5z" />
    <glyph glyph-name="gear"
      unicode="&#xF02F;"
      horiz-adv-x="875" d=" M875 271.875V371.875L753.75 411.875L725.6250000000001 480L780.6250000000001 595L710.0000000000002 665.625L596.8750000000001 608.75L528.7500000000001 636.875L485.6250000000002 756.875H385.6250000000003L346.2500000000003 635.625L276.8750000000003 607.5L161.8750000000002 662.5L91.2500000000002 591.875L148.1250000000002 478.7499999999999L120.0000000000002 410.625L0 368.125V268.75L121.25 228.75L149.375 160.625L94.375 45.625L165 -25L278.125 31.875L346.25 3.7500000000001L389.375 -116.2499999999999H488.75L528.1250000000001 5L597.5 33.125L712.5 -21.875L783.1250000000001 48.75L725.6250000000001 161.875L755.0000000000001 230L875 273.125V271.875zM437.5 132.5C333.75 132.5 250 216.25 250 320S333.75 507.5 437.5 507.5S625 423.75 625 320S541.25 132.5 437.5 132.5z" />
    <glyph glyph-name="gift"
      unicode="&#xF042;"
      horiz-adv-x="875" d=" M812.5 570H726.2500000000001C738.125 590.625 746.8750000000001 611.875 748.75 626.875C752.5000000000001 668.75 741.8750000000001 703.125 716.25 727.5C693.75 751.25 665.625 757.5 631.25 757.5H624.375C591.25 756.25 555 741.875 528.75 721.25C502.5000000000001 700.625 483.125 676.25 468.1250000000001 646.25C453.7500000000001 676.25 433.7500000000001 701.25 407.5000000000001 721.25C381.2500000000001 741.25 345.0000000000001 757.5 311.8750000000001 757.5H310.0000000000001C275 757.5 243.7500000000001 751.875 220.0000000000001 727.5C194.3750000000001 703.125 183.7500000000001 668.75 187.5000000000001 626.875C189.3750000000001 612.5 198.1250000000001 590.625 210.0000000000001 570H123.75C89.375 570 61.25 541.875 61.25 507.4999999999999V320H123.75V7.5C123.75 -26.875 151.875 -55 186.25 -55H748.75C783.1250000000001 -55 811.25 -26.875 811.25 7.5V320H873.75V507.5C873.75 541.875 845.6250000000001 570 811.25 570H812.5zM513.7499999999999 625C524.3749999999999 647.5 539.9999999999999 666.875 560.6249999999999 682.5C579.375 696.875 605.625 706.875 626.25 708.125H631.875C659.9999999999999 708.125 673.125 701.25 681.875 692.5S702.5 668.125 700.625 633.125C697.5 621.25 685 595 669.375 570.625H488.1250000000001L513.75 625.625V625zM255.625 692.5C263.75 700.625 275 708.125 312.5 708.125C331.875 708.125 357.5 697.5 376.875 682.5C397.5 666.875 413.125 648.125 423.75 625L450 570H268.75C253.125 594.375 240.625 620.625 237.5 632.5C235.625 667.5 247.5 683.125 256.25 691.875L255.625 692.5zM437.5 8.125H187.5V320H437.5V7.5V8.125zM437.5 383.125H125V507.5H437.5V382.5V383.125zM750 8.125H500V320H750V7.5V8.125zM812.5 383.125H500V507.5H812.5V382.5V383.125z" />
    <glyph glyph-name="gist-secret"
      unicode="&#xF08C;"
      horiz-adv-x="875" d=" M500 163.75L562.5 -55H312.5L375 163.75L328.125 257.5H546.875L500 163.75zM625 445H250L125 382.5H750L625 445zM562.5 695L437.5 632.5L312.5 695L250 507.5H625L562.5 695zM814.3750000000001 210.625L625 257.5L687.5 132.5L562.5 -55H763.75C791.875 -55 817.5 -35.625 824.3750000000001 -8.125L859.3750000000001 134.375C868.1250000000001 167.4999999999999 847.5000000000001 201.875 814.3750000000001 210.625zM250 257.5L60.625 210.625C27.5 201.875 6.875 167.5 15.625 134.375L50.625 -8.125C57.5 -35.625 83.125 -55 111.25 -55H312.5L187.5 132.5L250 257.5z" />
    <glyph glyph-name="gist"
      unicode="&#xF00E;"
      horiz-adv-x="750" d=" M468.75 507.5L625 351.25L468.75 195L421.875 241.875L531.25 351.25L421.875 460.625L468.75 507.5zM281.25 507.5L125 351.25L281.25 195L328.125 241.875L218.75 351.25L328.125 460.625L281.25 507.5zM0 7.5V695C0 729.375 28.125 757.5 62.5 757.5H687.5C721.875 757.5 750 729.375 750 695V7.5C750 -26.875 721.875 -55 687.5 -55H62.5C28.125 -55 0 -26.875 0 7.5zM62.5 7.5H687.5V695H62.5V7.5z" />
    <glyph glyph-name="git-branch"
      unicode="&#xF020;"
      horiz-adv-x="625" d=" M625 507.5C625 576.875 569.375 632.5 500 632.5A124.56250000000001 124.56250000000001 0 0 1 437.5 400V381.25C436.25 348.75 423.125 320 398.125 295C373.125 270 344.375 256.875 311.875 255.6249999999999C260 254.375 219.375 245.6249999999999 186.875 227.5V525A124.56250000000001 124.56250000000001 0 0 1 124.375 757.5C55 757.5 0 701.875 0 632.5A125 125 0 0 1 62.5 525V115C25.625 93.1250000000001 0 53.125 0 7.5C0 -61.875 55.625 -117.5 125 -117.5C194.375 -117.5 250 -61.875 250 7.5C250 40.625 237.5 70 216.875 92.5C222.5 96.25 246.875 118.125 253.75 121.875C269.375 128.75 288.75 132.5 312.5 132.5C378.125 135.625 434.375 160.625 484.375 210.625S559.375 334.375 562.5 399.375H561.25C599.375 421.875 625 461.875 625 507.5zM125 707.5C166.25 707.5 200 673.125 200 632.5C200 591.875 165.625 557.5 125 557.5C84.375 557.5 50 591.875 50 632.5C50 673.125 84.375 707.5 125 707.5zM125 -68.125C83.75 -68.125 50 -33.75 50 6.8749999999999C50 47.4999999999999 84.375 81.8749999999999 125 81.8749999999999C165.625 81.8749999999999 200 47.4999999999998 200 6.8749999999999C200 -33.7500000000001 165.625 -68.125 125 -68.125zM500 431.875C458.75 431.875 425 466.2499999999999 425 506.8749999999999C425 547.5 459.375 581.875 500 581.875C540.625 581.875 575 547.5 575 506.8749999999999C575 466.2499999999999 540.6249999999999 431.875 499.9999999999999 431.875z" />
    <glyph glyph-name="git-commit"
      unicode="&#xF01F;"
      horiz-adv-x="875" d=" M678.75 382.5C650.625 490 553.75 570 437.5 570C321.25 570 224.375 490 196.25 382.5H0V257.5H196.25C224.375 150 321.2500000000001 70 437.5 70C553.75 70 650.625 150 678.75 257.5H875V382.5H678.75zM437.5 182.5C361.25 182.5 300 243.7500000000001 300 320.0000000000001C300 396.2500000000001 361.25 457.5000000000001 437.5 457.5000000000001C513.75 457.5000000000001 575 396.2500000000001 575 320.0000000000001C575 243.7500000000001 513.7499999999999 182.5 437.5 182.5z" />
    <glyph glyph-name="git-compare"
      unicode="&#xF0AC;"
      horiz-adv-x="875" d=" M312.5 70H250C233.125 71.25 220 76.875 206.875 89.375C193.75 101.875 188.125 115.625 187.5 132.5V525A124.56250000000001 124.56250000000001 0 0 1 125 757.5A124.56250000000001 124.56250000000001 0 0 1 62.5 525V132.5C64.375 83.75 83.75 40.625 121.25 3.75C158.75 -33.125 201.25 -53.125 250 -55H312.5V-180L500 7.5L312.5 195V70zM125 707.5C166.25 707.5 200 673.125 200 632.5C200 591.875 165.625 557.5 125 557.5C84.375 557.5 50 591.875 50 632.5C50 673.125 84.375 707.5 125 707.5zM812.5 114.9999999999999V507.5C810.625 556.25 791.25 599.375 753.75 636.25C716.25 673.125 673.7500000000001 693.125 625 695H562.5V820L375 632.5L562.5 445V570H625C641.875 568.75 655 563.125 668.125 550.625C681.25 538.125 686.875 524.375 687.5 507.5V114.9999999999999A124.56250000000001 124.56250000000001 0 0 1 750 -117.5A124.56250000000001 124.56250000000001 0 0 1 812.5 115zM750 -67.5000000000001C708.75 -67.5000000000001 675 -33.125 675 7.4999999999999C675 48.1249999999999 709.3750000000001 82.4999999999999 750 82.4999999999999C790.625 82.4999999999999 825 48.1249999999998 825 7.4999999999999C825 -33.1250000000001 790.6249999999999 -67.5000000000001 750 -67.5000000000001z" />
    <glyph glyph-name="git-merge"
      unicode="&#xF023;"
      horiz-adv-x="750" d=" M625 382.5C579.375 382.5 538.7500000000001 356.875 516.875 318.75V320C451.25 321.25 375 342.5 321.25 383.75C274.375 420 227.5 484.375 203.125 536.25A124.56250000000001 124.56250000000001 0 0 1 125 758.125C55.625 758.125 0 701.875 0 632.5A125 125 0 0 1 62.5 525V115C25.625 93.1250000000001 0 53.125 0 7.5C0 -61.875 55.625 -117.5 125 -117.5A124.56250000000001 124.56250000000001 0 0 1 187.5 115V340.625C229.375 296.875 277.5 261.25 331.25 235C385 208.75 458.125 195.625 516.875 195V196.25C539.3749999999999 158.125 579.375 132.5 625 132.5C694.375 132.5 750 188.125 750 257.5C750 326.875 694.375 382.5 625 382.5zM200 7.5C200 -33.75 165.625 -67.5 125 -67.5C84.375 -67.5 50 -33.1249999999999 50 7.5C50 48.125 84.375 82.5 125 82.5C165.625 82.5 200 48.1249999999999 200 7.5zM125 557.5C83.75 557.5 50 591.875 50 632.5C50 673.125 84.375 707.5 125 707.5C165.625 707.5 200 673.125 200 632.5C200 591.875 165.625 557.5 125 557.5zM625 182.5C583.75 182.5 550 216.8750000000001 550 257.5C550 298.125 584.3750000000001 332.5 625 332.5C665.625 332.5 700 298.125 700 257.5C700 216.875 665.6249999999999 182.5 625 182.5z" />
    <glyph glyph-name="git-pull-request"
      unicode="&#xF009;"
      horiz-adv-x="750" d=" M687.5 115V507.5C685.625 556.25 666.25 599.375 628.75 636.25C591.25 673.125 548.75 693.125 500 695H437.5V820L250 632.5L437.5 445V570H500C516.875 568.75 530 563.125 543.125 550.625C556.25 538.125 561.875 524.375 562.5 507.5V114.9999999999999A124.56250000000001 124.56250000000001 0 0 1 625 -117.5A124.56250000000001 124.56250000000001 0 0 1 687.5 115zM625 -67.5C583.75 -67.5 550 -33.1249999999999 550 7.5C550 48.125 584.3750000000001 82.5 625 82.5C665.625 82.5 700 48.1249999999999 700 7.5C700 -33.125 665.6249999999999 -67.5 625 -67.5zM250 632.5C250 701.875 194.375 757.5 125 757.5A124.56250000000001 124.56250000000001 0 0 1 62.5 525V114.9999999999999A124.56250000000001 124.56250000000001 0 0 1 125 -117.5A124.56250000000001 124.56250000000001 0 0 1 187.5 115V525C224.375 546.25 250 586.25 250 632.5zM200 7.5C200 -33.75 165.625 -67.5 125 -67.5C84.375 -67.5 50 -33.1249999999999 50 7.5C50 48.125 84.375 82.5 125 82.5C165.625 82.5 200 48.1249999999999 200 7.5zM125 557.5C83.75 557.5 50 591.875 50 632.5C50 673.125 84.375 707.5 125 707.5C165.625 707.5 200 673.125 200 632.5C200 591.875 165.625 557.5 125 557.5z" />
    <glyph glyph-name="github-action"
      unicode="&#xF106;"
      horiz-adv-x="1000" d=" M687.5 476.25C687.5 424.4733047033631 729.4733047033632 382.5 781.25 382.5C833.0266952966368 382.5 875 424.4733047033631 875 476.25C875 528.026695296637 833.0266952966368 570 781.25 570C729.4733047033632 570 687.5 528.026695296637 687.5 476.25z M937.5 695H562.5C562.5 732.5 537.5 757.5 500 757.5S437.5 732.5 437.5 695H62.5C31.25 695 0 663.75 0 632.5V7.5C0 -23.75 31.25 -55 62.5 -55H437.5C437.5 -92.5 462.5 -117.5 500 -117.5S562.5 -92.5 562.5 -55H937.5C968.75 -55 1000 -23.75 1000 7.5V632.5C1000 663.75 968.75 695 937.5 695zM937.5 7.5H62.5V632.5H937.5z" />
    <glyph glyph-name="globe"
      unicode="&#xF0B6;"
      horiz-adv-x="875" d=" M437.5 757.5C196.25 757.5 0 561.25 0 320S196.25 -117.5 437.5 -117.5C467.5 -117.5 496.2499999999999 -114.375 523.7499999999999 -108.75C513.1249999999999 -103.75 511.25 -63.1249999999999 522.5 -40.625C534.3749999999999 -15 573.125 50 534.9999999999999 71.8750000000001C496.8749999999999 93.75 507.4999999999999 103.1250000000001 484.3749999999999 128.7500000000001C461.2499999999999 154.3750000000001 470.6249999999999 158.1250000000001 468.7499999999999 165.0000000000001C463.7499999999999 186.2500000000001 491.2499999999999 220.6250000000001 493.1249999999999 223.75C494.3749999999998 227.5000000000001 494.3749999999998 240.625 493.1249999999999 244.3750000000001C493.1249999999999 249.3750000000001 476.2499999999998 258.1250000000001 471.8749999999999 258.7500000000001C468.1249999999999 258.7500000000001 464.9999999999999 251.8750000000001 459.3749999999999 250.625C453.7499999999999 249.3750000000001 428.1249999999999 266.25 422.4999999999999 271.25C416.8749999999999 276.25 413.7499999999999 285.6250000000001 405.6249999999999 292.5C397.4999999999999 300.6250000000001 396.875 294.375 384.9999999999999 299.375S334.9999999999999 318.75 304.9999999999999 329.375C274.9999999999999 341.2500000000001 272.4999999999999 358.75 272.4999999999999 370.6250000000001C271.2499999999999 383.1250000000001 253.7499999999999 400 246.2499999999999 412.5C237.4999999999999 425.0000000000001 236.2499999999999 441.875 233.7499999999999 438.1250000000001C231.2499999999999 434.3750000000001 249.3749999999999 389.375 246.2499999999999 387.5C243.1249999999999 386.2500000000001 236.2499999999999 400 227.4999999999999 411.25C218.7499999999999 423.125 236.2499999999999 416.875 208.7499999999999 470.625S217.4999999999999 551.875 219.3749999999999 580C221.2499999999999 608.125 243.1249999999999 569.375 231.2499999999999 588.125C219.3749999999999 606.875 231.2499999999999 643.75 222.4999999999999 657.5C214.3749999999999 671.25 167.4999999999999 641.875 167.4999999999999 641.875C168.7499999999999 655.625 210.6249999999999 678.125 239.9999999999999 699.375C269.3749999999999 720.625 288.7499999999999 703.125 312.4999999999999 696.25C336.8749999999999 688.125 338.1249999999999 690.625 329.9999999999999 699.375C321.8749999999999 707.5 333.7499999999999 710 352.5 707.5C370 704.375 376.25 681.875 404.375 685C433.7499999999999 686.875 407.5 679.375 411.25 671.25S407.5 664.375 387.5 652.5C368.75 640 388.75 638.75 421.875 614.375S445.625 630 441.25 648.75C436.8749999999999 667.5 465.6249999999999 652.5 465.6249999999999 652.5C486.2499999999999 638.75 482.4999999999999 651.25 496.8749999999999 647.5C511.2499999999999 643.75 553.7499999999999 607.5 553.7499999999999 607.5C501.8749999999998 580 534.3749999999998 577.5 543.1249999999999 570.625C551.8749999999999 563.75 525.6249999999999 551.875 525.6249999999999 551.875C514.9999999999999 562.5 513.7499999999999 550.625 506.8749999999998 546.875C499.9999999999998 543.125 505.6249999999999 533.125 505.6249999999999 533.125C470.6249999999998 527.5 478.1249999999998 490.0000000000001 479.3749999999999 481.2500000000001C479.3749999999999 472.5000000000001 455.6249999999999 458.7500000000001 449.9999999999999 445.0000000000001C444.3749999999999 432.5000000000001 465.6249999999999 405.0000000000001 453.7499999999999 403.7500000000001C441.8749999999999 401.8750000000001 432.4999999999999 445.0000000000001 371.8749999999999 429.3750000000001C353.1249999999999 424.3750000000001 313.1249999999999 403.7500000000001 334.9999999999999 361.8750000000001C357.4999999999999 318.75 392.4999999999999 373.7500000000001 404.3749999999999 367.5000000000001C416.2499999999999 361.2500000000001 400.6249999999999 334.375 403.1249999999999 333.1250000000001C405.6249999999999 331.8750000000001 436.25 331.8750000000001 438.1249999999999 295.0000000000001C439.9999999999999 258.1250000000001 486.2499999999998 261.8750000000001 495.6249999999999 260.625C506.2499999999999 260.625 539.3749999999998 288.125 543.7499999999999 288.75C547.4999999999999 290.625 567.4999999999999 306.25 608.1249999999998 283.125C649.3749999999998 260.625 669.3749999999999 263.75 683.1249999999998 253.75C696.8749999999998 243.75 688.1249999999998 224.3749999999999 700.6249999999998 217.5C713.1249999999997 210.625 766.8749999999998 219.3749999999999 780.6249999999997 198.1249999999999C794.3749999999998 176.8749999999999 725.6249999999997 67.4999999999999 704.3749999999997 55.625C683.1249999999997 43.75 674.3749999999997 15.6249999999999 651.8749999999997 -1.875S601.2499999999997 -41.8750000000001 572.4999999999997 -58.75C546.8749999999997 -73.1250000000001 543.1249999999997 -100 531.2499999999997 -108.7500000000001C727.4999999999997 -65.0000000000001 873.7499999999997 109.9999999999999 873.7499999999997 318.75C873.7499999999997 559.9999999999999 677.4999999999997 756.2499999999999 436.2499999999997 756.2499999999999L437.5 757.5zM540 347.5C534.375 345.625 522.5000000000001 333.7500000000001 491.25 352.5000000000001C461.2500000000001 371.25 440.6250000000001 366.8750000000001 437.5 370.0000000000001C437.5 370.0000000000001 434.375 376.8750000000001 448.125 378.75C475.625 381.875 509.375 353.125 517.5 353.125C525.625 353.125 529.3749999999999 361.25 543.125 356.25C556.875 351.25 546.25 348.125 539.9999999999999 347.5zM396.25 713.75C393.125 715.625 398.125 718.75 401.875 722.5C403.75 724.375 403.125 729.375 405 731.25C411.875 738.125 443.125 746.875 437.5 729.375C430.625 712.5 401.25 710.625 396.25 713.75zM473.125 658.125C461.25 659.375 436.875 661.25 440.6250000000001 666.875C459.3750000000001 684.375 435.0000000000001 690.625 419.3750000000001 690.625C403.7500000000001 691.875 398.1250000000001 700.625 405.6250000000001 702.5C413.1250000000001 704.375 443.7500000000001 701.25 449.3750000000001 697.5C454.3750000000001 693.75 481.8750000000001 681.875 483.7500000000001 673.75C485.0000000000001 665.625 483.7500000000001 658.125 473.1250000000001 658.125zM565.0000000000001 661.25C556.25 655.625 513.125 686.875 505.6250000000001 693.75C470.6250000000001 723.75 450.0000000000001 713.125 443.1250000000001 719.375C436.2500000000001 725.625 438.1250000000001 731.25 450.0000000000001 740.625C461.8750000000002 750 493.1250000000002 736.875 512.5000000000002 735C531.2500000000002 733.125 553.7500000000002 718.125 553.7500000000002 700.625C555.0000000000001 685 574.3750000000002 669.375 565.6250000000001 661.25H565.0000000000001z" />
    <glyph glyph-name="grabber"
      unicode="&#xF284;"
      horiz-adv-x="500" d=" M500 570V507.5H0V570H500zM0 320H500V382.5H0V320zM0 132.5H500V195H0V132.5z" />
    <glyph glyph-name="graph"
      unicode="&#xF043;"
      horiz-adv-x="1000" d=" M1000 -55V-117.5H0V820H62.5V-55H1000zM312.5 7.5H187.5V320H312.5V7.5zM562.5 7.5H437.5V632.5H562.5V7.5zM812.5 7.5H687.5V445H812.5V7.5z" />
    <glyph glyph-name="heart"
      unicode="&#x2665;"
      horiz-adv-x="750" d=" M562.5 695C501.8749999999999 695 456.8750000000001 668.75 425 632.5C393.125 596.25 376.25 575 375 570C373.75 575 357.5 596.25 325 632.5C292.5 668.75 251.8750000000001 695 187.5 695C85.5 689.625 2.875 611.6875 0 507.5C0 475 5.625 412.5 41.875 340.625C78.125 268.75 188.125 156.875 375 7.5C561.25 156.875 673.125 268.125 708.75 340.625C744.375 413.125 750 476.25 750 507.5C747.0625 613.125 666.125 689.5625 562.5 695z" />
    <glyph glyph-name="history"
      unicode="&#xF07E;"
      horiz-adv-x="875" d=" M500 7.5H375V445H687.5V320H500V7.5zM437.5 757.5C300.625 757.5 179.375 693.75 99.375 595.625L0 695V445H250L156.25 538.75C221.875 621.875 323.125 676.25 437.5 676.25C633.75 676.25 793.75 516.25 793.75 320S633.7499999999999 -36.25 437.5 -36.25A356.87500000000006 356.87500000000006 0 0 0 81.25 320C81.25 341.25 83.125 361.875 86.875 382.5H5C1.875 361.875 0 341.25 0 320C0 78.75 196.25 -117.5 437.5 -117.5S875 78.75 875 320S678.75 757.5 437.5 757.5z" />
    <glyph glyph-name="home"
      unicode="&#xF08D;"
      horiz-adv-x="1000" d=" M1000 257.5L812.5 445V695H687.5V570L500 757.5L0 257.5H125L187.5 -55C187.5 -89.375 215.625 -117.5 250 -117.5H750C784.375 -117.5 812.5 -89.375 812.5 -55L875 257.5H1000zM750 -55H562.5V195H437.5V-55H250L175.625 339.375L500 663.75L824.3750000000001 339.375L750 -55z" />
    <glyph glyph-name="horizontal-rule"
      unicode="&#xF070;"
      horiz-adv-x="625" d=" M62.5 382.5H187.5V257.5H250V632.5H187.5V445H62.5V632.5H0V257.5H62.5V382.5zM625 257.5V382.5H562.5V257.5H625zM625 445V570H562.5V445H625zM437.5 445V570H562.5V632.5H375V257.5H437.5V382.5H562.5V445H437.5zM0 7.5H625V132.5H0V7.5z" />
    <glyph glyph-name="hubot"
      unicode="&#xF09D;"
      horiz-adv-x="875" d=" M187.5 445C153.125 445 125 416.875 125 382.5V257.5C125 223.125 153.125 195 187.5 195H687.5C721.875 195 750 223.125 750 257.5V382.5C750 416.875 721.875 445 687.5 445H187.5zM687.5 335.625L609.375 257.5H515.625L437.5 335.625L359.375 257.5H265.625L187.5 335.625V382.5H234.375L312.5 304.375L390.625 382.5H484.375L562.5 304.375L640.625 382.5H687.5V335.625zM312.5 132.5H562.5V70H312.5V132.5zM437.5 695C196.25 695 0 513.125 0 288.75V7.5C0 -26.875 28.125 -55 62.5 -55H812.5C846.875 -55 875 -26.875 875 7.5V288.75C875 513.125 678.75 695 437.5 695zM812.5 7.5H62.5V288.75C62.5 481.875 227.5 638.125 437.5 638.125S812.5 481.875 812.5 288.75V7.5z" />
    <glyph glyph-name="inbox"
      unicode="&#xF0CF;"
      horiz-adv-x="875" d=" M875 257.5L804.3750000000001 703.75C799.3750000000001 733.75 773.1250000000001 757.5 741.8750000000001 757.5H133.125C101.875 757.5 75.625 733.75 70.625 703.75L0 257.5V-55C0 -89.375 28.125 -117.5 62.5 -117.5H812.5C846.875 -117.5 875 -89.375 875 -55V257.5zM670 223.125L642.5000000000001 167.4999999999999C631.8750000000001 146.2499999999999 610.0000000000001 132.4999999999999 585.6250000000001 132.4999999999999H288.125C264.375 132.4999999999999 243.1250000000001 146.2499999999999 232.5 166.8749999999999L205 223.7499999999999C194.375 244.375 172.5 258.125 149.375 258.125H62.5L125 695.625H750L812.5 258.125H726.2500000000001C701.875 258.125 680.625 244.375 669.375 223.7499999999999L670 223.125z" />
    <glyph glyph-name="info"
      unicode="&#xF059;"
      horiz-adv-x="875" d=" M393.75 464.375A58.875 58.875 0 0 0 376.25 508.125C376.25 525.625 381.875 540.625 393.75 551.875C405.625 563.125 420 569.375 437.5 569.375C455 569.375 470 563.75 481.25 551.875C492.5 540 498.75 525.625 498.75 508.125C498.75 490.6249999999999 493.1250000000001 475.625 481.25 464.375A62.5 62.5 0 0 0 437.5 445.625C420 445.625 405 452.5 393.75 464.375zM500 320.625C498.75 336.25 493.125 350.625 480.625 363.75C468.125 375.625 454.3750000000001 382.5 437.5 383.125H375C358.125 381.875 345 375 331.8750000000001 363.75C319.375 351.25 313.1250000000001 336.25 312.5000000000001 320.625H375.0000000000001V133.125C376.2500000000001 116.25 381.8750000000001 101.875 394.3750000000001 90C406.8750000000001 77.5000000000001 420.625 70.625 437.5 70.625H500C516.875 70.625 530 77.5 543.125 90C555.6249999999999 101.875 561.875 116.25 562.5 133.125H500V321.25V320.625zM437.5 676.25C241.25 676.25 81.25 517.5 81.25 321.2500000000001C81.25 125 241.25 -35 437.5 -35S793.75 124.3750000000001 793.75 321.2500000000001C793.75 518.125 633.7499999999999 676.875 437.5 676.875V676.25zM437.5 758.75C678.75 758.75 875 562.5 875 321.25S678.75 -116.25 437.5 -116.25S0 78.75 0 321.25S196.25 758.75 437.5 758.75z" />
    <glyph glyph-name="issue-closed"
      unicode="&#xF028;"
      horiz-adv-x="1000" d=" M437.5 195H562.5V70H437.5V195zM562.5 570H437.5V257.5H562.5V570zM656.25 476.25L593.75 413.75L750 257.5L1000 538.75L937.5 601.25L750 382.5L656.25 476.25zM500 -36.25A356.87500000000006 356.87500000000006 0 0 0 143.75 320C143.75 516.25 303.75 676.25 500 676.25C614.375 676.25 715.625 621.25 781.25 538.75L838.75 596.25A434.18749999999994 434.18749999999994 0 0 1 500 757.5C258.75 757.5 62.5 561.25 62.5 320S258.7500000000001 -117.5 500 -117.5S937.5 78.75 937.5 320L842.5 225C801.25 74.375 663.7500000000001 -36.875 500 -36.875V-36.2500000000001z" />
    <glyph glyph-name="issue-opened"
      unicode="&#xF026;"
      horiz-adv-x="875" d=" M437.5 676.25C633.75 676.25 793.75 516.25 793.75 320S633.7499999999999 -36.25 437.5 -36.25A356.87500000000006 356.87500000000006 0 0 0 81.25 320C81.25 516.25 241.2500000000001 676.25 437.5 676.25zM437.5 757.5C196.25 757.5 0 561.25 0 320S196.25 -117.5 437.5 -117.5S875 78.75 875 320S678.75 757.5 437.5 757.5zM500 570H375V257.5H500V570zM500 195H375V70H500V195z" />
    <glyph glyph-name="issue-reopened"
      unicode="&#xF027;"
      horiz-adv-x="875" d=" M500 257.5H375V570H500V257.5zM375 70H500V195H375V70zM770.625 195H625L718.75 101.25C653.125 18.125 551.875 -36.25 437.5 -36.25A356.87500000000006 356.87500000000006 0 0 0 81.25 320C81.25 341.25 83.125 361.875 86.875 382.5H5C1.875 361.875 0 341.25 0 320C0 78.75 196.25 -117.5 437.5 -117.5C574.375 -117.5 695.6249999999999 -53.75 775.625 44.375L875 -55V195H770.625zM104.375 445H250L156.25 538.75C221.875 621.875 323.125 676.25 437.5 676.25C633.75 676.25 793.75 516.25 793.75 320C793.75 298.75 791.875 278.125 788.125 257.5H870C873.125 278.125 875 298.75 875 320C875 561.25 678.75 757.5 437.5 757.5C300.6250000000001 757.5 179.375 693.75 99.375 595.625L0 695V445H104.375z" />
    <glyph glyph-name="italic"
      unicode="&#xF285;"
      horiz-adv-x="375" d=" M175.625 507.5H299.375L187.5 -55H62.5L175.625 507.5zM198.125 676.25C198.125 720 234.375 757.5 281.25 757.5C316.2500000000001 757.5 351.875 733.75 351.875 693.125C351.875 646.25 315 611.875 268.75 611.875C232.5 611.875 198.125 635.625 198.125 676.25z" />
    <glyph glyph-name="jersey"
      unicode="&#xF019;"
      horiz-adv-x="875" d=" M281.25 445L250 413.75V101.25L281.25 70H406.25L437.5 101.25V413.75L406.25 445H281.25zM375 132.5H312.5V382.5H375V132.5zM766.875 585.625C753.125 671.875 747.5 750 750 820H563.75C563.75 803.125 555.6249999999999 790 539.3749999999999 776.875C523.7499999999999 764.375 499.9999999999999 758.125 468.7499999999999 758.125C437.5 758.125 413.75 763.75 398.125 776.875C383.75 789.375 375.625 803.125 375.625 820H187.5C190.625 749.375 185.625 671.25 171.875 585.625C159.375 499.375 121.875 452.5 62.5 445V-117.5C63.75 -134.375 69.375 -147.5 81.875 -160.625C94.375 -173.75 108.125 -179.375 125 -180H812.5C829.375 -178.75 842.5 -173.125 855.625 -160.625C868.75 -148.125 874.375 -134.375 875 -117.5V445C815.625 453.125 779.375 500 765.625 585.625H766.875zM812.5 -117.5H125V382.5C180.625 413.75 217.5 460.625 232.5 523.125S251.8750000000001 663.75 250 757.5H312.5C311.25 708.75 322.5 665.625 345 628.75C367.5 592.5 408.75 573.125 470 570C531.25 571.25 572.5 590.625 595 628.75C617.4999999999999 665.625 626.25 708.75 625 757.5H687.5C688.75 668.75 695.625 598.125 708.125 546.25C720.625 495.6250000000001 751.25 421.25 812.5 381.875V-118.125V-117.5zM531.25 445L500 413.75V101.25L531.25 70H656.25L687.5 101.25V413.75L656.25 445H531.25zM625 132.5H562.5V382.5H625V132.5z" />
    <glyph glyph-name="kebab-horizontal"
      unicode="&#xF286;"
      horiz-adv-x="812.5" d=" M93.75 257.5A93.75 93.75 0 1 1 93.75 445A93.75 93.75 0 0 1 93.75 257.5zM406.25 257.5A93.75 93.75 0 1 1 406.25 445A93.75 93.75 0 0 1 406.25 257.5zM812.5 351.25A93.75 93.75 0 1 0 625 351.25A93.75 93.75 0 0 0 812.5 351.25z" />
    <glyph glyph-name="kebab-vertical"
      unicode="&#xF287;"
      horiz-adv-x="187.5" d=" M0 663.75A93.75 93.75 0 1 1 187.5 663.75A93.75 93.75 0 0 1 0 663.75zM0 351.25A93.75 93.75 0 1 1 187.5 351.25A93.75 93.75 0 0 1 0 351.25zM93.75 -55A93.75 93.75 0 1 0 93.75 132.5A93.75 93.75 0 0 0 93.75 -55z" />
    <glyph glyph-name="key"
      unicode="&#xF049;"
      horiz-adv-x="875" d=" M801.875 684.375C755 731.25 696.25 755.625 625 757.5C554.3750000000001 755.625 495 731.25 448.125 684.375S377.5 578.75 375.625 507.5C375.625 488.75 377.5 470.625 381.25 451.875L0 70V7.5L62.5 -55H187.5L250 7.5V70H312.5V132.5H375V195H500L568.125 264.375C586.875 259.375 605 257.5 625 257.5C696.25 259.375 755 283.75 801.875 330.625S873.125 436.25 875 507.5C873.125 578.75 848.75 637.5 801.875 684.375zM687.5 483.75C639.375 483.75 601.2500000000001 521.875 601.2500000000001 570C601.2500000000001 618.125 639.375 656.25 687.5 656.25C735.625 656.25 773.7499999999999 618.125 773.7499999999999 570C773.7499999999999 521.875 735.625 483.75 687.5 483.75z" />
    <glyph glyph-name="keyboard"
      unicode="&#xF00D;"
      horiz-adv-x="1000" d=" M625 507.5H562.5V570H625V507.5zM187.5 445H125V382.5H187.5V445zM500 570H437.5V507.5H500V570zM250 570H125V507.5H250V570zM750 132.5H875V195H750V132.5zM500 382.5H562.5V445H500V382.5zM250 195H125V132.5H250V195zM750 570H687.5V507.5H750V570zM875 570H812.5V507.5H875V570zM750 257.5H875V445H750V257.5zM1000 632.5V70C1000 35.625 971.875 7.5 937.5 7.5H62.5C28.125 7.5 0 35.625 0 70V632.5C0 666.875 28.125 695 62.5 695H937.5C971.875 695 1000 666.875 1000 632.5zM937.5 632.5H62.5V70H937.5V632.5zM375 382.5H437.5V445H375V382.5zM375 570H312.5V507.5H375V570zM250 382.5H312.5V445H250V382.5zM312.5 132.5H687.5V195H312.5V132.5zM625 382.5H687.5V445H625V382.5zM187.5 320H125V257.5H187.5V320zM500 320V257.5H562.5V320H500zM375 320V257.5H437.5V320H375zM312.5 320H250V257.5H312.5V320zM625 257.5H687.5V320H625V257.5z" />
    <glyph glyph-name="law"
      unicode="&#xF0D8;"
      horiz-adv-x="875" d=" M437.5 570C385.625 570 343.75 611.875 343.75 663.75S385.625 757.5 437.5 757.5S531.25 715.625 531.25 663.75S489.375 570 437.5 570zM875 195C875 125.625 819.375 70 750 70H687.5C618.125 70 562.5 125.625 562.5 195L687.5 445H625C590.625 445 562.5 473.125 562.5 507.5H500V7.5C526.25 7.5 562.5 -20.625 562.5 -55H625C651.25 -55 687.5 -83.125 687.5 -117.5H187.5C187.5 -83.125 223.75 -55 250 -55H312.5C312.5 -20.625 348.75 7.5 375 7.5H376.875L375 507.5H312.5C312.5 473.125 284.375 445 250 445H187.5L312.5 195C312.5 125.625 256.875 70 187.5 70H125C55.625 70 0 125.625 0 195L125 445H62.5V507.5H250C250 541.875 278.125 570 312.5 570H562.5C596.875 570 625 541.875 625 507.5H812.5V445H750L875 195zM156.25 382.5L62.5 195H250L156.25 382.5zM812.5 195L718.75 382.5L625 195H812.5z" />
    <glyph glyph-name="light-bulb"
      unicode="&#xF000;"
      horiz-adv-x="750" d=" M406.25 820C217.5 820 62.5 683.125 62.5 507.5C62.5 450 96.875 366.875 125 320C208.75 179.375 236.2500000000001 146.25 250 70V7.5H562.5V70C576.25 146.25 603.75 179.375 687.5 320C715.625 366.875 750 450 750 507.5C750 683.125 595 820 406.25 820zM633.75 352.5C618.125 325 604.375 302.4999999999999 591.875 283.125C538.1250000000001 195 513.75 154.375 501.2500000000001 81.25C500.0000000000001 78.1249999999999 500.0000000000001 74.375 500.0000000000001 70.625H312.5C312.5 74.375 312.5 78.75 311.25 81.25C298.75 154.375 274.3750000000001 195.625 220.625 283.125C208.125 302.5 194.375 325 178.75 352.5000000000001C152.5 396.25 125 466.875 125 507.5C125 645 251.25 757.5 406.25 757.5C482.5 757.5 553.75 731.25 607.5 683.125C659.375 636.25 687.5 573.75 687.5 507.5C687.5 466.25 660 396.25 633.75 352.5zM250 -55H562.5C548.125 -126.25 481.25 -180 406.25 -180S264.375 -126.25 250 -55z" />
    <glyph glyph-name="link-external"
      unicode="&#xF07F;"
      horiz-adv-x="750" d=" M687.5 195H750V7.5C750 -26.875 721.875 -55 687.5 -55H62.5C28.125 -55 0 -26.875 0 7.5V632.5C0 666.875 28.125 695 62.5 695H250V632.5H62.5V7.5H687.5V195zM375 695L515.625 554.375L312.5 351.25L406.25 257.5L609.375 460.625L750 320V695H375z" />
    <glyph glyph-name="link"
      unicode="&#xF05C;"
      horiz-adv-x="1000" d=" M250 257.5H312.5V195H250C156.25 195 62.5 300.625 62.5 413.75S159.375 632.5 250 632.5H500C590.625 632.5 687.5 526.875 687.5 413.75C687.5 325.625 630.625 243.75 562.5 210.625V283.125C598.75 311.25 625 362.5 625 413.75C625 493.75 561.25 570 500 570H250C188.75 570 125 493.75 125 413.75S187.5 257.5 250 257.5zM812.5 445H750V382.5H812.5C875 382.5 937.5 306.25 937.5 226.25S873.75 70 812.5 70H562.5C501.25 70 437.5 146.25 437.5 226.25C437.5 278.125 463.75 328.75 500 356.875V429.375C431.875 396.25 375 314.375 375 226.25C375 113.125 471.875 7.5 562.5 7.5H812.5C903.125 7.5 1000 113.125 1000 226.25S906.25 445 812.5 445z" />
    <glyph glyph-name="list-ordered"
      unicode="&#xF062;"
      horiz-adv-x="812.5" d=" M750.625 7.5C750.625 -29.375 750.625 -55 713.75 -55H287.5C250.625 -55 250.625 -29.375 250.625 7.5C250.625 44.375 250.625 70 287.5 70H713.125C750 70 750 44.375 750 7.5H750.625zM287.5 570H713.125C750 570 750 595.625 750 632.5C750 669.375 750 695 713.125 695H287.5C250.625 695 250.625 669.375 250.625 632.5C250.625 595.625 250.625 570 287.5 570zM713.125 382.5H287.5C250.625 382.5 250.625 356.875 250.625 320C250.625 283.125 250.625 257.5 287.5 257.5H713.125C750 257.5 750 283.125 750 320C750 356.875 750 382.5 713.125 382.5zM125.625 757.5H80.625C61.875 745.625 44.375 741.875 16.25 736.25V695H63.125V561.25H10.625V507.5H188.125V561.25H125.625V757.5zM150.125 250C142.0625 250 113.125 247.5000000000001 100 245.625C133.125 280.6250000000001 171.25 323.7500000000001 171.25 363.75C170 412.5 136.25 445 86.25 445C49.375 445 25.625 432.5 0 405L36.25 368.75C48.125 380.6250000000001 60 392.5 76.25 392.5C93.75 392.5 106.25 382.5 106.25 360.0000000000001C106.25 326.875 58.125 285.0000000000001 0 231.25V195H187.5V250H150.125zM136.25 13.125V15C163.75 26.8749999999999 176.25 44.375 176.25 68.7499999999999C176.25 112.4999999999999 141.25 138.1249999999999 86.25 138.1249999999999C56.25 138.1249999999999 30.625 126.2499999999999 6.25 105.6249999999999L40.625 65.6249999999999C56.25 78.1249999999998 68.125 84.9999999999999 83.75 84.9999999999999C100.625 84.9999999999999 110 76.8749999999999 110 62.4999999999999C110 45.625 97.5 35 56.25 35V-11.875C108.125 -11.875 117.5 -22.5 117.5 -41.2500000000001C117.5 -56.8750000000001 103.125 -65.0000000000001 81.25 -65.0000000000001C63.75 -65.0000000000001 46.25 -56.2500000000001 30.625 -41.2500000000001L0.625 -82.5000000000001C19.375 -105 48.75 -117.5000000000001 88.75 -117.5000000000001C140.625 -117.5000000000001 184.375 -91.8750000000001 184.375 -45.0000000000001C184.375 -13.7500000000001 165 5.6249999999999 136.25 13.7499999999999V13.1249999999999z" />
    <glyph glyph-name="list-unordered"
      unicode="&#xF061;"
      horiz-adv-x="750" d=" M125 7.5C125 -29.375 125 -55 88.125 -55H36.875C0 -55 0 -29.375 0 7.5C0 44.375 0 70 36.875 70H87.5C124.375 70 124.375 44.375 124.375 7.5H125zM286.875 570H712.4999999999999C749.3749999999999 570 749.3749999999999 595.625 749.3749999999999 632.5C749.3749999999999 669.375 749.3749999999999 695 712.4999999999999 695H286.875C250 695 250 669.375 250 632.5C250 595.625 250 570 286.875 570zM88.125 382.5H36.875C0 382.5 0 356.875 0 320C0 283.125 0 257.5 36.875 257.5H87.5C124.375 257.5 124.375 283.125 124.375 320C124.375 356.875 124.375 382.5 87.5 382.5H88.125zM88.125 695H36.875C0 695 0 669.375 0 632.5C0 595.625 0 570 36.875 570H87.5C124.375 570 124.375 595.625 124.375 632.5C124.375 669.375 124.375 695 87.5 695H88.125zM713.125 382.5H286.875C250 382.5 250 356.875 250 320C250 283.125 250 257.5 286.875 257.5H712.4999999999999C749.3749999999999 257.5 749.3749999999999 283.125 749.3749999999999 320C749.3749999999999 356.875 749.3749999999999 382.5 712.4999999999999 382.5H713.1249999999999zM713.125 70H286.875C250 70 250 44.375 250 7.5C250 -29.375 250 -55 286.875 -55H712.4999999999999C749.3749999999999 -55 749.3749999999999 -29.375 749.3749999999999 7.5C749.3749999999999 44.375 749.3749999999999 70 712.4999999999999 70H713.1249999999999z" />
    <glyph glyph-name="location"
      unicode="&#xF060;"
      horiz-adv-x="750" d=" M375 820C168.125 820 0 663.75 0 476.25C0 193.75 375 -180 375 -180S750 193.75 750 476.25C750 663.75 581.875 820 375 820zM375 -89.375C258.75 37.5 62.5 292.5 62.5 476.25C62.5 631.25 203.125 757.5 375 757.5C458.75 757.5 538.125 727.5 597.5 672.5C655 618.75 687.5 549.375 687.5 476.25C687.5 292.5 491.2499999999999 37.5 375 -89.375zM500 476.25C500 406.875 444.375 351.25 375 351.25C305.625 351.25 250 406.875 250 476.25C250 545.625 305.625 601.25 375 601.25C444.375 601.25 500 545.625 500 476.25z" />
    <glyph glyph-name="lock"
      unicode="&#xF06A;"
      horiz-adv-x="750" d=" M250 7.5H187.5V70H250V7.5zM750 382.5V-55C750 -89.375 721.875 -117.5 687.5 -117.5H62.5C28.125 -117.5 0 -89.375 0 -55V382.5C0 416.875 28.125 445 62.5 445H125V570C125 707.5 237.5 820 375 820S625 707.5 625 570V445H687.5C721.875 445 750 416.875 750 382.5zM237.5 445H513.125V570C513.125 646.25 451.875 707.5 375.6250000000001 707.5C299.3750000000001 707.5 238.1250000000001 646.25 238.1250000000001 570V445H237.5zM687.5 382.5H125V-55H687.5V382.5zM250 320H187.5V257.5H250V320zM250 195H187.5V132.5H250V195z" />
    <glyph glyph-name="logo-github"
      unicode="&#xF092;"
      horiz-adv-x="2812.5" d=" M1158.125 68.125H1156.875C1157.4375000000002 68.125 1157.8125000000002 67.5 1158.3750000000002 67.4375000000001H1158.7500000000002L1158.125 68.0625000000001zM1158.3750000000002 67.4375000000001C1152.5625000000002 67.3750000000001 1137.9375 64.3125 1122.5 64.3125C1073.75 64.3125 1056.875 86.8125 1056.875 116.1875V311.875H1156.25C1161.875 311.875 1166.25 316.875 1166.25 323.75V430C1166.25 435.625 1161.2500000000002 440.625 1156.25 440.625H1056.875V572.5C1056.875 577.5 1053.75 580.625 1048.125 580.625H913.125C907.5 580.625 904.3749999999998 577.5 904.3749999999998 572.5V436.875S836.2499999999999 420 831.8749999999999 419.375C826.8749999999999 418.125 823.7499999999999 413.75 823.7499999999999 408.75V323.75C823.7499999999999 316.875 828.7499999999999 311.875 834.3749999999999 311.875H903.7499999999998V106.875C903.7499999999998 -45.625 1009.9999999999998 -61.25 1082.4999999999998 -61.25C1115.6249999999998 -61.25 1155.6249999999998 -50.625 1161.8749999999998 -47.4999999999999C1165.6249999999998 -46.25 1167.4999999999998 -41.875 1167.4999999999998 -37.4999999999999V56.2500000000001A11.0625 11.0625 0 0 1 1158.3749999999998 67.5zM2639.375 205C2639.375 318.1250000000001 2593.75 333.125 2545.625 328.125C2508.1249999999995 325.625 2478.125 306.875 2478.125 306.875V86.875S2508.75 65.625 2554.375 64.375C2618.75 62.5 2639.375 85.625 2639.375 205zM2791.25 215C2791.25 0.625 2721.875 -60.625 2600.625 -60.625C2498.125 -60.625 2443.1249999999995 -8.75 2443.1249999999995 -8.75S2440.625 -37.5 2437.4999999999995 -41.25C2435.6249999999995 -45 2432.4999999999995 -46.25 2428.7499999999995 -46.25H2336.2499999999995C2329.9999999999995 -46.25 2324.375 -41.25 2324.375 -35.625L2325.625 658.75C2325.625 664.375 2330.625 669.375 2336.25 669.375H2469.3750000000005C2475.0000000000005 669.375 2480.0000000000005 664.375 2480.0000000000005 658.75V423.125S2531.2500000000005 456.2500000000001 2606.2500000000005 456.2500000000001L2605.625000000001 457.5C2680.625000000001 457.5 2791.2500000000005 429.375 2791.2500000000005 215zM2246.25 440.625H2114.9999999999995C2108.125 440.625 2104.3749999999995 435.625 2104.3749999999995 428.75V88.7499999999999S2070 64.3749999999999 2023.1249999999995 64.3749999999999S1962.5 85.6249999999999 1962.5 132.4999999999999V429.375C1962.5 435 1957.5 440 1951.8749999999995 440H1818.1249999999995C1812.4999999999995 440 1807.4999999999995 435 1807.4999999999995 429.375V110C1807.4999999999995 -27.4999999999999 1884.3749999999995 -61.875 1989.9999999999995 -61.875C2076.875 -61.875 2147.5 -13.75 2147.5 -13.75S2150.625 -38.125 2152.5 -41.875C2153.75 -45 2158.125 -47.4999999999999 2162.4999999999995 -47.4999999999999H2246.25C2253.125 -47.4999999999999 2256.875 -42.4999999999999 2256.875 -36.8749999999999L2258.125 430.0000000000001C2258.125 435.6250000000001 2253.1250000000005 440.6250000000001 2246.2500000000005 440.6250000000001zM764.9999999999999 441.25H631.875C626.25 441.25 621.25 435.625 621.25 428.75V-30.0000000000001C621.25 -42.5 629.375 -46.8750000000001 640 -46.8750000000001H760C772.5 -46.8750000000001 775.625 -41.2500000000001 775.625 -30.0000000000001V430.625C775.625 436.25 770.625 441.25 765 441.25zM699.3749999999999 652.5C651.2499999999999 652.5 613.1249999999999 614.375 613.1249999999999 566.25C613.1249999999999 518.125 651.2499999999999 480 699.3749999999999 480C746.2499999999999 480 784.3749999999998 518.125 784.3749999999998 566.25C784.3749999999998 614.375 746.2499999999999 652.5 699.3749999999999 652.5zM1729.9999999999998 668.125H1598.1249999999998C1592.4999999999998 668.125 1587.4999999999998 663.125 1587.4999999999998 657.5V401.875H1380.6249999999998V657.5C1380.6249999999998 663.125 1375.6249999999998 668.125 1369.9999999999998 668.125H1236.8749999999998C1231.2499999999998 668.125 1226.2499999999995 663.125 1226.2499999999995 657.5V-36.8749999999999C1226.2499999999995 -42.4999999999999 1231.8749999999995 -47.4999999999999 1236.8749999999998 -47.4999999999999H1369.9999999999998C1375.6249999999995 -47.4999999999999 1380.6249999999998 -42.4999999999999 1380.6249999999998 -36.8749999999999V260H1587.4999999999998L1586.2499999999998 -36.875C1586.2499999999998 -42.5 1591.2499999999995 -47.5 1596.8749999999998 -47.5H1729.9999999999998C1735.6249999999998 -47.5 1740.6249999999998 -42.5 1740.6249999999998 -36.875V657.5C1740.6249999999998 663.125 1735.625 668.125 1729.9999999999998 668.125zM550.625 360.625V1.875C550.625 -0.6249999999999 550 -5 546.875 -6.25C546.875 -6.25 468.75 -61.8750000000001 340 -61.8750000000001C184.375 -61.8750000000001 -1e-13 -13.1250000000001 -1e-13 308.125S161.25 695.625 318.75 695C454.9999999999999 695 510 664.375 518.75 658.75C521.25 655.625 522.5000000000001 653.125 522.5000000000001 650L496.25 538.75C496.25 533.125 490.6250000000001 526.25 483.75 528.125C461.25 535 427.5 548.75 348.125 548.75C256.2500000000001 548.75 157.5 522.5 157.5 315.625S251.2500000000001 84.375 318.7500000000001 84.375C376.2500000000001 84.375 396.8750000000001 91.25 396.8750000000001 91.25V235H305C298.125 235 293.125 240 293.125 245.625V360.625C293.125 366.25 298.125 371.25 305 371.25H538.7500000000001C545.625 371.25 550.625 366.25 550.625 360.625z" />
    <glyph glyph-name="mail-read"
      unicode="&#xF03C;"
      horiz-adv-x="875" d=" M375 507.5H250V570H375V507.5zM562.5 445H250V382.5H562.5V445zM875 475V-55C875 -89.375 846.875 -117.5 812.5 -117.5H62.5C28.125 -117.5 0 -89.375 0 -55V475C0 495.6250000000001 10 514.375 26.25 525.625L125 596.25V632.5C125 666.875 153.125 695 187.5 695H262.5L437.5 820L612.5 695H687.5C721.875 695 750 666.875 750 632.5V596.25L848.75 525.625C865.625 513.75 875 495.6250000000001 875 475zM187.5 351.25L437.5 195L687.5 351.25V632.5H187.5V351.25zM62.5 -23.75L343.75 163.75L62.5 351.25V-23.75zM750 -55L437.5 132.5L125 -55H750zM812.5 351.25L531.25 163.75L812.5 -23.75V351.25z" />
    <glyph glyph-name="mail"
      unicode="&#xF03B;"
      horiz-adv-x="875" d=" M0 570V70C0 35.625 28.125 7.5 62.5 7.5H812.5C846.875 7.5 875 35.625 875 70V570C875 604.375 846.875 632.5 812.5 632.5H62.5C28.125 632.5 0 604.375 0 570zM812.5 570L437.5 257.5L62.5 570H812.5zM62.5 476.25L312.5 288.75L62.5 101.25V476.25zM125 70L343.75 257.5L437.5 163.75L531.25 257.5L750 70H125zM812.5 101.25L562.5 288.75L812.5 476.25V101.25z" />
    <glyph glyph-name="mark-github"
      unicode="&#xF00A;"
      horiz-adv-x="1000" d=" M500 820C223.75 820 0 596.25 0 320C0 98.75 143.125 -88.1250000000001 341.875 -154.375C366.875 -158.75 376.25 -143.75 376.25 -130.6249999999999C376.25 -118.75 375.625 -79.3749999999999 375.625 -37.4999999999999C250 -60.6249999999999 217.5 -6.8749999999999 207.5 21.25C201.875 35.6250000000001 177.5 80 156.25 91.8750000000001C138.75 101.2500000000001 113.75 124.3750000000001 155.625 125C195 125.625 223.125 88.75 232.5 73.75C277.5 -1.8749999999999 349.375 19.3750000000001 378.1250000000001 32.5C382.5000000000001 65 395.6250000000001 86.875 410.0000000000001 99.375C298.75 111.875 182.5 155.0000000000001 182.5 346.2500000000001C182.5 400.6250000000001 201.875 445.6250000000001 233.75 480.625C228.75 493.1250000000001 211.25 544.375 238.7500000000001 613.125C238.7500000000001 613.125 280.625 626.25 376.2500000000001 561.875C416.25 573.125 458.7500000000001 578.75 501.25 578.75C543.75 578.75 586.2499999999999 573.125 626.25 561.875C721.8749999999999 626.875 763.7499999999999 613.125 763.7499999999999 613.125C791.2499999999999 544.375 773.7499999999999 493.125 768.7499999999999 480.625C800.6249999999999 445.625 820 401.2500000000001 820 346.25C820 154.375 703.125 111.875 591.8749999999999 99.3749999999999C609.9999999999999 83.7499999999999 625.6249999999999 53.7499999999999 625.6249999999999 6.8749999999999C625.6249999999999 -60.0000000000001 624.9999999999999 -113.7500000000001 624.9999999999999 -130.625C624.9999999999999 -143.7500000000001 634.3749999999999 -159.3750000000001 659.3749999999999 -154.3750000000001A500.81249999999994 500.81249999999994 0 0 1 1000 320C1000 596.25 776.25 820 500 820z" />
    <glyph glyph-name="markdown"
      unicode="&#xF0C9;"
      horiz-adv-x="1000" d=" M928.125 632.5H71.875C32.5 632.5 0 600 0 560.625V80C0 40 32.5 7.5 71.875 7.5H927.5C967.5 7.5 999.375 40 999.375 79.375V560.625C1000 600 967.5 632.5 928.125 632.5zM562.5 132.5H437.5V320L343.75 200L250 320V132.5H125V507.5H250L343.75 382.5L437.5 507.5H562.5V132.5zM749.375 101.25L593.75 320H687.5V507.5H812.5V320H906.25L749.375 101.25z" />
    <glyph glyph-name="megaphone"
      unicode="&#xF077;"
      horiz-adv-x="1000" d=" M625 757.5C614.375 757.5 602.5 754.375 592.5 748.75C502.4999999999999 693.75 281.25 533.75 187.5 507.5C101.25 507.5 0 465.625 0 351.25S101.875 195 187.5 195C206.25 190 227.5 180.625 250 169.375V-117.5H375V98.125C458.75 44.375 543.125 -16.25 592.5 -46.2500000000001C602.5 -51.8750000000001 613.75 -55.0000000000001 625 -55.0000000000001C657.5 -55.0000000000001 687.5 -28.7500000000001 687.5 7.4999999999999V695C687.5 731.25 657.5 757.5 625 757.5zM625 7.5C601.25 21.875 569.375 43.75 531.25 70C521.25 76.875 510.625 83.75 500 91.25V613.125C510 620 519.375 625.625 529.375 632.5C567.5 658.125 601.875 680.625 625 695V7.5zM750 382.5H1000V320H750V382.5zM750 257.5L1000 132.5V70L750 195V257.5zM1000 632.5V570L750 445V507.5L1000 632.5z" />
    <glyph glyph-name="mention"
      unicode="&#xF0BE;"
      horiz-adv-x="875" d=" M411.25 -117.5C489.375 -117.5 568.75 -98.125 633.75 -58.75L607.5 -1e-13C555 -32.5 489.3750000000001 -51.8750000000001 418.1250000000001 -51.8750000000001C216.2500000000001 -51.8750000000001 65.6250000000001 78.1249999999999 65.6250000000001 305.625C65.6250000000001 578.75 267.5000000000001 754.375 476.8750000000001 754.375C692.5000000000001 754.375 803.1250000000001 617.5 803.1250000000001 429.375C803.1250000000001 280 719.3750000000001 188.1249999999999 646.8750000000001 188.1249999999999C581.25 188.1249999999999 561.8750000000001 233.75 581.25 324.9999999999999L626.8750000000001 559.3749999999999H561.25L554.3750000000001 514.3749999999999C528.75 553.7499999999999 495.6250000000001 566.2499999999999 456.8750000000001 566.2499999999999C320.0000000000001 566.2499999999999 228.1250000000001 416.875 228.1250000000001 292.4999999999999C228.1250000000001 188.1249999999999 286.875 129.375 371.875 129.375C424.375 129.375 476.25 162.4999999999999 515.625 207.5C522.5 148.75 574.375 116.875 639.375 116.875C743.75 116.875 875 221.25 875 429.375C875 656.875 724.375 820 489.375 820C228.75 820 0 611.875 0 299.375C0 25.625 182.5 -117.5 411.25 -117.5zM391.8750000000001 195C346.2500000000001 195 306.875 227.5 306.875 299.375C306.875 390 365.625 500.6250000000001 457.5 500.6250000000001C490 500.6250000000001 510 488.125 535.625 448.7500000000001L503.1250000000001 260.0000000000001C463.7500000000001 214.375 425.0000000000001 194.375 391.8750000000001 194.375V195z" />
    <glyph glyph-name="milestone"
      unicode="&#xF075;"
      horiz-adv-x="875" d=" M500 695H375V820H500V695zM750 382.5H125C90.625 382.5 62.5 410.625 62.5 445V570C62.5 604.375 90.625 632.5 125 632.5H750L875 507.5L750 382.5zM500 570H375V445H500V570zM375 -180H500V320H375V-180z" />
    <glyph glyph-name="mirror"
      unicode="&#xF024;"
      horiz-adv-x="1000" d=" M968.75 526.25L531.25 820L93.75 526.25C75 514.375 62.5 498.125 62.5 476.25V-180L531.25 70L1000 -180V476.25C1000 497.5 987.5 514.375 968.75 526.25zM937.5 -86.25L562.5 116.875V195H500V116.875L125 -86.25V476.25L500 726.25V445H562.5V726.25L937.5 476.25V-86.25zM375 382.5H687.5V507.5L875 320L687.5 132.5V257.5H375V132.5L187.5 320L375 507.5V382.5z" />
    <glyph glyph-name="mortar-board"
      unicode="&#xF0D7;"
      horiz-adv-x="1000" d=" M506.8749999999999 645A21.250000000000004 21.250000000000004 0 0 1 494.3749999999999 645L16.875 496.25A21.875 21.875 0 0 1 16.875 454.375L125 420V309.375C106.25 298.75 93.75 278.125 93.75 255.625C93.75 243.7500000000001 96.875 233.1250000000001 102.5 224.375C97.5 215.625 93.75 205 93.75 193.125V31.875C93.75 -2.5 218.75 -2.5 218.75 31.875V193.125C218.75 205 215.625 215.625 210 224.375C215 233.1250000000001 218.75 243.7500000000001 218.75 255.625C218.75 279.3750000000001 206.25 298.75 187.5 309.375V400L493.125 304.375C496.8749999999999 303.125 501.8749999999999 303.125 505.625 304.375L983.125 453.125A21.875 21.875 0 0 1 983.125 495L506.25 644.375L506.8749999999999 645zM250 320L489.375 245.625H488.1250000000001C496.25 243.7500000000001 503.7500000000001 243.7500000000001 510.625 245.625L750 320V163.75C750 101.25 637.5 70 500 70S250 101.25 250 163.75V320zM438.75 476.25C438.75 458.75 466.875 445 501.25 445S563.75 458.75 563.75 476.25S535.625 507.5 501.25 507.5S438.75 493.75 438.75 476.25z" />
    <glyph glyph-name="mute"
      unicode="&#xF080;"
      horiz-adv-x="1000" d=" M500 644.375V-4.3750000000001C500 -46.2500000000001 449.375 -66.8750000000001 420 -37.5L187.5 195H62.5C28.125 195 0 223.125 0 257.5V382.5C0 416.875 28.125 445 62.5 445H187.5L420.0000000000001 677.5C449.375 706.875 500 686.25 500 644.375zM970.6250000000002 443.125L904.375 509.3749999999999L781.25 386.25L658.125 509.3749999999999L591.8749999999999 443.125L715 320L591.875 196.875L658.1250000000001 130.6249999999999L781.2500000000001 253.75L904.3750000000002 130.6249999999999L970.6250000000002 196.875L847.5 320L970.6250000000002 443.125z" />
    <glyph glyph-name="no-newline"
      unicode="&#xF09C;"
      horiz-adv-x="1000" d=" M1000 507.5V320C1000 285.625 971.875 257.5 937.5 257.5H750V132.5L562.5 320L750 507.5V382.5H875V507.5H1000zM500 320C500 182.5 387.5 70 250 70S0 182.5 0 320S112.5 570 250 570S500 457.5 500 320zM93.75 216.25L353.75 476.25C323.75 495.625 288.125 507.5 250 507.5C146.25 507.5 62.5 423.75 62.5 320C62.5 281.875 74.375 246.875 93.75 216.25zM437.5 320C437.5 358.125 425.625 393.125 406.25 423.75L146.25 163.75C176.25 144.375 211.875 132.5 250 132.5C353.75 132.5 437.5 216.25 437.5 320z" />
    <glyph glyph-name="note"
      unicode="&#xF289;"
      horiz-adv-x="875" d=" M187.5 195H437.5V257.5H187.5V195zM187.5 320H562.5V382.5H187.5V320zM187.5 445H687.5V507.5H187.5V445zM812.5 70H62.5V632.5H812.5V70zM62.5 695C28.125 695 0 666.875 0 632.5V70C0 35.625 28.125 7.5 62.5 7.5H812.5C846.875 7.5 875 35.625 875 70V632.5C875 666.875 846.875 695 812.5 695H62.5z" />
    <glyph glyph-name="octoface"
      unicode="&#xF008;"
      horiz-adv-x="1000" d=" M918.75 486.25C926.875 506.25 953.125 585.625 910.6249999999998 693.125C910.6249999999998 693.125 844.9999999999999 713.75 695.6249999999999 611.875C633.1249999999999 629.375 566.2499999999999 631.875 499.9999999999999 631.875S366.875 629.375 304.375 611.875C155 714.375 89.375 693.125 89.375 693.125C46.875 585.625 73.125 506.2499999999999 81.25 486.25C30.625 431.875 0 361.875 0 276.875C0 -45 208.125 -117.5 498.75 -117.5S1000 -45 1000 276.875C1000 361.8750000000001 969.375 431.8750000000001 918.75 486.25zM500 -56.25C293.75 -56.25 126.25 -46.875 126.25 153.125C126.25 200.625 150 245.625 190 282.5C256.875 343.7500000000001 371.25 311.2500000000001 500 311.2500000000001C629.375 311.2500000000001 742.4999999999999 343.7500000000001 810 282.5C850.6250000000001 245.625 873.75 201.25 873.75 153.125C873.75 -46.25 706.25 -56.25 500 -56.25zM343.125 256.875C301.875 256.875 268.125 206.875 268.125 145.625S301.875 33.7500000000001 343.125 33.7500000000001C384.375 33.7500000000001 418.125 83.7500000000001 418.125 145.625S384.375 256.875 343.125 256.875zM656.875 256.875C615.625 256.875 581.875 207.5 581.875 145.625S615.6250000000001 33.7500000000001 656.875 33.7500000000001C698.125 33.7500000000001 731.8749999999999 83.7500000000001 731.8749999999999 145.625S698.75 256.875 656.875 256.875z" />
    <glyph glyph-name="organization-filled"
      unicode="&#x26A2;"
      horiz-adv-x="1000" d=" M1000 7.5625C1000 -19.875 971.875 -54.9375 937.5 -54.9375H499.6875C466 -54.9375 437.5625 -27.0000000000001 437.5 7.5H62.5C28.75 7.5 0 42.5625 0 70C0 234.625 187.5 320 187.5 320S201.8125 345.5625 187.5 382.5C134.9375 421.3125 121.375 419.375 125 570C128.625 721.1875 210.4375 757.5 281.25 757.5S433.875 721.25 437.5 570C441.125 419.375 427.5625 421.3125 375 382.5C360.6875 345.625 375 320 375 320S471.8124999999999 275.5625 526.25 189.4999999999999C574.75 234.4375 625 257.5625 625 257.5625S639.3125 283.125 625 320.0625C572.4375 358.8125 558.875 356.9375 562.5 507.5624999999999C566.125 658.75 647.9375 695.0625 718.75 695.0625S871.0625 658.75 874.6875000000001 507.5624999999999C878.375 356.9375 864.8125000000001 358.8125 812.1875000000001 320.0625C797.8750000000001 283.1875 812.1875000000001 257.5625 812.1875000000001 257.5625S1000 172.1875 1000 7.5625z" />
    <glyph glyph-name="organization-outline"
      unicode="&#xF037;"
      horiz-adv-x="875" d=" M296.875 510.43C331.055 470.390625 380.859375 445 437.5 445C494.140625 445 543.945 470.390625 578.125 510.43C599.609375 471.3675 640.625 445 687.5 445C756.8375000000001 445 812.5 500.66375 812.5 570C812.5 639.33625 756.8375000000001 695 687.5 695C662.1125 695 639.6500000000001 687.1875 620.1175 674.4925C600.58625 757.5 526.3675 820 437.5 820C348.6325 820 274.41375 757.5 254.8825 674.4925C235.35125 687.1875 212.890625 695 187.5 695C118.16375 695 62.5 639.33625 62.5 570C62.5 500.66375 118.16375 445 187.5 445C234.375 445 275.390625 471.3675 296.875 510.43zM622.07 605.15625C634.7625 628.59375 659.1812500000001 645.195 687.5 645.195C728.5125 645.195 762.6937499999999 611.015625 762.6937499999999 570C762.6937499999999 528.984375 728.5125 494.805 687.5 494.805C646.4875 494.805 614.2575 528.0074999999999 613.28125 568.046875C617.1875 579.765625 620.1175 592.46125 622.07 605.15625zM437.5 758.4765625C506.83625 758.4765625 563.47625 701.8362500000001 563.47625 632.5C563.47625 563.1637499999999 506.83625 506.52375 437.5 506.52375C368.16375 506.52375 311.52375 563.1637499999999 311.52375 632.5C311.52375 701.8362500000001 368.16375 758.4765625 437.5 758.4765625zM187.5 494.805C146.484375 494.805 112.305 528.984375 112.305 570C112.305 611.015625 146.484375 645.195 187.5 645.195C215.82 645.195 240.234375 628.59375 252.93 605.15625C254.8825 592.46125 257.8125 579.765625 261.71875 568.046875C260.7425 528.0074999999999 228.515625 494.805 187.5 494.805zM812.5 445H62.5C28.3203125 445 0 416.68 0 382.5V195C0 160.8187499999999 28.3203125 132.5 62.5 132.5V7.5C62.5 -26.6812500000001 90.82 -55 125 -55H187.5C221.68 -55 250 -26.6812500000001 250 7.5V70H312.5V-117.5C312.5 -151.6812500000001 340.82 -180 375 -180H500C534.18 -180 562.5 -151.6812500000001 562.5 -117.5V70H625V7.5C625 -26.6812500000001 653.3187499999999 -55 687.5 -55H750C784.1812500000001 -55 812.5 -26.6812500000001 812.5 7.5V132.5C846.6812500000001 132.5 875 160.8187499999999 875 195V382.5C875 416.68 846.6812500000001 445 812.5 445zM187.5 7.5H125V195H62.5V382.5H187.5V7.5zM625 132.5H562.5V257.5H500V-117.5H375V257.5H312.5V132.5H250V382.5H625V132.5zM812.5 195H750V7.5H687.5V382.5H812.5V195z" />
    <glyph glyph-name="package"
      unicode="&#xF0C4;"
      horiz-adv-x="1000" d=" M62.5 553.125V86.2500000000001C62.5 58.1250000000001 81.25 33.7500000000001 109.375 25.6250000000001L515.625 -82.5C525.625 -85.625 536.875 -85.625 546.875 -82.5L953.125 25.6250000000001C981.25 33.7500000000001 1000 58.125 1000 86.2500000000001V553.125C1000 581.25 981.25 605.625 953.125 613.75L546.875 722.5A87.5 87.5 0 0 1 515.625 722.5L109.375 613.75C81.25 605.625 62.5 581.25 62.5 553.125zM500 -15L125 84.375V507.5L500 406.875V-15zM125 570L281.25 611.875L687.5 503.75L531.25 461.8750000000001L125 570zM937.5 84.375L562.5 -15V406.875L687.5 441.25V288.75L812.5 321.875V474.375L937.5 507.5V84.375zM812.5 536.875L406.25 645L531.25 678.125L937.5 570L812.5 536.875z" />
    <glyph glyph-name="paintcan"
      unicode="&#xF0D1;"
      horiz-adv-x="750" d=" M375 820C168.125 820 0 651.875 0 445V382.5C0 348.125 28.125 320 62.5 320V7.5C62.5 -61.25 202.5 -117.5 375 -117.5S687.5 -61.25 687.5 7.5V320C721.875 320 750 348.125 750 382.5V445C750 651.875 581.875 820 375 820zM562.5 195V163.75C562.5 146.25 548.75 132.5 531.25 132.5S500 146.25 500 163.75V195C500 212.5 486.25 226.25 468.75 226.25S437.5 212.5 437.5 195V38.75C437.5 21.25 423.75 7.5 406.25 7.5S375 21.25 375 38.75V163.75C375 181.25 361.25 195 343.75 195S312.5 181.25 312.5 163.75V132.5C312.5 98.125 284.375 70 250 70S187.5 98.125 187.5 132.5V195C153.125 195 125 223.125 125 257.5V370C181.875 339.375 272.5 320 375 320C477.5 320 568.125 339.375 625 370V257.5C625 223.125 596.875 195 562.5 195zM375 382.5C270 382.5 180 408.125 143.125 445C180 481.875 270 507.5 375 507.5C480 507.5 570.0000000000001 481.875 606.875 445C570.0000000000001 408.125 480.0000000000001 382.5 375.0000000000001 382.5zM375 570C202.5 570 62.5 514.375 62.5 445C62.5 617.5 202.5 757.5 375 757.5S687.5 617.5 687.5 445C687.5 513.75 547.5 570 375 570z" />
    <glyph glyph-name="pencil"
      unicode="&#xF058;"
      horiz-adv-x="875" d=" M0 70V-117.5H187.5L687.5 382.5L500 570L0 70zM187.5 -55H62.5V70H125V7.5H187.5V-55zM831.25 526.25L750 445L562.5 632.5L643.75 713.75A62.25000000000001 62.25000000000001 0 0 0 731.875 713.75L831.25 614.375C855.6250000000001 590 855.6250000000001 550.625 831.25 526.25z" />
    <glyph glyph-name="person-filled"
      unicode="&#x26A3;"
      horiz-adv-x="750" d=" M750 -55.125A62.37500000000001 62.37500000000001 0 0 0 687.625 -117.5H62.5625A62.5 62.5 0 0 0 0 -54.9375V7.5C0 172.0625 250 257.5 250 257.5S264.3125 283.0625 250 320C197.4375 358.75 191 419.375 187.5 570C198.3125 720.8125 304.1875 757.5 375 757.5S551.6875 720.875 562.5 570C559 419.375 552.5625 358.75 500 320C485.6875 283.125 500 257.5 500 257.5S750 172.0625 750 7.5V-55.125z" />
    <glyph glyph-name="person-outline"
      unicode="&#xF018;"
      horiz-adv-x="500" d=" M437.5 445H62.5C28.3203125 445 0 416.68 0 382.5V70H125V-117.5C125 -151.6812500000001 153.32 -180 187.5 -180H312.5C346.68 -180 375 -151.6812500000001 375 -117.5V70H500V382.5C500 416.68 471.68 445 437.5 445zM437.5 132.5H375V257.5H312.5V-117.5H187.5V257.5H125V132.5H62.5V382.5H437.5V132.5zM437.5 632.5C437.5 736.015625 353.515625 820 250 820C146.484375 820 62.5 736.015625 62.5 632.5C62.5 528.984375 146.484375 445 250 445C353.515625 445 437.5 528.984375 437.5 632.5zM250 507.5C180.66375 507.5 125 563.1637499999999 125 632.5C125 701.8362500000001 180.66375 757.5 250 757.5C319.33625 757.5 375 701.8362500000001 375 632.5C375 563.1637499999999 319.33625 507.5 250 507.5z" />
    <glyph glyph-name="pin"
      unicode="&#xF041;"
      horiz-adv-x="1000" d=" M625 745V695L656.25 632.5L375 445H137.5C110 445 95.625 411.875 116.25 391.25L312.5 195L62.5 -117.5L375 132.5L571.25 -63.75A31.25 31.25 0 0 1 625 -42.5V195L812.5 476.25L875 445H925C952.5 445 966.875 478.125 946.25 498.75L678.75 766.25A31.25 31.25 0 0 1 625 745z" />
    <glyph glyph-name="play"
      unicode="&#xF107;"
      horiz-adv-x="875" d=" M875 320A437.49999999999994 437.49999999999994 0 1 0 0 320A437.49999999999994 437.49999999999994 0 0 0 875 320zM361.0625 102.375L648.5 294A31.25 31.25 0 0 1 648.5 346L361.0625 537.625A31.25 31.25 0 0 1 312.5 511.625V128.3750000000001A31.25 31.25 0 0 1 361.0625 102.375z" />
    <glyph glyph-name="plug"
      unicode="&#xF0D4;"
      horiz-adv-x="875" d=" M875 445V507.5H625V632.5H500V570H375C310.625 570 264.375 519.375 250 445L187.5 382.5C83.75 382.5 0 298.75 0 195V70H62.5V195C62.5 264.375 118.125 320 187.5 320L250 257.5C265.625 185 311.25 132.5 375 132.5H500V70H625V195H875V257.5H625V445H875z" />
    <glyph glyph-name="plus"
      unicode="&#xF05D;"
      horiz-adv-x="750" d=" M750 257.5H437.5V-55H312.5V257.5H0V382.5H312.5V695H437.5V382.5H750V257.5z" />
    <glyph glyph-name="primitive-dot"
      unicode="&#xF052;"
      horiz-adv-x="500" d=" M0 320C0 457.5 112.5 570 250 570S500 457.5 500 320S387.5 70 250 70S0 182.5 0 320z" />
    <glyph glyph-name="primitive-square"
      unicode="&#xF053;"
      horiz-adv-x="500" d=" M500 70H0V570H500V70z" />
    <glyph glyph-name="project"
      unicode="&#xF28B;"
      horiz-adv-x="937.5" d=" M375 695H562.5V195H375z M125 695H312.5V-55H125z M625 695H812.5V70H625z M875 820H62.5C25 820 0 795 0 757.5V-117.5C0 -155 25 -180 62.5 -180H875C912.5 -180 937.5 -155 937.5 -117.5V757.5C937.5 795 912.5 820 875 820zM875 -117.5H62.5V757.5H875z" />
    <glyph glyph-name="pulse"
      unicode="&#xF085;"
      horiz-adv-x="875" d=" M718.75 320L550 482.5L412.5 288.75L343.75 720L148.75 320H0V195H225L281.25 307.5L337.5 -30L562.5 288.75L662.5 195H875V320H718.75z" />
    <glyph glyph-name="question"
      unicode="&#xF02C;"
      horiz-adv-x="875" d=" M375 195H500V70H375V195zM625 413.75C625 280 500 257.5 500 257.5H375C375 291.875 403.125 320 437.5 320H468.75C486.25 320 500 333.75 500 351.25V413.75C500 431.25 486.25 445 468.75 445H406.25C388.75 445 375 431.25 375 413.75V382.5H250C250 476.25 343.75 570 437.5 570S625 507.5 625 413.75zM437.5 676.25C633.75 676.25 793.75 516.25 793.75 320S633.7499999999999 -36.25 437.5 -36.25A356.87500000000006 356.87500000000006 0 0 0 81.25 320C81.25 516.25 241.2500000000001 676.25 437.5 676.25zM437.5 757.5C196.25 757.5 0 561.25 0 320S196.25 -117.5 437.5 -117.5S875 78.75 875 320S678.75 757.5 437.5 757.5z" />
    <glyph glyph-name="quote"
      unicode="&#xF063;"
      horiz-adv-x="875" d=" M385 601.25C233.125 503.75 159.375 403.125 159.375 235C169.375 238.1250000000001 178.125 238.1250000000001 186.875 238.1250000000001C266.25 238.1250000000001 343.125 184.3750000000001 343.125 87.5000000000001C343.125 -13.1249999999999 278.75 -75.6249999999999 186.875 -75.6249999999999C68.125 -75.6249999999999 0 19.3750000000001 0 190.0000000000001C0 427.5000000000001 109.375 598.1250000000001 313.75 716.2500000000001L385 601.25zM822.5 601.25C670.625 503.7499999999999 596.875 403.125 596.875 235C606.875 238.1250000000001 615.6250000000001 238.1250000000001 624.375 238.1250000000001C703.75 238.1250000000001 780.625 184.3750000000001 780.625 87.5000000000001C780.625 -13.1249999999999 716.25 -75.6249999999999 624.375 -75.6249999999999C506.25 -75.6249999999999 438.125 19.3750000000001 438.125 190.0000000000001C438.125 427.5000000000001 547.5 598.1250000000001 751.875 716.2500000000001L823.125 601.2500000000001H822.5z" />
    <glyph glyph-name="radio-tower"
      unicode="&#xF030;"
      horiz-adv-x="1000" d=" M299.375 438.125C315 453.75 315 480 299.375 495.625C279.375 516.25 269.3750000000001 543.125 269.3750000000001 570C269.3750000000001 596.875 279.3750000000001 623.75 299.3750000000001 644.375C315.0000000000001 660.625 315.0000000000001 686.25 299.3750000000001 701.875A38.3125 38.3125 0 0 1 271.2500000000001 713.75C261.2500000000001 713.75 250.6250000000001 710 243.1250000000001 701.875C207.5000000000001 665.625 190 617.5 190 570C190 522.5 208.125 474.375 243.1250000000001 438.1250000000001C258.7500000000001 422.5000000000001 284.3750000000001 422.5000000000001 299.3750000000001 438.1250000000001zM145.625 787.5A40.6875 40.6875 0 0 1 88.125 787.5C30 727.5 0.625 648.75 0.625 570.625C0.625 491.875 30 413.125 88.125 353.125C103.75 336.875 129.375 336.875 145 353.125S160.625 395.625 145 411.875C102.5 455.6249999999999 81.25 513.125 81.25 570.625C81.25 628.1249999999999 102.5 685.6249999999999 145 729.3749999999999A41.25 41.25 0 0 1 145.625 787.4999999999999zM501.25 468.7500000000001A101.25 101.25 0 1 1 400 570C399.3750000000001 514.375 445 468.75 501.25 468.75zM911.875 786.875A39.25 39.25 0 0 1 855 786.875C839.375 770.625 839.375 744.375 855 728.125C897.5 684.375 918.75 626.875 918.75 569.375C918.75 511.875 897.5 455 855 410.625C839.375 394.375 839.375 368.1250000000001 855 351.875A40.6875 40.6875 0 0 1 912.5 351.875C970.625 411.875 1000 490.625 1000 569.375A315.5 315.5 0 0 1 911.875 786.875zM501.25 387.5C475.6249999999999 387.5 449.375 393.75 426.25 406.25L229.375 -116.8749999999999H322.5L376.25 -54.3749999999999H626.25L678.75 -116.8749999999999H771.875L575.625 406.25C551.875 393.75 526.8750000000001 387.5 501.2500000000001 387.5zM500.625 357.5L563.75 132.5H438.75L500.625 357.5zM376.25 8.125L438.75 70.625H563.75L626.25 8.125H376.25zM700.625 701.875C685 686.25 685 660 700.625 644.375C720.6250000000001 623.75 730.6250000000001 596.875 730.6250000000001 570C730.6250000000001 543.125 720.6250000000001 516.25 700.625 495.6250000000001C685 479.3750000000001 685 453.7500000000001 700.625 438.1250000000001A39.375 39.375 0 0 1 756.8750000000001 438.1250000000001C792.5000000000001 474.3750000000001 810 522.5 810 570C810 617.5 792.5000000000001 665.625 756.8750000000001 701.875A39.625 39.625 0 0 1 700.625 701.875z" />
    <glyph glyph-name="reply"
      unicode="&#xF28C;"
      horiz-adv-x="875" d=" M375 601.25C620 573.75 875 405.9375 875 -23.75C730.5 292.6250000000001 578.125 351.25 375 351.25V132.5L31.25 476.25L375 820V601.25z" />
    <glyph glyph-name="repo-clone"
      unicode="&#xF04C;"
      horiz-adv-x="1000" d=" M937.5 820H562.5V382.5C562.5 348.125 590.625 320 625 320H687.5V257.5H750V320H937.5C971.875 320 1000 348.125 1000 382.5V757.5C1000 791.875 971.875 820 937.5 820zM687.5 382.5H625V445H687.5V382.5zM937.5 382.5H750V445H937.5V382.5zM937.5 507.5H687.5V757.5H937.5V507.5zM250 507.5H187.5V570H250V507.5zM250 632.5H187.5V695H250V632.5zM125 757.5H500V820H62.5C28.125 820 0 791.875 0 757.5V7.5C0 -26.875 28.125 -55 62.5 -55H187.5V-180L281.25 -86.25L375 -180V-55H687.5C721.875 -55 750 -26.875 750 7.5V195H125V757.5zM687.5 132.5V7.5H375V70H187.5V7.5H62.5V132.5H687.5zM187.5 320H250V257.5H187.5V320zM250 382.5H187.5V445H250V382.5z" />
    <glyph glyph-name="repo-force-push"
      unicode="&#xF04A;"
      horiz-adv-x="750" d=" M625 257.5H500V-180H375V257.5H250L390.625 445H250L437.5 695L625 445H484.375L625 257.5zM687.5 820H62.5C28.125 820 0 791.875 0 757.5V7.5C0 -26.875 28.125 -55 62.5 -55H312.5V7.5H62.5V132.5H312.5V195H125V757.5H687.5V195H562.5V132.5H687.5V7.5H562.5V-55H687.5C721.875 -55 750 -26.875 750 7.5V757.5C750 791.875 721.875 820 687.5 820z" />
    </font>
</defs>
</svg>
