<?xml version="1.0" standalone="no"?>
<!DOCTYPE svg PUBLIC "-//W3C//DTD SVG 1.1//EN" "http://www.w3.org/Graphics/SVG/1.1/DTD/svg11.dtd" >
<svg xmlns="http://www.w3.org/2000/svg" xmlns:xlink="http://www.w3.org/1999/xlink" version="1.1">
<metadata></metadata>
<defs>
<font id="optimusprincepsregular" horiz-adv-x="739" >
<font-face units-per-em="2048" ascent="1638" descent="-410" />
<missing-glyph horiz-adv-x="499" />
<glyph horiz-adv-x="0" />
<glyph horiz-adv-x="682" />
<glyph horiz-adv-x="552" d="M45 1634q0 -27 23.5 -44t55.5 -26.5t64.5 -12.5t51.5 -3q39 0 84 8.5t83.5 27t66.5 50t34 78.5q-41 -47 -97.5 -81t-121.5 -34q-59 0 -106.5 34t-78.5 81q-20 -12 -39.5 -31.5t-19.5 -46.5z" />
<glyph horiz-adv-x="253" d="M45 1634q0 -33 19.5 -68.5t58.5 -35.5q33 0 59.5 22.5t26.5 57.5q0 37 -24.5 66.5t-63.5 29.5q-33 0 -54.5 -18.5t-21.5 -53.5z" />
<glyph horiz-adv-x="411" d="M45 1597q0 -41 24.5 -69.5t65.5 -28.5q20 0 41 7t37 18q27 2 54.5 10t49 23.5t36 38t14.5 53.5q0 53 -38 84.5t-89 31.5q-35 0 -70 -12t-62.5 -33.5t-45 -53.5t-17.5 -69zM115 1647q0 33 27.5 55t58.5 22q37 0 62.5 -29.5t25.5 -64.5q0 -27 -21.5 -51.5t-48.5 -24.5 q-39 0 -71.5 26t-32.5 67z" />
<glyph unicode="&#xa;" horiz-adv-x="550" d="M45 1532q59 45 117.5 91t124.5 85q-10 16 -26.5 29.5t-37.5 13.5q-33 0 -57.5 -26.5t-45 -62.5t-39 -73t-36.5 -57zM246 1532q25 18 57.5 44t67.5 51.5t70.5 44t64.5 20.5q-10 23 -27.5 46t-46.5 23q-23 0 -49.5 -29.5t-52 -67.5t-48 -76t-36.5 -56z" />
<glyph horiz-adv-x="401" d="M45 -80q0 -35 14.5 -62.5t38 -48t54 -31.5t63.5 -11q39 0 74.5 12t66.5 35q-39 -10 -73.5 -4t-61 26.5t-43 51t-16.5 71.5q0 55 33.5 99t80.5 67q-37 -10 -77.5 -26.5t-74.5 -41t-56.5 -58.5t-22.5 -79z" />
<glyph horiz-adv-x="528" d="M45 1671q53 -43 108.5 -84t114.5 -78q59 49 113.5 103.5t101.5 113.5q-27 -8 -54.5 -27.5t-54 -39t-51 -35.5t-47.5 -20q-53 16 -93 57t-83 74q-16 -14 -30.5 -29.5t-24.5 -34.5z" />
<glyph />
<glyph />
<glyph unicode=" "  horiz-adv-x="499" />
<glyph unicode="&#x09;" horiz-adv-x="499" />
<glyph unicode="&#xa0;" horiz-adv-x="499" />
<glyph unicode="!" horiz-adv-x="270" d="M45 1255q0 -37 2 -108.5t7 -160.5t11.5 -184t15.5 -179t21.5 -148.5t26.5 -89.5q4 -6 10 -4t6 8q12 127 20.5 257t18.5 257q10 129 19.5 256t19.5 256l-10 8q-25 -4 -53.5 -20.5t-54 -40t-43 -52t-17.5 -55.5zM47 207q0 -18 5 -37.5t16.5 -36t27 -28t37.5 -11.5 q35 0 63.5 25.5t28.5 62.5q0 41 -26.5 72t-67.5 31q-35 0 -59.5 -19.5t-24.5 -58.5z" />
<glyph unicode="&#x22;" horiz-adv-x="468" d="M45 1554q0 -84 7 -170t18 -172q4 -35 7 -69.5t7 -69.5q2 -16 14.5 -26.5t28.5 -10.5q23 0 30 20.5t7 41.5v10q0 37 5 73t9 74q8 78 15.5 157t7.5 155q0 31 -23.5 53t-52.5 22q-35 0 -57.5 -26.5t-22.5 -61.5zM268 1554q0 -84 7.5 -170t17.5 -172q4 -35 7 -69.5t7 -69.5 q2 -16 13.5 -26.5t27.5 -10.5q25 0 32 20.5t7 41.5v10q0 37 5 73t9 74q8 78 15.5 157t7.5 155q0 31 -23.5 53t-54.5 22q-37 0 -57.5 -26.5t-20.5 -61.5z" />
<glyph unicode="#" horiz-adv-x="1013" d="M45 573q0 -10 8 -10q35 -2 71 -5t71 -5q-4 -29 -8.5 -49.5t-8.5 -48.5q-12 -80 -22.5 -162t-20.5 -164q0 -8 6 -8l54 -15q6 -2 10 7q8 29 15 62.5t16 64.5q16 72 34.5 153.5t28.5 159.5q80 -4 153.5 -6t151.5 -6l-57 -406q0 -10 8 -10l51 -8q4 0 8 4q25 61 40.5 135 t27.5 147q6 35 11 69t14 67l155 -4q8 0 8 6l25 143q0 10 -8 10q-37 0 -75 -1t-73 -1q16 76 27.5 146.5t28.5 146.5l145 -4q8 0 8 4l21 141q0 10 -8 11h-142q45 186 66 381q0 6 -6 6l-97 16q-8 0 -8 -6q-20 -100 -38.5 -199.5t-39.5 -199.5q-76 -2 -146.5 -5.5t-146.5 -5.5 q16 102 32 196.5t30 199.5q0 8 -6 8l-92 12q-10 0 -11 -6q-20 -104 -38.5 -207.5t-38.5 -208.5l-134 -4q-8 0 -8 -6l-16 -88q0 -10 8 -10q35 -2 66.5 -3t64.5 -3q-14 -84 -24.5 -163t-24.5 -165l-143 -6q-8 0 -9 -6zM326 680q16 84 30.5 159.5t30.5 157.5l285 -12 q-12 -78 -24.5 -146.5t-24.5 -146.5q-47 -8 -100.5 -9t-106.5 -1h-47q-20 0 -43 -2z" />
<glyph unicode="$" horiz-adv-x="755" d="M45 252q0 -12 2 -29q0 -6 4 -6q59 -33 124 -57.5t130 -32.5q-4 -16 -4 -31q0 -12 -2 -30q-2 -16 -3 -33t-5 -37q0 -10 8 -10l20 -2q35 0 44.5 32.5t13.5 67.5q2 12 4 24.5t6 22.5q68 6 127 30.5t102 65.5t69 98.5t26 129.5q0 63 -20.5 121.5t-57.5 106.5t-87 85t-108 59 q2 14 2 25q0 10 2 25q8 100 16.5 201.5t24.5 203.5q59 -10 106.5 -51t47.5 -103q0 -12 -4 -32q-2 -6 5 -9.5t9 3.5q16 41 21.5 85t5.5 91v22q0 12 -2 25q0 8 -4 8q-33 16 -69 28.5t-77 8.5q-8 0 -17 -1t-18 -1q4 20 5 35q0 14 2 32q2 16 3 35t5 39q0 10 -8 10 q-25 0 -38.5 -9t-21.5 -25.5t-10 -35t-2 -36.5v-53q-68 2 -128.5 -17.5t-104.5 -58.5t-70.5 -96.5t-26.5 -126.5q0 -125 76 -216.5t188 -132.5q-10 -123 -18 -245.5t-21 -245.5q-49 0 -89 21.5t-67.5 56.5t-42 78t-14.5 90q0 14 -12 6l-24 -17q-16 -37 -19.5 -79.5 t-3.5 -83.5v-29zM219 1100q0 84 55.5 131t135.5 49q-25 -201 -37 -403q-66 33 -110 90t-44 133zM391 213q4 57 8 110.5t9 112.5q4 53 8 107.5t8 107.5q68 -35 112 -97t44 -138q0 -86 -55.5 -138.5t-133.5 -64.5z" />
<glyph unicode="%" horiz-adv-x="1343" d="M45 1051q0 -57 22.5 -115.5t62.5 -107t92 -78t114 -29.5q61 0 113.5 31.5t89 82t57 111t20.5 115.5q0 127 -94 203q80 12 159 16t157 8q10 0 18 1t18 1q-104 -238 -210.5 -472t-212.5 -470q-25 -53 -48.5 -107.5t-48.5 -107.5q-4 -12 8 -12q6 0 13.5 -1t13.5 -1 q23 -2 46.5 4t41.5 22q12 23 46 97.5t78 180t95.5 229.5t99.5 244t90 224.5t68 169.5q10 25 17.5 41.5t11.5 26.5l-8 12q-27 -4 -76 -6t-108 -6q-80 -6 -171.5 -11.5t-174.5 -12.5t-145 -15t-83 -16q-76 -35 -124 -100.5t-48 -151.5zM164 1065q0 39 10 77t30.5 67.5t52.5 48 t75 18.5t74.5 -20.5t51 -53.5t29 -71.5t9.5 -77.5q0 -72 -28 -145.5t-93 -110.5q-51 2 -91 26.5t-67 63.5t-40 85t-13 93zM756 434q0 -59 18.5 -114.5t52 -97.5t82.5 -67.5t113 -25.5q63 0 114.5 25.5t87.5 68.5t55 98.5t19 114.5q0 55 -17 109.5t-49 95.5t-80 66.5 t-110 25.5q-63 0 -116.5 -23.5t-91 -63.5t-58 -95t-20.5 -117zM858 471q0 80 43 142.5t127 62.5q43 0 72.5 -20.5t48 -51.5t28 -69.5t9.5 -75.5t-7.5 -76t-22.5 -76t-37.5 -67.5t-55.5 -51.5q-47 10 -85 39t-64.5 68t-41 85t-14.5 91z" />
<glyph unicode="&#x26;" horiz-adv-x="1456" d="M45 483q0 -86 38 -154.5t98.5 -116.5t137 -74.5t156.5 -26.5q111 0 209 53t184 117q43 -37 82 -67t79 -49.5t86 -29.5t106 -10h12h45t53.5 1t49 4t30.5 7l-4 17q-127 16 -235.5 82.5t-198.5 156.5q27 35 49 84t41.5 102.5t34 106.5t24.5 96q0 4 -4 9q-41 23 -85 31.5 t-89 8.5q-47 0 -86 -12q-6 -2 -6 -8q0 -4 6 -6q57 -8 96 -39t39 -92q0 -59 -26.5 -124t-59.5 -118q-16 14 -36.5 32.5t-43.5 39.5q-72 66 -157.5 148.5t-160.5 170.5t-125 175t-50 161q0 86 56 141.5t142 55.5q43 0 86.5 -15.5t75 -43t50 -65.5t16.5 -83l-2 -33q0 -6 6 -7 t10 5q27 72 27 154q0 66 -15 121q0 6 -6 6q-51 20 -105 28.5t-108 8.5q-70 0 -137.5 -26t-121.5 -72t-87 -108.5t-33 -135.5q0 -63 28 -115.5t69 -93.5q-47 -39 -90 -81t-76 -90t-53.5 -103.5t-20.5 -123.5zM186 526q0 82 37 158t92 135q111 -135 233 -258.5t263 -234.5 q-55 -61 -128 -101.5t-155 -40.5q-70 0 -131 28t-108 75t-75 108.5t-28 130.5z" />
<glyph unicode="'" horiz-adv-x="249" d="M45 1554q0 -82 7 -162.5t18 -166.5q4 -39 8 -76t8 -76q2 -16 14.5 -26.5t28.5 -10.5q27 0 32 19.5t5 40.5v12q4 31 8 63.5t6 67.5l17 320q8 0 8 8q0 33 -24.5 54t-55.5 21q-35 0 -57.5 -26.5t-22.5 -61.5z" />
<glyph unicode="(" horiz-adv-x="471" d="M45 731q0 -104 28.5 -202.5t78 -187.5t116 -169t144.5 -147l12 10q-113 154 -182.5 335t-69.5 375q0 193 69.5 375.5t182.5 335.5q4 6 -2 10t-10 0q-78 -72 -144.5 -154.5t-116 -176t-78 -195.5t-28.5 -209z" />
<glyph unicode=")" horiz-adv-x="481" d="M47 35q-4 -4 2 -9.5t10 -0.5q80 70 148.5 152.5t119 175.5t80 195.5t29.5 211.5q0 106 -28.5 205.5t-78.5 189.5t-118 171t-143 149q-4 4 -10.5 -0.5t-2.5 -10.5q111 -160 181.5 -342t70.5 -379q0 -195 -71.5 -375t-188.5 -333z" />
<glyph unicode="*" horiz-adv-x="579" d="M45 1346q0 -12 1 -25.5t3 -30t3 -30t1 -29.5q0 -8 8 -8t17.5 -1t17.5 -1q8 -2 23 -2q16 0 26 2q25 2 53.5 1t45.5 -12q-8 -8 -18.5 -16t-22.5 -18q-20 -16 -44 -38t-43.5 -43.5t-33.5 -41t-14 -33.5q0 -8 6 -8q29 -6 58.5 -11.5t62.5 -5.5h6q8 0 8 6q8 47 27.5 95.5 t52.5 83.5q4 -10 10 -22.5t12 -35.5q8 -25 18.5 -49t21.5 -44.5t23.5 -34t26.5 -13.5q12 0 23.5 11.5t21 26.5t15.5 30.5t10 25.5q-6 23 -27.5 39t-46.5 33q-23 14 -42 30.5t-23 36.5q41 0 79 3.5t78 7.5q10 2 19 2q10 0 20 2l7 10q-4 27 -15.5 62.5t-38.5 52.5q-6 4 -10 0 q-12 -12 -30.5 -29.5t-39 -32t-42 -25t-40.5 -10.5h-4q0 14 6.5 26.5t10.5 29.5q10 33 18 65.5t8 67.5q0 23 -6 41q-4 6 -10 6q-35 -6 -64.5 -17.5t-58.5 -33.5q-6 -6 -2 -8l19 -50q10 -29 21 -57.5t11 -56.5q0 -8 -2 -15q-20 10 -55 35q-35 23 -72 45.5t-67 22.5 q-8 0 -21 -4q-6 0 -6 -8z" />
<glyph unicode="+" horiz-adv-x="1525" d="M45 803q0 -8 8 -8h660v-678q0 -8 8 -8h76q8 0 8 8v678h668q8 0 8 8v78q0 8 -8 8h-668v682q0 8 -8 8h-76q-8 0 -8 -8v-682h-660q-8 0 -8 -8v-78z" />
<glyph unicode="," horiz-adv-x="268" d="M45 252q4 -6 12.5 -17.5t14.5 -21.5q10 -14 20 -31.5t10 -44.5q0 -29 -9 -54.5t-19 -53.5v2q-4 -8 -7.5 -19.5t-7.5 -25.5q-2 -6 4.5 -9.5t10.5 0.5q25 25 50.5 54.5t48 63.5t36.5 70t14 73q0 39 -22.5 67.5t-57.5 46.5q-14 -4 -31.5 -13t-31.5 -23.5t-24.5 -31 t-10.5 -32.5z" />
<glyph unicode="-" horiz-adv-x="622" d="M45 635q0 -12 10 -8q70 27 143.5 41t145.5 24q59 10 118 21.5t116 27.5v17q-12 4 -47 6t-81.5 3t-99.5 1h-102h-168q-8 0 -8 -6q-10 -29 -16.5 -61.5t-10.5 -65.5z" />
<glyph unicode="." horiz-adv-x="276" d="M45 240q0 -35 20.5 -73t61.5 -38q37 0 70.5 27.5t33.5 68.5q0 39 -28.5 74t-69.5 35t-64.5 -29t-23.5 -65z" />
<glyph unicode="/" horiz-adv-x="958" d="M45 168q10 -25 31.5 -43.5t46.5 -22.5q4 0 8 4q199 319 393 636t389 636l-2 13l-73 30q-6 4 -11 -4q-43 -66 -85 -133t-83 -135q-154 -248 -305 -489.5t-307 -485.5q0 -2 -1 -3t-1 -3z" />
<glyph unicode="0" horiz-adv-x="987" d="M45 774q0 -109 29.5 -225.5t90 -214.5t153 -163t219.5 -69q100 49 175.5 130t127 181.5t77 210t25.5 218.5q0 96 -23.5 190t-72.5 169t-128 121t-190 46q-125 0 -216 -51t-150.5 -135t-88 -190.5t-28.5 -217.5zM199 823q0 61 10 142.5t40 154t81 121.5t131 49 q94 0 155.5 -51t97.5 -127t49 -164t13 -164q0 -70 -11 -158.5t-37 -174.5t-70 -160t-109 -111q-96 31 -163 101.5t-107.5 160.5t-60 190.5t-19.5 190.5z" />
<glyph unicode="1" horiz-adv-x="673" d="M47 1122.5q2 -6.5 8 -4.5q29 4 53.5 15.5t49.5 21.5q27 12 51 21.5t41 9.5q25 0 43 -19v-886q0 -39 -11.5 -60.5t-32 -33t-46 -16.5t-51.5 -7q-20 -2 -37 -4t-33 -6q-6 -2 -5 -9.5t7 -7.5q135 -6 269 -8t270 -2l6 12q-10 16 -30.5 21.5t-45.5 7.5q-20 2 -42 6t-38 16.5 t-27.5 36t-11.5 64.5v233q0 117 2 233.5t2 231.5v232v30v60q0 31 -4 59q0 12 -10 8q-98 -51 -193.5 -112.5t-181.5 -132.5q-4 -4 -2 -10.5z" />
<glyph unicode="2" horiz-adv-x="878" d="M47 147q-8 -12 6 -12h678q27 0 46.5 37t31.5 85t17 95.5t5 67.5l-16 2q-23 -59 -51.5 -94t-66.5 -55.5t-85 -26.5t-104 -6h-254q-12 0 -23 2q90 61 186.5 154t176.5 202t131 226.5t51 230.5q0 94 -39 154.5t-101.5 94t-139 46t-152.5 12.5q-61 0 -118.5 -16.5 t-108.5 -38.5q-4 0 -4 -9q-2 -16 -3 -30.5t-1 -30.5q0 -47 5 -92t19 -90q2 -6 9.5 -5t7.5 7q0 47 14 89t39.5 74.5t64.5 51t88 18.5q57 0 107.5 -23.5t86.5 -63.5t56.5 -91t20.5 -108q0 -82 -38 -168t-98.5 -170t-133 -167t-142.5 -159q-47 -51 -90 -100.5t-78 -92.5z" />
<glyph unicode="3" horiz-adv-x="831" d="M47 211l2 -45q0 -2 4 -6q96 -76 223 -76q86 0 176.5 38t165 101.5t121.5 146.5t47 173q0 59 -22.5 107t-59 84t-86 62.5t-102.5 43.5q33 27 64.5 56.5t56.5 64t40 73.5t15 84q0 55 -19.5 102.5t-54 82t-82 54t-102.5 19.5q-80 0 -164 -20.5t-155 -48.5q-4 0 -4 -9 q-4 -29 -6.5 -58.5t-2.5 -57.5q0 -23 2 -45.5t9 -44.5q2 -6 9 -5.5t7 7.5q10 86 66.5 142t144.5 56q45 0 86 -15t71.5 -43t49 -67t18.5 -84q0 -59 -18.5 -98t-46 -66.5t-62.5 -45t-65 -31.5q-29 -12 -52.5 -25.5t-37.5 -30.5q-6 -8 4 -12q57 -12 117.5 -38.5t111.5 -66.5 t84 -94.5t33 -117.5q0 -59 -31 -110.5t-78 -89.5t-105.5 -59.5t-113.5 -21.5q-53 0 -92 18.5t-63.5 51.5t-37 74.5t-14.5 91.5q0 6 -6 7t-10 -5q-18 -47 -28.5 -98.5t-6.5 -104.5z" />
<glyph unicode="4" horiz-adv-x="993" d="M47 506q-4 -12 6 -12h563q-2 -29 -1 -54.5t1 -56.5v-59q0 -29 -3 -61t-15 -60q-12 -27 -36.5 -34t-49.5 -9q-20 -2 -34.5 -3t-24.5 -18q-8 -12 6 -12h145l305 2q6 0 8.5 5t-4.5 9q-33 18 -56 25.5t-40 11.5q-18 2 -29.5 7.5t-18.5 19.5t-10 43t-3 82v37q0 18 2 37 q2 23 3 45t-1 45h35q25 0 51 1t49 8t38 22t15 46q0 14 -4 35q0 10 -8 6q-49 -18 -98 -18q-23 0 -41.5 2t-38.5 12v760q0 6 -5 8t-10 -2q-41 -43 -102 -110.5t-132 -147.5t-144.5 -167t-137 -170t-111.5 -154.5t-69 -120.5zM184 602q111 137 214.5 269.5t213.5 269.5v-539 h-428z" />
<glyph unicode="5" horiz-adv-x="770" d="M45 186q0 -23 2 -45q0 -8 6 -8q92 -31 191 -31q90 0 174 30t148.5 84t102.5 131t38 173q0 106 -38 194.5t-103.5 153t-154.5 100.5t-192 36v8q0 53 5 105t12 104h350q45 0 58 -26t22 -52q6 -29 20 -45q4 -4 8 -4t6 6q25 110 25 233l-8 8q-119 -10 -238 -12t-239 -2h-54 q-8 0 -8 -6q-20 -111 -30.5 -220.5t-14.5 -221.5q0 -8 8 -9q74 -10 154 -40.5t145.5 -82t107.5 -121t42 -155.5q0 -61 -29 -112.5t-75 -90.5t-103 -60.5t-115 -21.5q-51 0 -87 17.5t-59.5 48.5t-33.5 72t-8 88q0 6 -7 7t-10 -5q-12 -45 -15 -90t-3 -91v-47z" />
<glyph unicode="6" horiz-adv-x="884" d="M45 541q0 -94 38 -179.5t102.5 -148.5t150.5 -101t180 -38q82 0 142.5 35.5t100.5 94t60.5 130t20.5 143.5q0 63 -17.5 130t-53.5 121t-90 89t-128 35q-66 0 -125 -28.5t-111 -65.5q-4 -4 -2 -11.5t9 -3.5q29 12 61.5 20.5t65.5 8.5q68 0 116.5 -29.5t81.5 -77 t49.5 -106.5t16.5 -119q0 -45 -10.5 -94t-33 -89t-59.5 -65.5t-90 -25.5q-74 0 -136 33.5t-107.5 87t-71 122t-25.5 138.5q0 115 42 231.5t110.5 222t158 195.5t181.5 152q6 4 2 11t-10 3q-115 -49 -226.5 -134t-198.5 -193.5t-140.5 -235.5t-53.5 -258z" />
<glyph unicode="7" horiz-adv-x="837" d="M45 1106q0 -16 1 -30.5t11 -31.5q4 -4 9.5 -3t5.5 8q6 59 37.5 95t80 56.5t106.5 26.5t120 6q29 0 63.5 -1t61.5 -3q29 -2 55.5 -3t48.5 -1q12 0 19 -2q-68 -115 -146 -255.5t-148.5 -288t-126 -293.5t-73.5 -271q0 -14 10 -11q18 4 44 13.5t50.5 22t45 28.5t28.5 35 q16 43 28.5 87t22.5 91q8 37 17.5 70.5t19.5 68.5q70 203 161.5 402.5t195.5 392.5l-9 12q-47 0 -94 -1t-96 -3q-51 -2 -101.5 -3t-103.5 -1q-78 0 -156.5 6t-152.5 23q-10 4 -10 -7q-2 -20 -4.5 -38.5t-6.5 -38.5q-6 -39 -10 -78t-4 -80z" />
<glyph unicode="8" horiz-adv-x="858" d="M45 434q0 -76 34 -138.5t87 -106.5t121.5 -67.5t140.5 -23.5q78 0 148.5 33t123 88t83 127t30.5 150q0 121 -69.5 200.5t-180.5 116.5q80 41 137.5 118t57.5 169q0 57 -25.5 108.5t-66.5 90t-95.5 60t-109.5 21.5q-68 0 -130.5 -29.5t-111.5 -78.5t-78.5 -112.5 t-29.5 -131.5q0 -94 58 -157.5t142 -94.5q-55 -23 -103 -55.5t-84 -76.5t-57.5 -96t-21.5 -114zM186 489q0 109 62.5 181.5t173.5 72.5q57 0 103 -25.5t79 -67.5t49.5 -95t16.5 -106q0 -43 -14.5 -91.5t-42 -87.5t-65.5 -64.5t-87 -25.5q-63 0 -114.5 25.5t-86.5 68.5 t-54.5 99.5t-19.5 115.5zM248 1122q0 43 16.5 76t45 56.5t64.5 36t77 12.5q43 0 76.5 -18.5t56 -48.5t35 -68.5t12.5 -77.5q0 -72 -37 -136.5t-98 -99.5q-51 0 -96.5 22.5t-79 60.5t-53 87t-19.5 98z" />
<glyph unicode="9" horiz-adv-x="860" d="M45 997q0 -59 17.5 -119.5t51 -107.5t86 -76.5t119.5 -29.5q70 0 134.5 28.5t119.5 71.5q6 4 2 10t-10 2q-29 -16 -62.5 -28.5t-70.5 -12.5q-63 0 -112.5 33t-83 83t-51 111.5t-17.5 116.5q0 90 42 148.5t138 58.5q78 0 137.5 -26.5t100.5 -73.5t61.5 -110.5t20.5 -137.5 q0 -117 -38 -235.5t-103.5 -228t-151.5 -202t-182 -153.5q-6 -4 -2 -11.5t10 -3.5q117 49 227.5 132t196.5 189.5t138 231.5t52 258q0 90 -35 177.5t-96 155t-144 109.5t-178 42q-78 0 -137 -37t-99 -95.5t-60.5 -130t-20.5 -139.5z" />
<glyph unicode=":" horiz-adv-x="276" d="M45 291q0 -35 20.5 -72t61.5 -37q37 0 70.5 27.5t33.5 66.5q0 41 -28.5 75t-69.5 34t-64.5 -27.5t-23.5 -66.5zM45 852q0 -35 20.5 -72t61.5 -37q39 0 71.5 29t32.5 68q0 41 -28.5 74.5t-69.5 33.5q-43 0 -65.5 -27.5t-22.5 -68.5z" />
<glyph unicode=";" horiz-adv-x="276" d="M45 852q0 -35 19.5 -72t62.5 -37q39 0 71.5 29t32.5 68q0 41 -28.5 74.5t-69.5 33.5q-43 0 -65.5 -27.5t-22.5 -68.5zM61 -2q-8 -12 7 -12q33 0 60.5 29.5t48 69.5t30.5 83t10 70q0 37 -16.5 70.5t-63.5 43.5q-20 -10 -48 -28.5t-28 -47.5q0 -10 5.5 -22t11.5 -29 q10 -20 18 -42.5t8 -49.5q0 -37 -13 -70.5t-30 -64.5z" />
<glyph unicode="&#x3c;" horiz-adv-x="468" d="M47 803q72 -92 147.5 -178t153.5 -160q8 -8 12 2q12 16 26.5 35t37.5 35v12l-54 54t-86 88t-79 85t-35 45q0 8 36 52.5t79 97.5t83 101t50 71q4 6 -3 10t-12 0q-92 -82 -182 -166t-174 -176q-4 -4 0 -8z" />
<glyph unicode="=" horiz-adv-x="622" d="M45 526q0 -12 10 -8q70 27 143.5 41t145.5 27q59 10 118 20.5t116 26.5v16q-12 4 -47 6t-81.5 3t-99.5 1h-102h-168q-8 0 -8 -6q-10 -29 -16.5 -60.5t-10.5 -66.5zM45 668q0 -12 10 -9q70 27 143.5 41.5t145.5 26.5q59 10 118 21.5t116 27.5v17q-12 4 -47 6t-81.5 3 t-99.5 1h-102h-168q-8 0 -8 -6q-10 -29 -16.5 -62t-10.5 -67z" />
<glyph unicode="&#x3e;" horiz-adv-x="473" d="M49 1069q12 -12 54 -53t86 -87t79 -84t35 -46q0 -10 -39 -58.5t-86 -107.5q-41 -49 -75.5 -92t-45.5 -66q-4 -6 2.5 -10t10.5 0q86 66 153.5 132.5t132.5 135.5q18 18 36 37t36 37v8q-72 98 -147.5 179t-153.5 159q-8 8 -12 -2q-14 -20 -29.5 -37.5t-34.5 -32.5 q-8 -8 -2 -12z" />
<glyph unicode="?" horiz-adv-x="727" d="M45 1245q0 -37 14.5 -69.5t34.5 -63.5q2 -4 6 -4t6 6q8 39 21.5 77t34 68.5t52.5 49t77 18.5q43 0 85 -6t75.5 -24.5t54 -50.5t20.5 -81q0 -57 -25.5 -123.5t-62.5 -133t-79 -128t-74 -110.5q-27 -37 -45.5 -64.5t-18.5 -38.5q0 -23 14.5 -49t37 -49t48 -39t48.5 -16 q6 0 7 5t-3 9q-41 27 -41 74q0 55 45 125.5t104 142.5q35 45 71 93t64.5 97.5t47 99.5t18.5 99q0 61 -29.5 114.5t-77 92.5t-106.5 60.5t-117 21.5q-45 0 -98 -10.5t-99 -35t-78 -63.5t-32 -94zM254 207q0 -18 5 -37.5t15.5 -36t25.5 -28t38 -11.5q35 0 64.5 25.5t29.5 62.5 q0 41 -27.5 72t-68.5 31q-35 0 -58.5 -19.5t-23.5 -58.5z" />
<glyph unicode="@" horiz-adv-x="1433" d="M37 680q-18 -135 21.5 -244.5t120.5 -185.5t193.5 -116t241.5 -40q98 2 190.5 24.5t190.5 55.5l4 2v2q-2 8 -7 33t-13 22q-76 -35 -155 -53t-156 -20q-125 0 -224.5 42t-165 116.5t-93 180t-11.5 230.5q18 125 70.5 226.5t134.5 173t189.5 110.5t234.5 39q119 0 211 -35 t151.5 -101.5t84 -162.5t7.5 -217q-6 -41 -21 -93.5t-42 -98.5t-65.5 -77.5t-92.5 -31.5q-49 0 -74.5 33.5t-19.5 80.5q10 78 25.5 154t29.5 154q4 27 10.5 52.5t10.5 47.5l-1 1t-1 3q-45 23 -99.5 36t-107.5 13q-80 0 -144.5 -30.5t-113.5 -81t-80 -118t-41 -140.5 q-6 -49 1 -97.5t29.5 -86.5t60.5 -62.5t93 -24.5h27q41 29 87 59.5t89 61.5q25 -57 74 -90t108 -31q82 0 148.5 38t117 98.5t82.5 133t42 144.5q18 139 -24 240.5t-125 168t-197.5 97.5t-239.5 31q-150 -2 -281 -49.5t-231.5 -134.5t-167 -209t-86.5 -273zM547 664 q-4 41 2 79q4 35 19.5 73t40 71t57 54.5t73.5 21.5q45 0 79 -32t50 -69l-37 -287q-31 -27 -68.5 -45t-74.5 -18q-45 0 -74.5 21.5t-46 55.5t-20.5 75z" />
<glyph unicode="A" horiz-adv-x="1617" d="M46 7q1 -7 7 -7q23 2 44.5 3t43.5 3q35 4 72 6t74 2q35 0 69.5 -2t69.5 -6q16 -2 35 -2q18 0 35 -2v16q-16 2 -36 5.5t-36 11.5t-27.5 21.5t-11.5 33.5q0 31 19.5 100.5t45 146.5t52 148.5t41.5 106.5h434q49 -131 100 -261t101 -261l-111 -52q-6 -4 -4 -11t8 -5 q10 2 25 2q14 0 24 2q51 4 102.5 7t102.5 3q20 0 43 -2t43 -4q25 -4 52.5 -5t54.5 1l49 2q6 0 6 8t-6 9q-70 6 -121 33.5t-86 91.5q-78 147 -148.5 305.5t-137 322.5t-128 328t-117.5 317q-10 31 -22 62t-23 59q-2 6 -8 6t-8 -6q-53 -143 -107.5 -290.5t-105.5 -292.5 q-70 -199 -139.5 -393.5t-147.5 -389.5q-29 -72 -83 -110.5t-134 -51.5q-6 -2 -5 -9zM569 680q43 121 79 237.5t77 239.5q8 27 17.5 54.5t19.5 56.5l180 -588h-373z" />
<glyph unicode="B" horiz-adv-x="1132" d="M46 1522q-3 -4 1 -9q16 -23 35.5 -26.5t42.5 -5.5q16 -2 31.5 -5t28 -13.5t19.5 -31t7 -55.5v-1157q0 -49 -4 -81t-17.5 -53.5t-41 -36.5t-74.5 -30q-6 -2 -5 -9t7 -7q66 0 132 -1t132 -3q68 -2 133 -2h131q96 0 183 31.5t154 90t106.5 141.5t39.5 185q0 76 -25.5 143.5 t-71.5 121t-107.5 92.5t-132.5 61q35 33 68.5 73t61 84t44 91t16.5 98q0 82 -40 143.5t-101.5 101.5t-137 59.5t-145.5 19.5q-41 0 -84 -2t-86 -6q-41 -4 -84 -8.5t-88 -4.5q-57 0 -119 13q-6 2 -9 -2zM397 225v582h15q59 0 124.5 -4t120.5 -33q55 -27 101.5 -69t80 -93 t52 -109.5t18.5 -117.5q0 -61 -20.5 -118.5t-59 -102.5t-92 -72t-116.5 -27q-33 0 -72 11.5t-73 33t-56.5 51t-22.5 68.5zM399 889v559q29 8 57.5 14t57.5 6q59 0 107.5 -23.5t81 -63.5t50 -93t17.5 -110q0 -90 -25.5 -146.5t-72.5 -88.5t-113.5 -43t-146.5 -11h-13z" />
<glyph unicode="C" horiz-adv-x="1458" d="M45 739q0 -170 57.5 -308t161 -237.5t244.5 -153.5t307 -54q135 0 266 13t262 36q6 0 7 4q29 57 46 124.5t17 133.5q0 37 -6 72q-2 6 -7 7t-9 -5q-37 -80 -75 -138.5t-88 -97.5t-115.5 -58.5t-156.5 -19.5q-158 0 -292 65.5t-231 174.5t-151.5 250t-54.5 293 q0 145 46 264t130 204t203 131t264 46q88 0 168 -23.5t143.5 -71t105.5 -117t59 -161.5q2 -6 6 -6q6 0 8 6q14 94 25.5 187.5t15.5 191.5q0 8 -8 8q-51 4 -105.5 10.5t-107.5 14.5q-72 10 -147 20t-150 10q-68 0 -147 -8t-156.5 -27.5t-148.5 -52t-122 -82.5 q-63 -61 -112.5 -137t-83 -159.5t-51 -172t-17.5 -176.5z" />
<glyph unicode="D" horiz-adv-x="1613" d="M47 1516q8 -14 23.5 -18.5t35.5 -8.5q18 -4 37 -8t34.5 -14.5t24.5 -31t9 -55.5v-1149q0 -45 -4 -77.5t-18.5 -56t-42 -40t-72.5 -26.5q-6 -2 -5 -9.5t7 -7.5q34 2 67 2q51 0 102 -4q85 -6 167 -12q72 -6 144.5 -10t143.5 -4q195 0 354.5 48t274.5 146.5t177.5 248.5 t62.5 355v23q0 12 -2 24.5t-2 24.5v25q0 135 -69 253.5t-176.5 207t-239.5 138.5t-259 50q-53 0 -110.5 -2t-110.5 -4q-55 -4 -110.5 -7.5t-112.5 -3.5q-43 0 -87 2.5t-89 6.5q-35 2 -73 3t-75 1q-12 0 -6 -10zM397 309v1104q55 18 110.5 26.5t113.5 8.5q168 0 308 -51 t241.5 -147.5t157.5 -233.5t56 -309q0 -160 -50 -280t-141 -200t-218 -119.5t-281 -39.5q-74 0 -130 7t-93 32.5t-55.5 73.5t-18.5 128z" />
<glyph unicode="E" horiz-adv-x="993" d="M47 1520q-2 -4 2 -9q23 -16 42.5 -23t39.5 -11q18 -4 33.5 -9.5t28 -15.5t19.5 -27.5t7 -48.5v-1157q0 -37 -5 -72.5t-19.5 -63.5t-41 -45.5t-71.5 -19.5v-16q66 4 131 4h131q66 0 129.5 -1t128.5 -1q66 -2 131 -2h131l31 6q6 6 6 4q8 0 8 8l6 50v-2q8 49 15.5 99 t17.5 99l-14 2q-23 -94 -93.5 -145t-166.5 -51q-37 0 -76 8t-75 24.5t-66.5 41t-50.5 59.5v569h83h62q43 0 87 -3t82 -11t50 -23q16 -16 22.5 -32.5t10.5 -33t10 -31.5t16 -26q4 -4 9.5 -2t5.5 9q4 39 9 76.5t11 78.5q4 31 8.5 63.5t8.5 65.5q0 12 -11 8q-16 -4 -32.5 -10 t-32.5 -14q-23 -10 -44.5 -19.5t-35.5 -9.5h-322v580h220q92 0 151.5 -32t67.5 -132q0 -6 7 -7t9 5q2 10 4 17t4 18q12 53 23.5 110.5t17.5 114.5q0 14 -12 6q-12 -6 -48 -10t-86 -6t-112.5 -3t-128.5 -1q-86 0 -180 1t-162 3h-125q-4 0 -6 -4z" />
<glyph unicode="F" horiz-adv-x="983" d="M47 1518.5q-2 -5.5 4 -9.5q27 -14 47.5 -20t36.5 -10q18 -4 33.5 -9.5t27 -16.5t17.5 -31.5t6 -53.5v-1157q0 -49 -2 -82t-14.5 -54.5t-41 -34.5t-81.5 -22q-6 -2 -5 -9t7 -7h27q61 0 120 6q29 4 54.5 6t54.5 2q55 0 115 -6q29 -4 57.5 -6t56.5 -2h19v16h-8q-33 0 -63 16 q-34 18 -58.5 46.5t-39 64t-14.5 72.5v557h236q88 0 137 -36q47 -35 47 -121v-7q0 -6 7.5 -7t9.5 5q16 72 26.5 146.5t14.5 150.5q0 6 -5.5 8t-9.5 -2q-16 -16 -41.5 -34.5t-46.5 -18.5h-375v553q33 0 66 4t63 8h-2q37 4 73 8.5t73 4.5q90 0 141 -38t51 -132q0 -6 7.5 -7.5 t9.5 5.5q12 59 23.5 116.5t21.5 116.5l6 35q2 4 -3 9t-9 1q-39 -16 -91.5 -22.5t-105.5 -6.5q-23 0 -44 1.5t-42 1.5q-18 0 -35.5 1t-32.5 1h-145q-186 0 -373 6q-6 0 -8 -5.5z" />
<glyph unicode="G" horiz-adv-x="1591" d="M92 805q0 -158 49 -300.5t140.5 -254t221.5 -181t292 -81.5q92 -6 182 -6q59 0 121.5 3t125 14t121 33.5t107.5 59.5q4 4 4 6v518q0 59 42 83t95 34l-2 17q-123 6 -242.5 8t-242.5 2q-6 0 -8 -5t4 -10q16 -10 32.5 -16t32.5 -10q39 -12 70 -29.5t31 -66.5v-461 q-49 -51 -119 -66.5t-137 -15.5q-158 0 -294 60.5t-235.5 164t-157 241.5t-57.5 294q0 143 52.5 263t142.5 205t212 132t263 47q84 0 162 -19.5t140.5 -61.5t105.5 -105.5t59 -151.5q2 -6 9 -5t7 7q2 12 4 25.5t5 27.5q10 72 20 142.5t14 144.5q0 8 -8 8q-41 4 -81 10.5 t-81 12.5q-90 12 -183 22t-185 10q-172 0 -323.5 -48t-265.5 -143t-179.5 -235.5t-65.5 -322.5z" />
<glyph unicode="H" horiz-adv-x="1660" d="M45 1499q57 -2 107.5 -33.5t50.5 -95.5v-1180q0 -47 -4 -75.5t-18.5 -46t-42 -28.5t-75.5 -20q-6 -2 -5 -9t8 -7q10 0 25 -1t26 -1q37 -2 71 -2h70q31 0 71 1t70 1q43 2 86 2h84q6 0 6 8t-6 8q-90 8 -136 55.5t-46 141.5v586h860v-582q0 -23 -4 -54.5t-15 -62t-29.5 -52 t-45.5 -21.5q-10 0 -20.5 -2t-20.5 -6q-6 -2 -5 -9.5t7 -7.5q53 2 108.5 3t108.5 1q72 0 141.5 -2t141.5 -6l2 16q-96 16 -139 63.5t-43 145.5v1137q0 72 37.5 93.5t99.5 33.5q6 2 5 9t-7 7q-111 -6 -217 -6q-66 0 -133.5 3t-133.5 7q-6 0 -7 -7t5 -9l41 -12 q25 -8 47.5 -14.5t40 -18.5t26.5 -32.5t9 -55.5v-475h-858v485q0 57 41 89t96 34q6 0 6 8t-6 8q-10 0 -22 -1t-23 -1q-47 -2 -94 -3t-94 -1q-61 0 -122.5 3t-125.5 8v-17z" />
<glyph unicode="I" horiz-adv-x="612" d="M45 1507q0 -6 6 -8q59 -8 103.5 -34.5t44.5 -94.5v-1149q0 -150 -140 -203q-6 -4 -5 -10t7 -6q78 2 157 3t157 1h94q49 0 98 -2v16q-100 10 -141 57.5t-41 151.5v1143q0 37 10.5 58.5t28.5 35t44 21.5t56 14q6 2 4 10.5t-8 6.5q-55 -8 -111.5 -11.5t-113.5 -3.5 q-125 0 -244 13q-6 0 -6 -9z" />
<glyph unicode="J" horiz-adv-x="591" d="M-53 -485q-4 -6 0 -12.5t10 -2.5q90 43 172 107.5t143.5 144.5t98.5 175.5t37 201.5v1235q0 70 39 93.5t98 35.5l-2 16h-64h-162h-84q-41 0 -82.5 1t-87.5 6q-6 0 -8 -5.5t4 -9.5q23 -14 40.5 -20t33.5 -11q16 -6 32.5 -13t29 -18.5t19.5 -29.5t7 -47v-1212 q0 -111 -15.5 -196t-49 -157.5t-85 -139.5t-124.5 -142z" />
<glyph unicode="K" horiz-adv-x="1581" d="M46 1509.5q-1 -8.5 5 -10.5q27 -4 55.5 -15t51 -28.5t38 -42t15.5 -55.5v-1133q0 -47 -2 -81.5t-15.5 -59.5t-42 -40t-79.5 -24q-6 -2 -5 -9t7 -7q61 6 121.5 10t121.5 4t125 -4t127 -8q6 0 8.5 6t-4.5 11q-23 12 -46 21t-44 15q-25 8 -41 16.5t-27.5 25t-15.5 47 t-4 83.5q0 92 1 184.5t3 186.5q0 41 1 83t1 83q49 -47 101.5 -105.5t113.5 -127.5q84 -96 175.5 -196.5t186.5 -182.5t192.5 -135.5t191.5 -53.5q92 0 174 53l-4 15q-55 0 -119.5 27.5t-133.5 74.5t-139.5 109.5t-140 132.5t-136 140.5t-126.5 135.5q-53 59 -98 110.5 t-84 86.5q43 39 93 92t102 111q66 72 138.5 147.5t146 140t147 108.5t143.5 52q6 2 6 8q0 8 -6 9l-61 2q-23 0 -46.5 1t-48.5 1h-118t-121 4q-12 0 -6 -10q14 -29 14 -56q0 -43 -33 -96t-84 -111.5t-113.5 -120t-121.5 -116.5q-47 -45 -98.5 -94.5t-84.5 -89.5 q-2 135 -3 261t-3 261q0 59 40 100t95 45q6 0 7 8q0 8 -7 9q-6 0 -13 1t-13 1q-29 1 -60 1h-32q-49 -1 -92 -5q-41 -2 -81 -4.5t-79 -2.5q-57 0 -109 7q-6 2 -7 -6.5z" />
<glyph unicode="L" horiz-adv-x="1042" d="M45 1501q66 -2 112 -42t46 -109v-1129q0 -29 -9.5 -62.5t-26.5 -62t-43 -49t-56 -22.5q-6 0 -7 -9q0 -8 7 -8q25 2 55 2q33 0 59 2q168 6 338 6q207 0 416 -18q4 0 8 4q2 4 4 7l2 3q0 6 -2 9q25 53 33 111.5t12 117.5q0 8 1 15.5t3 17.5l-16 6q-47 -96 -136 -155.5 t-196 -59.5q-55 0 -102 16.5t-82 47t-55.5 75.5t-20.5 102v1035q0 66 48 105.5t108 49.5q6 2 5 9.5t-7 7.5q-59 -4 -120 -8.5t-122 -4.5q-131 0 -256 7v-17z" />
<glyph unicode="M" horiz-adv-x="2086" d="M47 12q2 -8 8 -6q29 4 56.5 5t56.5 1q76 0 154 -6q76 -6 153 -6q6 0 8 6t-4 10q-14 6 -28.5 11.5t-26.5 9.5q-39 14 -63.5 31.5t-24.5 72.5q0 176 16.5 355.5t38.5 351.5q8 70 16.5 136.5t14.5 137.5q49 -92 86 -174t80 -178q84 -188 177 -386t222 -374q4 -4 8 -4t6 4 q39 80 77 160t75 160q94 199 186.5 403.5t194.5 396.5q8 -96 17.5 -178t21.5 -178v2q18 -154 33.5 -318.5t15.5 -320.5q0 -23 -8 -46t-17 -48l-4 -12t-4 -13q-4 -10 8 -10q111 -4 221.5 -5t221.5 -1l2 16q-23 10 -42.5 14.5t-37.5 8.5q-33 6 -66.5 19.5t-62.5 54.5 q-12 16 -26.5 82.5t-29 164t-28.5 217t-27.5 245.5t-24.5 249t-22 225q-4 45 -9 92.5t-8 86.5t-5 63l-2 25l-15 4l-22 -37q-21 -37 -49.5 -91.5t-60 -112.5t-50.5 -101q-10 -25 -21.5 -49.5t-23.5 -49.5q-45 -92 -87 -185t-85 -185q-53 -119 -106.5 -241t-110.5 -241 q-27 51 -69 151.5t-93 209.5q-43 88 -95 191.5t-106.5 207t-106.5 200.5t-92 171t-64 119l-25 45l-15 -4l-3 -25q-3 -26 -7 -66t-9 -89.5t-11 -98.5q-12 -106 -24.5 -234t-27 -259t-29 -256t-26.5 -223.5t-22.5 -163t-16.5 -72.5q-23 -33 -45 -41t-55 -12q-6 -2 -15 -2 q-6 0 -12 -2.5t-4 -10.5z" />
<glyph unicode="N" horiz-adv-x="1712" d="M48 6q3 -6 7 -4q53 8 106.5 14.5t104.5 6.5q39 0 77 -3.5t75 -7.5q29 -4 57.5 -6t56.5 -4q6 0 7.5 5t-2.5 9q-27 20 -51.5 27.5t-47.5 11.5q-20 4 -37.5 10.5t-31 21.5t-20.5 45t-7 83q0 106 -4 210.5t-8 211.5q-4 109 -8.5 214t-4.5 210q0 39 3.5 76t7.5 75 q41 -45 72.5 -82.5t72.5 -85.5q242 -276 491.5 -548.5t528.5 -511.5q4 -4 9 -1t5 7q16 188 21.5 373.5t5.5 371.5v168q0 84 -2 168t-2 168v168q0 20 11 35.5t29.5 25t40 15.5t40.5 12q4 2 8 2t8 2l-2 17q-8 0 -24.5 1t-26.5 1q-20 4 -43 1t-43 -6l-72 -6q-21 -1 -41 -1 q-39 0 -77 4q-60 8 -119 14q-6 2 -9.5 -3t0.5 -10q14 -12 33 -15t37 -7q20 -4 40.5 -8t38 -19.5t28 -45.5t10.5 -81q0 -256 6 -510q6 -256 6 -510v-16q-289 326 -575.5 634t-589.5 619q-4 4 -13 0q-10 -8 -15 -60t-8 -134t-4 -186.5t-1 -217.5q0 -166 1 -325.5t3 -272.5 q2 -53 2 -92v-57q0 -37 -7 -60.5t-19.5 -39t-29 -24.5t-34.5 -20q-16 -10 -32.5 -20t-37.5 -27q-4 -4 -1 -10z" />
<glyph unicode="O" horiz-adv-x="1675" d="M45 696q0 -90 35 -178t95.5 -168t139 -149.5t166.5 -120.5t180.5 -80t178.5 -29q158 0 301 55.5t251.5 155t173 235.5t64.5 298q0 178 -64.5 332.5t-178 269.5t-267 180.5t-332.5 65.5h-18q-8 0 -16 -2q-197 -41 -332 -105.5t-219 -166t-121 -247t-37 -346.5zM233 821 q0 135 39 255t115 209t186.5 141.5t253.5 52.5q152 0 268.5 -68t195.5 -176.5t120 -243.5t41 -272q0 -133 -38 -253t-112.5 -211t-184 -145.5t-251.5 -54.5q-152 0 -269.5 69t-198.5 177.5t-123 245.5t-42 274z" />
<glyph unicode="P" horiz-adv-x="1073" d="M46 1519.5q-1 -6.5 5 -8.5q27 -6 55.5 -19t51 -32.5t38 -45t15.5 -56.5v-1137q0 -49 -2 -83t-14.5 -57.5t-41 -37.5t-79.5 -23q-6 -2 -5 -9t7 -7q47 -2 94 -2h94h314q6 0 6 8t-6 8q-98 4 -139.5 46t-41.5 139v1222q78 33 148 33q76 0 136 -34.5t102 -91t63.5 -126 t21.5 -139.5q0 -78 -23.5 -143.5t-67.5 -112.5t-107.5 -72.5t-143.5 -25.5h-24q-10 0 -23 2q-6 2 -7 -6.5t5 -10.5q61 -16 119 -16q94 0 173 42t136.5 109.5t90 153.5t32.5 176q0 104 -28.5 172t-81 109t-127 57.5t-166.5 16.5h-254q-78 0 -158 2t-160 6q-6 0 -7 -6.5z" />
<glyph unicode="Q" horiz-adv-x="1699" d="M45 801q0 -178 57.5 -324.5t162 -253t251 -165t324.5 -58.5q74 0 151.5 16.5t145.5 46.5q12 0 39.5 -11t61.5 -28.5t69.5 -37t66.5 -35.5v2q23 -12 38 -22.5t26 -14.5q111 -55 227.5 -106.5t239.5 -91.5t247.5 -63.5t249.5 -23.5q147 0 287.5 40t267.5 116l-8 14 q-104 -45 -212.5 -66.5t-221.5 -21.5q-164 0 -323.5 39t-313.5 102.5t-300 143.5t-282 162q80 59 144.5 136t108.5 166t67.5 187.5t23.5 196.5q0 168 -62 306t-170 237.5t-251 153.5t-305 54q-170 0 -316.5 -61t-256 -167.5t-172 -253t-62.5 -314.5zM233 915q0 135 44.5 245 t124 188.5t190 120.5t246.5 42q143 0 253.5 -56t186.5 -149.5t116 -216t40 -255.5q0 -121 -34 -236t-98.5 -213t-156.5 -175t-207 -120q-152 20 -281 96t-223 187.5t-147.5 251t-53.5 290.5z" />
<glyph unicode="R" horiz-adv-x="1609" d="M46 1522q-1 -6 5 -9q63 -16 111.5 -65t48.5 -115v-1110q0 -66 -40 -122t-99 -83q-6 -4 -4 -11t8 -5q63 8 124.5 13t125.5 5q63 0 126.5 -4t127.5 -10v17q-82 8 -132.5 66t-50.5 142v396q23 2 45 2h45q53 0 106.5 -7.5t94.5 -41.5q53 -45 107.5 -115t97.5 -133.5t92 -128 t106.5 -115.5t125 -84t147.5 -33q53 0 103.5 12t97.5 35l-4 17q-18 -2 -35 -2q-69 -1 -134 31q-81 40 -156 110t-142.5 158t-128.5 172q-41 55 -80 108.5t-68 85.5q45 43 89 95.5t78 112t54.5 124t20.5 129.5q0 100 -39 170t-103.5 114t-146.5 64.5t-168 20.5 q-35 0 -66.5 -1t-66.5 -3q-68 -6 -133 -6q-61 0 -123 6q-29 2 -59.5 3t-61.5 1h-39q-6 0 -7 -6zM399 748v696q33 12 67 17t69 5q82 0 143 -36.5t103 -96t63.5 -133t21.5 -147.5q0 -147 -61.5 -233.5t-216.5 -86.5q-45 0 -93.5 3t-95.5 12z" />
<glyph unicode="S" horiz-adv-x="880" d="M45 152q0 -51 23.5 -85t60.5 -55.5t82 -31t88 -9.5q86 0 181 31t174 88t130.5 136t51.5 177q0 76 -28 139.5t-73 119t-102.5 105.5t-114.5 99q-53 43 -103 87t-88 90.5t-61.5 94.5t-23.5 103q0 53 19.5 98t53 77t79.5 50.5t100 18.5q51 0 93 -19.5t73.5 -51.5t53 -75 t31.5 -92q2 -6 9.5 -5t7.5 7q0 4 1 7.5t1 7.5q10 66 17 131t14 131q0 8 -7 8q-94 27 -200 27q-78 0 -169 -19.5t-169 -62.5t-131 -111t-53 -162q0 -61 28.5 -122.5t73.5 -121t102.5 -115.5t114.5 -112q55 -51 108.5 -104t95.5 -106.5t67.5 -108t25.5 -105.5 q0 -55 -27.5 -101t-70.5 -78t-96.5 -49t-104.5 -17q-61 0 -112.5 17t-90.5 50t-60.5 82t-21.5 113v22q0 6 -7 7t-9 -5q-4 -16 -7 -33.5t-7 -33.5q-8 -31 -15.5 -64t-7.5 -69z" />
<glyph unicode="T" horiz-adv-x="1353" d="M45 1309q0 -16 4 -37q0 -6 5 -7t9 5q25 57 75 103t116 46h338v-1210q0 -49 -3 -81t-16.5 -52.5t-41 -32.5t-76.5 -23q-6 -2 -5 -9t7 -7q53 4 105 7t106 3q74 0 146.5 -4t143.5 -10q6 0 7.5 7t-4.5 9q-78 12 -130.5 69.5t-52.5 139.5v1196h248q45 0 86 -7t74 -25.5 t54.5 -50t31.5 -83.5q2 -6 8 -6t8 6q16 55 18.5 124t2.5 128v17q0 8 -6 8q-14 -2 -27.5 -4t-24.5 -4q-16 -4 -35.5 -9.5t-35.5 -5.5h-889q-53 0 -94 7.5t-84 33.5q-8 8 -13 -4q-4 -18 -10 -37.5t-12 -40.5q-12 -41 -22.5 -79.5t-10.5 -79.5z" />
<glyph unicode="U" horiz-adv-x="1595" d="M46 1512.5q-1 -7.5 5 -9.5q76 -18 120 -52t44 -118q0 -23 -1 -56.5t-1 -74.5q0 -59 -1 -135t-1 -154q0 -84 1 -167.5t3 -154.5t7 -122t11 -72q31 -94 91.5 -172t140.5 -134t174 -88t192 -32q131 0 239 49.5t183.5 134.5t116.5 197.5t41 239.5v743q0 59 39 107.5t100 58.5 l-2 17h-24q-47 0 -90 1t-88 1h-97h-71q-35 0 -72 4q-6 0 -7 -7.5t5 -9.5q80 -12 122 -51t42 -123v-211q0 -104 2 -208.5t2 -211.5v-208q0 -96 -34 -174t-92.5 -134.5t-138 -87t-173.5 -30.5q-92 0 -172 29.5t-138.5 85t-91.5 132t-33 170.5v213q0 106 2 213t2 211v213 q0 27 13.5 50.5t35 45t45 38t46.5 28.5q6 4 4 10t-8 6q-41 -2 -82 -2h-80q-80 0 -161 2.5t-163 6.5q-6 0 -7 -7.5z" />
<glyph unicode="V" horiz-adv-x="1691" d="M47 1522q-2 -4 4 -9q27 -16 46.5 -21t35.5 -9q31 -8 57.5 -20.5t49.5 -49.5q37 -59 70.5 -138t62.5 -153q6 -16 12 -34.5t12 -32.5q29 -74 57.5 -150t57.5 -151q72 -199 149.5 -393.5t188.5 -380.5q4 -4 8 -5q4 0 6 5q12 27 35 75.5t50.5 115.5t60 143.5t67.5 158.5 q43 102 90 212t92.5 215.5t86 200.5t73.5 168.5t56.5 121t31.5 57.5q23 23 49.5 32t53.5 15q10 2 18.5 3t18.5 5l-2 17q-55 -6 -110.5 -10.5t-109.5 -4.5q-53 0 -106 4t-107 11q-6 2 -7 -6.5t5 -10.5q10 -2 30 -7t38 -12t32.5 -17.5t14.5 -22.5q0 -70 -35 -184.5t-88 -250 t-114.5 -275.5t-112.5 -259q-25 -53 -45.5 -100t-36.5 -88q-14 39 -36.5 94t-57.5 137q-33 80 -70 173t-74 186.5t-71.5 182.5t-60 164.5t-41 132t-15.5 83.5q0 12 13.5 21t30.5 15.5t35.5 11.5t28.5 7q4 2 3.5 9t-5.5 7h-65q-76 0 -146.5 2.5t-142.5 6.5q-41 2 -82 3t-82 3 q-6 0 -8 -4z" />
<glyph unicode="W" horiz-adv-x="2158" d="M46 1525q-3 -5 3 -9q14 -8 25.5 -14.5t21.5 -12.5q23 -12 41.5 -22.5t34.5 -25t31.5 -36t32.5 -51.5q29 -57 57.5 -144.5t55 -193t52 -222t50.5 -233.5q16 -80 33.5 -162t36 -156.5t35.5 -142t34 -118.5q2 -6 7 -7.5t9 5.5q29 66 61.5 149.5t66.5 170.5t65.5 171 t58.5 152q53 139 105.5 276t111.5 277q41 -104 74 -203t68 -205q68 -201 141.5 -401.5t169.5 -386.5q2 -4 6 -5q6 0 8 5q14 37 38 109.5t51.5 165.5t56 197.5t57.5 202.5q37 131 72.5 262.5t67.5 238t58.5 179t43.5 90.5q29 29 57 51q24 18 57 18q6 0 13 -1v16 q-39 -2 -78 -2h-80q-68 0 -136.5 2t-136.5 9q-6 0 -6 -9q0 -8 6 -8q14 -2 35 -8t40.5 -16.5t33.5 -24.5t14 -33q0 -117 -24.5 -260t-61.5 -292.5t-80 -293t-79 -260.5q-35 98 -64 186.5t-61 186.5q-70 215 -143.5 424t-172.5 408q-4 4 -9 3t-7 -5q-117 -293 -231.5 -595.5 t-225.5 -598.5q-14 86 -31.5 167.5t-33.5 165.5q-41 197 -79 393.5t-59 389.5q25 23 55.5 39t61.5 26q6 2 4 10.5t-8 6.5q-57 -8 -113.5 -12.5t-111.5 -4.5q-59 0 -118.5 7.5t-119.5 13.5q-10 2 -20 2q-8 0 -19 2q-6 2 -9 -3z" />
<glyph unicode="X" horiz-adv-x="1497" d="M45 4q51 4 99.5 8t99.5 4q55 0 111.5 -3t113.5 -7v17q-23 0 -44.5 10t-35.5 26q4 37 26.5 91.5t56.5 116t73 127t76 124.5q31 51 56 91t40 67q6 -10 12 -20.5t19 -30.5q25 -41 57.5 -94.5t67 -112t67.5 -116.5t59.5 -106.5t43 -82t16.5 -43.5t-17.5 -26.5t-29.5 -27.5 q-2 -2 0 1t0 1q-4 -4 -2 -9t6 -5q16 2 31 2q16 0 32 2q35 4 70 6t68 2q39 0 77.5 -2t79.5 -6q18 -2 37 -2q18 0 39 -2l2 16q-70 18 -132.5 74t-118.5 132.5t-107.5 164.5t-98.5 174q-41 72 -78.5 140.5t-80.5 125.5q27 35 56.5 84.5t63.5 106.5q45 76 96.5 158t106.5 150.5 t111.5 114.5t115.5 50q6 0 7 8q0 8 -7 8q-47 -4 -95 -6t-95 -2q-111 0 -223 13q-6 0 -7 -6.5t5 -10.5q14 -4 31.5 -13t33 -20.5t25.5 -26t10 -30.5q0 -23 -15.5 -54.5t-40 -70.5t-55 -82t-61.5 -86q-41 -55 -76 -104t-53 -82q-18 39 -52 93t-69 110q-27 41 -54.5 82.5 t-49 79.5t-34.5 72t-13 56q0 35 25.5 56.5t56.5 29.5q6 2 5 8.5t-7 6.5q-31 0 -61 -2t-58 -6q-41 -4 -81 -7.5t-79 -3.5q-53 0 -104.5 4t-102.5 9q-6 0 -7 -7.5t5 -9.5q80 -14 146.5 -69.5t124 -133t106.5 -169t90 -175.5q27 -51 50.5 -95t45.5 -81q-29 -39 -62.5 -95 t-70.5 -122q-49 -86 -104.5 -180t-115.5 -172t-124.5 -131t-130.5 -58v-16z" />
<glyph unicode="Y" horiz-adv-x="1548" d="M46 1508.5q-1 -7.5 5 -9.5q37 -12 97.5 -72.5t131 -147.5t142.5 -190.5t130 -199.5t95 -175t37 -118v-422q0 -53 -40 -94t-89 -60q-6 -2 -5 -9t7 -7q66 4 127 6t127 2q123 0 250 -6q6 0 7 7t-5 10q-29 6 -61.5 17t-62.5 29.5t-49.5 44t-19.5 58.5v455q0 45 35 123.5 t90.5 170t125 186.5t140 177t134 140.5t108.5 74.5l-2 17q-51 -4 -99 -8.5t-99 -4.5q-47 0 -94.5 1t-92.5 12q-6 2 -8 -6.5t4 -10.5q23 -8 40 -26.5t17 -45.5q0 -29 -18 -68.5t-45 -85.5t-59.5 -93t-59.5 -90q-20 -31 -37.5 -56.5t-27.5 -44.5q-39 -61 -66 -115.5 t-49 -103.5h2q0 -2 -2 -4t-2 -4q-18 29 -54 86t-78 128t-87 145.5t-81 140t-59.5 112.5t-23.5 62q0 20 15.5 33.5t29.5 23.5q4 4 3 9t-7 5q-43 -4 -88 -7t-90 -3q-39 0 -78 3t-76 7q-20 2 -38.5 4t-39.5 5q-6 0 -7 -7.5z" />
<glyph unicode="Z" horiz-adv-x="1253" d="M47 14q-8 -12 6 -12h131q59 0 115.5 1t112.5 3q47 2 95 3t95 1q53 0 106.5 -1t106.5 -3t103.5 -3t103.5 -1h63q31 0 64 2q8 0 8 8q2 14 3 25.5t3 25.5q10 66 19.5 132.5t25.5 132.5l-14 6q-23 -35 -53.5 -76t-69.5 -74.5t-82 -56.5t-88 -23l-530 -2q-20 0 -44 1t-46 3 q244 346 482 693.5t431 705.5q4 4 0 8.5t-8 4.5h-840q-49 0 -98 7t-96 17q-10 0 -11 -6q-6 -35 -11 -72t-9 -75q-6 -45 -12.5 -91.5t-16.5 -93.5q-2 -6 4 -9t10 1q68 78 111 124t89 70.5t106.5 32t162.5 7.5h91q45 0 90 2q47 2 90 2h88q14 0 27 -4q-76 -119 -153 -233 t-155 -230q-158 -236 -311.5 -471.5t-294.5 -481.5z" />
<glyph unicode="[" horiz-adv-x="432" d="M45 31q0 -8 8 -8q61 -2 124 -3.5t128 -1.5h6q16 0 36 1.5t34 9.5l-2 14q-10 4 -25.5 5t-34.5 3q-25 2 -51 7t-48.5 13.5t-37 21.5t-14.5 36v1217q0 49 41 64t90 24q23 4 44.5 7t37.5 11q6 4 4 10t-8 6h-324q-8 0 -8 -8v-1429z" />
<glyph unicode="\" horiz-adv-x="960" d="M47 1378q195 -319 389.5 -635.5t392.5 -636.5q4 -4 9 -4q25 4 46 22.5t31 43.5l-2 6q-156 244 -307 485.5t-305 489.5q-41 68 -83 135.5t-85 132.5q-4 8 -10 4l-74 -30q-6 -4 -2 -13z" />
<glyph unicode="]" horiz-adv-x="444" d="M47 29q2 -6 8 -6h336q8 0 8 8v1429q0 8 -8 8h-330q-6 0 -8 -6t4 -10q16 -8 36 -11t42 -7q25 -4 49.5 -9.5t44 -14.5t31.5 -25.5t12 -41.5v-1204q0 -27 -11 -42t-28.5 -23t-40 -11.5t-47.5 -5.5q-27 -2 -51 -5t-43 -13q-6 -4 -4 -10z" />
<glyph unicode="_" horiz-adv-x="937" d="M45 -315v-80q0 -8 8 -8h832q8 0 8 8v80q0 8 -8 8h-832q-8 0 -8 -8z" />
<glyph unicode="`" horiz-adv-x="471" d="M49 1649q-8 -8 2 -13q14 -6 29.5 -11t30.5 -11q76 -31 152.5 -57.5t158.5 -34.5l4 14q-29 14 -50.5 30.5t-45.5 35.5q-43 35 -91.5 67.5t-93.5 32.5q-29 0 -53 -15.5t-43 -37.5z" />
<glyph unicode="a" horiz-adv-x="1214" d="M46 158q1 -8 7 -6q41 4 82 7t82 3t82 -3t80 -7v16q-25 4 -51.5 13t-26.5 40q0 23 14.5 73t33 106.5t38 108.5t29.5 79h317q35 -98 73 -191.5t73 -189.5l-80 -39q-6 -4 -4 -10t8 -6l94 8t94 4q18 0 35.5 -1t34.5 -3q29 -2 54 -4t54 2v16q-49 4 -87 24.5t-62 67.5 q-117 221 -208 452.5t-175 461.5q-10 29 -21.5 56.5t-21.5 55.5q-2 6 -8 6t-8 -6q-39 -102 -74 -203.5t-72 -203.5q-53 -152 -108.5 -301.5t-114.5 -298.5v2q-45 -104 -158 -119q-6 -2 -5 -10zM438 655q39 111 71 214.5t66 211.5l127 -426h-264z" />
<glyph unicode="b" horiz-adv-x="862" d="M46 1275q-3 -5 1 -9q10 -16 27.5 -20.5t34.5 -6.5q12 -2 22 -4t17.5 -8t12.5 -20.5t5 -41.5v-854q0 -35 -2 -58.5t-11.5 -38.5t-30 -25.5t-54.5 -22.5q-6 -2 -5.5 -9t7.5 -7h96q49 0 98 -2.5t96 -2.5h99q72 0 136 24t113.5 67t79 104t29.5 137q0 117 -69.5 197 t-176.5 114q53 49 95.5 114t42.5 140q0 61 -30 106.5t-76 75t-101.5 45t-108.5 15.5q-31 0 -61.5 -2t-61.5 -6q-33 -4 -64.5 -6t-62.5 -2q-23 0 -44 2t-44 8q-6 2 -9 -3zM309 315v428q74 -2 140.5 -19t119 -54t83 -96.5t30.5 -141.5q0 -45 -15.5 -87t-43 -74.5t-66.5 -52 t-86 -19.5q-25 0 -52.5 8t-52 23.5t-41 37t-16.5 47.5zM311 807v410q20 6 41 10t41 4q45 0 80 -17.5t58.5 -47t36 -67.5t12.5 -79q0 -68 -18.5 -109t-53.5 -64.5t-83 -31.5t-108 -8h-6z" />
<glyph unicode="c" horiz-adv-x="1101" d="M45 696q0 -123 43 -225t119 -176t180.5 -115t226.5 -41q98 0 194.5 10.5t195.5 26.5q6 0 6 4q23 43 35 92.5t12 98.5q0 14 -1 26.5t-3 24.5q-2 6 -7.5 8t-9.5 -4q-27 -59 -54.5 -102t-64 -71t-85 -42t-113.5 -14q-117 0 -215 48t-170 128t-112 183t-40 216 q0 106 34 193.5t96.5 149t149.5 95t193 33.5q63 0 122 -17.5t105 -51t77.5 -85t41.5 -118.5q2 -6 9 -6q6 0 8 6q10 68 18 138.5t13 141.5q0 8 -9 9q-39 4 -77.5 9t-79.5 11q-53 8 -107.5 14t-111.5 6q-141 0 -255 -39.5t-195 -116.5t-125 -189.5t-44 -258.5z" />
<glyph unicode="d" horiz-adv-x="1216" d="M47 1264q6 -10 18.5 -14.5t26.5 -6.5q25 -4 49.5 -17.5t24.5 -60.5v-846q0 -66 -15.5 -98.5t-82.5 -46.5q-6 -2 -5.5 -9t7.5 -7q20 1 40 1q40 0 80 -3q60 -4 119 -9q53 -4 109.5 -8t109.5 -4q143 0 262 36t203 108.5t131 184t47 263.5q0 115 -42 216t-115.5 176t-175 118 t-220.5 43q-39 0 -80.5 -1t-80.5 -5q-41 -4 -82 -6t-82 -2q-33 0 -70 2t-67 4q-27 2 -51.5 3t-51.5 1q-14 0 -6 -12zM309 377v813q39 14 80 18t82 4q123 0 226.5 -37.5t177 -108.5t115.5 -171t42 -225q0 -117 -37 -205t-104.5 -146.5t-160.5 -88t-206 -29.5q-55 0 -95 5 t-66.5 23.5t-40 53t-13.5 94.5z" />
<glyph unicode="e" horiz-adv-x="757" d="M46 1273q-1 -5 3 -9q16 -10 31.5 -15.5t28.5 -9.5q23 -8 42 -20.5t19 -53.5v-852q0 -27 -3 -52t-13.5 -45.5t-30 -34t-49.5 -13.5v-16q55 2 111.5 3t111.5 1q41 0 80 -1t80 -1q47 0 95 -1t95 -1q10 0 27 6l2 2q8 0 8 6q6 47 12.5 91t16.5 91l-17 4q-16 -70 -66 -107.5 t-122 -37.5q-53 0 -109.5 23.5t-87.5 68.5v422h62h47t62.5 -3t59 -8t38 -15.5t14.5 -23t8 -24.5t7 -22.5t14 -20.5q4 -4 9 -2t5 8q4 25 6 51.5t6 51t7 53.5t6 53q0 12 -11 8q-23 -6 -45 -18q-16 -6 -32.5 -12t-26.5 -6h-238v419h162q66 0 111 -22.5t49 -93.5q0 -6 7 -7.5 t9 5.5q10 47 19.5 93t15.5 99q0 12 -10 8q-8 -4 -17.5 -7t-17.5 -7h-584q-6 0 -7 -5z" />
<glyph unicode="f" horiz-adv-x="749" d="M47 1273q-2 -5 4 -9q16 -10 31.5 -15.5t26.5 -9.5q25 -6 43 -17.5t18 -58.5v-856q0 -37 -1 -60.5t-10 -38.5t-29.5 -24.5t-57.5 -15.5q-6 -2 -5 -9t7 -7h12q23 0 46.5 1t47.5 3q20 2 41 4t41 2t41 -1t43.5 -3t43 -4t42.5 -2h14v16q-29 0 -53 12.5t-42.5 32.5t-29 47 t-10.5 51v410h172q66 0 102 -25q33 -24 33 -84v-10q0 -6 7.5 -7t9.5 5q10 53 17 107.5t12 111.5q0 6 -5.5 8t-9.5 -2q-10 -12 -28.5 -24.5t-32.5 -12.5h-277v402q20 0 45 2t45 6q29 4 54.5 7t54.5 3q66 0 102.5 -27.5t36.5 -95.5q0 -6 7.5 -7t9.5 5l36 199q2 6 -3 10t-9 0 q-37 -20 -87 -22q-25 -1 -49 -1t-48 1q-12 0 -23.5 1t-21.5 1h-146q-131 0 -260 6q-6 0 -8 -5z" />
<glyph unicode="g" horiz-adv-x="1198" d="M45 743q0 -154 48 -268.5t135 -189t207 -112.5t263 -38q90 0 182.5 13.5t168.5 70.5q4 4 4 6v381q0 41 30.5 58.5t69.5 25.5l-2 17q-178 6 -358 6q-6 0 -8.5 -5.5t3.5 -9.5q14 -8 27.5 -12t24.5 -8q27 -8 48 -20.5t21 -47.5v-340q-35 -31 -87 -44t-99 -13q-115 0 -214 44 t-173 120t-116 178t-42 217q0 104 38 191.5t104.5 150t156.5 97t195 34.5q61 0 117.5 -14t102.5 -45t76.5 -78t43.5 -113q2 -6 8 -6t8 6q2 10 3 22.5t3 22.5q8 53 16.5 103.5t8.5 105.5q0 8 -8 8q-27 4 -51.5 7.5t-53.5 7.5q-70 10 -141.5 19t-142.5 9q-127 0 -240 -35.5 t-197 -106.5t-132 -175t-48 -240z" />
<glyph unicode="h" horiz-adv-x="1247" d="M45 1251q41 -2 77 -24.5t36 -67.5v-872q0 -33 -3 -53.5t-13.5 -34t-31 -20.5t-53.5 -13q-6 -2 -5 -9t7 -7q8 0 19.5 -1.5t19.5 -1.5q27 -2 54 -2h51q23 0 52.5 1t51.5 1q33 2 62 3h63q6 0 6 8t-6 8q-133 12 -133 141v430h629v-426q0 -66 -18.5 -96.5t-82.5 -48.5 q-6 -2 -5 -9t7 -7q41 2 79 3t77 1q106 0 215 -7l2 17q-70 12 -100.5 47t-30.5 104v840q0 51 26.5 66.5t71.5 23.5q6 2 5.5 9.5t-7.5 7.5q-41 -2 -83 -3.5t-83 -1.5q-92 0 -190 7q-6 0 -7 -7.5t5 -9.5q8 -2 15 -4t16 -4q37 -10 62.5 -23.5t25.5 -62.5v-348h-627v356 q0 41 29.5 63.5t66.5 22.5q6 0 6 8t-6 9h-43q-35 0 -69.5 -1t-69.5 -1q-84 0 -170 6v-17z" />
<glyph unicode="i" horiz-adv-x="479" d="M46 1260.5q-1 -7.5 5 -9.5q43 -6 75 -24.5t32 -65.5v-850q0 -53 -23.5 -91t-75.5 -56q-6 -2 -5 -9.5t7 -7.5q55 2 108.5 3.5t109.5 1.5q39 0 76.5 -1t78.5 -1v16q-74 6 -103.5 40t-29.5 111v844q0 53 27.5 67.5t72.5 24.5q6 2 4 10.5t-8 6.5q-41 -6 -84 -8t-86 -2 q-45 0 -88 2t-86 6q-6 0 -7 -7.5z" />
<glyph unicode="j" horiz-adv-x="454" d="M-33 -205q-4 -4 0 -11t10 -3q68 33 128.5 80t106.5 107.5t72.5 130t26.5 149.5v909q0 49 29 66.5t74 25.5l-2 17q-25 1 -49 1h-25q-37 -1 -72 -1q-18 0 -37.5 -1t-38.5 -1q-70 0 -133 6q-6 0 -8 -5t4 -10q20 -10 30.5 -13t20.5 -7q27 -8 46.5 -21.5t19.5 -56.5v-895 q0 -82 -11.5 -143.5t-36 -114.5t-63.5 -102t-92 -107z" />
<glyph unicode="k" horiz-adv-x="1191" d="M46 1258.5q-1 -7.5 5 -9.5q41 -8 78 -33.5t37 -66.5v-838q0 -35 -2 -59.5t-11.5 -41.5t-30 -28.5t-56.5 -17.5q-6 -2 -5.5 -9.5t7.5 -7.5q47 4 90 7.5t88 3.5q70 0 141 -6q12 -2 23 -2q12 0 24 -3q6 -2 8 5.5t-4 11.5q-16 10 -34.5 16t-32.5 10q-14 6 -25.5 12.5t-20 20 t-12.5 36t-4 56.5q0 100 1 195.5t3 196.5q35 -33 71 -74t83 -94q61 -70 129 -145t138.5 -136t143 -100t140.5 -39q35 0 67.5 11.5t61.5 29.5l-4 14q-63 0 -137 43t-151 110.5t-151.5 147.5t-140.5 152q-39 43 -72.5 80.5t-62.5 66.5q29 27 64.5 65t70.5 79q45 49 100.5 105 t113 105.5t112.5 83t104 39.5q6 2 5 9.5t-7 7.5q-35 2 -67.5 3t-65.5 1h-80t-80 4q-14 0 -6 -12q10 -20 10 -41q0 -31 -23.5 -69t-60 -81t-83 -88t-91.5 -86q-37 -35 -71.5 -67.5t-57.5 -61.5q-2 100 -3 187t-3 190q0 41 29 70.5t70 31.5q6 0 6 8t-6 9q-4 0 -10.5 1t-10.5 1 q-23 1 -47 1h-24q-36 -1 -70 -3q-29 -2 -54.5 -3t-50.5 -1q-23 0 -44 1t-44 3q-6 0 -7 -7.5z" />
<glyph unicode="l" horiz-adv-x="796" d="M45 1253q49 -2 82 -30.5t33 -77.5v-834q0 -18 -6.5 -42.5t-18.5 -46t-30.5 -36t-41.5 -16.5q-6 0 -6 -8t6 -8q10 0 21.5 1t21.5 1q68 2 135.5 4t135.5 2q84 0 165 -3t163 -12l6 3q6 4 6 10t-2 8q20 41 25 83t10 87q0 6 1 12t1 12l-17 5q-35 -72 -100.5 -116t-142.5 -44 q-80 0 -134.5 46t-54.5 132v762q0 43 35 72.5t78 37.5q6 2 5 9.5t-7 7.5q-111 -6 -217 -6h-76t-76 2v-17z" />
<glyph unicode="m" horiz-adv-x="1566" d="M47 162q2 -8 8 -6q23 4 41 4h41q29 0 57.5 -1t57.5 -3t56.5 -3t56.5 -1q6 0 8 6t-4 10q-4 2 -18.5 7t-22.5 9q-27 10 -45.5 23.5t-18.5 50.5q0 129 12.5 254t28.5 252q6 47 12.5 95t12.5 99q35 -70 60.5 -128t58.5 -130q61 -137 129.5 -273t162.5 -267q4 -4 9 -4q4 0 6 4 q25 51 48 101t48 101q72 154 143.5 303.5t149.5 299.5q4 -72 11 -126.5t15 -123.5q14 -115 25.5 -228.5t11.5 -230.5q0 -16 -6 -34.5t-12 -37.5q-2 -4 -3 -8t-3 -8q-4 -10 8 -10q80 -4 162 -4h166l2 16q-16 8 -31.5 9t-30.5 5q-29 4 -49 13.5t-43 42.5q-10 12 -20.5 62 t-21.5 124t-21.5 163t-20.5 183t-19.5 184.5t-15.5 165.5q-6 57 -9 101.5t-7 68.5q0 6 -4 7t-8 -3q-90 -133 -170 -303t-152 -336q-33 -76 -66.5 -152.5t-66.5 -142.5q-18 35 -41 86.5t-57 122.5q-47 100 -103.5 217t-109 221.5t-97.5 183.5t-69 105q-4 4 -9.5 3t-5.5 -7 q-4 -23 -8 -75t-12 -119q-8 -78 -18.5 -171t-20.5 -189.5t-21.5 -188.5t-20.5 -165t-16 -120t-12 -53q-14 -23 -30.5 -28t-38.5 -9q-8 0 -25 -4q-6 -2 -4 -10z" />
<glyph unicode="n" horiz-adv-x="1292" d="M48 153.5q3 -6.5 9 -3.5q39 6 78 11t76 5q29 0 58.5 -2t58.5 -6q20 -2 39.5 -4t40.5 -4q6 0 7 5t-3 9q-23 16 -39.5 21t-32.5 10q-14 2 -27.5 7t-22.5 17t-15.5 33.5t-6.5 56.5q0 80 -2 158t-6 155.5t-6 155.5t-2 156q0 51 6 106q29 -31 51.5 -58.5t50.5 -57.5 q84 -98 176.5 -202t187.5 -205t193.5 -198.5t196.5 -181.5q4 -4 9 -1t5 7q10 117 14.5 233t4.5 234v84l-2 494q0 31 31.5 43t60.5 20q4 2 5 1t5 1l-4 17q-10 0 -22.5 1t-22.5 1q-29 2 -56.5 1t-54.5 -1h-86q-41 0 -88 6q-4 2 -7 -4t1 -10q10 -10 23.5 -13.5t30.5 -5.5 q14 -2 28.5 -6t26.5 -15.5t19 -33t7 -55.5q0 -88 2.5 -187.5t4.5 -187.5q2 -96 3 -188.5t1 -186.5v-6q-215 240 -424 464t-432 455q-2 4 -6.5 2t-6.5 -6l-16 -32v-959q0 -47 -19.5 -68.5t-44.5 -33.5q-12 -6 -25 -14.5t-30 -22.5q-4 -4 -1 -10.5z" />
<glyph unicode="o" horiz-adv-x="1261" d="M45 664q0 -98 56.5 -194.5t142.5 -172.5t189.5 -123t199.5 -47q117 0 222.5 41t185 114.5t128 175t48.5 220.5q0 131 -48.5 250t-132.5 206t-196 135q-93 40 -199 40q-22 0 -45 -2l-27 -2q-145 -31 -245.5 -79t-162 -123t-89 -182.5t-27.5 -256.5zM186 758q0 98 30 185 t85 153.5t136 104.5t186 38q111 0 195.5 -49t143 -129t88 -180.5t29.5 -200.5q0 -98 -27.5 -186t-82 -155t-134 -106.5t-184.5 -39.5q-111 0 -196.5 50t-146 131t-91.5 181t-31 203z" />
<glyph unicode="p" horiz-adv-x="819" d="M46 1271q-1 -7 5 -9q41 -10 78 -38t37 -71v-840q0 -35 -1 -60.5t-10.5 -41.5t-30 -26.5t-56.5 -16.5q-6 -2 -5.5 -9t7.5 -7q35 -2 67 -2h70h233q6 0 6 8t-6 8q-70 4 -100.5 32.5t-30.5 96.5v903q49 25 107 25q55 0 99 -26t75 -66.5t47 -91t16 -101.5q0 -115 -67.5 -187.5 t-184.5 -72.5h-34q-6 0 -7.5 -7t5.5 -9q47 -10 88 -11q70 0 129 31t102 81t66.5 113.5t23.5 129.5q0 78 -20.5 129t-59.5 80.5t-94 42t-125 12.5h-180q-59 0 -118.5 1t-123.5 7q-6 0 -7 -7z" />
<glyph unicode="q" horiz-adv-x="1282" d="M45 700q0 -131 43 -239.5t121 -187t185.5 -121.5t238.5 -43q53 0 112.5 12t106.5 35q10 0 31.5 -9.5t47 -21.5t52.5 -26.5t49 -26.5v2q14 -8 24.5 -14.5t16.5 -10.5q80 -41 167 -79t177 -67.5t182.5 -47t184.5 -17.5q109 0 213 29t198 86l-8 14q-76 -35 -156.5 -50 t-162.5 -15q-121 0 -238 28.5t-228.5 74.5t-219 105.5t-207.5 118.5q121 88 185.5 223.5t64.5 282.5q0 123 -46 225.5t-125 176t-185.5 113.5t-225.5 40q-125 0 -233.5 -45t-189.5 -125t-128 -187.5t-47 -232.5zM188 786q0 98 33 179.5t91.5 138.5t140.5 88t180 31 q104 0 185 -41t136.5 -109.5t85 -159t29.5 -188.5q0 -90 -25.5 -174t-72.5 -155.5t-115 -127t-151 -88.5q-106 20 -199.5 76.5t-164.5 138.5t-112 182.5t-41 208.5z" />
<glyph unicode="r" horiz-adv-x="1212" d="M46 1269q-1 -7 5 -9q47 -12 81 -48t34 -84v-817q0 -47 -28.5 -88t-71.5 -61q-6 -4 -3 -11.5t9 -5.5q47 6 91 10.5t91 4.5t93 -3t93 -7v16q-59 6 -95 48t-36 101v291q16 4 31 4h33q55 0 99 -20.5t82 -54t69.5 -75.5t60.5 -85q31 -47 64.5 -92t72.5 -80t88 -57.5t111 -22.5 q37 0 74.5 9.5t72.5 25.5l-6 16q-13 -2 -26 -2q-49 0 -95 24q-60 30 -115 82t-105 116.5t-95 125.5q-31 41 -57.5 79t-49.5 63q68 63 122.5 151t54.5 186q0 74 -29 127.5t-76 86t-108.5 48t-124.5 15.5h-404q-6 0 -7 -7zM311 698v510q23 10 47.5 13.5t49.5 3.5q59 0 104 -28 t75.5 -71t46 -96t15.5 -106q0 -111 -44 -173.5t-159 -62.5q-35 0 -67.5 2t-67.5 8z" />
<glyph unicode="s" horiz-adv-x="675" d="M45 264q0 -39 17.5 -64.5t45 -42t61.5 -23.5t64 -7q63 0 134 23.5t129.5 65.5t96.5 101.5t38 131.5q0 55 -20.5 102t-53.5 89t-75 80t-85 73q-39 33 -75.5 64.5t-64.5 64t-45 67.5t-17 76q0 78 52 128t130 50q76 0 122 -51t62 -123q2 -6 8 -6t9 6q16 106 24 207q0 4 -6 8 q-68 20 -150 21q-57 0 -124.5 -15.5t-125 -47.5t-96.5 -82t-39 -120q0 -47 20.5 -92t53.5 -89t76 -86t86 -83q41 -39 80 -78t69.5 -77.5t49 -76.5t18.5 -77q0 -41 -20.5 -75t-52 -57.5t-70.5 -35.5t-76 -12q-39 0 -77 11t-66.5 34.5t-47 56.5t-18.5 76v31q0 6 -8 6t-8 -6 l-11 -50q-4 -23 -9 -47t-5 -49z" />
<glyph unicode="t" horiz-adv-x="1026" d="M45 1118l4 -26q0 -6 6 -8.5t8 3.5q16 43 53.5 76t86.5 33h246v-889q0 -35 -2.5 -58.5t-12.5 -37.5t-29.5 -23.5t-54.5 -17.5q-6 -2 -5 -10t7 -6q41 4 80 6t80 2q53 0 104.5 -3t104.5 -7q6 0 7 7t-5 9q-57 10 -94 51t-37 100v879h180q66 0 114 -23.5t64 -95.5q2 -6 6 -6 q6 0 9 6q12 45 14 98.5t2 100.5l-10 8q-8 -2 -14.5 -4t-14.5 -4q-35 -10 -57 -10h-656q-37 0 -68.5 5t-62.5 25q-8 6 -12 -4q-4 -14 -8 -27.5t-8 -27.5q-8 -29 -16.5 -58.5t-8.5 -62.5z" />
<glyph unicode="u" horiz-adv-x="1202" d="M46 1260.5q-1 -7.5 5 -9.5q55 -14 87 -38.5t32 -84.5v-206q0 -43 -1 -94.5t-1 -104.5q0 -45 1 -90t2 -83t4 -67.5t9 -44.5q23 -68 69 -125t105.5 -100t128 -66.5t140.5 -23.5q98 0 177 36t134 98t86 146t31 179v548q0 43 28.5 77t73.5 42l-2 17q-25 1 -49 1h-25 q-37 -1 -71 -1q-16 0 -34 -1t-34 -1q-55 0 -113 6q-6 0 -7 -7.5t5 -9.5q57 -10 88 -37.5t31 -87.5l4 -618q0 -72 -23.5 -129t-66.5 -98t-102.5 -63.5t-128.5 -22.5q-68 0 -126.5 22.5t-101.5 62.5t-66.5 96t-23.5 126l4 626q0 37 34 69t67 48q6 4 4 10.5t-8 6.5 q-33 -2 -64 -2h-63q-115 0 -232 6q-6 0 -7 -7.5z" />
<glyph unicode="v" horiz-adv-x="1273" d="M47 1269q-2 -5 4 -9q16 -10 32.5 -14.5t29.5 -8.5q23 -6 41 -14.5t34 -36.5q70 -113 121 -246t101 -274q47 -137 100 -271.5t129 -263.5q4 -4 8 -4t6 4q10 20 27.5 60t40 92.5t49.5 115t55 129.5q47 113 97.5 229.5t92.5 215t72.5 164t38.5 75.5q16 16 35 22.5t39 10.5 q9 2 29 6l-2 17q-10 0 -19.5 -1t-19.5 -3h2q-61 -6 -125 -7q-59 0 -117 7h2q-10 2 -20 2t-21 2q-4 2 -6 -6.5t2 -10.5q6 -2 20.5 -5t29 -8t24.5 -12t10 -16q0 -49 -25.5 -133t-64.5 -181t-83 -199.5t-83 -190.5q-37 -84 -61 -141q-10 31 -27.5 73.5t-46.5 108.5 q-37 90 -78 193.5t-75.5 198.5t-58.5 168t-24 101q0 8 9.5 14.5t22 11.5t24.5 8t18 3t6 8t-6 9q-32 -1 -63 -1t-63 1q-62 2 -124 6q-33 2 -64.5 3t-66.5 3q-6 0 -8 -5z" />
<glyph unicode="w" horiz-adv-x="1617" d="M46 1272q-3 -6 3 -10q10 -6 19.5 -11.5t17.5 -9.5q33 -18 54.5 -34.5t43.5 -61.5q49 -98 89 -259t75 -333q23 -117 47.5 -226.5t50.5 -193.5q2 -6 7.5 -7t9.5 5q49 113 95 233.5t89 235.5q39 102 78 204.5t82 203.5q29 -76 50.5 -142.5t47.5 -144.5q51 -154 105.5 -303.5 t126.5 -286.5q4 -4 9 -3t7 5q12 31 27.5 80t34 111.5t38 134t39.5 147.5q27 98 53.5 195.5t51 178.5t46 139.5t36.5 76.5q16 16 42.5 34.5t51.5 14.5v17q-29 -2 -55 -2h-52q-53 0 -105 2t-106 6q-6 0 -7 -7.5t5 -9.5q10 -2 25.5 -6t30 -12t24.5 -18.5t10 -22.5 q0 -84 -17 -187.5t-44 -212t-58.5 -215t-58.5 -192.5q-25 70 -46 135.5t-44 134.5q-53 158 -109.5 313.5t-123.5 297.5q-4 4 -9.5 3t-7.5 -5q-88 -219 -170 -432.5t-163 -436.5q-12 63 -21.5 113.5t-24.5 116.5l-57.5 287.5t-44.5 291.5q16 16 39 28.5t45 20.5q6 2 4 10.5 t-8 6.5q-86 -12 -166 -13q-43 0 -83 5.5t-83 9.5q-10 2 -18 2t-19 2q-6 2 -9 -4z" />
<glyph unicode="x" horiz-adv-x="1128" d="M45 152q41 4 78 6t78 2t77.5 -2t77.5 -6v16q-35 4 -55 27q2 27 19.5 67.5t42 85.5t53 93t55.5 91q20 33 38.5 61t31.5 50q6 -10 11 -19.5t19 -31.5q27 -45 63 -103.5t68.5 -115t57 -102.5t31.5 -66l-35 -39q-4 -4 -2 -9t8 -5q37 4 73.5 6t77.5 2q43 0 85 -2t83 -6l2 16 q-51 14 -97 55t-88 96.5t-80 121t-73 128.5q-29 51 -56 101.5t-58 93.5q18 27 39.5 61.5t46.5 75.5q35 55 72.5 115.5t77.5 112t82 84t85 36.5v17q-68 -6 -137 -6q-43 0 -84 3t-84 7q-6 0 -7 -7.5t5 -9.5q20 -8 47 -25.5t27 -39.5q0 -16 -12.5 -40t-31 -51.5t-41 -59 t-44.5 -62.5q-29 -41 -53.5 -77t-38.5 -60q-14 29 -39 68.5t-49 78.5q-16 27 -36 58.5t-36.5 61.5t-27.5 55.5t-11 37.5q0 25 18.5 40t40.5 22q6 2 5 9t-7 7q-23 0 -47 -2t-47 -4q-29 -4 -56.5 -6t-56.5 -2q-39 0 -76.5 2t-74.5 6q-6 0 -7 -7.5t5 -9.5q55 -10 104 -51 t92 -99.5t80 -125t68 -127.5q14 -29 30.5 -60.5t34.5 -66.5q-16 -29 -40.5 -69t-49.5 -83q-37 -66 -79 -135t-86 -127.5t-91 -98.5t-96 -42v-16z" />
<glyph unicode="y" horiz-adv-x="1167" d="M46 1260.5q-1 -7.5 5 -9.5q27 -8 72 -52t96 -108.5t103.5 -140.5t95.5 -147.5t69.5 -129t26.5 -85.5v-312q0 -39 -27.5 -67.5t-62.5 -42.5q-6 -4 -5 -10t7 -6q51 4 100 4h105h82q43 0 84 -2q6 0 7 7t-5 9q-20 4 -45 12t-45.5 21.5t-35 31t-14.5 41.5v336q0 35 26 92.5 t66 125t91 137t103 130t98 102.5t79 54l-2 17q-4 0 -10 -1t-10 -1q-35 -4 -72 -6.5t-76 -2.5q-29 0 -58.5 2.5t-55.5 8.5q-6 2 -8.5 -5.5t4.5 -11.5q16 -8 27 -20t11 -31q0 -12 -17 -49t-44 -85t-57.5 -99.5t-55.5 -94.5q-29 -49 -55.5 -92t-38.5 -65q-29 47 -76 125 t-92 154.5t-77.5 137t-32.5 74.5q0 12 11 22.5t23 20.5q2 2 1 0t1 0q4 4 2 9.5t-8 5.5q-61 -6 -118 -7q-47 0 -91.5 3.5t-93.5 7.5q-6 0 -7 -7.5z" />
<glyph unicode="z" horiz-adv-x="954" d="M47 164q-8 -12 6 -12h99q35 0 69.5 -1t69.5 -1q66 0 129 -1.5t129 -1.5q156 0 313 7q8 0 8 6q2 6 2 12t2 12q10 53 15.5 104.5t19.5 104.5l-14 6q-16 -27 -38.5 -55.5t-51.5 -53t-60.5 -41t-64.5 -16.5l-391 -2h-31q-14 0 -31 2q180 256 354.5 511t315.5 516q4 4 0 8 t-8 4q-41 0 -95.5 -1t-101.5 -3q-59 -2 -117.5 -4t-117.5 -2q-86 0 -171 7t-159 23q-10 4 -10 -6q-4 -23 -7.5 -53.5t-7.5 -52.5q-4 -31 -8 -67t-14 -73q-2 -6 4 -9t10 1q49 57 81 91t65.5 52.5t79 23.5t120.5 5q35 0 67 1t64 1h134h8t8 -2q-57 -88 -112.5 -171t-114.5 -171 q-115 -174 -228.5 -346t-218.5 -352z" />
<glyph unicode="{" horiz-adv-x="512" d="M45 793q0 -4 6 -9q23 -10 40.5 -14t31.5 -8q16 -4 26.5 -9t15.5 -17.5t7 -35t2 -65.5v-152q0 -78 8 -151.5t37 -135t85 -108.5t153 -72l6 17q-53 25 -85 67.5t-48.5 96t-20.5 111t-4 110.5v49q0 16 1 33.5t1 36.5q0 39 -3 77.5t-13 73.5t-30.5 63.5t-53.5 47.5 q39 18 59.5 49t29.5 67.5t11 77.5t2 78v49q0 49 1 101.5t15.5 97.5t45 78t90.5 45q6 2 5 9t-7 7q-102 -4 -157.5 -39t-81 -89t-31 -119.5t-7.5 -131.5q0 -49 -3 -96t-16 -85t-39 -63.5t-73 -33.5q-6 -2 -6 -8z" />
<glyph unicode="|" horiz-adv-x="151" d="M45 8q0 -8 8 -8h45q8 0 8 8v1557q0 8 -8 8h-45q-8 0 -8 -8v-1557z" />
<glyph unicode="}" horiz-adv-x="509" d="M47 30q2 -7 8 -5q92 20 149.5 65t89.5 105.5t42 135.5t10 158q0 10 -1 23.5t-1 30.5v78q0 33 1 64.5t9 49.5q10 27 28.5 32t41.5 5h18t19 2l4 14q-10 10 -26.5 14.5t-32.5 6.5q-25 4 -44.5 14.5t-19.5 50.5q0 23 1 44.5t1 44.5v96q0 74 -8 143.5t-38 125.5t-86 93 t-151 47q-6 0 -8 -6t4 -10q4 -2 6.5 -4t6.5 -4v2q25 -16 49 -33.5t44.5 -39t34 -47.5t13.5 -56v-41q0 -20 -2 -43q-2 -25 -3 -51.5t-1 -55.5q0 -84 20.5 -161.5t85.5 -118.5q-18 -12 -36.5 -39t-33 -55.5t-22.5 -57.5t-8 -45v-43q0 -23 2 -43q2 -27 2 -51v-53 q0 -57 -6 -114.5t-23.5 -108t-49.5 -89.5t-85 -59q-6 -4 -4 -11z" />
<glyph unicode="&#xa1;" horiz-adv-x="260" d="M45 106q14 4 42 19.5t55.5 37t47 44.5t19.5 39q0 104 -4 220t-14.5 232.5t-25.5 230t-40 216.5q-18 -129 -27.5 -259t-15.5 -260t-14.5 -260t-22.5 -260zM51 1346q0 -31 20.5 -64t55.5 -33q33 0 60.5 21.5t27.5 56.5t-23.5 67.5t-60.5 32.5q-35 0 -57.5 -23.5 t-22.5 -57.5z" />
<glyph unicode="&#xa2;" horiz-adv-x="839" d="M45 737q0 -78 23.5 -145.5t66.5 -120.5t104.5 -91t137.5 -54q-2 -33 -6 -64t-9 -63q-4 -29 -7 -57.5t-5 -57.5q0 -8 8 -8l66 8q8 0 8 6q4 57 11.5 112.5t11.5 110.5q12 0 23 -1t28 -1q43 0 93 6.5t93 22.5t71 46t28 79q0 20 -5.5 39.5t-11.5 36.5q-2 6 -8 6t-8 -6 q-25 -76 -77 -109t-132 -31q-18 0 -36.5 1t-37.5 1q6 29 9 80.5t8 114.5q4 76 10 160t17 154.5t27.5 116.5t41.5 46q20 0 42.5 -16.5t44 -39t40 -49t30.5 -44.5h-2q2 -4 4.5 -6t4.5 -7q8 -12 16 0q10 23 18.5 46.5t8.5 50.5q0 45 -26 72.5t-62.5 45t-78.5 24.5t-75 9l22 162 q0 10 -8 10h-20q-41 0 -50.5 -41t-11.5 -86v-28t-4 -23q-94 4 -174 -25.5t-138 -86t-91 -134.5t-33 -172zM178 782q0 127 79 205t202 88q-16 -160 -31.5 -321.5t-32.5 -321.5q-94 51 -155.5 146.5t-61.5 203.5z" />
<glyph unicode="&#xa3;" horiz-adv-x="1009" d="M47 156q-8 -12 6 -13q78 -4 157 -7t159 -3q41 0 92 -1t94 -3q47 -2 93 -4t93 -2q94 0 158 45t64 147q0 16 -2.5 30.5t-6.5 31.5q-4 14 -12 2q-41 -53 -66.5 -82t-51 -42t-60.5 -15t-92 -2h-105h-143q-70 0 -143 4q94 92 131 210.5t43 245.5q8 2 18 2h19h20q12 0 25 -2 q16 -2 31.5 -3t31.5 -1q45 0 81 13.5t46 60.5q4 10 -8 10q-66 -6 -127 -6q-31 0 -61.5 2t-63.5 6q-12 37 -12 72q0 53 24.5 129t65.5 146.5t96 119.5t117 49q35 0 61.5 -18t47 -47t33.5 -61.5t24 -61.5l14 -2q18 29 21.5 66.5t3.5 72.5v47l2 33q0 2 -4 6q-35 23 -76 36 t-84 13q-92 0 -178 -55t-154 -138t-109 -181.5t-41 -184.5v-24q0 -10 5 -23q-4 -4 -9.5 -6t-9.5 -4q-12 0 -33 4q-37 8 -69.5 2t-44.5 -63q-4 -10 8 -11q37 4 77 2t76 -6q-8 -31 -12 -66.5t-8 -70.5q-10 -70 -22.5 -138.5t-45.5 -123.5q-23 -41 -64.5 -64.5t-74.5 -40.5 q-29 -14 -45 -32z" />
<glyph unicode="&#xa4;" horiz-adv-x="1695" d="M45 575h252q29 -139 97.5 -248.5t168 -185t224 -115.5t264.5 -40q135 0 267 13t265 36q31 59 49.5 125.5t18.5 132.5q0 39 -9 69q-37 -82 -76.5 -142t-90 -100t-118 -59.5t-161.5 -19.5q-119 0 -230.5 42t-205.5 113.5t-164 170t-107 208.5h1135v74h-1155q-10 43 -13 86 t-5 86h1173v74h-1171q6 139 58 252t139 191.5t205 120.5t255 42q92 0 174 -24.5t146.5 -72.5t107.5 -120t59 -166q14 96 25.5 190.5t13.5 190.5q-129 10 -256 33.5t-258 23.5q-342 0 -554 -157.5t-273 -503.5h-250v-74h242q-10 -86 0 -172h-242v-74z" />
<glyph unicode="&#xa5;" horiz-adv-x="1189" d="M45 1329q51 -14 99.5 -54t92.5 -97.5t83.5 -125t76.5 -135t69 -128t58 -103.5q-12 -2 -24.5 -3t-24.5 -1q-27 0 -58.5 3t-62 1t-56.5 -14.5t-40 -42.5h281v-406q0 -25 -15.5 -40t-37 -24t-46 -12.5t-43.5 -1.5l-24 2q39 -12 79 -14t80 -2q72 0 144 1t143 -1 q-18 8 -46 13.5t-55.5 12.5t-47 21.5t-19.5 42.5v408h273l16 59h-281q23 41 54.5 102.5t69.5 132t80 141.5t88 129t95.5 98t98.5 46h-117q-47 0 -93 -1t-93 -5q29 -39 28 -84q0 -39 -32.5 -104.5t-74.5 -138t-84 -141t-61 -113.5q-23 51 -65.5 120.5t-87.5 143t-78 142.5 t-33 118q0 33 19 57q-80 6 -162 6q-41 0 -83 -2t-83 -6z" />
<glyph unicode="&#xa7;" horiz-adv-x="825" d="M45 631q0 -104 28.5 -168t75 -100.5t103.5 -56t117 -34.5q49 -12 96 -26.5t84 -41t58.5 -68.5t21.5 -111q0 -223 -215 -224q-53 0 -104.5 11.5t-102.5 29.5q-6 2 -10 -6l-37 -100q-2 -6 6 -8q14 -4 30.5 -6.5t28.5 -6.5q31 -8 62.5 -14t66.5 -6q92 0 164 32.5t120 89 t72.5 132.5t24.5 162q0 72 -23.5 139t-76.5 115q72 72 108.5 164t36.5 194q0 106 -29.5 172t-75.5 104.5t-104.5 58t-115.5 34.5q-49 12 -95.5 27.5t-82 42t-58 68.5t-22.5 107q0 98 50 165t154 67q57 0 113.5 -13.5t110.5 -31.5q6 -4 10 4l37 102q2 6 -6 10q-88 35 -183 35 q-98 0 -171.5 -33.5t-123 -92t-74 -138.5t-24.5 -170q0 -45 5 -76.5t16.5 -58.5t31 -51.5t47.5 -55.5q-72 -72 -108.5 -168t-36.5 -200zM156 719q0 66 22.5 131t65.5 119q29 -10 53.5 -16.5t50.5 -12.5q61 -16 119.5 -34.5t104.5 -50.5t75 -84t29 -134q-2 0 -2 -4 q0 -66 -25.5 -127.5t-70.5 -108.5q-33 10 -62 17.5t-61 15.5q-59 14 -113.5 29.5t-95.5 46.5t-65.5 81t-24.5 132z" />
<glyph unicode="&#xa8;" horiz-adv-x="571" d="M45 1610q0 -29 21.5 -56.5t52.5 -27.5q29 0 47 22t18 51q0 27 -18.5 53.5t-46.5 26.5q-29 0 -51.5 -20.5t-22.5 -48.5zM385 1608q0 -29 21.5 -55.5t52.5 -26.5q29 0 48 22t19 51t-18.5 54.5t-48.5 25.5q-29 0 -51.5 -20.5t-22.5 -50.5z" />
<glyph unicode="&#xa9;" horiz-adv-x="1398" d="M45 817q0 -119 46 -247t127 -234.5t192.5 -176t240.5 -69.5q127 0 253 47t225.5 131t162 199t62.5 250q0 123 -45 250t-127 231.5t-193.5 171t-245.5 66.5q-125 0 -249.5 -47.5t-224 -130t-162 -195.5t-62.5 -246zM152 827q0 127 48 223.5t129 162t188.5 99.5t225.5 34 q113 0 207 -35t163 -99.5t108 -157.5t39 -208q0 -113 -39 -216.5t-106.5 -189.5t-159 -151.5t-195.5 -100.5q-123 12 -233.5 66.5t-193.5 138.5t-132 195.5t-49 238.5zM305 788q0 -88 41 -160.5t106.5 -124.5t146.5 -81t163 -29q37 0 73.5 8.5t65.5 26.5t47.5 48t18.5 73v22 q0 12 -2 23q-2 6 -9 6q-6 0 -8 -6q-23 -59 -71 -96t-113 -37q-63 0 -122.5 32.5t-107 85t-76 116t-28.5 124.5t28.5 111.5t72.5 86.5t100.5 56.5t111.5 20.5q74 0 128.5 -42t68.5 -116q2 -6 6 -6q6 0 10 4q16 33 19.5 67.5t3.5 69.5q0 10 1 21.5t1 21.5l-4 6q-41 29 -88 38 t-94 9q-80 0 -166 -24.5t-158 -72.5t-119 -118.5t-47 -163.5z" />
<glyph unicode="&#xaa;" horiz-adv-x="796" d="M45 831q27 -2 51 -2h51h54t53 2q-16 23 -27.5 46.5t-11.5 52.5q0 27 14.5 45t35 29.5t45 16.5t46.5 5q33 0 67 -8t62.5 -26.5t47 -46t18.5 -64.5q0 -23 -6 -43q41 -6 80 -7.5t80 -1.5h47q-57 23 -108.5 100t-97.5 169t-87 183t-76 144q-20 -37 -43 -90t-47.5 -114.5 t-52 -124t-58 -116.5t-64.5 -94t-73 -55zM289 1069q18 49 38.5 98.5t41.5 98.5q27 -47 48.5 -96.5t37.5 -100.5h-166z" />
<glyph unicode="&#xab;" horiz-adv-x="786" d="M45 807q68 -94 148.5 -177t164.5 -161l64 80q-70 63 -136.5 128.5t-127.5 137.5q68 82 138.5 161t117.5 175q-96 -84 -188.5 -168t-180.5 -176zM362 807q72 -90 148 -175t160 -163q34 37 71 72q-66 68 -132 133t-132 133q14 23 55 72t84 102t76 99t33 65l-2 6 q-92 -86 -183 -170t-178 -174z" />
<glyph unicode="&#xac;" horiz-adv-x="1916" d="M45 528q78 -4 156 -6t155 -2q-29 12 -49 16.5t-33.5 12.5t-19.5 22.5t-6 49.5q0 162 24.5 317.5t42.5 314.5q49 -84 93.5 -172t90.5 -174t96 -171t110 -163v-413q0 -45 -2.5 -76t-14.5 -50.5t-37.5 -31.5t-75.5 -20q111 -6 220.5 -7.5t220.5 -1.5q-41 20 -72 21.5 t-50.5 10.5t-28.5 42t-9 119v493q53 -49 116.5 -120.5t135.5 -152.5t147.5 -161t154.5 -143.5t157 -103t153 -39.5q80 0 152 45q-70 0 -147.5 41t-158.5 107.5t-163 148t-157 163.5t-139.5 155t-113.5 120q53 47 101.5 98t95.5 105q10 -78 17 -158t7 -160q0 -39 -8 -72 q78 -4 157 -7t157 -3q-25 8 -45.5 11.5t-41 7.5t-38 14t-35.5 33q-16 20 -29.5 80.5t-23 129t-16.5 133t-9 95.5q37 39 84 85t100.5 87t109.5 70.5t112 36.5q-88 4 -175.5 3t-175.5 5q14 -25 15 -51q0 -41 -27 -80t-49 -68q-10 104 -24.5 205.5t-28.5 204.5 q-53 -74 -101.5 -155t-92.5 -166t-85 -171t-84 -168l-4 303q0 53 37 92t90 44q-106 6 -212.5 8t-213.5 2q10 -18 34.5 -19.5t49.5 -6.5t44.5 -26.5t19.5 -78.5v-396q-16 31 -50 93.5t-75 138.5t-87.5 159t-88.5 153.5t-76.5 123.5t-53.5 70q-4 -31 -13 -111t-22.5 -183.5 t-27.5 -217t-27.5 -210.5t-25 -164t-17.5 -75q-20 -27 -42.5 -29t-53.5 -6zM860 682v63q70 131 139.5 259.5t147.5 255.5q6 -63 13.5 -126t15.5 -124q-80 -82 -162 -158t-154 -170zM1432 709q0 -27 4 -52.5t4 -52.5l33 -2q14 0 33.5 2t39.5 2t38 -3t28 -15q-12 -12 -39 -35 t-53.5 -47.5t-47 -48t-20.5 -39.5q27 -6 52.5 -10.5t51.5 -4.5h9q6 45 24.5 89.5t52.5 78.5q8 -12 18.5 -42.5t23 -61.5t27.5 -54.5t32 -23.5q10 0 18 9.5t15.5 21.5t12.5 25.5t7 21.5q-6 20 -26.5 34.5t-42 28t-39 29.5t-17.5 39q47 0 91 4t89 8q-4 23 -12 54.5t-31 46.5 q-23 -25 -63.5 -57.5t-75.5 -32.5h-12q10 45 24.5 87t14.5 89q0 8 -2 16l-4 16q-29 -4 -55.5 -14t-49.5 -29q12 -35 28.5 -70.5t16.5 -76.5q0 -10 -4 -23q-18 8 -40.5 24.5t-47.5 32t-48.5 27t-41.5 11.5q-4 0 -8 -1t-8 -1z" />
<glyph unicode="&#xad;" horiz-adv-x="622" d="M45 635q0 -12 10 -8q70 27 143.5 41t145.5 24q59 10 118 21.5t116 27.5v17q-12 4 -47 6t-81.5 3t-99.5 1h-102h-168q-8 0 -8 -6q-10 -29 -16.5 -61.5t-10.5 -65.5z" />
<glyph unicode="&#xae;" horiz-adv-x="1417" d="M45 766q0 -147 66.5 -268t173 -207t240.5 -133t270 -47q106 0 209.5 55t185.5 143t132 195t50 211q0 117 -47 244.5t-130 235.5t-193.5 177.5t-237.5 69.5q-123 0 -251 -57.5t-232.5 -152.5t-170 -216t-65.5 -250zM170 831q0 125 47 221.5t127 162t185.5 98.5t224.5 33 q113 0 209 -35t164.5 -100.5t107.5 -158.5t39 -210q0 -113 -40 -213.5t-108 -186.5q-33 47 -73.5 87t-81.5 77q-35 33 -72 67t-61 62q43 49 74.5 106.5t31.5 125.5q0 45 -17.5 77.5t-45 53t-65.5 31t-77 10.5h-301q-6 0 -7 -5.5t3 -9.5t14.5 -9t20.5 -9q16 -4 32.5 -13.5 t16.5 -25.5v-584q0 -23 -14.5 -31t-32.5 -14q-10 -4 -18.5 -6t-18.5 -12q-4 -4 -3 -9t7 -5h269q14 0 6 12q-10 12 -23.5 19t-25.5 12q-23 4 -31 10q-6 53 -8 103t-2 102v43q10 4 22 8t23 4q53 0 98 -49t88 -109q25 -33 48.5 -64.5t49 -56t54 -39t61.5 -14.5h10 q-63 -66 -139 -116t-162 -83q-125 12 -234.5 67.5t-192.5 140.5t-131 197t-48 238zM625 772v315q25 6 49 7q37 0 65.5 -16.5t48 -43t29.5 -60.5t10 -67q0 -57 -29.5 -105t-92.5 -48q-41 0 -80 18z" />
<glyph unicode="&#xaf;" horiz-adv-x="526" d="M45 1585h414q8 14 15 29t7 31h-422q-14 -33 -14 -60z" />
<glyph unicode="&#xb0;" horiz-adv-x="643" d="M45 1239q0 -59 22.5 -109.5t60.5 -89.5t89 -60.5t111 -21.5q55 0 104 20.5t86 57.5t58.5 85.5t21.5 103.5q0 59 -20.5 112.5t-57.5 93t-88 63.5t-113 24q-55 0 -105 -22.5t-87 -61.5t-59.5 -89.5t-22.5 -105.5zM123 1221q0 90 54 152.5t147 62.5q39 0 74.5 -15.5t62 -43 t43 -63.5t18.5 -75q-2 0 -2 -4q0 -41 -16.5 -77t-44 -62.5t-63.5 -42t-77 -15.5q-37 0 -71.5 14.5t-62 39t-45 58.5t-17.5 71z" />
<glyph unicode="&#xb2;" />
<glyph unicode="&#xb3;" />
<glyph unicode="&#xb4;" horiz-adv-x="434" d="M45 1534q72 25 145.5 52.5t151.5 23.5l47 -2q-2 14 -6 30.5t-11 32t-19.5 25.5t-30.5 10q-25 0 -62 -21.5t-76 -51t-76.5 -58.5t-62.5 -41z" />
<glyph unicode="&#xb6;" horiz-adv-x="1042" d="M45 1079q0 -96 35 -179t95.5 -144.5t142 -99.5t176.5 -40v-911h-134q-8 0 -8 -8v-57q0 -8 8 -9h224v1848h186v-455q0 -233 -1 -469t-1 -469v-455h219q8 0 8 9v57q0 8 -8 8q-33 0 -64.5 -1t-66.5 -1v1774h133q8 0 8 8v53q0 8 -8 8h-397q-113 0 -212 -25.5t-174 -81 t-118 -144.5t-43 -216z" />
<glyph unicode="&#xb7;" horiz-adv-x="264" d="M45 795q0 -33 19.5 -68t56.5 -35q35 0 66.5 25.5t31.5 62.5t-26.5 70t-65.5 33q-37 0 -59.5 -27t-22.5 -61z" />
<glyph unicode="&#xb8;" horiz-adv-x="360" d="M45 -254q31 -14 70 -14q37 0 72.5 16t64.5 43t46 62.5t17 72.5q0 51 -35.5 74t-82.5 23q-10 0 -22.5 -1.5t-22.5 -3.5l114 115l-18 2q-29 0 -52.5 -16.5t-46 -38t-44 -44t-44.5 -34.5q55 -2 99.5 -36t44.5 -93q0 -61 -44 -95t-102 -34z" />
<glyph unicode="&#xb9;" />
<glyph unicode="&#xba;" horiz-adv-x="741" d="M45 1116q0 -57 18.5 -113.5t54.5 -101.5t86 -73.5t111 -28.5q31 0 59.5 9t57.5 17q59 16 107.5 36t83 49.5t54 75.5t19.5 116q0 66 -23.5 125t-64.5 105t-98 74t-125 28t-130 -24t-108.5 -64.5t-74 -100t-27.5 -129.5zM147 1155q0 100 57.5 168t162.5 68q53 0 94 -25 t68.5 -62.5t41 -86t13.5 -95.5q0 -37 -12.5 -83t-35 -87t-57.5 -68.5t-78 -27.5q-59 0 -106 26.5t-80 68.5t-50.5 95.5t-17.5 108.5z" />
<glyph unicode="&#xbb;" horiz-adv-x="784" d="M45 1079q66 -68 131.5 -133t130.5 -133q-16 -25 -56 -73t-82 -100t-75 -98t-35 -67l4 -6q92 84 182.5 168t174.5 176q-72 90 -146.5 174t-156.5 164q-18 -16 -36 -35.5t-36 -36.5zM362 1071q72 -63 137.5 -128.5t129.5 -135.5q-20 -25 -60.5 -71t-82.5 -97t-74.5 -98 t-38.5 -72q96 84 188 168t178 176q-141 180 -313 338q-16 -23 -31.5 -41t-32.5 -39z" />
<glyph unicode="&#xbf;" horiz-adv-x="720" d="M45 352q0 -55 30.5 -101t79 -81t103.5 -54.5t104 -19.5q43 0 98.5 11.5t102.5 36t80 63.5t33 94q0 31 -11.5 59.5t-27.5 55.5q2 -43 -18.5 -89t-54.5 -85t-77 -63.5t-88 -24.5q-41 0 -77.5 23.5t-65.5 60t-46 79.5t-17 80q0 51 23.5 109.5t58 117t76.5 113t77 99.5 t58.5 76.5t23.5 45.5q0 20 -13.5 45t-34 48.5t-42 43t-39.5 25.5q29 -41 29 -88q0 -53 -27 -107.5t-68 -110.5t-88 -113.5t-88 -116t-67.5 -116.5t-26.5 -116zM317 1346q0 -31 20.5 -64t55.5 -33q33 0 60.5 21.5t27.5 56.5t-23.5 67.5t-60.5 32.5q-35 0 -57.5 -23.5 t-22.5 -57.5z" />
<glyph unicode="&#xc4;" horiz-adv-x="1613" d="M46 7q1 -7 7 -7q23 2 44.5 3t43.5 3q35 4 72 6t74 2q35 0 69.5 -2t69.5 -6q16 -2 35 -2q18 0 35 -2v16q-16 2 -36 6.5t-36 11.5t-27.5 20.5t-11.5 33.5q0 31 19.5 100.5t45 146.5t52 148.5t41.5 106.5h434q49 -131 100 -261t101 -261l-111 -52q-6 -4 -4 -11t8 -5 q10 2 25 2q14 0 24 2q51 4 102.5 7t102.5 3q61 0 121.5 -4t120.5 -10l2 16q-57 16 -120 49t-91 83q-63 115 -133 269t-137.5 323t-131 339t-116.5 316q-14 41 -28.5 76.5t-27.5 70.5q-2 6 -8 6t-8 -6q-53 -141 -105.5 -283.5t-101.5 -285.5q-70 -199 -141.5 -400.5 t-151.5 -394.5q-29 -70 -85 -110.5t-132 -53.5q-6 -2 -5 -9zM477 1599q0 -33 23.5 -61.5t56.5 -28.5t53.5 23.5t20.5 56.5q0 29 -20.5 58.5t-53.5 29.5q-31 0 -55.5 -22.5t-24.5 -55.5zM569 680q43 121 79 237.5t77 239.5q8 27 17.5 54.5t19.5 56.5l180 -588h-373zM897 1599 q0 -33 22.5 -61.5t57.5 -28.5q33 0 53.5 23.5t20.5 56.5q0 35 -22.5 61.5t-59.5 26.5q-31 0 -51.5 -24.5t-20.5 -53.5z" />
<glyph unicode="&#xc5;" horiz-adv-x="423" d="M45 1587q0 -25 12.5 -42t30.5 -28.5t41 -16.5t41 -5q25 0 49 12q27 2 55.5 11.5t52 26t38 39.5t14.5 54q0 57 -45 84t-94 27q-35 0 -70 -10t-62.5 -30.5t-45 -51.5t-17.5 -70zM123 1622q0 31 24.5 50.5t53.5 19.5q31 0 58.5 -18.5t27.5 -53.5q0 -23 -22.5 -52.5 t-45.5 -29.5q-35 0 -65.5 23.5t-30.5 60.5z" />
<glyph unicode="&#xc7;" horiz-adv-x="372" d="M47 -242q-2 -6 4 -10q31 -14 72 -14q39 0 76 17.5t65.5 45t46 64t17.5 73.5q0 57 -38 81t-87 24h-21l74 72q4 4 2 9t-6 5q-8 2 -16 2q-6 0 -17 2l4 8q4 4 -2 9.5t-10 0.5q-37 -37 -70 -61q-20 -16 -39.5 -33.5t-38.5 -38.5q-4 -4 -2 -9t9 -5q53 -2 93 -31.5t40 -85.5 q0 -57 -40 -89t-93 -32l-15 2q-6 0 -8 -6z" />
<glyph unicode="&#xc9;" horiz-adv-x="446" d="M46 1518.5q3 -7.5 9 -2.5l49 16q59 20 120 41.5t122 17.5l47 -2q8 0 8 10q-2 14 -6 33t-13 34t-22.5 25.5t-33.5 10.5q-31 0 -84.5 -35t-106.5 -76q-23 -16 -42 -31.5t-44 -29.5q-6 -4 -3 -11.5z" />
<glyph unicode="&#xd0;" />
<glyph unicode="&#xd1;" horiz-adv-x="622" d="M47 1530q-2 -4 4 -7t10 1q20 31 51 52t70 21q31 0 62.5 -12t64.5 -29q31 -16 62.5 -27t66.5 -11q31 0 53.5 14t39 35.5t28 47t19.5 48.5l-15 6q-20 -27 -50 -44t-64 -17q-33 0 -64 12t-63 27q-31 14 -63 25t-66 11q-33 0 -57.5 -14t-41 -36.5t-28 -50.5t-19.5 -52z" />
<glyph unicode="&#xd6;" horiz-adv-x="1675" d="M45 696q0 -90 35 -178t95.5 -168t139 -149.5t166.5 -120.5t180.5 -80t178.5 -29q158 0 301 55.5t251.5 155t173 235.5t64.5 298q0 178 -64.5 332.5t-178 269.5t-267 180.5t-332.5 65.5h-18q-8 0 -16 -2q-197 -41 -332 -105.5t-219 -166t-121 -247t-37 -346.5zM233 821 q0 135 39 255t115 209t186.5 141.5t253.5 52.5q152 0 268.5 -68t195.5 -176.5t120 -243.5t41 -272q0 -133 -38 -253t-112.5 -211t-184 -145.5t-251.5 -54.5q-152 0 -269.5 69t-198.5 177.5t-123 245.5t-42 274zM592 1303q0 -31 23.5 -61t56.5 -30t54.5 23.5t21.5 56.5 q0 31 -19.5 59.5t-54.5 28.5q-33 0 -57.5 -22.5t-24.5 -54.5zM924 1303q0 -31 22.5 -61t54.5 -30q33 0 54.5 23.5t21.5 56.5q0 31 -20.5 59.5t-55.5 28.5q-33 0 -55 -23.5t-22 -53.5z" />
<glyph unicode="&#xdc;" horiz-adv-x="1595" d="M46 1512.5q-1 -7.5 5 -9.5q76 -18 120 -52t44 -118q0 -23 -1 -56.5t-1 -74.5q0 -59 -1 -135t-1 -154q0 -84 1 -167.5t3 -154.5t7 -122t11 -72q31 -94 91.5 -172t140.5 -134t174 -88t192 -32q131 0 239 49.5t183.5 134.5t116.5 197.5t41 239.5v743q0 59 39 107.5t100 58.5 l-2 17h-24q-47 0 -90 1t-88 1h-97h-71q-35 0 -72 4q-6 0 -7 -7.5t5 -9.5q80 -12 122 -51t42 -123v-211q0 -104 2 -208.5t2 -211.5v-208q0 -96 -34 -174t-92.5 -134.5t-138 -87t-173.5 -30.5q-92 0 -172 29.5t-138.5 85t-91.5 132t-33 170.5v213q0 106 2 213t2 211v213 q0 27 13.5 50.5t35 45t45 38t46.5 28.5q6 4 4 10t-8 6q-41 -2 -82 -2h-80q-80 0 -161 2.5t-163 6.5q-6 0 -7 -7.5zM588 1606q0 -39 33.5 -66t72.5 -27q18 8 32.5 25.5t14.5 42.5q0 33 -22.5 64.5t-56.5 31.5q-27 0 -50.5 -21.5t-23.5 -49.5zM918 1606q0 -39 33.5 -66 t72.5 -27q20 8 33.5 25.5t13.5 42.5q0 33 -22.5 64.5t-57.5 31.5q-29 0 -51 -21.5t-22 -49.5z" />
<glyph unicode="&#xdd;" />
<glyph unicode="&#xde;" />
<glyph unicode="&#xdf;" horiz-adv-x="1245" d="M45 264q0 -39 18.5 -64.5t46 -42t60.5 -23.5t63 -7q63 0 134 23.5t130.5 65.5t97.5 101.5t38 131.5q0 55 -20.5 102t-53.5 89t-76 79l-86 74q-39 31 -74.5 62.5t-64.5 65t-46 68.5t-17 76q0 78 53 128t129 50q78 0 123 -51t61 -123q2 -6 8 -6t9 6q16 106 24 207q0 4 -6 8 q-68 20 -147 21q-57 0 -125 -15.5t-126.5 -47.5t-97.5 -82t-39 -120q0 -47 20.5 -92t54.5 -89t76 -86t87 -83q41 -39 80 -78t69.5 -77.5t49 -76.5t18.5 -77q0 -41 -20.5 -75t-52 -57.5t-70.5 -35.5t-76 -12q-41 0 -78 11t-66.5 34.5t-47 56.5t-17.5 76v31q0 6 -8 6t-8 -6 l-13 -50q-6 -23 -10 -47t-4 -49zM612 264q0 -39 17.5 -64.5t45 -42t61.5 -23.5t65 -7q63 0 134 23.5t130 65.5t97 101.5t38 131.5q0 55 -20.5 102t-54 89t-75.5 80t-85 73q-39 33 -75 64.5t-64.5 64t-46 67.5t-17.5 76q0 78 53 128t129 50q78 0 123 -51t61 -123q2 -6 9 -6 q6 0 8 6q16 106 24 207q0 4 -6 8q-68 20 -147 21q-57 0 -125 -15.5t-126 -47.5t-97 -82t-39 -120q0 -47 20.5 -92t54 -89t75.5 -86t87 -83q41 -39 80 -78t68.5 -77.5t48 -76.5t18.5 -77q0 -41 -20.5 -75t-51 -57.5t-69.5 -35.5t-76 -12q-41 0 -77.5 11t-66.5 34.5 t-47.5 56.5t-17.5 76v31q0 6 -8 6t-8 -6l-12 -50q-6 -23 -10.5 -47t-4.5 -49z" />
<glyph unicode="&#xe4;" horiz-adv-x="1214" d="M46 158q1 -8 7 -6q41 4 82 7t82 3t82 -3t80 -7v16q-25 4 -51.5 13t-26.5 40q0 23 14.5 73t33 106.5t38 108.5t29.5 79h317q35 -98 73 -191.5t73 -189.5l-80 -39q-6 -4 -4 -10t8 -6l94 8t94 4q18 0 35.5 -1t34.5 -3q29 -2 54 -4t54 2v16q-49 4 -87 24.5t-62 67.5 q-117 221 -208 452.5t-175 461.5q-10 29 -21.5 56.5t-21.5 55.5q-2 6 -8 6t-8 -6q-39 -102 -74 -203.5t-72 -203.5q-53 -152 -108.5 -301.5t-114.5 -298.5v2q-45 -104 -158 -119q-6 -2 -5 -10zM358 1376q0 -31 24 -60.5t58 -29.5q33 0 53.5 24.5t20.5 55.5q0 29 -20.5 58.5 t-53.5 29.5t-57.5 -22.5t-24.5 -55.5zM438 655q39 111 71 214.5t66 211.5l127 -426h-264zM696 1374q0 -29 22.5 -57.5t57.5 -28.5q33 0 54.5 23.5t21.5 54.5t-20.5 59.5t-55.5 28.5t-57.5 -22.5t-22.5 -57.5z" />
<glyph unicode="&#xe6;" horiz-adv-x="1372" d="M45 131h381q-35 10 -66.5 31.5t-31.5 64.5t29.5 96.5t67.5 108.5t75 110.5t53 102.5h276v-362q0 -25 -3 -51.5t-12 -47t-27.5 -34t-49.5 -13.5q129 -4 256 -10t256 -6q35 0 49.5 22.5t19.5 54t4 65t5 56.5q-16 -72 -65.5 -112.5t-120.5 -40.5q-53 0 -108.5 23.5 t-84.5 72.5v383q41 -6 80 -2t80 4q53 0 78.5 -14.5t37 -32.5t15.5 -37.5t14 -27.5q0 53 6.5 102t12.5 100q-16 -10 -45 -24.5t-47 -14.5h-232v508q37 -4 74 0t74 4q68 0 114.5 -26.5t44.5 -104.5q12 6 19.5 32t10.5 57.5t5 61.5t2 44q-47 -16 -97 -17.5t-97 -1.5 q-61 0 -123 2.5t-123 2.5q-12 0 -26.5 -15.5t-29 -36t-25.5 -41t-17 -30.5q-41 -70 -89.5 -161t-103.5 -190.5t-116.5 -200t-126 -188.5t-134 -157.5t-139.5 -108.5zM580 700q59 106 119.5 213t125.5 211v-424h-245z" />
<glyph unicode="&#xf6;" horiz-adv-x="1261" d="M45 664q0 -98 56.5 -194.5t142.5 -172.5t189.5 -123t199.5 -47q117 0 222.5 41t185 114.5t128 175t48.5 220.5q0 131 -48.5 250t-132.5 206t-196.5 135t-243.5 38l-27 -2q-145 -31 -245.5 -79t-162 -123t-89 -182.5t-27.5 -256.5zM186 758q0 98 30 185t85 153.5 t136 104.5t186 38q111 0 195.5 -49t143 -129t88 -180.5t29.5 -200.5q0 -98 -27.5 -186t-82 -155t-134 -106.5t-184.5 -39.5q-111 0 -196.5 50t-146 131t-91.5 181t-31 203zM391 1397q0 -33 23.5 -61.5t58.5 -28.5q33 0 52.5 23t19.5 56q0 29 -19.5 59t-52.5 30t-57.5 -22.5 t-24.5 -55.5zM727 1395q0 -31 23.5 -58.5t58.5 -27.5q33 0 54.5 22t21.5 55q0 31 -20.5 60t-55.5 29q-33 0 -57.5 -22.5t-24.5 -57.5z" />
<glyph unicode="&#xf8;" horiz-adv-x="1404" d="M45 690q0 -123 54.5 -233.5t146.5 -192.5l-86 -84l33 -33l88 89q86 -68 190 -105t215 -37q121 0 241 35t216 104.5t156.5 171t60.5 236.5q0 133 -56.5 253t-154.5 210l90 88l-33 33l-92 -92q-82 66 -181 101.5t-204 35.5q-127 0 -250 -39t-219 -113t-155.5 -182.5 t-59.5 -245.5zM184 719q0 113 38 204t105.5 155.5t161 99t203.5 34.5q100 0 193.5 -35.5t165.5 -107.5l-734 -733q-66 82 -99.5 180t-33.5 203zM348 303l735 733q70 -80 105 -182.5t35 -208.5q0 -111 -36 -203t-101.5 -158.5t-157.5 -102.5t-203 -36q-106 0 -204.5 40 t-172.5 118z" />
<glyph unicode="&#xfc;" horiz-adv-x="1202" d="M46 1260.5q-1 -7.5 5 -9.5q55 -14 87 -38.5t32 -84.5v-206q0 -43 -1 -94.5t-1 -104.5q0 -45 1 -90t2 -83t4 -67.5t9 -44.5q23 -68 69 -125t105.5 -100t128 -66.5t140.5 -23.5q98 0 177 36t134 98t86 146t31 179v548q0 43 28.5 77t73.5 42l-2 17q-37 2 -74 1t-71 -1 q-16 0 -34 -1t-34 -1q-55 0 -113 6q-6 0 -7 -7.5t5 -9.5q57 -10 88 -37.5t31 -87.5l4 -618q0 -72 -23.5 -129t-66.5 -98t-102.5 -63.5t-128.5 -22.5q-68 0 -126.5 22.5t-101.5 62.5t-66.5 96t-23.5 126l4 626q0 37 34 69t67 48q6 4 4 10.5t-8 6.5q-33 -2 -64 -2h-63 q-115 0 -232 6q-6 0 -7 -7.5zM381 1397q0 -33 23.5 -61.5t58.5 -28.5q33 0 52.5 23t19.5 56q0 29 -19.5 59t-52.5 30t-57.5 -22.5t-24.5 -55.5zM717 1395q0 -31 23.5 -58.5t58.5 -27.5q33 0 53 22t20 55q0 31 -19 60t-54 29q-33 0 -57.5 -22.5t-24.5 -57.5z" />
<glyph unicode="&#x2c6;" horiz-adv-x="530" d="M45 1518q53 35 109.5 66.5t121.5 31.5q53 0 90 -31t60 -78q16 16 31.5 32t27.5 34q-53 43 -109.5 83t-115.5 77q-57 -49 -112.5 -102.5t-102.5 -112.5z" />
<glyph unicode="&#x2dc;" horiz-adv-x="610" d="M45 1538q23 31 54.5 54.5t72.5 23.5q35 0 67.5 -12.5t64.5 -27.5t62.5 -27.5t65.5 -12.5q29 0 50.5 13.5t37 34t26.5 44.5t19 47q-23 -29 -54.5 -47t-68.5 -18q-35 0 -66.5 12t-63 25.5t-63.5 26t-65 12.5q-31 0 -52 -14.5t-38.5 -36t-29 -47t-19.5 -50.5z" />
<glyph unicode="&#x2000;" horiz-adv-x="882" />
<glyph unicode="&#x2001;" horiz-adv-x="1765" />
<glyph unicode="&#x2002;" horiz-adv-x="882" />
<glyph unicode="&#x2003;" horiz-adv-x="1765" />
<glyph unicode="&#x2004;" horiz-adv-x="588" />
<glyph unicode="&#x2005;" horiz-adv-x="441" />
<glyph unicode="&#x2006;" horiz-adv-x="294" />
<glyph unicode="&#x2007;" horiz-adv-x="294" />
<glyph unicode="&#x2008;" horiz-adv-x="220" />
<glyph unicode="&#x2009;" horiz-adv-x="353" />
<glyph unicode="&#x200a;" horiz-adv-x="98" />
<glyph unicode="&#x2010;" horiz-adv-x="622" d="M45 635q0 -12 10 -8q70 27 143.5 41t145.5 24q59 10 118 21.5t116 27.5v17q-12 4 -47 6t-81.5 3t-99.5 1h-102h-168q-8 0 -8 -6q-10 -29 -16.5 -61.5t-10.5 -65.5z" />
<glyph unicode="&#x2011;" horiz-adv-x="622" d="M45 635q0 -12 10 -8q70 27 143.5 41t145.5 24q59 10 118 21.5t116 27.5v17q-12 4 -47 6t-81.5 3t-99.5 1h-102h-168q-8 0 -8 -6q-10 -29 -16.5 -61.5t-10.5 -65.5z" />
<glyph unicode="&#x2012;" horiz-adv-x="622" d="M45 635q0 -12 10 -8q70 27 143.5 41t145.5 24q59 10 118 21.5t116 27.5v17q-12 4 -47 6t-81.5 3t-99.5 1h-102h-168q-8 0 -8 -6q-10 -29 -16.5 -61.5t-10.5 -65.5z" />
<glyph unicode="&#x2013;" horiz-adv-x="929" d="M45 780h840v74h-840v-74z" />
<glyph unicode="&#x2014;" horiz-adv-x="1771" d="M45 780h1681v74h-1681v-74z" />
<glyph unicode="&#x2018;" horiz-adv-x="256" d="M45 1202q0 -59 39 -80.5t90 -21.5h27q-47 72 -47 155q0 68 20.5 131.5t36.5 129.5q-29 -27 -57.5 -65t-53 -80t-40 -86t-15.5 -83z" />
<glyph unicode="&#x2019;" horiz-adv-x="253" d="M45 1100q27 27 55.5 64.5t53 79.5t40 86t15.5 83q0 49 -32 77t-79 26l-43 -3q45 -74 45 -155q0 -66 -19.5 -130.5t-35.5 -127.5z" />
<glyph unicode="&#x201a;" horiz-adv-x="253" d="M45 -53q27 27 55.5 64.5t53 79.5t40 86t15.5 83q0 49 -32 77t-79 25l-43 -2q45 -74 45 -155q0 -66 -19.5 -130.5t-35.5 -127.5z" />
<glyph unicode="&#x201c;" horiz-adv-x="473" d="M45 1202q0 -59 38 -80.5t89 -21.5h27q-45 70 -45 155q0 68 19.5 131.5t35.5 129.5q-29 -27 -57.5 -65t-52 -80t-39 -86t-15.5 -83zM264 1202q0 -59 38 -80.5t89 -21.5h27q-45 74 -45 155q0 68 19.5 131.5t35.5 129.5q-27 -27 -55.5 -65t-53 -80t-40 -86t-15.5 -83z" />
<glyph unicode="&#x201d;" horiz-adv-x="473" d="M45 1100q27 27 55.5 64.5t53 79.5t40 86t15.5 83q0 49 -32 77t-79 26l-43 -3q45 -74 45 -155q0 -66 -19.5 -130.5t-35.5 -127.5zM264 1100q27 25 55.5 62.5t53 80.5t40 87t15.5 81q0 49 -30.5 79t-80.5 26l-43 -3q47 -72 48 -155q0 -68 -20.5 -131.5t-37.5 -126.5z" />
<glyph unicode="&#x201e;" horiz-adv-x="473" d="M45 -53q27 27 55.5 64.5t53 79.5t40 86t15.5 83q0 49 -32 77t-79 25l-43 -2q45 -74 45 -155q0 -66 -19.5 -130.5t-35.5 -127.5zM264 -53q27 25 55.5 62.5t53 80.5t40 87t15.5 81q0 49 -30.5 79t-80.5 25l-43 -2q47 -72 48 -155q0 -68 -20.5 -131.5t-37.5 -126.5z" />
<glyph unicode="&#x2022;" horiz-adv-x="391" d="M47 760q2 -6 8 -6q49 -6 82 -27.5t55.5 -55.5t37 -75t24.5 -84q2 -6 6 -6q6 0 10 4q14 29 27.5 66.5t25 77.5t17.5 80t6 73q0 16 -2 32.5t-8 30.5l-10 4q-74 -18 -142.5 -45.5t-132.5 -58.5q-6 -4 -4 -10z" />
<glyph unicode="&#x2026;" horiz-adv-x="1386" d="M45 233q0 -33 18.5 -67.5t57.5 -34.5q35 0 66.5 25.5t31.5 62.5q0 39 -26.5 71t-67.5 32q-37 0 -58.5 -27t-21.5 -62zM606 233q0 -33 18.5 -67.5t57.5 -34.5q35 0 66.5 25.5t31.5 62.5q0 39 -26.5 71t-67.5 32q-37 0 -58.5 -27t-21.5 -62zM1167 233q0 -33 18.5 -67.5 t57.5 -34.5q35 0 66.5 25.5t31.5 62.5q0 39 -26.5 71t-67.5 32q-37 0 -58.5 -27t-21.5 -62z" />
<glyph unicode="&#x202f;" horiz-adv-x="353" />
<glyph unicode="&#x2039;" horiz-adv-x="458" d="M45 807q72 -90 145.5 -175t159.5 -163q14 20 30 38t34 34q-8 8 -31 30.5t-51.5 52t-60 62.5t-57.5 61.5t-42 49t-16 26.5q0 10 34.5 54.5t78.5 96.5t84 102t53 75q-94 -82 -184.5 -167t-176.5 -177z" />
<glyph unicode="&#x203a;" horiz-adv-x="460" d="M45 1079l54 -54t87 -89t81 -88t36 -49q0 -12 -33.5 -56.5t-78 -97.5t-84 -103t-52.5 -73q100 76 186.5 165t174.5 179q-68 92 -145.5 176t-159.5 162q-14 -20 -29.5 -37.5t-36.5 -34.5z" />
<glyph unicode="&#x205f;" horiz-adv-x="441" />
<glyph unicode="&#x2122;" horiz-adv-x="1349" d="M47 1284q-2 -6 3 -9t9 1q39 35 90.5 45t100.5 14h4v-461q0 -23 -23.5 -26.5t-42.5 -3.5q-6 0 -6 -8t6 -9q59 -6 120 -8t120 -2q6 0 8 6t-4 11q-4 2 -8 2t-10 4q-16 6 -35 14t-19 18v461q12 -2 26.5 -1t25.5 3q10 0 18 1t19 1q72 0 79 -69q0 -6 7.5 -7t9.5 5q6 31 8 61.5 t2 65.5l-8 8q-29 0 -61.5 -2t-67.5 -4q-39 -2 -81 -4t-83 -2q-47 0 -90 4t-78 16q-6 2 -10 -6q-10 -29 -17.5 -58.5t-11.5 -60.5zM510 831q0 -4 6 -6q47 -6 94 -7t97 -1q6 0 7 5t-3 9q-31 23 -42.5 59t-11.5 73q0 33 5.5 66.5t11.5 68.5q4 23 7 45t5 45q23 -37 35 -64.5 t31 -68.5q27 -57 57.5 -116.5t75.5 -119.5q8 -8 12 0q6 10 12 22.5t13 22.5q41 84 83 163t82 163l3 -2q4 -92 14 -179t20 -180q0 -6 6 -6q29 -4 59 -5t60 -1h49q4 0 5 5t-3 9q-35 20 -56 64.5t-34.5 101t-20.5 119t-13 121.5q-4 53 -9.5 97t-13.5 77q-2 6 -6 6t-8 -4 q-47 -66 -83 -133.5t-65 -132.5q-23 -49 -44 -97.5t-40 -80.5q-23 39 -38 72.5t-33 74.5q-35 74 -73 148.5t-93 148.5q-4 4 -8 4t-7 -6q-6 -25 -12 -64.5t-12 -91.5q-8 -59 -17.5 -125.5t-22.5 -126t-31.5 -103.5t-45.5 -60q-4 -4 -4 -9z" />
<glyph unicode="&#x25fc;" horiz-adv-x="1280" d="M0 0v1280h1280v-1280h-1280z" />
</font>
</defs>
</svg>
