<svg xmlns="http://www.w3.org/2000/svg">
<defs>
<font id="VivaBeautiful-Regular" horiz-adv-x="355" >
  <font-face 
    font-family="Viva Beautiful"
    font-weight="100"
    font-stretch="normal"
    units-per-em="1000"
    panose-1="2 0 5 6 0 0 0 2 0 4"
    ascent="800"
    descent="-200"
    x-height="343"
    cap-height="560"
    bbox="-303.333 -699 837.389 813"
    underline-thickness="50"
    underline-position="-200"
    unicode-range="U+0020-2215"
  />
<missing-glyph horiz-adv-x="397" 
d="M471 595q2 -11 -9 -15q-1 0 -3 -0.5t-3 -0.5q0 -1 -0.5 -2.5t-0.5 -2.5q-3 -13 -9 -39.5t-9 -39.5q-8 -38 -11 -57q-8 -47 -14 -74q-1 -3 -6 -31t-9 -42q-12 -55 -26 -93q-4 -10 -6 -24q-10 -50 -17 -74q-2 -8 -5.5 -23t-5.5 -22q-16 -60 -26 -89q0 -2 3 -2l2 -2
q2 -2 3 -2q5 -3 7 -12q2 -11 -9 -15q-6 -1 -17 -1q-4 0 -5 -1q-9 -5 -18 -2q-16 -2 -24 0h-5h-9.5h-12.5h-11q-10 1 -29 1.5t-25 0.5t-17 0.5t-20 1t-17 1.5q-36 2 -54 2q-32 -2 -48 -2v-3q0 -2 -2 -2q-4 0 -2 2v3h-3h-5l-3 -6q0 3 -1 4.5t-3 0.5l-2 2h-6q-4 0 -5 6
q-1 1 -1.5 4t-0.5 4q-1 6 3 6l1 1h2v6h-2q0 1 1 2t1 2l3 21q6 27 18 79q8 38 11 57q8 50 14 74q1 6 6 32.5t9 41.5q12 55 26 92q4 12 6 24q2 7 7.5 33.5t9.5 40.5q2 7 5.5 22t5.5 23q14 52 22 77q-1 1 -1 2t-0.5 1.5t-0.5 1.5q-1 1 -1.5 4t-0.5 4q-1 6 3 6q4 2 6 7h-5
q0 1 1.5 3t1.5 3q0 3 2 3q2 -1 8 2q3 6 7 9q2 2 8 4q0 4 2 8q0 -2 0.5 -4.5t0.5 -3.5h4q-2 8 2 14q2 4 5 -1l1 -5q2 -8 2 -9v-3q13 3 27 3q4 0 12.5 0.5t13.5 0.5q3 0 9.5 0.5t12 0.5t10.5 -1l14 1q13 0 13 -1q30 0 34 1q8 2 25 2q18 2 28 2q16 0 24 -3l12 -6q12 -5 16 -5
q3 -1 11 -3v2q3 3 3 7q0 2 2 2q4 0 2 -2v-3q0 -3 3 -4q3 0 3 2q5 7 5 8q0 -2 1 -3.5t3 -0.5q7 -10 8 -13v-5h2q1 0 3 -1.5t2 -2.5q5 -3 7 -12zM384 513h-1h1zM252 581q-45 2 -53 2v-3q1 -6 -4 -29q-4 -12 -5 -19q4 -30 8 -44q1 -4 6 -37q2 -15 8 -53q4 -21 11 -52v-4
q6 9 16 27q9 16 28.5 47t29.5 48q6 11 12 15q1 -1 2.5 1t2.5 4q16 27 46 77q2 2 4 7t4 8h-8q-10 1 -29 1.5t-25 0.5t-17 0.5t-20 1t-17 1.5zM86 184q-3 -8 -2 -10q1 4 4 8q0 2 -1 2h-1zM68 132v-1q1 1 1 2v1l-1 -1v-1zM60 94q-1 -1 0 -1l1 1v1zM53 87q0 -3 1 -3q1 1 1 5z

<glyph glyph-name="cc.alt" unicode="cc" horiz-adv-x="470" 
d="M578 178q3 -3 1 -6q-5 -6 -12 -9q-11 -5 -21 -19q-2 -2 -3 -2l-12 -9t-11 -9q-6 -6 -8 -10l-6 -6q-5 -3 -14 -10.5t-14 -10.5q-6 -4 -35 -24t-43 -32q-7 -6 -32 -20l-24 -12q-18 -10 -30 -12q-7 -1 -21 -1q-4 0 -6 3q-3 3 -6 -1q0 -1 -1 -1q-25 2 -31 6q-2 0 -4 2
q0 3 -4 3q-15 10 -17 12q-6 6 -16 20q-6 8 -6 25q0 9 -1 14v3q-6 -4 -16 -12l-15 -12q-11 -9 -35 -27q-54 -43 -88 -35q-3 1 -9.5 2.5t-9.5 2.5q-84 35 -53 166q6 23 17 47q10 23 19 40q6 10 17 29.5t16 29.5q13 23 38 45q6 5 20 15q5 3 10 0q5 -2 7 -1q2 0 2 -2q2 -3 6 -3
q21 0 33 -12q1 -1 3.5 -2t3.5 -1q14 -5 18 -18q1 -2 4 -5q9 -13 8 -25q-1 -4 -2 -13t-2 -14q-4 -20 -7 -27q-5 -17 -13 -29q-1 -1 -3 -1t-3 2t-3 1q-1 -3 -6 -6q-3 4 -4 4q0 2 -2.5 6.5t-1.5 7.5q0 5 -1 8t1 12q2 5 6 13q3 4 3 9q0 11 3 25q1 6 -5 7q-2 1 -8 1q-4 2 -4 -3
q-2 -14 -15 -28v-1l-1 -2q-2 -5 -10.5 -20.5t-11.5 -24.5q-2 -3 -5.5 -9.5t-4.5 -10.5q-1 -2 -23 -52q-7 -16 -14 -43q0 -1 -0.5 -3t-0.5 -3q-4 -9 -10 -29q-1 -4 0 -8q2 -12 4 -20q0 -3 4 -5q25 -6 49 11q3 1 8.5 3.5t8.5 4.5l24 15q15 8 41 30q10 8 17 13q1 2 1 5
q3 19 9 38q15 42 41 91q3 5 10.5 19t12.5 21q16 25 32 37q12 8 25 7q6 0 10 1q10 4 22 1q9 -1 21 -8q5 -2 14 -11q13 -17 15 -28q2 -12 2 -17q-3 -18 -11 -40q-1 -3 -11 -8q-16 -6 -24 7q-3 4 -1 12q1 5 4 15t4 14q0 9 -3 12q-2 3 -4 1q0 -1 -2.5 -3.5t-3.5 -4.5q0 -2 -1 -3
q-3 -5 -8.5 -15t-8.5 -14q-4 -7 -10.5 -21t-10.5 -21q-1 -3 -3 -11q-2 -7 -7 -19.5l-7 -17.5q-3 -9 -7 -25q-4 -11 -10 -31q-1 -4 -12 -44q-1 -5 3 -11q23 -31 96 18q12 8 34.5 23.5t35.5 22.5q18 11 37 27q10 9 27 19q4 2 17 9t20 10q3 1 8 3.5l7 3.5q7 2 10 -1z" />
    <glyph glyph-name="ee.alt" unicode="ee" horiz-adv-x="455" 
d="M537 243q3 0 2 -3q0 -2 -1 -3q-8 -14 -13 -21q-9 -11 -23.5 -34.5t-22.5 -35.5q-8 -10 -25 -35t-27 -37q-4 -5 -12 -17.5t-14 -19.5q-4 -4 -15 -14.5t-17 -16.5q-12 -17 -19 -22q-2 -2 -10 -8q-6 -5 -22 -13q-4 -1 -11 -5.5t-12 -6.5q-24 -10 -48 -4q-12 3 -25 15
q-15 14 -31 35q-6 10 -5 18q-2 -2 -6 -6.5t-6 -6.5q-3 -4 -8.5 -10t-7.5 -8q-14 -18 -39 -33q-11 -6 -21 -9q-3 -1 -9 -5q-7 -5 -11 -3q-2 0 -8 -4q-3 -3 -6 -2l-30 6q-10 3 -28 17l-4 4q-12 7 -15 22q-3 9 -8 12q-5 4 -11 20q-7 16 -9 52q-1 40 13 93q10 34 16 50
q28 69 43 94q58 89 96 112q55 33 86.5 -3.5t16.5 -93.5q-2 -7 -8 -19q-5 -10 -13.5 -29t-10.5 -23q-1 -3 -5 -8.5t-6 -9.5q0 -1 -1 -1q-8 -4 -16 -17t-10 -15q-4 -5 -9.5 -15t-7.5 -13q-16 -21 -17 -24l-2 -2q-8 -4 -24 -24q-14 -17 -30 -30q-11 -8 -19 -27q-6 -16 -5 -30
v-26q-1 -7 6 -25q2 -6 8 -6q16 2 26 8q12 7 34 25q15 13 35 38q10 12 33 38q7 31 18 64l24 60q12 25 30 53q0 1 1.5 2.5t1.5 2.5q4 13 23 37q7 7 25.5 30.5t32.5 38.5t31 25q28 19 61.5 5.5t28.5 -52.5q-1 -15 -8 -33v-2q-3 -4 -5.5 -10t-5 -13t-4.5 -11q-6 -13 -20 -37
q-10 -18 -22 -30l-6 -9t-7 -9q-2 -2 -5.5 -6.5t-5.5 -6.5q-6 -6 -9 -13q-3 -6 -12 -15l-24 -27q-6 -9 -19 -18q-9 -6 -13 -16q-1 -1 -2.5 -3t-2.5 -3q-4 -3 -11 -11t-11 -11q-3 -2 -3 -5q0 -4 -2 -14.5t-2 -16.5q0 -1 0.5 -3.5t1.5 -3.5q5 -7 15 -7.5t21.5 5.5t22 12.5
t20.5 13.5t13 9q7 4 14 12q2 4 10 10q4 4 11.5 12.5t11.5 12.5l28.5 38t40.5 50q5 6 13 17.5t13 17.5q4 6 14 16q3 3 6 3q6 1 11 5q4 0 5 -1zM294 140q-2 -2 0 -5q20 18 29 29q19 23 53 73q6 12 6 13q0 9 7 18q19 38 22 48q2 3 0 4q-13 -6 -23 -19l-8 -8q-7 -13 -17 -26
q-22 -32 -31 -50q-2 -4 -4 -5q-4 -6 -4 -9q-1 -2 -2 -4.5t-2.5 -5.5t-2.5 -4q-7 -12 -14 -29q-8 -18 -9 -20zM91 168q-6 -15 -6 -16q2 3 10.5 10.5t11.5 12.5q2 2 4.5 7t4.5 7q26 36 40 63q12 18 16 21q4 4 12 13q20 33 15 64q0 9 -7 4q-1 -1 -5.5 -3t-6 -4.5t-1.5 -6.5
q0 -2 -1 -2q-14 -24 -22 -35q-2 -3 -5.5 -9t-5.5 -9t-5 -10.5t-6 -10.5q-16 -22 -26 -54q-2 -8 -4 -11q-3 -6 -7 -16.5t-6 -14.5z" />
    <glyph glyph-name="es.alt" unicode="es" horiz-adv-x="514" 
d="M246 166l-2 1q-11 3 -20 13l-5 5t-4 5q-5 9 -3 15q1 2 3 10t5 12q23 34 28 38q16 15 50 43q21 18 52 39q8 5 22.5 15.5t17.5 12.5q16 11 52 27q7 3 15 -2q4 -2 6 -2q12 1 20 -7q2 -1 4 -3q14 -6 23 -26q2 -5 -1 -6q-2 -1 -2 -4q-1 -1 -2 -3.5t-1 -4.5q-1 -9 -12 -9
q-1 0 -10 -2q-4 -2 -12 -8q-19 -13 -35 -26q-5 -4 -17 -12t-18 -14q-13 -11 -41 -31q-3 -2 -7.5 -6.5t-7.5 -6.5q6 -1 18 1q10 2 15 2q1 0 37 3q11 2 17 -2q5 -3 9 -3q0 -2 -2.5 -2.5t-2.5 -1.5q21 -9 35 -39q6 3 28 17q5 3 21.5 14t31.5 20t23 12q12 5 16 5t4 -1
q2 -2 -1 -4l-1 -1v-2l-21 -18q-4 -5 -21.5 -19t-23.5 -18q-2 0 -4 -3q-1 -1 -9 -7l-1 -1l-1 -1q-1 -4 -6.5 -7t-6.5 -5q-2 -3 -14 -10q-20 -11 -25 -27q-7 -16 -12 -35q-5 -9 -7 -11t-4 -7t-2 -6l-6 -9q-2 -3 -3.5 -6t-2.5 -7t-2 -7q-4 -12 -9 -16q-4 -3 -9.5 -9.5
t-8.5 -8.5q-2 -2 -5 -7l-4 -5q-12 -15 -13 -17l-4 -4l-4 -4q-2 -6 -17 -16q-6 -3 -22 -8h-15q-17 0 -28 5q-10 4 -15 16q-4 8 -6 10q-5 4 -2 11q6 14 10 20q2 2 12 20q11 20 28 36q6 6 17 17.5t15 15.5q22 21 48 39l9 6q9 5 12 17q1 7 5 21q-4 1 -8 0q-2 -1 -9 -3.5
t-10 -4.5q-9 -8 -26 -11q-28 -5 -36 -8q-10 -5 -31 -5q-1 0 -16 3q-4 3 -7 -2q-3 -4 -7.5 -12.5t-6.5 -12.5q-3 -5 -8.5 -16.5t-9.5 -17.5q-1 -2 -2 -5.5t-2 -5.5q-8 -12 -16 -22q-17 -19 -23 -24q0 -1 -0.5 -1t-0.5 -1q-2 -5 -8.5 -12.5t-8.5 -10.5q-6 -4 -3 -9v-3
q-1 0 -3 -2.5t-4 -3.5l-2 -1q1 -2 -5 -10q-4 -3 -10 -11q-2 -7 -9 -6q-1 0 -5 -4q-5 -7 -12 -11l-1 -1q-3 -8 -19 -14q-20 -8 -30 -11q-17 -3 -32 6q-3 2 -11 6q-6 3 -11 8l-24 21q-19 21 -24 50t-1 53q7 40 10 55q10 46 20 66q6 12 14 36q3 6 8.5 18t8.5 18q16 34 48 76
q5 6 13 18.5t11 16.5q11 15 37 41q1 1 3.5 2.5t3.5 1.5q8 4 21 15q8 7 18 1q5 -3 8 0q13 8 31 3q20 -6 30 -24q4 -7 6 -25q0 -4 -1 -6q-4 -6 -4 -23q1 -12 -6 -30q-5 -15 -12 -25q-13 -20 -15 -22q-3 -3 -3 -5q-1 -6 -6 -14.5t-6 -12.5q-2 -5 -7.5 -12t-6.5 -9q-6 -8 -6 -10
l-3 -6q-20 -28 -31 -41q-4 -6 -13 -15q-5 -4 -11.5 -13.5t-10.5 -13.5q-6 -6 -15 -17t-12 -15q-10 -12 -20 -18q-3 -2 -9 -8q-2 -2 -2 -4q-5 -28 -4 -47q2 -21 7 -30q0 -4 3 -4q14 -2 19 3q20 16 30 23q4 2 8 8q15 18 30 32q13 12 35 40q24 30 36 46q14 18 19 29zM214 374
q-3 0 -9 -3t-10 -3t-4 -4l-3 -6q-14 -24 -15 -28q-22 -41 -24 -44q-6 -8 -10 -22q-3 -8 -7 -13q-7 -7 -15 -25q-13 -29 -14 -31t-2.5 -6.5t-2.5 -6.5l4 4q1 3 5 8.5t5 7.5q5 10 18 27t15 20l36 51q4 5 8 15q4 6 5 7q3 3 9 16q5 10 8 19q5 12 3 17zM368 67q-1 0 -3 -2
q-18 -23 -22 -26q-2 0 -2 -2q0 -4 -5 -6q-5 0 -4 -4q1 -2 -2 -4q-1 -1 -1 -2q-8 -7 -18 -20q-4 -6 0 -13q2 -1 11 1q1 0 4 3q1 2 4 5t4 5q18 24 19 33q1 1 2 3t1 4q2 4 6 12.5t6 12.5z" />
    <glyph glyph-name="it.alt" unicode="it" horiz-adv-x="314" 
d="M63 317q17 1 45 -21q15 -12 21 -22q4 -9 -4 -29q-5 -14 -13 -29q-5 -11 -17 -33q-2 -6 -8 -19t-8 -19q-11 -27 -22 -59q-9 -33 -26 -68q-2 -7 -8.5 -20t-8.5 -19q0 -1 -2 -3q-5 -1 -10.5 -6.5t-7.5 -6.5q-11 -6 -19 6q-4 6 -13 6q-9 2 -11 15q0 2 1.5 8t2.5 9q0 5 -1 6
q-8 7 -8 30q0 5 7 31q29 105 45 141q7 15 18 43t15 38q1 2 3 8q8 15 29 13zM121 334l-1 -1q-10 2 -10 -3q-2 0 -5 3q-1 1 -5 2.5t-6 3.5q-1 1 -2 -0.5t-2 -1.5q-2 3 -7 8q-7 7 -3 18q1 9 10 29q0 -8 7 7q4 8 6 10q1 1 1 3l1 1q6 9 16 7q1 0 5.5 -0.5t6.5 -0.5q15 -2 21 -6
q10 -3 11 -4q21 -12 23 -25q1 -5 -5 -11q-4 -2 -7.5 -2t-8.5 -2l-1 -1q-2 0 -2 -1q-9 -1 -12 -8q-9 -16 -20 -16v1q-11 0 -11 -10zM564 446q5 -2 25 -2v-2h-17q-43 2 -64 1h-1q-16 2 -27 -2q-4 -1 -22 -1q-2 0 -4 -1t-4 -1q4 -1 10 -3q-1 -2 -6 -2q-3 -1 -9.5 -1h-9.5h-3.5
t0.5 -3l-4 -2h-5h-6h-5q-12 0 -52 -7q-3 -1 -7 -7l-12.5 -25t-12.5 -26q-30 -57 -54 -109l-21 -49q-4 -10 -10 -30.5t-10 -30.5q-15 -36 -18.5 -79.5t9.5 -70.5q2 -5 6 -6q3 0 5 1q3 2 11 6q3 2 21 7q4 1 6 -3q0 -7 -3 -12q-8 -12 -35 -25q-8 -2 -20 -4q-30 -5 -49 16
q-13 13 -16 20q-10 17 -14 31q-8 26 -6 70q3 45 21 98q30 85 60 141q31 56 53 90q-24 -4 -35 -4q-15 0 -22 4q-10 4 -16 4q-18 3 -27 18q-6 10 -7 16q0 4 4 10q0 2 2 0h1q3 2 6 1q12 -6 19 -8q3 -1 13 -3h43q14 0 25 4q8 2 24 2q23 33 45 59q3 4 8.5 11t8.5 10q15 19 27 23
q2 2 3 2q7 7 16 2q11 -7 19 -20q0 -1 0.5 -3t0.5 -3q-1 -1 -3 -7.5t-5 -9.5q-2 -1 -2 -5q2 -10 -6 -20q-5 -6 -12.5 -18.5t-9.5 -15.5q-3 -6 -3 -7q99 -2 119 -4q0 -1 -1 -2.5t-1 -2.5l1 -1q8 1 23 -2t20 -3q4 -1 11 -2t11 -2z" />
    <glyph glyph-name="oo.alt" unicode="oo" horiz-adv-x="555" 
d="M667 273q2 -4 -1 -7q-4 -6 -8 -7q-4 -2 -11 -9q-2 0 -2 -2q0 -6 -8 -8q-4 -1 -28 -15q-3 -2 -25 -16q-16 -11 -17 -12t-4 -3q-7 -2 -21 -10q-3 -2 -18 -8t-22 -12q-2 -1 -5 -3.5t-5 -4.5q-3 -2 -3 -4q-1 -7 -4.5 -18.5t-4.5 -16.5q-1 -10 -4.5 -19.5t-8.5 -22t-7 -18.5
q-4 -9 -6 -20q0 -4 -7 -11q-2 -2 -4.5 -6.5t-3.5 -6.5q-7 -15 -18 -25q-7 -7 -13 -6q-2 0 -4 -2q-1 -3 -8 -8q-1 -1 -26 -12q-20 -7 -35 -2q-19 7 -21 8q-9 4 -10 6q-19 16 -20 18q-21 30 -24 53q-3 21 0 41q4 28 12 60q15 55 43 103q-5 -3 -50 -24q-7 -3 -19 -13
q-10 -8 -16 -11q-1 0 -2 -1q-1 -3 -3 -10t-3 -10q0 -2 -0.5 -5t-0.5 -4l-1 1q-2 -5 -4 -11q-5 -12 -7 -14q-1 0 -1 -4q-1 -14 -13 -42q-13 -34 -16 -39q-9 -20 -18 -34q0 -1 -1.5 -3.5t-1.5 -4.5q0 -5 -13 -22q-3 -2 -5 -5q-4 -9 -27 -27q-4 -2 -5 -2q-24 -6 -35 -7
q-14 0 -23 4l-1 1h-2q-15 2 -49 27q-11 8 -25 30q-6 11 -8 29q-4 22 -1 47q0 6 2 18t2 18q1 7 4.5 20t4.5 15q3 14 7 22q16 46 45 89q3 5 19 27.5t25 34.5q6 8 22 22q30 25 32 26q15 11 30 -1q11 -11 11 -12t1 -1l2 -1q4 -2 12 -8t12 -8q29 -18 39 -54q6 -20 4 -47
q8 3 24 11q32 16 61 27q10 4 28 8q39 44 96 21l2 -2q4 -3 11.5 -7.5t8.5 -5.5q8 -6 12 -13q12 -17 12 -19q4 -6 4 -11q0 -2 1.5 -7t2.5 -8q5 -11 3 -28q-1 -6 1 -17q5 1 17 11q4 2 5 2q6 1 16 9q8 6 26 14q20 10 31 13l1 1h2q5 0 10.5 1.5t11.5 5t9 4.5q9 3 27 11q5 0 6 -1z
M154 249q1 12 1 36q-4 -3 -7 -6.5t-6 -8.5t-5 -7q-4 -6 -9 -13t-11.5 -15.5t-9.5 -13.5q-19 -30 -27 -51q-10 -27 -13 -39q-1 -5 -3.5 -14t-4 -16t-1.5 -14q0 -5 -1.5 -15.5t-2.5 -16.5q0 -7 2.5 -19.5t2.5 -17.5q2 -4 4 -5q4 8 14.5 21.5t15.5 21.5q15 24 16 36q0 2 1 3
q9 31 17 50q2 5 7 18t7 20q12 44 13 66zM430 226q3 15 2 28l-6 -6q-10 -10 -24 -30q0 -1 -1 -2.5t-2 -2.5q-3 -6 -9 -20q-1 -2 -6 -11t-7 -14q-3 -6 -9.5 -22.5t-10.5 -24.5q-8 -20 -11 -37q-5 -33 -5 -40q0 -10 4 -18q4 -10 13 -4q3 1 5.5 2.5t5.5 4.5t5 4q5 5 8 13t7 13
q9 13 15 29q2 7 0 10q-1 3 1 8q2 7 8 23q9 20 11 46q1 6 2 16t2 18.5t2 16.5z" />
    <glyph glyph-name="rt.alt" unicode="rt" horiz-adv-x="452" 
d="M316 313q-5 -2 -10 -5.5t-11 -7.5t-10 -6q-23 -10 -28 -13q-12 -6 -18 -12q-2 -2 -8 -6q-4 -2 -17 -11t-21 -13q-7 -5 -18.5 -15.5t-14.5 -12.5q-2 -1 -4 -3.5t-4 -3.5q-11 -9 -13 -17q-1 -4 -4 -8t-7.5 -8.5l-6.5 -6.5q-4 -4 -5 -7q-2 -4 -7 -11t-6 -8q-15 -23 -18 -26
l-2 -4q-1 -6 -3.5 -12t-6 -13l-5.5 -11q-1 -2 -3.5 -6.5t-3.5 -6.5q-1 -4 -3.5 -8.5t-6 -9.5t-5.5 -8q-2 -4 -6.5 -12.5t-7.5 -13.5q-6 -12 -18 -30q-2 -3 -13 -5q-3 0 -5 2q-3 2 -15 2h-4q-12 12 -13 14q-2 6 -4 8q-7 9 -4 20q2 6 2 18q1 7 3.5 18.5t3.5 14.5q2 9 14 46
l3 9q5 14 33 102q14 44 22 67q3 9 20 47q0 1 1 3t1 3q2 8 16 14h1q27 -7 32 -15q1 -2 5 -4q14 -14 10 -33q-2 -8 -2 -11q0 -5 -1 -7q-3 -7 -7.5 -20t-6.5 -18q-1 -3 -2.5 -9.5t-2.5 -9.5q3 1 10 8q33 26 43 32t27.5 18t23.5 16q24 15 45 22q9 3 18 3q7 0 13 3q3 2 26 7
q10 2 13 -7q5 -18 -4 -22zM615 445q1 -2 0 -3t-1 -2l1 -1q8 1 24 -1.5t19 -2.5q22 -3 23 -3q3 -1 25 -1v-2h-17q-43 0 -64 -2h-1q-14 1 -27 -3q-7 -2 -22 -2q-1 0 -3.5 -1t-4.5 -1q8 -2 11 -3q-1 -2 -6 -2q-3 -1 -9.5 -1t-9.5 -1h-3.5t0.5 -3l-4 -2q-2 0 -8 -0.5t-8 -0.5
q-17 -1 -51 -9q-4 -1 -6 -7q-7 -18 -21 -52q-30 -74 -43 -112q-14 -37 -17 -50q-12 -40 -14 -60q0 -3 -1 -8.5t-1.5 -10t-0.5 -8.5q-2 -15 -4 -45v-32q0 -1 0.5 -3t0.5 -3q-3 -22 11 -42q1 -3 7 -5q3 0 5 1q6 4 10 6q4 3 21 8q4 1 6 -3q0 -8 -2 -12q-8 -14 -33 -26
q-12 -4 -19 -5q-31 -6 -51 14q-12 9 -18 19q-12 17 -17 31q-12 26 -12 69q-3 45 11 99q12 48 25 83q3 12 11.5 33.5t10.5 27.5q14 41 24 56q0 1 2 4.5t3 5.5q-9 0 -25 -2q-50 -7 -60 -7q-23 0 -35 6q-12 5 -25 7q-27 5 -42 27q-11 16 -12 20q0 7 5 15q0 3 3 0q1 -1 2 0
q4 3 9 1q23 -10 29 -12t20 -4q7 0 30 -1t36 0q24 2 39 6q14 4 45 4h5q8 0 11 5q2 3 3 5q33 49 43 62q3 3 7.5 10.5t7.5 11.5q10 17 25 24q2 2 3 2q6 7 15 2q13 -6 21 -19q2 -4 2 -6q-5 -16 -6 -17q-2 -1 -2 -5q3 -7 -4 -20q-5 -7 -19 -35q-3 -3 -2 -7q14 0 55.5 1t63.5 0z
" />
    <glyph glyph-name="ss.alt" unicode="ss" horiz-adv-x="513" 
d="M338 196q10 -1 32 3q1 1 4 1q3 1 10.5 1.5t11.5 1.5q10 2 27 -5l4 -4q4 -5 13 -14q8 -10 9 -16q2 -8 7 -4q33 19 56 30q15 8 29 11l3 3q21 7 24 7q4 0 5 -3q2 -4 -1 -7q-2 -4 -15 -11t-14 -8l-1 -1q-2 -1 -2 -2q-1 -3 -8 -8q-10 -6 -14 -10q-3 -3 -7 -5q-5 -3 -9 -9
q-6 -8 -11 -10t-18 -13q-3 -3 -9 -7q-11 -5 -12 -15q-5 -7 -9.5 -22.5t-6.5 -19.5q-4 -6 -6 -10q-7 -20 -11 -27q-1 -7 -9 -19l-1 -1q1 -4 -2.5 -9.5t-3.5 -7.5q-1 -5 -6 -10q-11 -10 -27 -36l-1 -1l-1 -1q-3 -1 -8.5 -6.5l-7.5 -7.5q-12 -10 -15 -14q-4 -4 -14 -8
q-4 -1 -11 -3.5t-10 -4.5q-15 -6 -25 -2q-11 4 -16 11q-2 3 -7 6t-7 6q-9 14 -7 33q1 18 14 38q6 12 8 19q4 14 10 22q34 38 73 63q6 4 18 11.5t18 11.5q5 3 6 8q2 12 4 17t-1 5h-2l-27 -3q-4 0 -14 -4q-10 -5 -26 -3q-6 0 -36 10q-1 0 -1 1q-1 2 -7.5 8t-9.5 11
q-1 -1 -9.5 -7t-12.5 -11q-8 -8 -12 -13q-5 -5 -8 -15q-4 -18 -12 -37q-2 -5 -6.5 -16t-7.5 -16q-9 -21 -26 -47q-3 -5 -8.5 -13t-7.5 -10q-1 -2 -2.5 -4t-3.5 -4.5t-3 -3.5q-8 -10 -12 -16q-3 -3 -5 -4q-6 -9 -6 -10t-2 -3q-3 -3 -18 -10q-19 -12 -26 -14q-15 -5 -32 -3
q-6 1 -23 8q-28 14 -25 44v3q7 32 11 40l1 2q1 14 14 27q3 4 6.5 7.5t8 7.5t6.5 6q24 26 53 47q7 6 23 16q5 4 34 27l3 3q4 12 6 19q1 4 -4 5q-8 1 -18 -2q-16 -7 -23 -4q-8 3 -28 -4q-27 -8 -44 -2q-11 2 -18 8q-2 2 -4 2q-8 2 -20 10q-7 6 -10 13q-6 12 -8 19q-5 17 5 36
q6 13 33 40q18 20 48 44q20 17 43 34q7 6 21.5 17t22.5 16q2 2 17 12q8 7 20 12q12 7 23 11q3 1 12 -1q10 -4 20 -11q4 -4 4 -7q4 -14 6 -20q4 -16 -6 -31q-11 -15 -24 -24q-7 -4 -20 -12.5t-20 -12.5l-3.5 -3.5t-4.5 -3.5q-6 -4 -17 -13.5t-17 -13.5q-1 -1 -7 -4.5t-8 -6.5
q-5 -5 -15 -13q-5 -4 -13 -11t-9 -8q-10 -6 -14 -15q1 -1 3 -1q6 2 17.5 5t13.5 4q19 5 38 2q6 -1 18 1q13 3 22 -6q3 -3 10 -8.5t9 -6.5q8 -8 10 -16q0 -6 4 -2q23 19 31 26q15 13 24 30q2 3 14 15q10 15 21 23q5 4 10 9t11.5 10.5t9.5 8.5q8 8 28 19q17 10 38 25
q24 16 37 23q7 2 10 -1q1 -1 4 -1t4 -2q2 -6 4 -8q3 -2 11 -16q2 -3 2 -9q-1 -2 -2 -8t-1 -8q-5 -17 -16 -25q-4 -2 -11.5 -8.5t-11.5 -8.5q-6 -3 -16 -10t-14 -10q-4 -2 -11 -7t-8 -6q-5 -3 -17.5 -14.5t-20.5 -15.5q-5 -3 -6 -7q-10 -12 -16 -19zM127 70q-3 1 -5 -1
q-22 -14 -30 -22q-4 -4 -14 -13.5t-14 -14.5q-1 -1 -6 -8.5t-9 -10.5q-6 -8 -10 -11q-2 -2 -1 -5q3 -6 1 -21q0 -5 3 -7q4 1 10 7q4 4 13.5 13t13.5 15q18 19 31 47q12 24 16 30q0 1 1 2zM356 42l-11 -8q-13 -8 -20 -17q-4 -5 -12 -13l-11 -11q-16 -16 -23 -25
q-9 -15 -7 -23q0 -3 -1 -4q-1 -3 1 -7q3 -7 8 -2q3 2 8 7q12 10 18 16q16 16 25 30q11 15 20 41q4 10 5 16z" />
    <glyph glyph-name="th.alt" unicode="th" horiz-adv-x="523" 
d="M492 276q11 -18 11 -32q-1 -9 -5 -32q-1 -4 -2.5 -11t-3.5 -11q-3 -8 -11 -24q-1 -2 -2.5 -6.5t-2.5 -6.5q0 -2 -2 -8q-8 -24 -12 -37q-2 -11 -14 -36q-2 -8 -4 -14q0 -3 -2 -9l-3 -9t-2 -8t-2 -8q-4 -20 -4 -32v-11q2 2 7.5 5.5t8.5 5.5q13 11 15 -4q2 -9 -3 -14
q-4 -5 -14 -15l-3 -1q-4 -1 -11.5 -3.5t-8.5 -2.5h-3q-25 5 -36 18q-8 7 -12 22q-4 6 -7 18v2v22t1 22q1 9 3.5 24t3.5 19q4 26 6 38q1 5 4 23q9 35 13 47q2 7 5.5 14.5t7.5 16t6 13.5q1 5 -3 5q-6 0 -9 -4q-6 -6 -13 -5q-1 0 -7 -3l-13 -13q-14 -10 -19 -23q-3 -8 -8 -13
l-11 -11q-8 -10 -11 -15l-15 -21q-1 -1 -8 -15q-2 -3 -9 -14t-10 -17q-2 -3 -5 -8.5t-4 -8.5q-1 -1 -3 -5t-3 -5q-4 -8 -10 -22q0 -1 -3 -14q-2 -9 -13 -22l-3 -6q-7 -13 -14 -18q-6 -6 -14 -6q-2 1 -6 0t-6 0l-12 6q-1 1 -3 1.5l-4 1t-3 0.5q-8 2 -8 10q0 1 -1 4l-1 3
q-5 6 -7 25l1 32q1 11 5 30q2 18 4 28t4 17q11 46 12 49q1 7 5 22t5 20q0 1 1.5 6t1.5 8h-3q2 4 4 12q2 5 -3 6q-4 2 -23 11q-6 3 -6 10q3 6 9 6l18 3q8 1 17 5l1 1q1 2 2.5 6.5t2.5 6.5q4 17 11 40q6 20 10 30t10 28q2 4 3 7q-4 0 -2 -3l-4 -2q-3 0 -8 -0.5t-8 -0.5
q-17 -1 -51 -9q-4 -1 -6 -7q-7 -18 -21 -52q-30 -74 -43 -112q-11 -28 -17 -50q-13 -54 -14 -60l-3 -27q-1 -8 -2.5 -22.5t-1.5 -21.5v-32q0 -1 0.5 -3t0.5 -3q-3 -20 11 -42q2 -3 7 -5q3 0 5 1q6 4 10 6q4 3 21 8q4 1 6 -3q0 -8 -2 -12q-8 -14 -33 -26q-12 -4 -19 -5
q-29 -6 -51 14q-14 11 -18 19q-8 12 -17 31q-10 24 -12 69q-1 48 11 98q8 32 25 83q4 10 11 30.5t11 30.5q9 27 24 51q4 6 5 10q-9 0 -25 -2q-50 -7 -60 -7q-22 0 -35 6q-5 3 -25 7q-24 3 -42 27q-11 19 -12 25q0 3 5 15q1 2 3 0q1 -1 2 0q3 2 9 1q16 -8 29 -12q6 -2 20 -4
q5 0 33 -1.5t33 0.5q19 0 39 6q15 4 45 4h5q8 0 11 5q2 3 3 5q32 48 43 61l7 10.5t8 11.5q11 18 25 24q2 2 3 2q6 7 15 2q13 -6 21 -19q2 -4 2 -6q-5 -16 -6 -17q-2 -1 -2 -5q3 -8 -4 -19q-4 -6 -10 -18t-9 -17t-2 -7q46 0 69 1q1 1 1 2q18 38 22 46q4 9 12 25q9 19 26 42
q5 7 14 19.5t11 14.5q4 7 16 19q16 18 24 26q12 11 25 19l7 3.5t7 4.5q7 4 14 4q7 1 19 -7q12 -9 25 -27q5 -7 7 -15q6 -16 5 -25q-1 -10 -3 -31t-5 -37t-9 -30q-20 -44 -52 -81q-5 -6 -15 -18.5t-15 -18.5q-1 -2 -2.5 -3.5t-3.5 -3t-3 -2.5q-6 -5 -15.5 -14.5l-13.5 -13.5
q-3 -4 -9.5 -10t-10.5 -9q-8 -8 -13 -12q-1 0 -4.5 -3t-5.5 -4q-9 -3 -12 -13q0 -1 -1 -3l-3 -9q0 -1 -2 -7t-4 -9q-1 -1 -1.5 -4t-0.5 -4q-1 -1 -1 -2q-1 -2 -1 -3q-2 -8 -5 -12l-1 -2q-5 -23 -10 -37v-9q-1 -3 -2 -9.5t-1 -9.5l-3 -18q1 0 1 -0.5t1 -0.5q0 1 2 3
q12 20 29 42q5 6 13 16.5t11 14.5q14 16 42 35q3 2 29 15q8 6 11 10q7 7 19 9q9 2 11 2q18 -5 22 -9q1 -2 6 -2q9 -2 19 -12q6 -6 9 -10zM337 395q0 -1 1 -1l3 3l25 25q14 12 31 36q3 5 10 13.5t11 12.5q2 4 3 7q2 5 7 15t7 15l6 12l6 12q1 3 2.5 10t2.5 10l3 15q0 11 -3 23
q0 6 -6 3q-3 -2 -7 -8q-6 -9 -7 -11q-1 -1 -4 -11q-14 -23 -18 -29q-3 -3 -7.5 -10t-6.5 -11q-10 -17 -11 -20q-3 -5 -9 -17l-4 -9q-3 -8 -5 -12q-5 -6 -9 -18q-4 -11 -11 -24q-2 -12 -4 -15t-4 -9t-2 -7z" />
    <glyph glyph-name="tt.alt" unicode="tt" horiz-adv-x="341" 
d="M58 367h-22q-18 0 -28 1h-7q-15 -4 -43 4q-2 1 -14 8q-4 2 -8 2l-15 3q-15 1 -25 16q-8 10 -11 14q-5 5 -6 15t3 15q3 6 10 6q12 -2 16 -6q5 -4 15 -6q9 -1 26 -5t20 -4q34 -8 64 -8q6 0 17 -0.5t20 -1t17 -1.5q5 0 6 4q15 25 47 71q10 14 28 42q7 10 9 11q3 1 3 4
q1 5 9 11q5 5 12 1q20 -10 24 -15q15 -20 10 -37q-1 -5 -7 -15q-4 -4 -6 -11q-2 -9 -13 -30q-12 -22 -17 -34q10 -1 57 2q18 0 27 1q4 0 6 3q12 26 32 54q4 6 11.5 19.5t11.5 20.5q9 14 16 26q6 6 10 8h4q19 -6 20 -7q47 -39 22 -74q-3 -4 -6 -12.5t-5 -11.5q-2 -4 -2 -11
q-1 -2 0 -2.5t4 -0.5q4 0 13 2t14 2q42 5 70 3q4 -1 10.5 -1t9.5 -1q8 0 14 -3q-3 -1 -9 -2t-9 -2q-6 -3 -28 -5q-18 -5 -19 -6q-2 0 -2 -1q0 -6 -6 -6q-16 0 -33 -10q-14 -8 -23 -10q-4 -1 -10 -3.5t-10 -2.5q-1 0 -2 -2t-3 -1q-1 1 -3 -1q-1 -2 -2 -2q-2 -2 -4 -6
q-4 -6 -10 -19t-7 -16q-2 -3 -5 -8.5t-4 -8.5q-4 -8 -16 -40q-2 -3 -5 -9.5t-4 -9.5q-2 -4 -10 -22q-5 -16 -18.5 -54.5t-21.5 -63t-14 -58t-5 -58.5v-11q2 -11 8 -14q4 -4 -3 -9q9 -7 13 -7q5 0 8 -5l17 14q5 3 10 -1l3 -2q3 -2 4 -4t-0.5 -5t-1.5 -4q-1 -7 -9 -15
q-10 -8 -16 -10q-2 0 -4 -2q-2 -7 -13 -7q-4 -1 -9 0q-3 1 -19 1q-9 0 -12 2q-1 1 -3.5 1h-4.5q-85 30 -55 183q8 38 20 77t22 63t21 48.5t12 27.5q20 42 22 46q1 1 0 4q-6 -1 -20 -3q-16 -4 -35 -6q-15 0 -17 -2q-4 -3 -12.5 -3.5t-11.5 -1.5q-5 -2 -6 -4q-1 -3 -6 -12.5
t-7 -14.5q-2 -7 -8.5 -21t-9.5 -21q-2 -4 -13.5 -30.5t-16.5 -40.5q-55 -172 -27 -237q0 -1 5 -3q2 -2 7.5 -4.5t6.5 -3.5q3 -3 9 4q6 8 8 13q3 6 8 5h3q1 -2 1 -4q5 -8 -1 -24q0 -1 -1 -3q-3 -4 -2 -6l-1 -2q-2 -1 -4.5 -4t-3.5 -4q-19 -12 -23 -13q-22 -8 -36 -1
q-4 2 -7 2q-7 0 -9 2q-5 3 -15 7q-19 10 -31 33q-10 17 -15 45q-4 32 -3 49q4 35 7 56q2 22 14 66q2 8 20 57q4 11 12.5 30t9.5 23q16 36 26 52z" />
    <glyph glyph-name="f_f" unicode="ff" horiz-adv-x="547" 
d="M655 309q8 2 13 0q-1 -1 -4 -5.5t-6 -5.5q-2 0 -4 -4q-4 -4 -12 -14.5t-13 -15.5q-6 -6 -11 -10q-7 -8 -22 -23l-22 -22q-4 -5 -4 -6q0 -2 -3 -2q-5 -3 -25 -24q-8 -8 -16 -13l-2 -1q-2 -1 -2 -2q-14 -13 -35 -24v-7v-3q1 -3 1.5 -7.5t0.5 -7.5q1 -3 1 -11q0 -2 -1 -3
q-4 -20 -5 -29q-3 -18 -6.5 -57.5t-7.5 -60.5q-6 -22 -8 -34q-2 -8 -6 -24.5t-6 -24.5q-3 -12 -11 -19q-1 -1 -2 -3t-2 -3q-6 -20 -29 -66q-4 -13 -9 -19q-1 -2 -6 -5q-2 -1 -3 -3t-2 -3q-5 -12 -12 -15q0 4 3 5h-1q-4 0 -5 -3q-3 -3 -5 -2q-6 0 -2 -4q2 -2 0 -2
q-3 -1 -3.5 -4t-1.5 -4q1 1 1 2q-1 7 -6 3q-2 -1 -4 0q0 3 -1 5q-3 -1 -5 -3t-3 -5t-2 -4l1 -1q2 -1 3 0q4 2 7 8q3 -5 8 -4l1 -1q-1 -2 0 -5t0 -5q-1 -1 -3 -4q1 -1 3 1q-1 -4 -1.5 -4.5t-4.5 -0.5q-6 0 -6 -7q1 0 2 1l1 2q3 -2 1 -4t-6.5 -7.5t-7.5 -7.5q0 4 -2 6
q0 -6 -4 -2q-1 1 -2 1h-2t-1 -2l3 -6q0 -1 2 0h2q0 -1 -1 -3t2 -2q0 -1 -1 -2t-1 -2q-1 -2 -3 0q-1 1 -3 -1q-4 -6 -7 -10q5 2 6 3q1 -1 1 -2q-3 -3 0 -6q2 -3 -2 -5q-1 -1 -6.5 -5.5t-7.5 -7.5q0 -3 -3 -6q-2 -5 1 -6v-8q-6 -2 -7 -3q-5 0 -5 -3q1 -5 -5 -5q-4 0 -9 -5
q-10 -7 -13 -6l-2 -2q-3 -6 -6 -6q-1 0 -1.5 -2.5t-3.5 -1.5q-2 1 -5 -1.5t-4 -3.5h-2q-5 2 -13 -2q-1 -1 -4 -1q-1 0 0 3v3q-1 2 -6 2q-9 2 -12 7q-3 2 -8 6.5t-8 6.5q-18 12 -26 26q-3 4 -4 9q-10 32 -11 59q0 27 11 93q3 14 8.5 38.5t7.5 34.5q11 46 16 61q3 8 6 22.5
t5 19.5q4 13 11 35t13 40t14 34q4 4 6 12q8 18 17 40t14.5 35.5t7.5 16.5v1l1 2q3 9 11 25.5t10 21.5q2 7 8 21q-8 -8 -12 -13l-22 -22q-4 -5 -4 -6q0 -2 -3 -2q-5 -3 -25 -24q-8 -8 -16 -13q-1 -1 -4 -3q-14 -13 -35 -24v-7v-3q1 -3 1.5 -7.5t0.5 -7.5q1 -3 1 -11
q0 -2 -1 -3q-4 -20 -5 -29q-3 -17 -6 -57t-8 -61q-6 -22 -8 -34q-2 -8 -6 -24.5t-6 -24.5q-3 -12 -11 -19q-1 -1 -2 -3t-2 -3q-6 -20 -29 -66q-4 -13 -9 -19q-1 -2 -6 -5q-2 -1 -3 -3t-2 -3q-5 -12 -12 -15q0 4 3 5h-1q-4 0 -5 -3q-3 -3 -5 -2q-6 0 -2 -4q2 -2 0 -2
q-3 -1 -3.5 -4t-1.5 -4q1 1 1 2q-1 7 -6 3q-2 -1 -4 0q0 3 -1 5q-3 -1 -5 -3t-3 -5t-2 -4l1 -1q2 -1 3 0q4 2 7 8q3 -5 8 -4l1 -1q-1 -2 0 -5t0 -5q-1 -1 -3 -4q1 -1 3 1q-1 -4 -1.5 -4.5t-4.5 -0.5q-6 0 -6 -7q1 0 2 1l1 2q3 -2 1 -4t-6.5 -7.5t-7.5 -7.5q0 4 -2 6
q0 -6 -4 -2q-1 1 -2 1h-2t-1 -2l3 -6q0 -1 2 0h2q0 -1 -1 -3t2 -2q0 -1 -1 -2t-1 -2q-1 -2 -3 0q-1 1 -3 -1q-4 -6 -7 -10q5 2 6 3q1 -1 1 -2q-3 -3 0 -6q2 -3 -2 -5q-1 -1 -6.5 -5.5t-7.5 -7.5q0 -3 -3 -6q-2 -5 1 -6v-8q-6 -2 -7 -3q-5 0 -5 -3q1 -5 -5 -5q-3 0 -8 -5
q-10 -7 -13 -6l-2 -2q-3 -6 -6 -6q-1 0 -1.5 -2.5t-3.5 -1.5q-2 1 -5 -1.5t-4 -3.5h-2q-4 2 -13 -2q-1 -1 -4 -1q-1 0 -1 3l1 3q-1 2 -6 2q-9 2 -12 7q-3 2 -8 6.5t-8 6.5q-18 12 -26 26q-3 4 -4 9q-11 37 -11 59q-1 33 11 93q4 25 16 73q7 36 16 61q1 4 4.5 19.5t6.5 22.5
q30 93 38 109q4 4 6 12q9 19 17.5 40.5t14 35t6.5 16.5v1l1 2q3 9 11 25.5t10 21.5q10 23 30 71q6 10 8 16q6 20 19 49q8 21 15 32q2 2 7 14q4 10 13.5 27.5t12.5 25.5q5 12 16 34.5t17 33.5q14 28 24 42q2 3 6.5 9.5t6.5 9.5q5 3 19 17q13 13 34 18q24 4 40 -11q4 -3 6 -11
q1 -8 8 -16q18 -17 17 -43q-3 -30 -3 -31q-2 -9 -4 -12q0 -1 -1 -2.5t-2 -2.5q0 -1 -2 -7t-4 -9q-3 -6 -3 -12q1 -8 -3 -17q-2 -4 -6 -10.5t-7 -12t-5 -10.5q-2 -2 -2 -3q-4 -15 -33 -64q-2 -9 -8 -19q-19 -27 -28 -37q-1 -1 -22 -30q-12 -17 -23 -24q-8 -8 -14 -9
q0 -3 2 -3q2 -1 19 -21q7 -3 9 -13v-3q1 -3 3 -7t2 -7q3 2 13 8t14 9q7 4 16 13q8 8 17 13q24 15 55 41q3 3 9 11q10 8 28 22l2 2q6 10 8 16q9 29 19 49q8 21 15 32q2 2 7 14q2 5 26 53q6 13 18 37.5t15 30.5q16 32 24 42q11 17 13 19q5 3 19 17q13 13 34 18q24 4 40 -11
q4 -3 6 -11q1 -8 8 -16q18 -17 17 -43q-3 -30 -3 -31q-2 -9 -4 -12q0 -1 -1 -2.5t-2 -2.5q0 -1 -2 -7t-4 -9q-3 -6 -3 -12q1 -8 -3 -17q-2 -4 -6 -10.5t-7 -12t-5 -10.5q-2 -2 -2 -3q-4 -15 -33 -64q-2 -9 -8 -19q-4 -5 -13.5 -18t-14.5 -19q-10 -12 -22 -30
q-18 -20 -23 -24q-8 -8 -14 -9q0 -3 2 -3q2 -1 19 -21q7 -3 9 -13v-3q1 -3 3 -7t2 -7q3 2 13 8t14 9q7 4 16 13q8 8 17 13q24 15 55 41q3 3 9 11q29 22 39 28q15 10 16 11zM4 -351v2l-5 -5v-2q5 -1 5 5zM28 -346q2 1 4 6t5 7q-2 -1 -6.5 -4t-6.5 -4q-9 -7 -7 -12q1 -2 -2 -4
q-3 5 -5 0h5h4q1 0 2 -1q-3 -4 -2 -5q2 1 5 4.5t6 4.5v3l-1 2q-4 0 -1 3zM14 -339q7 1 9 11q-4 -1 -5.5 -5.5t-3.5 -5.5zM57 -265q3 3 7 14q-1 -2 -2.5 -4.5t-2.5 -5.5t-2 -4zM69 -236q1 2 0 3h-2q-4 -2 -5 -4q-2 -6 -6 -12q-2 -2 0 -5q0 1 3 2.5t3 3.5q-1 4 6 11zM121 106
q1 1 1 2v2q0 4 -2 6q-1 0 -4.5 0.5t-5.5 0.5q-14 2 -27 8q-2 -4 -10 -22q-7 -17 -28.5 -58.5t-28.5 -65.5q-8 -25 -10 -29q-1 -1 -2.5 -5t-2.5 -5l-9 -24q-1 -4 -5 -11t-5 -11q-9 -25 -10 -43q-1 -10 -5 -25q-12 -47 -17 -84q-4 -25 -1 -53l6 -24q1 -7 5 -14q2 -4 5 0l2 2
q29 42 31 46q33 66 35 71t6 14t7 16.5t5 14.5t8 26t9 29q13 43 14 46q4 20 18.5 67t17.5 72t3 51zM115 156q7 1 7 9q0 7 -7 23q-5 -3 -7 -6.5t-3 -10t-2 -8.5q-1 -6 0.5 -7.5t8.5 -0.5l1 1h2zM137 246q3 4 18 22.5t21 27.5q2 4 15 22.5t18 29.5q1 1 2 6t3 7q3 3 9 16
q0 1 2.5 5.5t4.5 6.5q7 7 13 19q14 26 20 34q1 2 2 5t2 4q2 10 8 27.5t8 25.5q6 28 5 41q0 9 -2 13q-10 -7 -24 -31q-1 -2 -3.5 -6.5t-3.5 -7.5q-3 -5 -8 -13.5t-8.5 -15.5t-6.5 -14q-10 -30 -17 -43q-3 -6 -8.5 -19t-9.5 -19q-7 -13 -7 -15q-1 -5 -14 -33q-1 -6 -6.5 -16.5
t-7.5 -14.5q-23 -54 -25 -59v-5zM292 -351v2l-5 -5v-2q5 -1 5 5zM316 -346q2 1 4 6t5 7q-2 -1 -6.5 -4t-6.5 -4q-9 -7 -7 -12q1 -2 -2 -4q-3 5 -5 0h5h4q1 0 2 -1q-3 -4 -2 -5q2 1 5 4.5t6 4.5v3l-1 2q-4 0 -1 3zM302 -339q7 1 9 11q-4 -1 -5.5 -5.5t-3.5 -5.5zM345 -265
q3 3 7 14q-1 -2 -2.5 -4.5t-2.5 -5.5t-2 -4zM357 -236q1 2 0 3h-2q-4 -2 -5 -4q-2 -6 -6 -12q-2 -2 0 -5q0 1 3 2.5t3 3.5q-1 4 6 11zM409 106q1 1 1 2v2q0 4 -2 6q-1 0 -4.5 0.5t-5.5 0.5q-14 2 -27 8q-7 -13 -10 -22q-6 -15 -28 -57.5t-29 -66.5q-8 -25 -10 -29
q-1 -1 -2.5 -5t-2.5 -5q-4 -8 -10 -24q-1 -4 -5 -11.5t-5 -10.5q-8 -28 -10 -43q0 -5 -5 -25q-7 -28 -17 -84q-3 -24 -1 -53q0 -3 2.5 -11.5t3.5 -12.5q1 -2 2.5 -7t2.5 -7q2 -4 5 0l2 2q30 43 31 46q29 54 36 71l18 45q2 7 8 26t9 29q13 43 14 46q4 20 18.5 67t17.5 72
t3 51zM403 156q7 1 7 9q0 7 -7 23q-7 -4 -12 -25q-2 -6 0 -7.5t9 -0.5l1 1h2zM425 246q4 5 18.5 23t20.5 27q4 7 16.5 24t16.5 28q1 1 2 6t3 7q3 3 9 16q0 1 2.5 5.5t4.5 6.5q7 7 13 19q14 26 20 34q1 2 2 5t2 4q2 10 8 27.5t8 25.5q6 28 5 41q0 9 -2 13q-10 -7 -24 -31
l-3.5 -7l-3.5 -7q-3 -5 -8 -13.5t-8.5 -15.5t-6.5 -14q-10 -30 -17 -43q-3 -6 -8.5 -19t-9.5 -19q-7 -13 -7 -15q-1 -5 -14 -33q-1 -6 -6.5 -16.5t-7.5 -14.5q-23 -54 -25 -59v-5z" />
    <glyph glyph-name="fi" unicode="fi" horiz-adv-x="459" 
d="M421 286q10 -8 19 -24q4 -10 -2 -27q-5 -14 -13 -29q-5 -11 -17 -33q-3 -6 -8.5 -19t-7.5 -19q-16 -42 -22 -60q-9 -30 -26 -68l-9.5 -19t-8.5 -20q0 -1 -2 -3q-5 -1 -10.5 -6.5t-7.5 -6.5q-11 -6 -19 6q-4 6 -13 6q-9 2 -11 15q0 2 1.5 8t2.5 9q0 5 -1 6q-8 7 -8 30
q0 5 7 31q28 104 45 142q8 18 12 28q-1 -1 -2 -2.5t-3 -3t-3 -2.5l-22 -22q-4 -5 -4 -6q0 -2 -3 -2q-4 -4 -25 -24q-9 -8 -16 -13q-1 -1 -4 -3q-14 -13 -35 -24v-7v-3q1 -3 1.5 -7.5t0.5 -7.5q1 -3 1 -11q0 -2 -1 -3q-1 -5 -2.5 -14.5t-2.5 -14.5q-2 -14 -5.5 -55.5
t-8.5 -63.5q-1 -7 -8 -34q-1 -4 -12 -49q-3 -12 -11 -19q-1 -1 -2 -3t-2 -3q-6 -20 -29 -66q-4 -13 -9 -19q-1 -1 -6 -5q-2 -1 -3 -3t-2 -3q-5 -12 -12 -15q0 4 3 5h-1q-4 0 -5 -3q-3 -3 -5 -2q-6 0 -2 -4q2 -2 0 -2q-3 -1 -3.5 -4t-1.5 -4q1 1 1 2q-1 7 -6 3q-2 -1 -4 0
q0 3 -1 5q-3 -1 -5 -3t-3 -5t-2 -4l1 -1q2 -2 3 0q4 2 7 8q3 -5 8 -4l1 -1q-1 -1 0 -5t0 -5t-3 -4q1 -1 3 1q-1 -4 -1.5 -4.5t-4.5 -0.5q-6 0 -6 -7q1 0 2 2l1 1q3 -2 1 -4t-6.5 -7.5t-7.5 -7.5q0 4 -2 6q0 -6 -4 -2h-2t-2 1l-1 -1q0 -1 3 -7q0 -1 2 0h2q0 -1 -1 -3t2 -2
l-1 -2l-1 -2q-1 -2 -3 0q-1 1 -3 -1q-4 -6 -7 -10q5 1 6 3q1 -1 1 -2q-3 -3 0 -6q2 -3 -2 -5q-1 -1 -6.5 -5.5t-7.5 -7.5q0 -3 -3 -6q-2 -5 1 -6v-8q-6 -2 -7 -3q-5 0 -5 -3q1 -5 -5 -5q-3 0 -8 -5q-10 -7 -13 -6l-2 -2q-3 -6 -6 -6q-1 0 -1.5 -2.5t-3.5 -1.5
q-2 1 -4.5 -1.5t-4.5 -2.5h-2q-6 2 -13 -2q-1 -1 -4 -1q-1 0 -1 3l1 2q-1 2 -6 2q-9 2 -12 7q-3 2 -8 6.5t-8 6.5q-18 12 -26 26q-3 4 -4 9q-11 37 -11 59q-1 33 11 93q4 25 16 73q7 36 16 61q1 5 4.5 20.5t6.5 22.5q4 13 11 35t13 40t14 34q4 4 6 12q9 19 17.5 40.5t14 35
t6.5 16.5v1l1 2q3 9 11 25.5t10 21.5q10 23 30 71q6 10 8 16q7 22 19 48q8 21 15 32q2 2 7 14q4 10 13.5 27.5t12.5 25.5q5 11 16 34t17 34q15 31 24 42q2 2 6 9t7 10q5 3 19 17q15 15 34 18q22 5 40 -11q6 -4 6 -11q3 -10 8 -16q20 -18 17 -43q0 -21 -3 -31q-2 -9 -4 -12
q0 -1 -1 -2.5t-2 -2.5q0 -1 -2 -7t-4 -9q-3 -6 -3 -12q2 -10 -3 -17q-2 -5 -8.5 -16t-9.5 -17q-2 -2 -2 -3q-4 -15 -33 -64q-2 -10 -8 -18q-15 -23 -28 -37q-4 -5 -11.5 -15.5t-10.5 -14.5q-11 -17 -23 -24q-8 -8 -14 -9q0 -3 2 -3q2 -1 19 -21q7 -3 9 -13v-3q1 -2 3 -7
t2 -7q3 2 12.5 7.5t14.5 9.5q7 4 16 13q8 8 17 13q24 15 55 41q3 3 9 11q4 3 12.5 9t12.5 9q0 1 1 2v2q1 2 3 8q8 15 29 13q17 1 45 -21zM10 -358v2l-5 -5v-2q5 -1 5 5zM34 -353q2 1 4 6t5 7q-2 -1 -6.5 -4t-6.5 -4q-9 -7 -7 -12q1 -2 -2 -4q-3 5 -5 0h5h4q1 0 2 -1
q-3 -3 -2 -5q2 1 5 4.5t6 4.5v3l-1 2q-4 0 -1 3zM20 -346q7 1 9 11q-4 -1 -5.5 -5.5t-3.5 -5.5zM63 -272q3 4 7 14q-1 -2 -2.5 -4.5t-2.5 -5.5t-2 -4zM75 -243q1 1 0 3h-2q-4 -2 -5 -4q-2 -6 -6 -12q-2 -2 0 -5q0 1 3 2.5t3 3.5q-1 4 6 11zM127 100q1 1 1 2v2q0 4 -2 6
q-1 0 -4.5 0.5t-5.5 0.5q-14 2 -27 8q-2 -4 -10 -22q-7 -17 -28.5 -58.5t-28.5 -65.5q-8 -27 -10 -30q-1 -2 -2.5 -5.5t-2.5 -4.5l-9 -24q-1 -4 -5 -11t-5 -11q-9 -30 -10 -43q-1 -10 -5 -25q-12 -47 -17 -84q-4 -25 -1 -53l6 -24q1 -7 5 -14q2 -4 5 0l2 2q29 42 31 46
q33 66 35 71l18 45q2 7 8 26t9 29q13 43 14 46q4 21 18.5 68t17.5 72t3 51zM121 150q7 1 7 9q0 7 -7 23q-5 -3 -7 -6.5t-3 -10t-2 -8.5q-1 -6 0.5 -7.5t8.5 -0.5l1 1h2zM143 240q2 3 17.5 21.5t21.5 28.5l14 20q14 20 19 31q1 1 2 6t3 7q2 3 5 9t4 7q5 10 7 12q8 8 13 19
q19 33 20 34t2 4t2 5q2 9 8 26.5t8 26.5q6 22 5 41q0 9 -2 13q-10 -7 -24 -31l-3.5 -7l-3.5 -7q-3 -5 -8 -13.5t-8.5 -15.5t-6.5 -14q-10 -30 -17 -43q-3 -6 -8.5 -19t-9.5 -19q-7 -13 -7 -15q-1 -5 -14 -33q-1 -4 -3 -9t-5.5 -11t-5.5 -10q-7 -19 -25 -59v-5zM502 390
q-4 -2 -8 -2t-9 -3l-1 -1q-2 0 -2 -1q-9 -1 -12 -9q-6 -11 -20 -17l-1 -1h-1q-8 -1 -10 -9l-1 -1q-7 2 -8.5 1t-1.5 -5q-2 0 -5 3q-1 2 -5.5 4t-5.5 3t-2 -0.5t-2 -1.5q-4 6 -7 9q-7 7 -3 20q1 10 10 32q0 -9 7 6l6 13q1 1 2 3v2q6 9 16 7q2 0 6.5 -0.5t6.5 -0.5
q15 -2 21 -6q1 -1 5.5 -2.5t5.5 -2.5q21 -13 25 -28q0 -7 -6 -12z" />
    <glyph glyph-name="fl" unicode="fl" horiz-adv-x="479" 
d="M538 233q6 6 8 3q2 -2 2 -11q-2 -5 -14 -29l-12.5 -25t-12.5 -30q-9 -28 -18 -44v-1q-2 -15 -18 -39q-2 -2 -5 -6.5t-5.5 -8t-4.5 -6.5q-2 -2 -4.5 -5t-3.5 -4q-6 -14 -24 -31q-2 -2 -10.5 -9t-13.5 -10q-16 -10 -38 -12q-11 -2 -34 2q-6 0 -18 10q-6 5 -10 6q-7 6 -10 9
q-12 16 -21 42q-14 38 -13 61q0 6 -0.5 19.5t-0.5 20.5q-1 11 1 31q-3 -3 -7 -7.5t-6 -6.5q-7 -7 -17 -13q-2 -2 -4 -3q-11 -11 -35 -24v-7v-3q1 -3 1.5 -7.5t0.5 -7.5q1 -3 1 -11q0 -2 -1 -3q-1 -5 -2.5 -14.5t-2.5 -14.5q-2 -14 -5.5 -55t-8.5 -63q-1 -6 -8 -34
q-1 -3 -12 -49q-3 -12 -11 -19q-1 -1 -2 -3t-2 -3q-6 -22 -29 -67q-4 -13 -9 -19q-1 -2 -6 -5q-2 -1 -3 -3t-2 -3q-5 -12 -12 -15q0 4 3 5h-1q-4 0 -5 -3q-3 -3 -5 -2q-6 0 -2 -4q2 -2 0 -2q-3 -1 -3.5 -4t-1.5 -4q1 1 1 2q-1 7 -6 3q-2 -1 -4 0q0 3 -1 5q-3 -1 -5 -3t-3 -5
t-2 -4l1 -1q2 -1 3 0q4 2 7 8q3 -5 8 -4l1 -1q-1 -2 0 -5.5t0 -4.5t-3 -4q1 -1 3 1q-1 -4 -1.5 -4.5t-4.5 -0.5q-6 0 -6 -7q1 0 2 1l1 2q3 -2 1 -4t-6.5 -7.5t-7.5 -7.5q0 4 -2 6q0 -6 -4 -2q-1 1 -2 1h-2l-1 -1q0 -1 3 -7q0 -1 2 0h2q0 -1 -1 -3t2 -2q0 -1 -1 -2t-1 -2
q-1 -2 -3 0q-1 1 -3 -1q-4 -6 -7 -10q5 2 6 3q1 -1 1 -2q-3 -3 0 -6q2 -3 -2 -5q-1 -1 -6.5 -5.5t-7.5 -7.5q0 -3 -3 -6q-2 -5 1 -6v-8q-6 -2 -7 -3q-5 0 -5 -3q1 -5 -5 -5q-3 0 -8 -5q-10 -7 -13 -6l-2 -2q-3 -6 -6 -6q-1 0 -1.5 -2.5t-3.5 -1.5q-2 1 -4.5 -1.5t-4.5 -2.5
h-2q-6 1 -13 -2q-1 -1 -4 -1q-1 0 -1 2l1 3q-1 2 -6 2q-9 2 -12 7q-3 2 -8 6.5t-8 6.5q-18 12 -26 26q-3 4 -4 9q-11 37 -11 59q-1 23 11 93q2 13 7.5 37t8.5 37q0 1 6 24.5t10 36.5q3 7 6 22t5 20q4 13 11 35t13 40t14 34q4 4 6 12q9 19 17.5 40.5t14 35t6.5 16.5v1
q1 1 1 2q3 9 11 25.5t10 21.5q10 23 30 71q6 10 8 16q7 22 19 48q6 18 15 32q2 2 7 14q4 10 13.5 27.5t12.5 25.5l17 34t16 34q13 27 24 42q2 2 6 9t7 10q4 3 19 18q13 13 35 18q24 4 40 -11q4 -3 6 -11q1 -9 8 -17q18 -17 17 -43q-3 -30 -3 -31q-2 -9 -4 -12
q0 -1 -1.5 -2.5t-1.5 -2.5q-2 -3 -4 -9t-2 -7q-3 -4 -3 -12q1 -8 -3 -17l-18 -33q-2 -2 -2 -3q-4 -15 -33 -64q-1 -9 -9 -18q-16 -23 -28 -37q-4 -5 -11.5 -15.5t-10.5 -14.5q-11 -16 -23 -24q-8 -8 -14 -9q0 -3 2 -3q2 -1 19 -21q7 -3 9 -13v-3q1 -3 3 -7.5t2 -6.5
q3 2 12.5 7.5t14.5 9.5q7 5 16 13q6 6 18 13q8 5 24 17q1 9 5 32q10 51 13 59q1 4 8 25q2 6 5.5 16t4.5 14q11 36 24 68q24 55 35 75q21 38 36 59q15 22 24 37q3 5 7 9.5t8.5 10t6.5 8.5q3 4 10.5 12.5t10.5 12.5q5 11 13 11l6 3q14 9 27 9q17 0 24 -10q1 -1 4 -4.5t4 -5.5
q14 -25 8 -48q-1 -2 -5 -21t-7 -28q-2 -6 -4.5 -12.5t-5.5 -14.5t-5 -12q-6 -12 -8 -19q-6 -18 -23 -45q-6 -10 -8 -16t-6 -6t-6 -6q-1 -5 -13 -28q-8 -16 -14 -31q-9 -23 -16 -36q-15 -27 -17 -32q-3 -5 -7.5 -14.5t-9 -17.5t-8.5 -15q-3 -5 -8 -15q-31 -50 -33 -53
q-1 -2 -4 -5q-10 -7 -15 -25q-3 -11 -5 -48v-18q5 -33 19 -58q4 -8 14 -11h3q12 -6 26 5q7 3 15 9q9 8 17 18q4 5 27 38q4 5 17 31q7 11 9 13q6 9 9 18q8 18 14 25l2 4q2 4 20 30q13 16 27 26zM-6 -377v2l-5 -5v-2q5 -1 5 5zM18 -372q2 1 4 6t5 7q-2 -1 -6.5 -4t-6.5 -4
q-9 -7 -7 -12q1 -2 -2 -4q-3 5 -5 0h5h4q1 0 2 -1q-3 -4 -2 -5q2 1 5 4.5t6 4.5v3l-1 2q-4 0 -1 3zM4 -365q7 1 9 11q-4 -1 -5.5 -5.5t-3.5 -5.5zM47 -291q3 3 7 14zM59 -262q1 2 0 3h-2q-4 -2 -5 -4q-2 -6 -6 -12q-2 -2 0 -5q0 1 3 2.5t3 3.5q-1 4 6 11zM111 81q1 1 1 2v2
q0 4 -2 6q-1 0 -4.5 0.5t-5.5 0.5q-14 2 -27 8q-2 -4 -10 -22q-7 -17 -28.5 -58.5t-28.5 -65.5q-8 -25 -10 -29q-1 -2 -2.5 -5.5t-2.5 -4.5l-9 -24q-1 -4 -5 -11.5t-5 -10.5q-9 -33 -10 -43q-1 -11 -5 -26q-12 -48 -17 -84q-3 -18 -1 -53l6 -24q1 -7 5 -14q2 -4 5 0l2 2
q29 43 31 46q29 55 35 71q2 5 6 14t7 16.5t5 14.5q13 43 17 56q13 43 14 46q4 20 18.5 67t17.5 72q3 17 3 51zM105 131q7 1 7 9q0 7 -7 23q-5 -3 -7 -6.5t-3 -10t-2 -8.5q-1 -6 0.5 -7.5t8.5 -0.5h1q1 1 2 1zM127 221q2 3 17.5 21.5t21.5 28.5l14 20q14 20 19 31q1 1 2 6
t3 7q5 6 9 16l3 6t4 6q9 9 13 19q15 26 21 34q0 2 2 5t2 4q2 10 8 27.5t8 25.5q5 23 5 41q0 2 -0.5 6.5t-1.5 6.5q-10 -7 -24 -31q-1 -2 -3.5 -6.5t-3.5 -7.5q-2 -4 -11 -19t-13 -24q-10 -30 -17 -43q-3 -6 -8.5 -19t-9.5 -19q-5 -10 -7 -15q-1 -3 -14 -33q-1 -4 -3 -9
t-5.5 -11t-5.5 -10q-7 -19 -25 -59v-5zM357 308v-8q5 3 8 12q0 1 0.5 2.5t1.5 2.5q2 1 9 16q0 4 4 10q10 14 16 33l3 6q8 15 39 81q12 26 18 40q1 3 3 5.5t2 3.5q6 11 6 13q1 8 7 18q1 3 5.5 15.5t6.5 19.5q-2 1 -5 -2q-18 -27 -39 -68q-20 -37 -25 -44q-14 -18 -20 -41
q-6 -24 -14 -37q-5 -4 -6 -9q-8 -18 -8 -27q-2 -10 -4 -18q-6 -16 -8 -24z" />
    <glyph glyph-name="f_f_i" unicode="ffi" horiz-adv-x="742" 
d="M704 286q10 -8 19 -24q4 -10 -2 -27q-5 -14 -13 -29q-5 -11 -17 -33q-3 -6 -8 -19t-8 -19q-16 -42 -22 -60q-7 -24 -25 -68l-6 -12t-7 -14.5t-5 -12.5q0 -1 -2 -3q-5 -1 -10.5 -6.5t-7.5 -6.5q-11 -6 -19 6q-4 6 -13 6q-9 2 -11 15q0 2 1.5 8t2.5 9q0 6 -1 6q-8 7 -8 30
q0 5 7 31q28 104 45 142l6 15t5 13q-1 -1 -3.5 -4t-3.5 -4l-22 -22q-4 -5 -4 -6q0 -2 -3 -2q-4 -4 -25 -24q-9 -8 -16 -13l-2 -1q-2 -1 -2 -2q-14 -13 -35 -24v-7v-3q1 -3 1.5 -7.5t0.5 -7.5q1 -3 1 -11q0 -2 -1 -3q-4 -20 -5 -29q-3 -18 -6.5 -57.5t-7.5 -60.5
q-6 -22 -8 -34q-2 -8 -6 -24.5t-6 -24.5q-3 -12 -11 -19q0 -1 -1.5 -3t-2.5 -3q-6 -20 -29 -66q-4 -13 -9 -19q-1 -2 -6 -5q-2 -1 -3 -3t-2 -3q-5 -12 -12 -15q0 4 3 5h-1q-4 0 -5 -3q-3 -3 -5 -2q-6 0 -2 -4q2 -2 0 -2q-3 -1 -3.5 -4t-1.5 -4q1 1 1 2q-1 7 -6 3q-2 -1 -4 0
q0 3 -1 5q-3 -1 -5 -3t-3 -5t-2 -4l1 -1h3q4 2 7 8q3 -5 8 -4l1 -1q-1 -2 0 -5t0 -4t-3 -4q1 -1 3 1q-1 -4 -1.5 -4.5t-4.5 -0.5q-6 0 -6 -7q1 0 2 2l1 1q3 -2 1 -4t-6.5 -7.5t-7.5 -7.5q0 4 -2 6q0 -6 -4 -2h-2t-2 1l-1 -2q0 -3 3 -6q0 -1 2 0h2q0 -1 -1 -3t2 -2l-1 -2
l-1 -2q-1 -2 -3 0q-1 1 -3 -1q-4 -6 -7 -10q5 1 6 3q1 -1 1 -2q-3 -3 0 -6q2 -3 -2 -5q-1 -1 -6.5 -5.5t-7.5 -7.5q0 -3 -3 -6q-2 -5 1 -6v-8q-6 -2 -7 -3q-5 0 -5 -3q1 -5 -5 -5q-3 0 -8 -5q-10 -7 -13 -6l-2 -2q-3 -6 -6 -6q-1 0 -1.5 -2.5t-3.5 -1.5q-2 1 -4.5 -1.5
t-4.5 -2.5h-2q-6 2 -13 -2q-1 -1 -4 -1q-1 0 -1 3l1 2q-1 2 -6 2q-9 2 -12 7q-3 2 -8 6.5t-8 6.5q-18 12 -26 26q-3 4 -4 9q-10 32 -11 59q0 26 11 92q3 14 8.5 38.5t7.5 34.5q11 46 16 61q3 8 6 22.5t5 19.5q4 13 11 35t13 40t14 34q4 4 6 12q9 19 17.5 40.5t14 35
t6.5 16.5v1l1 2q3 9 11 25.5t10 21.5t6 14.5t6 13.5q-9 -10 -20 -20q-14 -14 -21 -22q-5 -5 -4 -6q0 -2 -3 -2q-4 -4 -25 -24q-8 -8 -16 -13q-1 0 -2 -1l-2 -2q-14 -13 -35 -24v-7v-3q1 -3 1.5 -7.5t0.5 -7.5q1 -3 1 -11q0 -2 -1 -3q-4 -20 -5 -29q-3 -18 -6.5 -57.5
t-7.5 -60.5q-6 -22 -8 -34q-2 -8 -6 -24.5t-6 -24.5q-3 -12 -11 -19q0 -1 -2 -3t-2 -3q-6 -20 -29 -66q-4 -13 -9 -19q-1 -2 -6 -5q-2 -1 -3 -3t-2 -3q-5 -12 -12 -15q0 4 3 5h-1q-4 0 -5 -3q-3 -3 -5 -2q-6 0 -2 -4q2 -2 0 -2q-3 -1 -3.5 -4t-1.5 -4q1 1 1 2q-1 7 -6 3
q-2 -1 -4 0q0 3 -1 5q-3 -1 -5 -3t-3 -5t-2 -4l1 -1h3q4 2 7 8q3 -5 8 -4l1 -1v-5v-4q-1 -1 -3 -4q1 -1 3 1q-1 -4 -1.5 -4.5t-4.5 -0.5q-6 0 -6 -7q1 0 2 2l1 1q3 -2 1 -4t-6.5 -7.5t-7.5 -7.5q0 4 -2 6q0 -6 -4 -2h-2q-2 0 -2 1l-1 -2q0 -3 3 -6q0 -1 2 0h2q0 -1 -1 -3
t2 -2l-1 -2l-1 -2q-1 -2 -3 0q-1 1 -3 -1q-4 -6 -7 -10q4 1 6 3q1 -1 1 -2q-3 -3 0 -6q2 -3 -2 -5q-1 -1 -6.5 -5.5t-7.5 -7.5q0 -3 -3 -6q-2 -5 1 -6v-8q-6 -2 -7 -3q-5 0 -5 -3q1 -5 -5 -5q-3 0 -8 -5q-10 -7 -13 -6l-2 -2q-3 -6 -6 -6q-1 0 -1.5 -2.5t-3.5 -1.5
q-2 1 -4.5 -1.5t-4.5 -2.5h-2q-6 2 -13 -2q-1 -1 -4 -1q-1 0 0 3v2q-1 2 -6 2q-9 2 -12 7q-3 2 -8 6.5t-8 6.5q-18 12 -26 26q-3 4 -4 9q-11 37 -11 59q-1 22 11 92q9 45 16 73q7 36 16 61q2 6 5.5 20.5t5.5 21.5q4 13 11 35t13 40t14 34q4 4 6 12q9 19 17.5 40.5t14 35
t6.5 16.5q0 1 1 3q3 9 11 25.5t10 21.5q10 23 30 71q6 10 8 16q8 27 19 48q8 21 15 32q2 2 7 14q2 5 26 53q6 13 18 37.5t15 30.5q11 26 24 41q6 11 13 19q5 3 19 17q15 15 34 18q22 6 39 -11q6 -5 6 -11q5 -12 8 -16q20 -18 17 -42q0 -21 -3 -31q-2 -9 -4 -12q0 -1 -1 -2.5
t-2 -2.5q0 -1 -2 -7t-4 -9q-3 -6 -3 -12q2 -10 -3 -17q-2 -5 -8 -16t-9 -17q-2 -2 -2 -3q-4 -15 -33 -64q-1 -6 -8 -18q-27 -35 -28 -37q-5 -5 -22 -30q-15 -19 -23 -24q-8 -8 -14 -9q0 -3 2 -3q2 -1 19 -21q7 -3 9 -13v-3q0 -2 2 -7t3 -7q3 2 12.5 7.5t14.5 9.5q7 4 16 13
q8 8 17 13q27 17 54 41q3 3 9 11q28 21 35 25l3.5 7t3.5 8q5 16 19 48q8 21 15 32q2 2 7 14q4 10 13.5 27.5t12.5 25.5q5 11 16 34t17 34q14 28 24 41q2 2 6 9t7 10q5 3 19 17q15 15 34 18q22 5 40 -11q4 -3 6 -11t8 -16q18 -17 17 -42q-3 -30 -3 -31q-2 -9 -4 -12
q0 -1 -1 -2.5t-2 -2.5q0 -1 -2 -7t-4 -9q-3 -6 -3 -12q1 -8 -3 -17q-2 -4 -6 -10.5t-7 -12t-5 -10.5q-2 -2 -2 -3q-4 -15 -33 -64q-1 -6 -8 -18q-27 -35 -28 -37q-5 -5 -22 -30q-15 -19 -23 -24q-8 -8 -14 -9q0 -3 2 -3q2 -1 19 -21q7 -3 9 -13v-3q1 -3 3 -7.5t2 -6.5
q3 2 12.5 7.5t14.5 9.5q7 4 16 13q8 8 17 13q24 15 55 41q3 3 9 11l24 18q0 2 2 4q0 1 1.5 4t1.5 4q8 15 28 13q17 1 45 -21zM3 -356v2l-5 -5v-2q5 -1 5 5zM27 -351q2 1 4 6t5 7q-2 -1 -6.5 -4t-6.5 -4q-9 -7 -7 -12q1 -2 -2 -4q-2 5 -5 0h5h4q1 0 2 -1q-4 -3 -2 -5
q2 1 5 4.5t6 4.5v3l-1 2q-4 0 -1 3zM13 -344q7 1 9 11q-4 -1 -5.5 -5.5t-3.5 -5.5zM56 -271q4 3 7 14zM68 -242q2 2 0 3h-2q-4 -2 -5 -4q-1 -6 -6 -12q-2 -2 0 -5q0 1 3 2.5t3 3.5q-1 4 6 11zM120 100v2.5t1 1.5q0 4 -2 6q-1 0 -4.5 0.5t-5.5 0.5q-14 2 -27 8q-2 -4 -10 -22
q-7 -17 -28.5 -58.5t-28.5 -65.5q-8 -25 -10 -29q-1 -1 -2.5 -4.5t-2.5 -5.5l-9 -24q-1 -4 -5 -11t-5 -11q-9 -25 -10 -43q-1 -10 -5 -25q-12 -48 -17 -84q-4 -24 -1 -52l6 -24q1 -7 5 -14q2 -4 5 0l2 2q29 42 31 46q4 8 11.5 22t13.5 25.5t10 22.5l18 45q2 7 8 26t9 29
q13 43 14 46q4 20 18.5 67t17.5 72t3 51zM114 150q7 1 7 9q0 7 -7 23q-7 -4 -12 -25q-2 -6 0 -7.5t9 -0.5q1 0 3 1zM136 240q3 4 18 22t21 28q4 6 16 23t17 28q3 11 5 13q2 3 5 9t4 7q5 10 7 12q5 5 13 19q10 21 20 34q0 1 2 4t2 5q2 10 8 27.5t8 25.5q5 23 5 41
q0 2 -0.5 6.5t-1.5 6.5q-10 -7 -24 -31l-3.5 -7l-3.5 -7q-3 -5 -8 -13.5t-9 -15.5t-6 -14q-2 -5 -5 -14t-6 -16t-6 -13t-8.5 -19t-9.5 -19q-7 -13 -7 -15q-1 -5 -14 -33q-1 -5 -6.5 -15t-7.5 -15q-23 -54 -25 -59v-5zM294 -356v2l-5 -5v-2q5 -1 5 5zM318 -351q2 1 4 6t5 7
q-2 -1 -6.5 -4t-6.5 -4q-9 -7 -7 -12q1 -2 -2 -4q-3 5 -5 0h5h4q1 0 2 -1q-3 -3 -2 -5q2 1 5 4.5t6 4.5v3l-1 2q-4 0 -1 3zM304 -344q7 1 9 11q-4 -1 -5.5 -5.5t-3.5 -5.5zM347 -271q3 3 7 14zM359 -242q1 2 0 3h-2q-4 -2 -5 -4q-2 -6 -6 -12q-2 -2 0 -5q0 1 3 2.5t3 3.5
q-1 4 6 11zM411 100q1 1 1 2v2q0 4 -2 6q-1 0 -4.5 0.5t-5.5 0.5q-14 2 -27 8q-2 -4 -10 -22q-7 -17 -28.5 -58.5t-28.5 -65.5q-8 -25 -10 -29q-1 -1 -2.5 -4.5t-2.5 -5.5l-9 -24q-1 -4 -5 -11.5t-5 -10.5q-9 -33 -10 -43t-5 -25q-12 -48 -17 -84q-3 -17 -1 -52l6 -24
q1 -7 5 -14q2 -4 5 0l2 2q29 42 31 46l35 70q2 5 6 14t7 16.5t5 14.5t8 26t9 29q13 43 14 46q4 20 18.5 67t17.5 72t3 51zM405 150q7 1 7 9q0 7 -7 23q-5 -3 -7 -6.5t-3 -10t-2 -8.5q-1 -6 0.5 -7.5t8.5 -0.5l1 1h2zM427 240q3 4 18 22t21 28q3 5 15.5 22.5t17.5 28.5
q1 1 2 6t3 7q2 3 5 9t4 7q5 10 7 12q5 5 13 19q10 21 20 34q1 1 2 4t2 5q2 10 8 27.5t8 25.5q5 23 5 41q0 2 -0.5 6.5t-1.5 6.5q-10 -7 -24 -31q-1 -2 -3.5 -6.5t-3.5 -7.5q-3 -5 -8 -13.5t-9 -15.5t-6 -14q-2 -5 -5 -14t-6 -16t-6 -13t-8.5 -19t-9.5 -19q-7 -13 -7 -15
q-1 -5 -14 -33q-1 -5 -6.5 -15t-7.5 -15q-23 -54 -25 -59v-5zM785 390q-3 -2 -7.5 -2t-9.5 -3q0 -1 -1 -1t-2 -1q-9 -1 -12 -9q-6 -11 -20 -17q-1 0 -1 -0.5t-1 -0.5q-8 -1 -10 -9l-1 -1q-8 2 -9 1t-1 -5q-2 0 -5 3q-1 2 -5 4l-6 3q-1 1 -2 -0.5t-2 -1.5q-4 6 -7 9
q-7 7 -3 20q1 10 10 32q0 -9 7 6l6 13q1 1 1 3l1 2q6 9 16 7q2 0 6.5 -0.5t6.5 -0.5q15 -2 21 -6q1 -1 5 -2.5t6 -2.5q22 -13 24 -28q1 -6 -5 -12z" />
    <glyph glyph-name="f_f_l" unicode="ffl" horiz-adv-x="765" 
d="M827 232q6 6 8 3q2 -2 2 -11q-2 -5 -7 -14t-7 -15q-22 -43 -25 -54q-9 -28 -18 -44v-1q-2 -15 -18 -39q-2 -2 -5 -6.5t-5.5 -8t-4.5 -6.5q-6 -6 -8 -9q-6 -14 -24 -31q-2 -2 -10.5 -9t-13.5 -10q-16 -10 -38 -12q-11 -2 -34 2q-5 0 -18 10q-6 5 -10 6q-7 6 -10 9
q-12 16 -21 42q-14 38 -13 61q0 6 -0.5 19.5t-0.5 20.5q-1 10 1 30l-13 -13q-9 -8 -16 -13q-3 -3 -4 -3q-11 -11 -35 -24v-7v-3q1 -3 1.5 -7.5t0.5 -7.5q1 -3 1 -11q0 -2 -1 -3q-4 -20 -5 -29q-3 -18 -6.5 -57.5t-7.5 -60.5q-6 -22 -8 -34q-2 -8 -6 -24.5t-6 -24.5
q-3 -12 -11 -19q-1 -1 -2.5 -3t-1.5 -3q-6 -20 -29 -66q-4 -13 -9 -19q-1 -1 -6 -5q-2 -1 -3 -3t-2 -3q-5 -12 -12 -15q0 4 3 5h-1q-4 0 -5 -3q-3 -3 -5 -2q-6 0 -2 -4q2 -2 0 -2q-3 -1 -3.5 -4t-1.5 -4q1 1 1 2q-1 7 -6 3q-2 -1 -4 0q0 3 -1 5q-3 -1 -5 -3t-3 -5t-2 -4
l1 -1q2 -2 3 0q4 2 7 8q3 -5 8 -4l1 -1q-1 -1 0 -4.5t0 -5.5q-1 -1 -3 -4q1 -1 3 1q-1 -4 -1.5 -4.5t-4.5 -0.5q-6 0 -6 -7q1 0 2 2l1 1q3 -2 1 -4t-6.5 -7.5t-7.5 -7.5q0 4 -2 6q0 -6 -4 -2h-2t-2 1l-1 -1q0 -1 3 -7q0 -1 2 0h2q0 -1 -1 -3t2 -2l-1 -2l-1 -2q-1 -2 -3 0
q-1 1 -3 -1q-4 -6 -7 -10q5 1 6 3q1 -1 1 -2q-3 -3 0 -6q2 -3 -2 -5q-1 -1 -6.5 -5.5t-7.5 -7.5q0 -3 -3 -6q-2 -5 1 -6v-8q-6 -2 -7 -3q-5 0 -5 -3q1 -5 -5 -5q-3 0 -8 -5q-10 -7 -13 -6l-2 -2q-3 -6 -6 -6q-1 0 -1.5 -2.5t-3.5 -1.5q-2 1 -4.5 -1.5t-4.5 -2.5h-2
q-6 2 -13 -2q-1 -1 -4 -1q-1 0 -1 3l1 2q-1 2 -6 2q-9 2 -12 7q-3 2 -8 6.5t-8 6.5q-18 12 -26 26q-3 4 -4 9q-11 37 -11 59q-1 23 11 93q3 14 8.5 38.5t7.5 34.5q12 46 16 61q3 8 6 22.5t5 19.5q4 13 11 35t13 40t14 34q4 4 6 12q9 19 17.5 40.5t14 35t6.5 16.5v1q1 1 1 2
q3 7 10.5 22.5t10.5 23.5t9 22q-9 -9 -13 -14l-22 -22q-4 -5 -4 -6q0 -2 -3 -2q-5 -4 -13.5 -12.5t-11.5 -10.5q-8 -8 -16 -13q-3 -3 -4 -3q-11 -11 -35 -24v-7v-3q1 -3 1.5 -7.5t0.5 -7.5q1 -3 1 -11q0 -2 -1 -3q-4 -20 -5 -29q-3 -18 -6.5 -57.5t-7.5 -60.5q-6 -22 -8 -34
q-2 -8 -6 -24.5t-6 -24.5q-3 -12 -11 -19q-1 -1 -2.5 -3t-1.5 -3q-6 -20 -29 -66q-4 -13 -9 -19q-1 -1 -6 -5q-2 -1 -3 -3t-2 -3q-5 -12 -12 -15q0 4 3 5h-1q-4 0 -5 -3q-3 -3 -5 -2q-6 0 -2 -4q2 -2 0 -2q-3 -1 -3.5 -4t-1.5 -4q1 1 1 2q-1 7 -6 3q-2 -1 -4 0q0 3 -1 5
q-3 -1 -5 -3t-3 -5t-2 -4l1 -1q2 -2 3 0q4 2 7 8q3 -5 8 -4l1 -1q-1 -1 0 -5t0 -5t-3 -4q1 -1 3 1q-1 -4 -1.5 -4.5t-4.5 -0.5q-6 0 -6 -7q1 0 2 2l1 1q3 -2 1 -4t-6.5 -7.5t-7.5 -7.5q0 4 -2 6q0 -6 -4 -2h-2t-2 1l-1 -1q0 -1 3 -7q0 -1 2 0h2q0 -1 -1 -3t2 -2l-1 -2l-1 -2
q-1 -2 -3 0q-1 1 -3 -1q-4 -6 -7 -10q5 1 6 3q1 -1 1 -2q-3 -3 0 -6q2 -3 -2 -5q-1 -1 -6.5 -5.5t-7.5 -7.5q0 -3 -3 -6q-2 -5 1 -6v-8q-6 -2 -7 -3q-5 0 -5 -3q1 -5 -5 -5q-3 0 -8 -5q-10 -7 -13 -6l-2 -2q-3 -6 -6 -6q-1 0 -1.5 -2.5t-3.5 -1.5q-2 1 -4.5 -1.5t-4.5 -2.5
h-2q-6 2 -13 -2q-1 -1 -4 -1q-1 0 -1 3l1 2q-1 2 -6 2q-9 2 -12 7q-3 2 -8 6.5t-8 6.5q-18 12 -26 26q-3 4 -4 9q-10 32 -11 59q0 27 11 93q3 14 8.5 38.5t7.5 34.5q11 46 16 61q3 8 6 22.5t5 19.5q4 13 11 35t13 40t14 34q4 4 6 12q9 19 17.5 40.5t14 35t6.5 16.5v1
q1 1 1 2q3 7 10.5 22.5t10.5 23.5q10 23 30 71q6 10 8 16q7 22 19 48q6 18 15 32q2 2 7 14q4 10 13.5 27.5t12.5 25.5l17 34t16 34q16 31 24 42q11 17 13 19q5 3 19 17q13 13 34 18q24 4 40 -11q4 -3 6 -11q1 -8 8 -16q18 -17 17 -43q-3 -30 -3 -31q-2 -9 -4 -12
q0 -1 -1 -2.5t-2 -2.5q-1 -3 -3 -8.5t-3 -7.5q-3 -4 -3 -12q1 -8 -3 -17q-2 -4 -6 -10.5t-7 -12t-5 -10.5q-2 -2 -2 -3q-4 -15 -33 -64q0 -3 -8 -18q-4 -4 -13 -17.5t-15 -19.5q-10 -12 -22 -30q-18 -20 -23 -24q-8 -8 -14 -9q0 -3 2 -3q2 -1 19 -21q7 -3 9 -13v-3
q1 -3 3 -7t2 -6q22 12 27 16q15 12 16 13q8 8 17 13q24 15 55 41q3 3 9 11q23 18 29 22l1 2q6 10 8 16q7 22 19 48q6 18 15 32q2 2 7 14q2 4 26 53q6 13 18 37.5t15 30.5q16 31 24 42q11 17 13 19q5 3 19 17q13 13 34 18q24 4 40 -11q4 -3 6 -11q1 -8 8 -16q18 -17 17 -43
q-3 -30 -3 -31q-2 -9 -4 -12q0 -1 -1.5 -2.5t-1.5 -2.5q-2 -3 -4 -9t-2 -7q-3 -4 -3 -12q1 -8 -3 -17l-18 -33q-2 -2 -2 -3q-4 -15 -33 -64q0 -3 -8 -18q-4 -4 -13 -17.5t-15 -19.5q-10 -12 -22 -30q-18 -20 -23 -24q-8 -8 -14 -9q0 -3 2 -3q2 -1 19 -21q7 -3 9 -13v-3
q1 -3 3 -7t2 -6q18 10 27 16q15 12 16 13q8 8 17 13q8 5 24 17q1 13 5 32q10 51 13 59q1 4 8 25q2 6 5.5 16t4.5 14q14 46 24 68q16 40 35 75q22 40 36 59l24 36q3 5 6.5 9.5t8.5 10t7 8.5q3 4 10.5 12.5t10.5 12.5q6 11 13 11l6 3q13 9 27 9q16 0 24 -10q2 -2 4.5 -5
t3.5 -5q13 -26 8 -48q-2 -8 -5.5 -24t-6.5 -24q-2 -6 -4.5 -12.5t-5.5 -14.5t-5 -12q-6 -12 -8 -19q-3 -10 -23 -45q-5 -6 -8 -16q-2 -6 -6 -6t-6 -6q0 -5 -2.5 -9.5t-6 -10t-4.5 -8.5q-5 -8 -14 -31t-16 -36q-15 -27 -17 -32q-3 -5 -7.5 -14.5t-9 -17.5t-8.5 -15
q-3 -5 -8 -15q-31 -50 -33 -53q-1 -2 -4 -5q-12 -9 -15 -24q-5 -16 -5 -48v-9q-1 -9 0 -9q5 -33 19 -58q4 -8 14 -11h3q12 -6 26 5q8 3 15 9q5 4 17 18q4 5 13 18t14 20q3 5 8.5 16t8.5 15q4 9 9 13q6 9 9 18q9 18 14 24l2 4q7 15 20 30q8 13 27 26zM646 307l-1 -4
q-1 -4 1 -4q5 3 8 12q0 1 0.5 2.5t1.5 2.5q2 1 9 16q0 4 4 10q10 14 16 33l3 6q8 15 39 81q2 4 8 18t10 22q1 2 3 5t2 4q6 11 6 13q1 8 7 18q1 4 5.5 15.5t6.5 18.5q-2 1 -5 -2q-17 -25 -39 -67q-20 -37 -25 -44q-16 -21 -20 -41q-9 -30 -14 -37q-4 -5 -6 -9q-8 -18 -8 -27
q-2 -10 -4 -18q-6 -16 -8 -24zM-4 -376v2l-5 -5v-2q5 -1 5 5zM20 -371q2 1 4 6t5 7q-2 -1 -6.5 -4t-6.5 -4q-9 -7 -7 -12q1 -2 -2 -4q-3 5 -5 0h5h4q1 0 2 -1q-3 -3 -2 -5q2 1 5 4.5t6 4.5v3l-1 2q-4 0 -1 3zM6 -364q7 1 9 11q-4 -1 -5.5 -5.5t-3.5 -5.5zM49 -290q3 4 7 14
q-1 -2 -2.5 -4.5t-2.5 -5.5t-2 -4zM61 -261q1 1 0 3h-2q-4 -2 -5 -4q-2 -6 -6 -12q-2 -2 0 -5q0 1 3 2.5t3 3.5q-1 4 6 11zM113 81q1 1 1 2v2q0 4 -2 6q-1 0 -4.5 0.5t-5.5 0.5q-14 2 -27 8q-2 -4 -10 -22q-7 -17 -28.5 -58.5t-28.5 -65.5q-8 -25 -10 -29q-1 -2 -2.5 -5.5
t-2.5 -4.5l-9 -24q-1 -4 -5 -11.5t-5 -10.5q-9 -33 -10 -43t-5 -25q-12 -47 -17 -84q-3 -18 -1 -53l6 -24q1 -7 5 -14q2 -4 5 0l2 2q29 42 31 46q33 66 35 71t6 14t7 16.5t5 14.5t8 26t9 29q13 43 14 46q4 20 18.5 67t17.5 72q3 26 3 51zM107 131q7 1 7 9q0 6 -7 22
q-5 -3 -7 -6t-3 -9.5t-2 -8.5q-1 -6 0.5 -7.5t8.5 -0.5h1q1 1 2 1zM129 220q4 5 18.5 23t20.5 27q4 7 16.5 23.5t16.5 27.5q1 1 2 6t3 7q2 3 5 9t4 7q5 10 7 12q5 5 13 19q10 21 20 34q1 2 2 5t2 4q2 10 8 27.5t8 25.5q5 23 5 41q0 2 -0.5 6.5t-1.5 6.5q-10 -7 -24 -31
q-1 -2 -3.5 -6.5t-3.5 -7.5q-3 -5 -8 -13.5t-9 -15.5t-6 -14q-2 -5 -5 -14t-6 -16t-6 -13t-8.5 -19t-9.5 -19q-7 -13 -7 -15q-1 -5 -14 -33q-1 -5 -6.5 -15t-7.5 -15q-23 -54 -25 -59v-5zM284 -376v2l-5 -5v-2q5 -1 5 5zM308 -371q2 1 4 6t5 7q-2 -1 -6.5 -4t-6.5 -4
q-9 -7 -7 -12q1 -2 -2 -4q-3 5 -5 0h5h4q1 0 2 -1q-3 -3 -2 -5q2 1 5 4.5t6 4.5v3l-1 2q-4 0 -1 3zM294 -364q7 1 9 11q-4 -1 -5.5 -5.5t-3.5 -5.5zM337 -290q3 4 7 14zM349 -261q1 1 0 3h-2q-4 -2 -5 -4q-2 -6 -6 -12q-2 -2 0 -5q0 1 3 2.5t3 3.5q-1 4 6 11zM401 81
q1 1 1 2v2q0 4 -2 6q-1 0 -4.5 0.5t-5.5 0.5q-14 2 -27 8q-2 -4 -10 -22q-7 -17 -28.5 -58.5t-28.5 -65.5q-8 -25 -10 -29q-1 -2 -2.5 -5.5t-2.5 -4.5l-9 -24q-1 -4 -5 -11.5t-5 -10.5q-9 -33 -10 -43t-5 -25q-12 -47 -17 -84q-3 -18 -1 -53l6 -24q1 -7 5 -14q2 -4 5 0l2 2
q29 42 31 46q33 66 35 71t6 14t7 16.5t5 14.5t8 26t9 29q13 43 14 46q4 20 18.5 67t17.5 72q3 26 3 51zM395 131q7 1 7 9q0 6 -7 22q-8 -5 -12 -24q-2 -6 0 -7.5t9 -0.5h1q1 1 2 1zM417 220q4 5 18.5 23t20.5 27q4 8 16 24.5t17 26.5q3 11 5 13q2 3 5 9t4 7q5 10 7 12
q5 5 13 19q10 21 20 34q1 2 2 5t2 4q2 10 8 27.5t8 25.5q5 23 5 41q0 2 -0.5 6.5t-1.5 6.5q-10 -7 -24 -31q-1 -2 -3.5 -6.5t-3.5 -7.5q-3 -5 -8 -13.5t-9 -15.5t-6 -14q-2 -5 -5 -14t-6 -16t-6 -13t-8.5 -19t-9.5 -19q-7 -13 -7 -15q-1 -5 -14 -33q-1 -5 -6.5 -15t-7.5 -15
q-23 -54 -25 -59v-5z" />
    <glyph glyph-name=".notdef" horiz-adv-x="397" 
d="M471 595q2 -11 -9 -15q-1 0 -3 -0.5t-3 -0.5q0 -1 -0.5 -2.5t-0.5 -2.5q-3 -13 -9 -39.5t-9 -39.5q-8 -38 -11 -57q-8 -47 -14 -74q-1 -3 -6 -31t-9 -42q-12 -55 -26 -93q-4 -10 -6 -24q-10 -50 -17 -74q-2 -8 -5.5 -23t-5.5 -22q-16 -60 -26 -89q0 -2 3 -2l2 -2
q2 -2 3 -2q5 -3 7 -12q2 -11 -9 -15q-6 -1 -17 -1q-4 0 -5 -1q-9 -5 -18 -2q-16 -2 -24 0h-5h-9.5h-12.5h-11q-10 1 -29 1.5t-25 0.5t-17 0.5t-20 1t-17 1.5q-36 2 -54 2q-32 -2 -48 -2v-3q0 -2 -2 -2q-4 0 -2 2v3h-3h-5l-3 -6q0 3 -1 4.5t-3 0.5l-2 2h-6q-4 0 -5 6
q-1 1 -1.5 4t-0.5 4q-1 6 3 6l1 1h2v6h-2q0 1 1 2t1 2l3 21q6 27 18 79q8 38 11 57q8 50 14 74q1 6 6 32.5t9 41.5q12 55 26 92q4 12 6 24q2 7 7.5 33.5t9.5 40.5q2 7 5.5 22t5.5 23q14 52 22 77q-1 1 -1 2t-0.5 1.5t-0.5 1.5q-1 1 -1.5 4t-0.5 4q-1 6 3 6q4 2 6 7h-5
q0 1 1.5 3t1.5 3q0 3 2 3q2 -1 8 2q3 6 7 9q2 2 8 4q0 4 2 8q0 -2 0.5 -4.5t0.5 -3.5h4q-2 8 2 14q2 4 5 -1l1 -5q2 -8 2 -9v-3q13 3 27 3q4 0 12.5 0.5t13.5 0.5q3 0 9.5 0.5t12 0.5t10.5 -1l14 1q13 0 13 -1q30 0 34 1q8 2 25 2q18 2 28 2q16 0 24 -3l12 -6q12 -5 16 -5
q3 -1 11 -3v2q3 3 3 7q0 2 2 2q4 0 2 -2v-3q0 -3 3 -4q3 0 3 2q5 7 5 8q0 -2 1 -3.5t3 -0.5q7 -10 8 -13v-5h2q1 0 3 -1.5t2 -2.5q5 -3 7 -12zM384 513h-1h1zM252 581q-45 2 -53 2v-3q1 -6 -4 -29q-4 -12 -5 -19q4 -30 8 -44q1 -4 6 -37q2 -15 8 -53q4 -21 11 -52v-4
q6 9 16 27q9 16 28.5 47t29.5 48q6 11 12 15q1 -1 2.5 1t2.5 4q16 27 46 77q2 2 4 7t4 8h-8q-10 1 -29 1.5t-25 0.5t-17 0.5t-20 1t-17 1.5zM86 184q-3 -8 -2 -10q1 4 4 8q0 2 -1 2h-1zM68 132v-1q1 1 1 2v1l-1 -1v-1zM60 94q-1 -1 0 -1l1 1v1zM53 87q0 -3 1 -3q1 1 1 5z
M53 71q2 9 2 10q-2 -2 -2 -10zM51 48q-1 -1 0 -2l1 -1l1 -2q4 7 31 51q9 17 29 55q9 16 27.5 48.5t27.5 48.5q2 5 7 14.5t8 14.5q-2 16 -5 49t-5 49q-3 21 -7 63q-6 -24 -8 -36q-4 -13 -11 -39.5t-10 -39.5q-14 -46 -15 -50q-2 -4 -3 -4q-2 -1 -2 -3l-8 -16t-8 -19
q0 -1 -2 -7t-4 -9q-2 -2 1 -4q5 -5 1 -11v-4q-1 -11 -13 -27h-2q-1 1 -1.5 0.5t-0.5 -1.5l-1 -2q-1 -2 -2 -2q-1 -1 -0.5 -3t-0.5 -4q0 -1 -1.5 -4.5t-2.5 -5.5q-2 -4 -2 -5q1 0 2.5 1t1.5 -1q1 -2 3 0q1 1 2 1q-2 -12 -3 -19q6 4 7 4q2 -2 0 -8q-2 -14 -6 -21q-5 -5 -7 -6
q-3 0 -4 -1.5t-1 -4.5t-1 -4v-4l-4 4q-2 -4 -4.5 -11.5t-3.5 -9.5q2 0 4 5l2 1l2 -2q0 -5 -1 -6q-5 -4 -6 -12l-1 -1q0 1 0.5 1t0.5 1q0 2 -1 2t-1 -1zM75 135q-6 -3 -3 -11q1 2 2 6t1 5zM50 42q-1 -2 -1 -5q-2 -4 -2 -5q0 1 1.5 3.5t2.5 3.5q0 2 -1 3zM191 -11q18 2 28 2
q-4 32 -10 93q-1 8 -4 27t-4 30q-1 1 -1 4t-1 5q-12 -21 -24 -38q-51 -81 -59 -96q-3 -5 -6 -8.5t-6.5 -6.5t-6.5 -6l-8 -8q11 0 16 -1h14h13q30 0 34 1q8 2 25 2zM349 377q3 8 2 10q-1 -4 -4 -8q0 -2 1 -2h1zM363 416q2 4 2 5q-1 0 -2.5 -1t-1.5 1q-1 2 -3 0q-1 -1 -2 -1
q2 12 3 19l-2.5 -2.5l-2 -2t-2.5 0.5q-2 2 0 8q0 2 0.5 4.5t0.5 3.5q-1 -1 -1.5 -3.5t-0.5 -3.5q-3 -6 -9.5 -18t-9.5 -18q-18 -34 -26 -52q-9 -17 -23 -53q-15 -33 -21 -41q-3 -5 -22 -40q6 -48 8 -77q4 -49 7 -77q1 10 6 21q2 6 4.5 17t3.5 17q6 26 9 38q6 27 20 79
q2 6 4.5 16t5 18.5t5.5 16.5q2 4 3 4q2 1 2 3q1 2 7.5 14t8.5 20q0 1 2 7t4 9q2 2 -1 4q-5 5 -1 11v4q1 11 13 27q1 1 3 0q1 0 1 1q2 4 3 5t0.5 3t0.5 4q1 1 2 4t2 5zM360 426q6 3 3 11q-1 -2 -2 -6t-1 -5zM367 429v1q-1 -1 -1 -2v-1q0 1 0.5 1t0.5 1zM375 467q1 1 0 1
l-1 -1v-1zM382 474q0 2 -1 3q-1 -1 -1 -5zM382 490q-2 -9 -2 -10q2 2 2 10zM375 480q2 4 4.5 11.5t3.5 9.5q-2 0 -4 -5l-2 -1q-1 1 -2 1q-2 -3 -7.5 -14l-8.5 -17q5 5 6 5q3 0 4 1.5t1 4.5t1 4v4z" />
    <glyph glyph-name=".null" horiz-adv-x="0" 
 />
    <glyph glyph-name="nonmarkingreturn" horiz-adv-x="333" 
 />
    <glyph glyph-name="space" unicode=" " horiz-adv-x="248" 
 />
    <glyph glyph-name="exclam" unicode="!" horiz-adv-x="205" 
d="M114 93q0 -3 -2 -3t0 -2q0 -1 -1 -2l-1 -2q0 1 -1 2q-1 0 -3 -3l1 -1q1 0 3 2q0 -1 -2 -5q-1 -3 -4 -1q-4 0 -4 -1q-2 -3 -4 -1v1h-1q-1 0 -2 2t-2 1q-1 0 -4 -6q-1 -2 -1 -5q0 -2 -2 -2q-2 1 0 3l1 1q0 3 -2 3t-2 -1l-3 -6q-1 0 -1 -1q-1 -1 -0.5 -3.5t-1.5 -2.5h-2
q-2 -1 -3 -3q-4 4 -3 6q0 2 -2 2q-7 2 -7 9q0 2 0.5 5t0.5 4q3 8 7.5 23t6.5 21q3 7 12 42q4 19 19 65q6 22 10 33q5 20 16 50q8 24 12 44q8 27 18 54q4 14 11 32q7 21 18 43q7 14 17 44q2 8 11 35q4 9 14 25q2 2 2 3q10 21 32 10q9 -4 16 -14q2 -4 4 -6q3 -3 3 -7
q-1 -4 0 -11.5t1 -9.5q0 -11 -4 -19q-5 -9 -14 -34q-2 -5 -4 -15q-1 -4 -8 -27q-3 -6 -8 -19t-8 -19q-1 -2 -3 -8t-3 -8q-4 -14 -12 -28q-6 -10 -9 -24q-6 -18 -8 -27q-3 -8 -7 -26q-1 -4 -5 -12q-10 -24 -18 -51q-4 -15 -10 -25q-5 -9 -7 -23q-1 -2 -2.5 -6t-1.5 -6
q-1 -4 -3 -10t-3 -10q-1 -2 -2.5 -6t-1.5 -5q-1 -3 -7 -13t-8 -16q-1 -1 -3 -3.5t-3 -4.5q-7 -8 -10 -20h-2q-2 2 -2 0q0 -3 2 -1zM78 5q5 -6 12 -4q2 -3 -1 -6l-1 -4q1 -1 -1 -1q-3 0 -4 -3q-2 -2 1 -3h3q-1 0 -1 -2l-1 -2q-3 0 -3 -3l-4 -4v-2q1 -2 -1 -2q-1 0 -2 -2
l-1 -2q-1 -1 -3 -5q-3 -2 -4 -1q-2 1 -6 1t-2 -4l1 -2q-2 -2 -3 0q-1 0 -3.5 -0.5t-3.5 1.5h-1q0 -1 -2 -1q-8 4 -12 5q-4 0 -6 4q-2 9 -2 11q2 20 7 25q2 3 14 10q1 1 3.5 0t3.5 -1q2 0 4.5 0.5t3.5 0.5q10 0 14 -4h1zM97 67l-2 1l-1 1q4 -1 8 1q3 -1 3 -2l-3 -3h-2l-2 1z
M90 59q-1 2 1 3h2q0 -3 -3 -3zM84 64q1 1 1 -1h-1h-1zM73 57q1 0 1 1v-1l1 -2h-1q-1 0 -1 2z" />
    <glyph glyph-name="quotedbl" unicode="&#x22;" horiz-adv-x="99" 
d="M-5 476l3 24q12 40 16 52q1 3 3.5 9.5t3.5 9.5q5 13 18 16q2 0 7.5 1.5t8.5 1.5t4 -1q11 -8 15 -16q2 -3 0 -7q-1 -6 -4 -16.5t-3 -12.5q-1 -2 -1 -5.5t-1 -5.5q-1 -3 -11 -29q-3 -6 -7 -18q-12 -28 -22 -38q-2 -2 -4 -1t-7.5 2.5t-8.5 4.5q-6 6 -6 9q0 6 -3 11
q-1 1 -1 9zM80 473q0 7 2 19q8 28 23 62q5 11 15 22q8 8 17 8q9 -1 16 -10q7 -12 7 -20q0 -10 1 -14q2 -10 -7 -25q-6 -10 -11 -15q-1 -2 -4 -10q-6 -9 -9 -18v-1q-3 -3 -6 -10.5t-6 -10.5h-1q-2 -7 -4 -7q-2 -1 -5.5 0t-4.5 1q-10 1 -19 12q-6 6 -4 17z" />
    <glyph glyph-name="numbersign" unicode="#" horiz-adv-x="407" 
d="M426 360q2 -2 5 -2l3 -1q0 -1 -1 -1q-3 0 -18 -5q-5 -3 -27 -5q-4 0 -11 -0.5t-12.5 -1t-10.5 -1.5q-2 0 -22 -3q-6 0 -9 -7q-3 -10 -13 -30q-1 -2 -2 -6.5t-2 -6.5q-8 -17 -13 -41v-3q1 -1 9 -1q6 1 16.5 1.5t14.5 0.5q37 2 56 1q28 -3 32 -4q5 -1 7 -9q1 -4 -4 -8
l-3 -3q-1 -4 -7 -4q-4 1 -8 -3q-7 -7 -17 -7q-18 -2 -28 -3q-1 -1 -2.5 -1t-2.5 -1q-10 -6 -27 -4q-1 0 -43 -6q-1 -1 -3 -1q-12 -1 -13 -13l-1 -1q-1 0 -1 2v1q-1 0 -3 -2q-1 -2 -2 -5.5t-1 -5.5q-12 -55 -14 -72q-1 -12 -5 -36q0 -3 -2 -9.5t-2 -8.5q-2 -5 -5 -3
q-1 1 -2 0.5t-1 -1.5q-1 -2 -3 -2.5t-3 0.5q-2 0 -7 0.5t-7 1.5q-6 2 -6 11q-2 7 -4 8q-4 4 -4 12q2 39 8 66q8 32 11 48q1 4 0.5 5t-4.5 0q-16 0 -20 -1h-5h-33h-2q-8 0 -10.5 -2t-3.5 -10q-2 -14 -4 -20q-5 -16 -10 -18q-1 -1 -2 -3l-1 -1q-2 -7 -6 -8q-1 1 -1 2l-1 2
q-4 -2 -4 -5q-1 -3 -5 -13.5t-5 -16.5q-1 -5 -7 -9t-10 3q-1 2 -1 12q0 8 -3 11q-4 5 -2 14q3 16 9 46q1 3 1 8q-21 -2 -54 5q-4 1 -11.5 2t-11.5 2q-25 7 -30 14q-1 2 -5 5t-6 6q0 1 -1 2.5t-1 2.5q0 4 0.5 6.5t3.5 4.5t4.5 2t8.5 2h14q16 0 25 2q31 4 69 4q5 0 5.5 0.5
t2.5 6.5q6 26 13 65q0 1 -5 1q-25 -3 -26 -3q-16 -2 -28 5q-6 4 -11 4q-9 -1 -15 8q-2 2 -3 2q-4 -1 -9.5 3.5t-8.5 4.5q-2 0 -2 2q1 2 -1.5 3t-2.5 2q-1 1 -9 7q-5 2 -2 6q1 1 -0.5 3t-1.5 3q-3 9 5 12q2 2 5 2l72 6q2 0 24.5 1.5t33.5 1.5q4 0 6 5q3 14 9 40.5t9 39.5
q2 7 5.5 21.5t4.5 21.5q1 5 2.5 14t2.5 14q2 11 10 18q4 2 5 2q2 -1 5.5 -1.5t4.5 -0.5q1 -1 6.5 -2.5t7.5 -4.5q9 -10 11 -12q2 -4 5.5 -11.5t5.5 -11.5q7 -16 -2 -36q-1 -4 -5.5 -12t-6.5 -13q-1 -3 -7 -19t-8 -25q0 -1 -3 -10q-1 -2 -2 -4.5t-1 -3.5q-2 -7 1 -7h5
q12 2 36 4q6 0 18 1t18 1q4 0 5 3q4 11 12.5 33.5t12.5 33.5q2 6 11 29q3 9 15 51q4 17 11 22q5 3 9 -1t7 -2q4 1 4 -5q-1 -2 4 -9q5 -8 7 -19q1 -4 2.5 -11t2.5 -11q3 -14 -4 -34q-6 -17 -9 -36q-6 -28 -12 -40q-2 -5 -1 -5.5t6 -0.5h59q20 2 31 2q9 0 17 -3q9 0 3 -5
q3 -4 -1 -5q-4 -2 1 -4h3q3 0 4 -2q0 -2 -3 -2q-1 0 -2.5 -1t-2.5 -1h-3q-9 -7 -17 -9q-3 0 -8 -2t-8 -1zM256 340q-3 -1 -14 -1.5t-16 -4.5q-3 0 -24 -5q-2 -1 -4.5 -1.5t-5.5 -1t-5 -0.5q-8 0 -10 -6q-1 -3 -4 -3q-4 -1 -4 -7q0 -1 1.5 -1t1.5 -1l-3 -3q-2 -4 -2 -5
q-8 -32 -12 -49v-5q-1 -3 3 -3q1 0 3.5 0.5t3.5 0.5q7 0 27.5 1t31.5 0q6 0 7 6q4 16 12 46q8 28 13 43z" />
    <glyph glyph-name="dollar" unicode="$" horiz-adv-x="293" 
d="M58 100q2 11 17 72q3 11 9 35q1 5 2.5 15t2.5 15q0 8 -7 12q-20 14 -29 23q-12 10 -18 14q-16 13 -25 32q-2 4 -4 5q-3 2 -5 10t-4 24q-2 15 7 36q4 10 15 24q2 2 4.5 6t3.5 6q4 6 13 15l11 11q18 19 58 36q12 5 23 10q4 2 5 5q5 19 16 56.5t15 56.5q2 6 4.5 18t3.5 17
q2 8 5.5 23.5t5.5 23.5q1 6 3.5 16.5t3.5 16.5q1 3 5 12q6 6 15 2q4 -2 6 -4q4 -2 4 -5q2 -3 5 -5q17 -10 27 -28q9 -16 9 -45q0 -14 -10 -36q-1 -1 -2 -4t-1 -4q-1 -8 -7 -22q-1 -2 -3 -8q-3 -19 -15 -57q-2 -4 -2 -8q-1 -4 2 -4q4 0 19 -5q8 -2 14 -9l4 -4q6 -4 24 -25
q2 -2 6.5 -9t7.5 -10q1 -1 1 -2q-2 -4 0 -12q0 -2 -2.5 -5t-1.5 -5q-2 0 -3 -1q-1 0 -2 1.5t-3 2.5q0 -1 2 -6t1 -8q-1 1 -2.5 5t-4.5 5v-1q0 -4 -1 -4l-3 3q-2 2 -4 0q-3 -3 -3 0q-7 7 -15 7q-1 0 -2.5 1t-2.5 2q-10 9 -23 13q-1 0 -4 2t-5 2q-15 6 -18 -10l-2.5 -7.5
t-2.5 -8.5t-1 -8q0 -1 -3 -7q-2 -6 -2 -9q-1 -3 -3.5 -11t-3.5 -13q-1 -4 -4 -8q-1 -2 -9 -26l-9 -48q-1 -2 2 -4q39 -16 59 -37q15 -15 20 -25q2 -4 3 -7q1 -5 3.5 -14.5t3.5 -13.5q2 -6 2 -17q0 -16 1 -24v-3q-7 -33 -11 -40q-13 -23 -31 -37q-6 -3 -16 -11q-6 -6 -12 -6
h-1q-5 -4 -17.5 -9t-13.5 -6q-11 -5 -26 -7q-4 0 -13 -0.5t-13 -0.5q-4 -1 -4 -5q-1 -6 -4 -16.5t-4 -15.5q-2 -6 -6 -7q-2 -1 -4 -7q-1 -2 -1 -6q-2 -6 -5 -6q-2 0 -4 -4q0 -4 -3 -7v3t-1 3q-2 0 -2 -3q0 -5 -2 -5h-2t-3 -7q0 -4 -2 -4q-3 0 -5 3q-5 10 -5 18q-1 4 -1 11
q-4 23 -1 39q1 2 1 7v8q2 3 -3 5t-18 10q-9 4 -10 8q-2 2 -4 2q-11 4 -24 21q-16 20 -20 44q-1 6 0 12q1 3 1 9v9q2 11 13 23q5 7 11 8h6q1 -1 8.5 -5.5t9.5 -8.5q2 -2 4 -2q7 -1 6 -7q-1 -4 2 -7q6 -5 3 -11q-1 -7 0 -13q3 -10 3 -21q0 -4 4 -7q8 -4 18 -6zM122 112
q3 0 9 2t7 2q14 2 29 17q11 12 18 27q7 11 7 27q-1 11 -10 20q-7 7 -31 11q-3 2 -3 -2q-3 -15 -11 -45q-2 -10 -4 -14q-2 -3 -4 -13q-1 -12 -6 -24q-2 -6 -1 -8zM100 316q2 11 5.5 35t5.5 37h-3l-2 -2q-19 -12 -24 -37q-2 -12 4 -21q1 -2 14 -12z" />
    <glyph glyph-name="percent" unicode="%" horiz-adv-x="470" 
d="M118 66q0 -3 -2 -7t-2 -5q-10 -21 -13 -27q-2 -4 -6 -14.5t-7 -15.5v-5q0 -3 -2.5 -9t-2.5 -9q-4 -3 -7 -10.5t-6 -10.5q1 6 4 16t3 12q-3 -3 -5 -11q-1 -1 -2 -5.5t-3 -6.5q-1 -2 -2.5 -6t-3.5 -6q-1 1 -0.5 3.5t0.5 3.5q-1 -1 -4 -3l-3 -3q0 1 -0.5 3t-1.5 3
q-4 -4 -5 -7q0 -4 -5 -4v1l-1 1q-4 1 -3 6q1 1 1 5q-1 1 -2 0l-1 -1q0 2 5 20q2 6 5.5 17t5.5 16q1 2 2.5 6.5t2.5 6.5q4 8 9 22.5t7 20.5q10 21 17 40l18 51q9 21 29 63q5 10 15.5 30t15.5 30q5 8 14 23.5t14 23.5q18 28 27 43q10 17 32 51q4 6 11.5 18t11.5 18q3 6 7 12
t9 13t8 11q27 37 52 70q9 9 13 14l12 6q2 0 2 -2q1 -4 5 -5.5t5 -2.5l6 3q1 -3 2 -7t2 -7q1 -7 8 -4q-5 -10 4 -17q4 -4 4 -9q-1 -4 -1 -11t-1 -11q0 -5 -9 -21q-4 -8 -23 -29q-16 -18 -26 -36t-22 -30q-15 -19 -28 -27q-7 -6 -17 -22q-6 -9 -18.5 -27t-19.5 -27
q-1 -1 -19 -31q-3 -4 -16 -28q-4 -4 -3 -6q2 -4 -2 -6t-19 -20q-4 -5 -10 -15.5t-8 -12.5q0 -1 2 -1t2 -2q-5 1 -9 -4q-6 -10 -9 -23q-3 -6 -4 -7q-4 -2 -6 -12v-1q-14 -24 -16 -30q0 -2 -5 -7q3 5 5 13q-3 0 -4 -4q-2 -8 -6 -10q-6 -6 -6 -10q-4 -2 -1 -5zM45 -48q3 -2 3 2
q0 2 -1 2q-3 0 -3 -3q0 -1 1 -1zM378 574q-1 0 -1 -1q0 -2 1 -3h1v3zM44 -53l-1 1l-1 -1q0 -1 1 -1q1 -1 1 1zM-3 426q0 38 14 74q13 35 31 63q8 12 20 24q9 11 21 11t20 5q6 3 13 1q3 0 8 -0.5t8 -1.5q22 -3 41 -16q2 -2 10.5 -10t13.5 -12q2 -1 7 -17q7 -40 8 -48
q2 -27 -4 -39v-2q-2 -3 -6 -8t-7.5 -9t-7.5 -7q-9 -6 -23 -22q-17 -17 -21 -20q-9 -6 -10 -6q-2 0 -8 -4q-19 -12 -25 -13q-4 -1 -12 1q-6 1 -9 -2q-7 -7 -30 -13q-3 -1 -20 4q-3 1 -10 10q-3 6 -6 9q-9 9 -15 35q-1 5 -1 13zM70 413l8 8q4 5 13 15t13 15l13 13q8 5 11 4
t5 3q1 2 2 5t2 7t2 6q3 13 -2 35q-2 11 -10 3l-12 -9q-14 -8 -18 -15q-1 -3 -4 -7.5t-5 -6.5q-4 -6 -5 -10q-9 -22 -12 -55q-2 -6 -1 -11zM241 62q2 32 7 43q6 14 11 20q21 31 54 51q18 9 33 5h7q3 1 9 1q6 1 14 -2q3 -2 9 -4q3 0 10 -7q19 -16 20 -17q13 -9 16 -28
q6 -26 -7 -50v-2l-1 -2q0 -6 -7 -20q-3 -5 -24 -37q-1 -1 -4.5 -9t-7.5 -11q-1 -1 1 -3q2 -5 -2 -6q-5 -1 -12 -5t-9 -5q-15 -6 -31 -6q-14 0 -23 4q-7 4 -15 4q-3 0 -8 3q-8 8 -12 11q-16 18 -22 39q-7 20 -6 33zM308 51q0 -18 3 -27q3 -4 8 -4q3 0 7 2q8 5 14 12
q12 15 32 49q15 22 13 49q0 7 -7 9q-3 1 -8.5 0t-7.5 -1t-2 -2q-1 -2 -2.5 -4t-3.5 -4.5t-3 -3.5q-2 -2 -1 -5q2 -4 -2 -6q-5 -2 -6 -4l-10 -10q-15 -17 -18 -23q-7 -12 -6 -18v-9zM151 119v1q2 0 2 -4h-2q-1 2 0 3zM127 73v1l1 1v2l1 -2q0 -2 -2 -2zM119 71q4 -3 -1 -5
q0 1 1 2.5t0 2.5z" />
    <glyph glyph-name="ampersand" unicode="&#x26;" horiz-adv-x="380" 
d="M351 211q1 0 3 2q8 16 11 24q2 7 5 10q1 -4 -1 -8q-3 -5 -7 -17q-2 -7 -8 -19q-10 -17 -11 -23q-1 0 -1 -1t-1 -2q-6 -7 -14.5 -21t-9.5 -16q-1 -1 -2 -2.5t-1 -2.5l-2 -1q-3 2 -6 -3l-15 -27q-3 -6 -1 -7q0 -1 -2 -5q-4 -8 0 -13l3 -9q1 -5 18 -35q13 -20 17 -33
q1 -4 5 -10q7 -11 6 -19q0 -4 3 -5l2 -2h-1l-2 -2l1 -1v-2q-2 -1 -5 1q-4 4 -6 -2q-3 -6 -5 -6l-1 -1q-1 -2 -0.5 -5.5t0.5 -4.5q-1 -1 1 -3l2 -2q-4 0 -6 -1q-1 -1 -3 -1q-7 3 -21 5q-12 3 -20 13q-22 25 -45 65q-1 1 -2.5 4.5t-3.5 5.5q-3 -1 -7 -7q0 -1 -3 -4.5t-4 -5.5
q-10 -11 -22 -14q-18 -8 -28 -11q-2 -1 -4.5 -3t-3.5 -3q-9 -4 -27 -6q-4 -1 -13 -2t-14 -2q-23 -2 -34 1q-24 4 -34 10q-12 8 -17 13q-3 3 -8 7t-7 7q-7 8 -13 19q-10 17 -15 30q-5 10 -5 27q-1 21 4 47q4 18 14 40q14 30 38 61q4 5 12 15.5t12 15.5q8 9 40 39q28 24 43 36
q3 3 2 7q-2 14 -2 20q0 5 -2.5 23.5t-1.5 28.5v21v6v12v13.5v11.5t2 10.5t2 9.5q1 1 10 29q3 9 14 22q3 3 6 3q1 0 6 5q5 11 15 17q11 8 23 11q11 3 22 -2q3 -1 7.5 -2t6.5 -1q21 -6 30 -15q9 -6 10 -7q11 -10 13 -27q2 -16 2 -24q0 -11 -2 -16q-3 -11 -3 -23q0 -6 -2 -9
t-5 -10t-5 -10q-18 -27 -24 -35q-3 -4 -11 -14l-11 -11q-10 -12 -12 -14t-4 -10q-6 -23 2 -46q4 -14 10 -42q9 -41 17 -64q2 -8 6.5 -21.5l5.5 -16.5q2 -5 4.5 -15l3.5 -14q4 -12 7 -19q2 4 7 11t6 8q8 11 20 33q8 12 20 38q3 7 9 20.5t8 18.5t6.5 14.5t7.5 14.5l1 2
q0 1 1 1q4 3 4 7q0 1 1 3q3 3 5 0q1 -1 1 -4l1 -2q3 -2 3 -10q0 -13 -6 -20q-3 -4 -3 -10q-2 -4 -1 -5q0 -4 -2 -4q-1 0 -1.5 -1t0.5 -2q0 -4 -4 -8l-2.5 -5l-2.5 -5q-1 -3 1 -5q-3 0 -3 -2q-2 -2 2 -2q1 2 1 4zM344 195q-2 -1 -7 -12q-8 -14 -10 -16q-4 -4 -4 -8
q-3 -2 -8 -14q6 11 7 14q2 1 10 11q8 13 12 25l2 3q1 2 -2 3v-6zM151 245q-6 -4 -7 -5q-10 -8 -16 -14q-14 -14 -17 -19q-1 -2 -3.5 -5t-4.5 -5.5t-4 -4.5q-6 -7 -11 -16l-18 -27q-1 -3 -4.5 -9t-5.5 -9q-12 -30 -14 -45q-3 -13 -1 -29l3 -9q4 -8 13 -15q14 -10 28 -9h19
q8 0 9 3q0 2 2 0q4 -1 17 1q16 3 28 9q24 10 42 22q5 4 3 9q-14 29 -25 64q-7 24 -9 28q-6 16 -17 55q-1 5 -3.5 15t-3.5 15zM204 401q18 15 19 17q3 6 13 27q3 7 15 52q6 20 2 40q0 2 -2 6q-3 7 -11 7q-5 -2 -7 0q-4 4 -9 0l-12 -6l-3 -3q-9 -13 -8 -23v-20q1 -4 0 -11.5
t-1 -9.5q-4 -30 4 -50q2 -3 0 -6q-3 -3 -2 -4q2 -4 1 -8q-1 -2 1 -8zM346 208l1 -3l2 -1q0 1 -3 4z" />
    <glyph glyph-name="quotesingle" unicode="'" horiz-adv-x="84" 
d="M-7 387q0 8 4 24q7 29 15 52q1 3 3.5 9.5t3.5 9.5q7 14 18 16q1 0 7 1.5t9 1.5t5 -1q11 -9 14 -16q1 -2 1 -7q-1 -5 -4 -14.5t-4 -14.5q0 -3 -2 -11q-1 -3 -11 -29q-3 -6 -7 -18q-9 -25 -22 -38q-2 -2 -3 -1q-2 1 -8 3t-9 4q-5 5 -6 9q0 7 -3 11q-1 2 -1 9z" />
    <glyph glyph-name="parenleft" unicode="(" horiz-adv-x="185" 
d="M117 -119q0 -1 1.5 -2t1.5 -3q-5 0 -11 6q-3 2 -8.5 6t-8.5 6l-4 4q-10 11 -15 16q-7 7 -10 17q-1 3 -8 17q-24 36 -37 87q-6 19 -14 27q-2 2 -7 12q-8 18 -8 29q-1 5 -2 15.5t-1 16.5q-2 10 1 58q1 10 1 31q0 26 10 78q1 3 4 18t5 23q10 38 22 65q11 32 14 41
q14 39 16 43q3 5 10 25q7 18 27 50q25 37 57 65q17 15 30 33q7 7 12 10q6 5 12 1q2 -2 3 -4q3 -6 1 -25q-1 -9 -7 -23q0 -1 -5 -8q-15 -16 -24 -38q-18 -40 -24 -51q-3 -5 -9 -16t-9 -16q-9 -15 -15 -30q-5 -12 -13 -38q-1 -2 -9 -28q-6 -14 -8 -21q-15 -54 -17 -67
q-4 -14 -6 -20q-4 -25 -5 -35l-3 -12q-4 -14 -4 -21l-1 -19q0 -19 1 -19q3 -27 3 -55q0 -5 1 -14.5t1 -14.5q1 -4 3 -14q0 -7 -1 -9v-8q3 -8 6 -23t5 -20q2 -8 8 -22q7 -18 13 -31q2 -4 14 -26q5 -8 13 -26q3 -10 8 -15q2 -2 1 -3q0 -3 2 -5l2 -2q4 -1 4 -7l-2 -2t-1.5 -1
t-1.5 -1h-1q-2 -1 0 -3q2 0 0 -2q-1 -1 -3 -1q-1 0 -3 1t-3 1q-3 1 -4 -1z" />
    <glyph glyph-name="parenright" unicode=")" horiz-adv-x="261" 
d="M233 452q-1 -2 2 -13q1 -3 1.5 -9.5t1.5 -9.5q4 -25 5 -35q0 -29 -1 -44v-5q2 -19 -1 -35q-4 -46 -7 -69q-1 -11 -3 -30.5t-4 -36t-5 -30.5q-5 -24 -7 -32t-2 -12q-1 -5 -5 -20q-14 -42 -21 -54q-2 -3 -4.5 -8.5t-5 -10t-5.5 -8.5q-2 -3 -5.5 -8.5t-4.5 -7.5
q-20 -28 -30 -43q-12 -16 -22 -21l-15 -12q-4 -4 -6 -3q-1 1 -3 -2q-8 -7 -10 -8q-2 0 -2 -2q-8 -8 -10 -8l-2 -1q-1 -2 -2 -3q-4 -4 -6 -2q0 1 -1 1t-1 -1l-6 -3h-4q-5 5 -4 7t1.5 5t0.5 5q11 27 28 48q2 3 12 22q10 20 28 47q18 30 26 45q9 22 15 43q9 32 15 68q6 30 8 72
q0 10 1 29.5t1 28.5q0 10 0.5 29t0.5 29q0 4 -0.5 11t-0.5 10v40q0 5 -0.5 10t-1.5 11.5t-1 10.5q-1 8 -2.5 22.5t-1.5 21.5q-3 29 -9 57q-1 5 -3 10.5t-5 12t-4 10.5q-11 26 -17 47q-1 1 -4 7t-5 9q-8 14 -10 16q-3 5 -8.5 14t-6.5 11q-5 5 1 10q8 11 20 4q10 -6 14 -10
q3 -3 5 -7q5 -10 20 -21q5 -3 8 -7q6 -10 9 -14q3 -5 5 -5q2 -1 5 -6l12 -27q11 -28 16 -46q11 -46 12 -49q6 -23 7 -26t4 -19z" />
    <glyph glyph-name="asterisk" unicode="*" horiz-adv-x="249" 
d="M105 395q2 2 2 3q7 21 7 28q0 2 1 5.5t1 5.5t1 3.5t1.5 2.5t-0.5 2q-1 3 -1 7q0 3 3 3.5t3 1.5q1 1 2 0t1 -3l1 -1q1 -1 1 -2q2 0 2 2q1 3 -3 7h-2t0 1q2 1 2 5t1 5l3 -3q1 -8 9 -5q3 1 6 0q2 -1 2 -4t1 -3q5 0 5 -7q-1 -16 -3 -46v-13q3 1 12 8q15 14 34 21q9 4 10 7
l1 1q1 1 4 0t5 0q1 2 4 1t3 -4q2 0 4.5 -2.5t4.5 -2.5q14 0 9 -14q-9 -14 -17 -21q-9 -7 -43 -32q-6 -5 -18 -13l6 -6q6 -4 16.5 -12t14.5 -11q5 -5 6 -8q4 -6 8 -10q2 -3 5 -9t4 -7q3 -4 1 -10q-4 -10 -14 -7q-14 6 -20 9q-6 4 -9 3q-1 0 -4 3q-24 16 -38 21h-2
q-1 -5 -3.5 -13.5t-3.5 -13.5q-10 -31 -12 -51q-1 -7 -8 -12q-6 -7 -14 1q-2 1 -7 9q-8 21 -10 29q-2 14 3 30q0 1 0.5 3.5t1 4.5t1.5 4q-2 2 -5 0q-13 -9 -41 -25q-28 -17 -30 -19q-1 -1 -4 -3q-5 -1 -5 4q1 5 -4 8t-3 6q0 1 2 6.5t6 7.5q0 3 1 5t2.5 4.5t2.5 4.5l6 6
q12 8 29 22q4 4 9 8t11.5 8.5t9.5 7.5q2 0 4 2q5 5 0 8q-3 2 -6 7t-5 7l-26 26q-3 2 -13 15q-3 0 -1 4q1 0 4 -2t5 -2q1 3 -1.5 6t-2.5 5q1 1 7 -2q0 -3 2 -1q2 1 2 3q0 1 -1.5 5t-3.5 6l5 1q0 -3 6 -1l6 1q1 0 3 2q3 3 7 0q4 -4 6 -4q4 1 6.5 -1t4.5 -5.5t4 -4.5l8.5 -8.5
t11.5 -8.5z" />
    <glyph glyph-name="plus" unicode="+" horiz-adv-x="290" 
d="M132 302q-2 1 -6 1q-18 0 -54 2q-10 1 -57 1q-13 0 -20 6l-1 1v2q0 1 2 1h3q-1 4 0 5t8 1q1 1 -1 3l-1 2q0 2 -2 6q6 0 7 3q0 1 2 1q5 0 10.5 1t12 2.5t10.5 2.5q12 3 24 3q10 0 28 2q27 2 32 4q4 1 13 1q8 0 10 7l15 51l12 36q1 3 4 8t4 7q3 2 4 1q4 -1 6 1q3 3 5 -1
q2 -5 3 -5t2 3t3 4q0 -7 6 -9q1 0 1 -3q4 -7 6 -18v-4q-2 -4 -2 -12q1 -18 -9 -54q-2 -10 -4 -16h21h42q5 0 6 -3q0 -1 1 -2q0 -1 1.5 -1t1.5 -1q-1 -1 -2 -1t-2 -1q1 0 3 -2q4 -4 5 -7q1 -2 3.5 -5.5t3.5 -5.5q6 -11 -5 -17h-4q-10 1 -29 1h-20q-12 1 -38 -1q-4 -1 -5 -5
q-17 -46 -22 -58q-6 -15 -13 -37q-1 -2 -3.5 -5.5t-3.5 -5.5q0 -3 -4 -3q-16 0 -20 2q-10 6 -9 13q0 1 -1.5 4t-1.5 4q-4 5 -2 12q1 3 0 4t0 1q5 1 2 6q-1 4 1 8q2 5 4 15q2 14 12 35q2 6 2 9z" />
    <glyph glyph-name="comma" unicode="," horiz-adv-x="95" 
d="M54 34q-2 -20 -8 -34q-12 -26 -20 -47q-2 -7 -4 -9q-4 -5 -15 -7q-3 0 -5 2q-2 4 -7 3l-2 2q-12 16 -7 32q2 6 2 17q1 7 8 37q2 5 6 14.5t6 14.5q2 3 8 9t15 -1q2 -2 7.5 -5.5t7.5 -5.5q4 -4 5 -6z" />
    <glyph glyph-name="hyphen" unicode="-" horiz-adv-x="190" 
d="M4 228h2v1q1 1 1 2l-1 2q-1 -1 -2 0.5t-1 3.5q-1 1 -0.5 3t1.5 2h2q3 0 3 5q0 2 3 5q2 0 4.5 1t5 1.5t5.5 0.5q9 0 14 3q3 1 8 1q2 0 7 0.5t7 1.5q8 2 12 4q1 0 4.5 1t5.5 0h12q8 1 26 -1q16 -4 25 -3q1 0 2.5 -2t2.5 -2q3 -3 7 -5q5 -3 7 -2q-1 -2 -3 -3l-1 -1
q4 -4 7 -10q4 -7 0 -16q-3 -6 -8 -6q-8 -1 -26 1q-2 0 -6.5 -0.5t-6.5 -0.5h-25q-5 -1 -31 2q-3 0 -11 1t-13 1q-3 0 -4 3q0 1 -2 1q-12 0 -20 1q-1 0 -4.5 0.5t-5.5 0.5q-1 -1 -3 3z" />
    <glyph glyph-name="period" unicode="." horiz-adv-x="111" 
d="M33 -25q-1 0 -2 -2t-3 -1q-3 2 -1 6v3q-1 1 -1.5 -1t-1.5 -2q-8 7 -10 15q-5 14 -1 20q10 20 18 28q7 7 17 10q1 1 3 0l2 -1q3 -1 8.5 -4.5t8.5 -5.5q3 -3 3 -4q0 -2 2 -4q3 -2 5 -9q6 -8 -1 -26q-4 -10 -14 -13q-8 -2 -12 -7q-2 -3 -4 -1h-3q-2 -4 -5 -2h-1l-1 -1
q-4 -3 -6 2z" />
    <glyph glyph-name="slash" unicode="/" horiz-adv-x="256" 
d="M315 635q5 9 10 0q1 0 2 2.5t3 3.5q0 -2 -1 -4.5t0 -3.5q0 -5 1 -5t4 3q5 -10 5 -12q0 -4 1 -11.5t1 -10.5q0 -13 -4 -22q-12 -29 -29 -65l-51 -108q-14 -26 -26 -52q-4 -10 -15.5 -33.5t-16.5 -36.5q-2 -4 -7.5 -15.5t-8.5 -18.5q-4 -8 -11 -24t-8 -17q-3 -7 -8.5 -18
l-7.5 -15l-12.5 -25t-13.5 -26q-17 -36 -33 -61q-8 -16 -12 -23q-12 -24 -24 -40q-27 -41 -31 -46q-5 -7 -10 -9q-9 -4 -12 5q-5 10 -3 14q-2 9 7 26q3 7 10 19t10 19q1 4 4 10t3 7q1 2 9 19q3 8 11.5 23.5t11.5 23.5q3 5 12 31q2 4 11 23q4 6 15 34q1 3 12 29q3 7 8 21.5
t7 21.5q0 2 8 19q1 3 4 11t5 13q18 43 23 53l9 18t10 22q11 24 35 72q7 15 17 32q2 3 3.5 6t3 7t2.5 6q2 3 3.5 6.5t4 8t3.5 7.5l26 52q5 13 17 28q0 1 1 1l1 2q0 3 1 4.5t4 0.5q4 5 6 -2z" />
    <glyph glyph-name="zero" unicode="0" horiz-adv-x="316" 
d="M288 235q-5 -10 -19 -45q-1 -3 -4.5 -10l-5.5 -11q-4 -12 -7 -18v-2l1 -1q2 -1 0 -3l-2 -3q-2 -4 -4 -5q-3 -1 -5 -6q-21 -38 -24 -43q-16 -30 -24 -44q-14 -24 -23 -34q-10 -10 -25 -20q-2 -1 -4.5 -3t-3.5 -3q-2 -2 -7 -4.5t-6 -3.5q-4 -2 -4 -4q-2 -4 -3 -5
q-2 -1 -5 -1.5t-5 -0.5q-3 -1 -15 -3.5t-19 -3.5q-22 -2 -26 -1q-3 1 -7 3q-22 13 -35 32q-12 16 -17 47q-1 9 -3 29q-1 32 10 80q2 8 6.5 25t5.5 25q2 10 5 21.5t7 25.5t6 22q3 11 17 50q19 51 38 87q20 34 31 49q2 3 6.5 10t6.5 11q39 56 57 75q24 26 42 38q9 6 17 10
q12 5 21 -9q7 -15 5 -26v-6q1 -3 4 -3q16 5 39 -9q6 -4 13 -14q1 -2 4.5 -8t5.5 -10q4 -10 5 -16l6 -33q5 -35 1 -63q-5 -32 -19 -67q-4 -11 -11.5 -30t-9.5 -23q-2 -3 -4.5 -13t-5.5 -14q0 -9 -6 -13q-1 -1 -1 -5zM302 465q-1 4 -1.5 11t-0.5 11q-1 4 -5 8q-6 2 -10 2
q-23 -4 -33 -11q-8 -5 -24 -17q-18 -13 -28 -25q-4 -6 -9 -9q-7 -5 -12 -12q-1 -1 -2.5 -4t-2.5 -4l-1 -1q-1 -2 -2 -2q-3 1 -8 -6q-1 -1 -2.5 -3.5t-1.5 -3.5q-12 -17 -27 -50q-3 -7 -8.5 -21t-8.5 -21q-8 -24 -21 -49q-3 -7 -10 -31q-4 -15 -13 -58q-1 -7 -5 -21t-5 -21
q-6 -24 -8 -58q0 -12 1 -18q0 -20 5 -34q2 -13 13 -10q2 1 7 2t7 1q7 0 14 5l9 6q11 6 17 15q18 22 42 67q1 2 4.5 8.5t5.5 10.5q3 8 7 16.5t9 18.5l8 16q3 7 12.5 29t14.5 35q3 7 9 23.5t10 24.5q1 3 28 68q14 35 20 60q5 26 6 52z" />
    <glyph glyph-name="one" unicode="1" horiz-adv-x="155" 
d="M-8 -6q-1 0 -4 -3q-9 9 -8 18q1 8 -5 14q-4 4 -3 10q2 10 3 14q5 22 17 54q6 18 28 101q12 40 24 73q1 4 9 25.5t12 33.5q1 4 3.5 10.5t3.5 9.5l12 30l15 36q2 8 1 11q-4 -2 -9.5 -7.5t-6.5 -5.5q-15 -12 -16 -13q-4 -4 -22 -8q-9 -2 -32 12q-2 0 -2 3q-6 10 5 12
q11 3 28 16q9 7 48 44q11 9 31 29q6 8 10 11q3 2 12 13l5 5q3 3 18 26q2 5 8 13q6 10 19 7q8 -2 13 -4q1 -1 7 -4.5t8 -6.5q6 -10 8 -16q6 -12 -1 -27q-5 -16 -6 -17q-5 -10 -22 -60q-4 -14 -12 -28q-2 -3 -4 -8.5t-3 -8.5q-3 -5 -7 -17q-2 -6 -4 -8q-6 -11 -10 -23
q-1 -3 -5.5 -14t-6.5 -17q-8 -22 -11 -34q-3 -14 -15 -42q-2 -6 -10 -22.5t-12 -26.5q-6 -12 -9 -19q-1 -2 -4.5 -5.5t-4.5 -6.5q-4 -5 -5 -11q-12 -28 -23 -47q-4 -8 -5 -13q-1 -3 1 -2q1 0 1 -1t-1 -1q0 -3 -2 -5q-1 -1 -7 -12q0 -4 2 -3v-2q-1 -1 -2 -6t-3 -7q0 -5 -4 -2
l-1 -1q-5 -12 -5 -13q-1 -2 -3 -9.5t-5 -11.5q-1 -1 -1 -3q-1 -1 -1 -2q0 -3 -2.5 -9t-3.5 -10q0 -7 -3 -13q-2 -4 -6 -2q-3 0 -4 1q-1 0 -2 -1q-4 -4 -7 0q-1 3 -1 7z" />
    <glyph glyph-name="two" unicode="2" horiz-adv-x="316" 
d="M88 41q2 1 5.5 3t5.5 2q16 7 50 15q26 7 34 7q20 0 29 1q6 0 35 -2q6 -2 9 -4q6 -2 4 -7q0 -1 1 -3t0 -3h-7q-3 0 -3 -1q-1 -3 -6 -3t-30 -5q-25 -8 -29 -8q-2 -1 -7 -3t-8 -3q-43 -14 -46 -16q-5 1 -12 -2.5t-9 -3.5t-6 -2l-9 -6t-9 -7q-2 -2 -4 -2t-3 -1
q-2 -1 -5.5 -3.5t-5.5 -3.5l-2.5 -2.5l-2.5 -2.5t-2 -1h-9l-1 -1q-1 -1 -2 -1l-6 -6q-2 -2 -4 -1q-1 1 0 2t1 2v1q-2 -2 -9 1q-9 4 -11 10q-3 4 -8 6q-8 3 -16 9q-6 3 -2 7q1 0 1 2q-1 1 -4 1q-2 2 0 3q-2 6 6 8q2 2 2 5q0 4 2 8q18 43 42 91q9 17 25.5 51t25.5 51l30 60
q5 10 17.5 31t17.5 32q2 3 6.5 10.5t7.5 10.5q2 4 6 13t6 14q3 6 9 17t9 17l15 30l24 54q4 7 4 15q0 3 -4 3q-6 0 -12 -3q-5 -2 -14.5 -6.5t-13.5 -5.5q-21 -9 -45 -40q-23 -31 -26 -36q-1 -2 -5 -4q-6 -4 -10 -8q-6 -7 -17 -2q-2 2 -6 2q-13 0 -11 12q4 19 20 41
q5 6 12.5 16.5t11.5 15.5q20 26 50 41l18 9t22 10q21 8 40 8t23 -1q12 -3 23 -12q6 -6 9 -14q1 -2 4 -6l3 -4q2 -3 10 -21q4 -9 2 -18q-3 -16 -11 -36q-16 -34 -24 -52q-9 -21 -24 -50q-4 -5 -5 -11q0 -1 -2 -5q-6 -6 -8 -14q-4 -11 -20 -38l-6 -12t-5 -11q-14 -28 -22 -43
q-6 -11 -17.5 -33t-15.5 -29q-10 -21 -12 -23l-12 -21l-15 -21q-5 -6 -13 -20q-16 -28 -24 -44z" />
    <glyph glyph-name="three" unicode="3" horiz-adv-x="357" 
d="M233 389q1 -1 9 -1q28 -2 46 -20q2 -2 7.5 -6.5t7.5 -7.5q13 -15 17 -24q1 -4 5 -11.5t6 -11.5q9 -32 9 -35q1 -14 -2 -32v-2q-4 -9 -4 -28q-1 -29 -15 -58l-15 -36q-13 -28 -25 -41q-4 -4 -10 -14q-13 -22 -25 -34t-19 -17q-1 -1 -7.5 -4.5t-9.5 -6.5q-6 -5 -7 -6
q-2 -1 -5 -5t-6 -5q-2 0 -13 -6q-2 -1 -6.5 -4.5t-6.5 -4.5q-13 -4 -17 -5q-2 0 -14.5 -3t-19.5 -3q-23 -2 -35 1q-4 0 -13 2t-14 2q-3 0 -3 -2q-2 -4 -8 -2q-21 10 -24 14q-1 1 -4 2.5t-4 2.5q-14 10 -19 33q-4 23 7 47q3 10 10 18q5 5 11 3q2 0 5.5 -1t5.5 -2q3 -1 2 -4
t2 -6q5 -3 4 -10q0 -1 -0.5 -5t-0.5 -5q0 -6 7 -13q1 -1 2.5 -3.5t2.5 -3.5q3 -8 15 -18q5 -5 15 -3q5 0 16 1.5t17 2.5q7 2 10 5q28 22 33 28q3 2 6.5 7.5t4.5 6.5q13 19 29 38q5 5 6 9q16 31 23 51q14 43 20 83q5 24 -1 46q-1 7 -9 15q-7 6 -21 6q-18 0 -28 1q-9 0 -16 -3
q-12 -3 -29 0q-8 2 -14 -2q-12 -6 -24 6q-9 11 -13 14q-2 1 -2 6q1 15 17 27q5 4 16.5 12.5t16.5 13.5q9 7 31 33q10 11 29 33.5t21 25.5q5 6 11 11q4 3 6.5 7t5 9t4.5 7q0 1 -1 1q-8 -2 -12 -5q-2 -2 -7 -4t-8 -4q-6 -3 -18 -11q-14 -8 -28 -12q-13 -4 -39 -8q-4 0 -12 2
q-20 5 -26 7q-22 7 -33 29q-5 17 -5 19q0 13 12 13h18q4 0 33 5q13 2 37 8l28 7q62 16 104 32q9 3 21 12q2 2 6 4q7 5 13 -2q2 -3 6 -11q9 -13 5 -35q-2 -11 -18 -50q-3 -6 -8.5 -16.5t-8.5 -15.5q-4 -7 -14 -21q-27 -31 -35 -38q-12 -10 -18 -17q-2 -2 -2 -4z" />
    <glyph glyph-name="four" unicode="4" 
d="M168 204q-13 -1 -36 -5q-6 -1 -18 -4.5t-14 -4.5q-31 -10 -36 -13q-9 -6 -25 -11q-6 -2 -25 0q-10 0 -21 6q-7 4 -12 11q-6 11 4 18q2 2 3 2q10 3 19 18q3 5 9.5 14.5t9.5 14.5q24 34 33 52q6 11 18 32t18 32t36 73q6 12 18 35t18 35q11 20 26 41q9 15 20 2q1 -2 11 -9
q14 -10 15 -24q1 -19 -4 -36q-1 -4 -3.5 -10.5t-4.5 -12t-4 -10.5q-6 -15 -12 -24q-2 -4 -8 -10q-8 -8 -18 -28q-4 -8 -8 -10q-3 -1 -5 -8q-6 -10 -10 -15q-15 -22 -31 -49q-10 -15 -13 -18l-17 -20q-3 -1 -13 -11q0 -1 -0.5 -1t-0.5 -1q2 -1 6 1q25 6 51 6h33q1 0 5 -0.5
t6 -0.5q7 0 9 5q2 4 6.5 15t7.5 17t7 19t5 16q3 7 20 41q3 6 9 17.5t9 17.5l30 60q14 30 22 45q10 21 30 61q9 19 13 32q3 11 15 8q15 -5 22 -16q1 -1 4 -11q4 -12 5 -18q4 -19 -4 -32q-9 -19 -11 -23q-1 -2 -3.5 -6t-3.5 -6q-7 -12 -12 -28l-10 -20q-2 -5 -7 -13.5
t-7 -11.5q-1 -2 -9.5 -21t-13.5 -28q-3 -7 -10 -20t-10 -19q-4 -7 -10 -21q-6 -12 -16 -36q-2 -4 -3 -8q3 1 8.5 2t8.5 1q10 2 32 4q5 1 17 -4q2 -1 1 -4t2 -6t-2 -3q-1 -1 -4 -2t-5 -2q1 -1 3 -1t3 -1q-6 0 -14 -6q-2 -2 2 -4q-2 -1 -6.5 -2t-6.5 -2q-3 -3 -2 -5
q3 -3 -2 -3q-7 -5 -15 -6q-6 -1 -11 -5l-15 -3q-8 -2 -13 -2q-9 0 -13 -12q0 -2 -5 -11q-2 -5 -5.5 -14t-5.5 -14l-18 -39q-16 -32 -23 -48q-3 -3 -3 -8q-2 -5 -7 -13.5t-7 -11.5q-1 -2 -2.5 -4t-2.5 -4q-2 -6 -7.5 -17.5t-7.5 -16.5q-10 -20 -14 -30q-1 -1 -2 -4t-2.5 -5.5
t-2.5 -4.5q-1 -1 -1 -2q-2 -4 -6 -1l-2 -2q-2 -3 -4 -7q-3 -7 -9 -8q-1 0 -5 -2t-7 -2q-13 0 -11 13l6 18q3 8 8 22t7 22q12 45 34 81q5 11 7 24q2 12 10 34q5 15 17 45q0 2 -1 3z" />
    <glyph glyph-name="five" unicode="5" horiz-adv-x="255" 
d="M316 553q5 -3 6 -5q2 -8 -6 -15q-12 -8 -17 -12q-9 -5 -11 -12q-5 -10 -19 -15q-20 -7 -43 -12q-4 -1 -12.5 -3.5t-12.5 -3.5q-24 -4 -37 -4q-10 0 -13 1q-1 1 -2 -0.5t-1 -2.5q-4 -14 -6 -20l-9 -27q-2 -6 -5.5 -18t-5.5 -18q-3 -9 -7 -29q-1 -3 -2.5 -7t-1.5 -6
q-8 -18 -20 -56q-1 -1 0 -4q14 2 22 3q20 4 31 5q26 0 45 -12q15 -9 35 -35q12 -16 15 -39v-11q-3 -25 -14 -52q-2 -6 -9 -15.5t-9 -12.5q-10 -17 -34 -49q-7 -9 -24 -29q-5 -7 -16.5 -17.5t-14.5 -14.5q-14 -13 -22 -24q-9 -11 -22 -17q-12 -8 -17 -9q-1 0 -1.5 -1t-1.5 -1
v2t-2 2t-4 3q-2 2 -4 0l-6 -6q0 1 -2.5 3t-3.5 4q0 2 -2.5 5.5t-3.5 6.5q-2 10 -2 14q0 9 5 14q9 10 19 19l18 18q11 11 33 35q18 18 38 51q1 1 1.5 3.5t0.5 3.5t2 1t3 2q2 4 4 6q1 2 2.5 4t1.5 3q2 4 4 6q16 27 22 46q3 9 3 17q1 4 -4.5 8.5t-9.5 3.5q-4 0 -14 -2t-14 -2
q-15 -2 -21 -6q-6 -3 -16 -9q-13 -7 -29 -4q-3 1 -9.5 0.5t-9.5 -0.5q-2 0 -2 -2q-1 -3 -5 -1l-1 1l-2 3q-3 2 -5 2t-3 -3t-2 -3t-1 -1q-1 1 -1.5 3t-2.5 2q-1 1 -3 -1q-4 9 -10 25q-3 7 0 17q1 3 5.5 18t6.5 23q10 36 24 73q15 42 34 103q5 12 8 22q3 4 -2 7q-10 5 -18 20
q-4 8 -7 12q-1 2 -1.5 4.5t-1 5.5t-0.5 5q0 4 5 9q11 8 23 5q21 -5 38 -4q20 2 39 6q20 3 58 9q32 4 45 9l15 3q11 3 21 -4l8 -4q8 -5 3 -12q-3 -3 -3 -4z" />
    <glyph glyph-name="six" unicode="6" horiz-adv-x="305" 
d="M53 108q10 13 11 14q6 9 19 25.5t16 20.5q14 21 31 36q7 6 20 19t21 20q16 14 32 26q7 5 18 7h2t1 1q8 3 25 -5q1 -1 2.5 -2t2.5 -2t1 -2q1 -2 3 -4l3 -3h3q7 1 9 -4q6 -14 2 -27q-1 -3 -1.5 -9t-0.5 -8v-4q0 -1 -0.5 -8t2.5 -8q0 -9 -2 -13q-2 -9 -8 -27q-1 -3 -5 -11
q-3 -5 -7.5 -16t-7.5 -16q-12 -25 -26 -42q-4 -4 -10.5 -12.5t-12 -15t-10.5 -11.5q-4 -5 -14 -15q-9 -11 -23 -17q-19 -10 -30 -24q-8 -8 -20 -15q-4 -2 -13 -2q-4 0 -5 2q-2 3 -9 3q-12 2 -18 2q-4 0 -6 1q-3 2 -13 4q-10 3 -18 11q-1 1 -2.5 2t-2.5 1q-6 4 -9 9
q-26 35 -28 79q0 19 4 34q1 5 2.5 15t2.5 15q4 21 22 72q3 8 9 24.5t9 24.5q8 19 26 57q18 37 75 134q30 48 47 71q16 24 44 55q14 14 20 17q12 5 16 -5q5 -13 -1 -29q-4 -13 -14 -26q-7 -9 -10 -24q-2 -7 -11 -23q-9 -14 -23 -42q-8 -18 -26 -54q-3 -5 -7 -15q-1 -2 -9 -14
t-10 -19q-2 -6 -8 -17.5t-8 -15.5q-4 -9 -22 -49q-6 -18 -8 -27q-3 -13 -12 -30q-12 -20 -14 -31q0 -3 -5 -13q-8 -18 -11 -45zM216 230q-1 -1 -4 -2.5t-4 -2.5q-22 -22 -31 -28q-1 -1 -3.5 -4.5t-4.5 -4.5q-17 -15 -31 -36q-22 -30 -28 -36q-2 -1 -5 -3.5t-4 -4.5t-5 -8
t-7 -9q-11 -14 -18 -33q0 -2 -1 -2q-3 0 -3 -3q-2 -5 -8 -13q-7 -10 -1 -20q4 -6 12 -5l11 3q11 4 16 6t7 5q14 16 20 25q2 4 10 17.5t13 20.5q2 2 3 4q11 27 32 61q17 28 24 47q4 8 10 26zM272 247q0 1 -0.5 4t-0.5 4q-1 1 -3 1l-2 -1q2 -2 2 -6t1 -5q0 -1 1 -1t2 1v3z
M206 229h3q2 0 2 3v1q-3 0 -3 -2z" />
    <glyph glyph-name="seven" unicode="7" horiz-adv-x="235" 
d="M69 40q2 0 3.5 2.5t2.5 2.5l1 -3q-2 -4 -5 -12.5t-4 -12.5q-4 -14 -5 -21q2 0 4 4q7 14 7 20l3 6q2 12 4 20q4 6 4 11q1 2 3 4q3 2 2 4v3q2 3 4 2q4 0 2 -4q-1 0 -1 -2t-1 -3q-2 -3 -4 -10t-3 -9q-1 -3 -2 -8t-1 -6l-2 -2q-8 -2 -5 -8q4 -10 -2 -28v-5q0 -2 -3 -5
q-1 -1 -4 -0.5t-3 -2.5q-1 -2 -3 -3t-3 -2q0 -1 -3 -1q-2 1 -2.5 0t0.5 -3q2 -7 -5 -7h-2q-8 8 -8 10q-2 7 -5 10q-4 4 -2 10q1 3 0 4t-5 0q-3 0 -4 2q-3 6 -3 7q-1 -2 -1 -4v-4q-2 6 1 10q2 2 2 5q-1 4 3 15v4q-4 4 1 4q0 1 1.5 3.5t0.5 4.5q-3 3 0 8q2 5 4.5 15l3.5 14
q4 16 8 20t2 7v4q6 14 8 22q1 3 3.5 9.5t3.5 9.5l1 5q1 6 2 8q1 0 1 2t1 2q2 2 4 14q0 9 4 13l2 4q1 3 4.5 14.5t5.5 17.5q1 5 5 17q8 24 9 26q2 4 3.5 9t3 11.5t2.5 9.5q16 44 25 66q19 51 51 105q14 23 17 32q-2 1 -6 -1q-6 -1 -21 -4.5t-23 -5.5q-14 -2 -20 -4
q-2 -1 -4.5 -1.5t-5.5 -1t-5 -0.5q-17 0 -26 -1q-13 0 -24 8q-4 3 -16 8q-4 2 -5 3q-6 8 -10 11q-1 0 -1 1t-3 8q-2 2 -4.5 6.5t-4.5 6.5l4 2q0 1 -1 2q-3 4 2 6q6 2 9 1l30 -6q2 -1 5.5 -1t4.5 -1q15 0 43 4q4 1 12.5 1.5t12.5 0.5q32 2 48 6q39 10 47 13q5 4 7 6
q4 8 12 21t10 16q4 7 10 13q5 7 14 4q11 -3 18 -20q1 0 2 1.5t2 0.5v-6q-2 -8 2 -15q2 -3 2 -9q0 -19 -13 -45q-15 -27 -28 -53q-6 -11 -11 -22q-8 -21 -25 -51q-3 -6 -18 -38q-3 -5 -9.5 -20.5t-10.5 -23.5q-5 -10 -6 -11q-7 -7 -16 -29q-12 -28 -17 -43q-1 -4 -8.5 -21.5
t-10.5 -27.5q-6 -14 -9 -22q-12 -28 -17 -43q-1 -3 -5 -13l-6 -15q-2 -4 -4 -6q-2 -3 -5 -14q-2 -4 -3 -4q-3 -1 -4 0v4q6 6 6 16q0 4 3 9q7 9 10 24q0 1 1 4.5t1 5.5t3 2q2 1 2 4t-2 1q-3 -2 -3 -3q-13 -29 -14 -31t-5.5 -11.5t-6.5 -14.5q-5 -10 -11 -32q-1 -2 -3 -7.5
t-3 -8.5q-4 -6 -4 -8q3 2 3 8z" />
    <glyph glyph-name="eight" unicode="8" horiz-adv-x="273" 
d="M279 572q-2 -3 3 -8q2 -1 3 -3t2 -3q2 -3 4.5 -10t4.5 -10v-2v-6t-1 -6q0 -6 -3 -8q-12 -14 -17 -34l-6 -18q-1 -4 -3 -12.5t-4 -13.5q-3 -16 -9 -28q-8 -18 -10 -27q-2 -11 -12 -31q-12 -26 -19 -39q-10 -20 -14 -30q-2 -5 1 -9q4 -9 11 -27t11 -27q12 -38 18 -75
q1 -4 3.5 -14.5t3.5 -16.5q1 -5 3 -13v-6q-2 -7 -3 -18.5t-2 -15.5q-4 -22 -9 -32q-8 -14 -15 -20l-16 -16q-10 -12 -19 -13q-3 -1 -9 -5q-4 0 -2 -2q2 -3 -2 -3q-4 1 -11 -1.5t-8 -2.5q-8 -2 -13 -3q1 2 3.5 3.5t3.5 2.5h-1q-5 -3 -16 -4t-16 -3t-8 1q-2 1 -6 1q-2 0 -3 -1
l3 -3q-2 -1 -5 1q-4 1 -14 -3q-3 0 0 -3q1 -1 7 -4q-6 -1 -9 4q-1 2 -3 2q-4 -3 -9 1q-7 4 -12 0h-9q2 -3 5 -3q-3 -1 -6 0t-4 1l1 1q1 1 0 2q-1 0 -4.5 3t-6.5 3q-1 0 -3 2t-3 2q-9 8 -18 22q0 1 -1 3q3 2 3 4t-2 5t-2 4q-1 -2 0 -5.5t0 -4.5q0 -1 -1 0q-4 13 -1 18v2
q0 20 -1 30q-1 -2 -2 -7.5t-2 -8.5q-1 1 -1 3.5v4.5q-1 -5 0 -14t0 -13q-5 0 -3 3q0 1 -1.5 10.5t0.5 10.5q2 4 3 12t2 10q0 3 1 3q1 -1 1 -2t1 -2q1 1 2 4l1 3v3q-3 1 -1 7q3 10 5 12q3 2 5 8t3 7q0 3 -1 3q-3 2 -1 7q2 4 7 16t8 19q1 -3 -1 -10q-1 -2 -3 -8q5 4 9 18
l15 30q4 8 10 24q8 14 10 16q14 19 31 48q1 1 1 4q4 -1 4 3q0 1 11 20q3 5 0 9q-20 38 -30 56q-14 30 -20 46q-2 6 -5.5 17t-4.5 16q-2 10 0 40q3 30 22 57q16 22 42 41q29 19 43 24q25 10 57 7q16 -2 23 -5q14 -7 27 -20q5 -5 8 -5zM217 48q8 5 7 14q-5 -5 -7 -14l-2 -2
q-1 -2 -0.5 -2h3.5q-1 1 -1 4zM32 -13q-2 5 -5 5q-2 2 -2 3q0 2 -1.5 3.5l-3 3t-2.5 3.5q-2 -3 0 -6q2 -4 -1 -5q-6 -1 -1 -5q2 -2 4 -2l2 -2q1 -3 8 -12q3 -5 13 -11q5 -4 11 2q-8 2 -8 7l-1 1q-8 8 -12 13q-1 1 -1 2zM65 66q0 3 -2 1q-1 0 -1 -1t1 -1q2 -2 2 1q0 -4 -2 -5
q-2 -2 -2 -6q0 -3 -1 -9t0 -9q0 -1 -1 -2q-2 -2 0 -2t2 -2.5t1 -3.5t1.5 -4.5t0.5 -4.5q1 -12 10 -28q2 -4 6 -3q10 2 13 4q3 3 8 3q1 0 4 1t4 2q31 16 35 18q17 10 25 22q9 13 12 36q2 18 0 26q-8 36 -12 53q-2 12 -11 47q-3 12 -11 36q-3 5 -4 6q-1 -1 -2 -3.5t-2 -3.5
q-2 -3 -15 -23v-3q2 -2 -2 -3l-2 -2q-1 -1 -2.5 -4t-2.5 -5.5t-2 -4.5q-12 -21 -15 -35q-3 -6 -4 -6q-2 1 -1 3t0 4l-12 -24q-10 -28 -15 -43q-4 -10 -1 -22zM220 531l-9 -6q-16 -10 -36 -10q-9 0 -13 -3q-18 -9 -24 -28q0 -1 -2 -5q-5 -18 -5 -20v-12q-4 -15 -1 -32
q2 -10 18 -47q6 6 9 14q16 34 34 68q7 14 29 72v9zM25 3q2 1 2 3q-1 7 -5 19q0 1 -2 1l-1 -2zM194 132q2 4 0.5 13t-5.5 13q3 -10 5 -26zM206 20q-4 -1 -12 -9v-3q2 2 6 5.5t6 6.5zM189 8q-2 -1 -3 -2.5t-2 -1.5q-3 -1 -4 -4q8 0 9 8zM208 129q0 9 -2 14q-1 -3 0.5 -8
t1.5 -6zM162 -24q-4 0 -5 -2q3 -2 5 2zM189 161v1q0 2 -1 2v-2q0 -1 1 -1zM194 123v2l-1 1q-1 0 -1 -2h1zM8 -15q0 -3 3.5 -6t3.5 -5v-2q-8 6 -7 13zM8 -15q-5 1 -4 7q2 -3 4 -7zM101 268q-1 0 -2 -1.5t-3 -1.5q4 6 5 7q1 -1 1 -2zM171 -33q2 4 5 2q-1 -2 -5 -2zM32 -13
q-4 -3 0 -7q1 0 1 5q-1 1 -1 2zM39 -29q2 0 4 -4q-3 1 -4 4z" />
    <glyph glyph-name="nine" unicode="9" horiz-adv-x="265" 
d="M131 -15q-2 -6 -2 -8q0 -3 -6 -6q-2 -1 -2 2q0 1 1.5 4.5t-0.5 4.5q-2 0 -2 -2q-2 -4 -4 -2q-1 1 -3 -2l-1 -1q-1 2 -5 2t-5 3q0 1 -2 3q-3 4 -2 8q1 1 -1 3q-10 5 -8 20q1 11 10 41q2 8 30 91q13 38 28 86q12 42 18 62q2 10 8 30v3q-2 -2 -5.5 -6.5t-5.5 -6.5
q-7 -8 -21 -17q-1 -1 -9 -7t-13 -9q-17 -12 -42 -17q-10 -3 -32 6q-4 1 -6 5q-18 22 -24 40q-8 24 -8 36q0 27 10 50q10 27 24 55q8 14 13 20q24 36 33 45q33 37 57 50q34 18 46 21q6 2 22 4q6 0 8 -2t4 -1q3 0 5 -2l10 -3q1 -1 5.5 -3t6.5 -4q2 -5 6 -6q1 0 1 -1
q18 -29 20 -33q6 -18 2 -34q-2 -9 -5 -27.5t-5 -27.5q-10 -52 -13 -63q-6 -30 -8 -41q-3 -12 -7 -19q-1 -3 -2.5 -7t-1.5 -6q-1 -7 -5 -18t-5 -16l-12 -42q-10 -35 -19 -62q-2 -7 -6.5 -21t-6.5 -21q-3 -8 -16 -47q-5 -12 -13 -36q-11 -34 -19 -54q-3 -8 -7 -12q-5 -5 -8 -2
zM223 543h-5q-10 -4 -30 -17q-3 -1 -4 -4q-5 -6 -17 -16q-22 -22 -33 -43q-9 -17 -17 -28q-6 -6 -9 -10q-7 -8 -12 -22q-3 -9 -8.5 -24.5t-7.5 -21.5q-6 -13 -4 -29q0 -4 3 -3q1 1 3 1q17 7 32 22q21 20 43 50l57 75q3 3 3 6q0 10 1 15q2 24 4 35v9q-1 1 1 5z" />
    <glyph glyph-name="colon" unicode=":" horiz-adv-x="110" 
d="M36 143q-1 0 -2.5 -2t-3.5 -1t0 7q1 1 1 2q-1 1 -2 -1t-2 -2q-7 7 -6 15q-2 12 3 20q16 23 23 29q15 8 19 9q3 0 5 -2q3 -1 7.5 -4l7.5 -5q3 -3 3 -5q-1 -1 -1 -2t1 -1q4 -4 4 -10q3 -7 -7 -26q-8 -11 -16 -12q-9 -2 -14 -7q-2 -2 -4 -1h-3q-3 -3 -5 -1q-2 -1 -3 -1
q-4 -3 -5 1zM2 -23q-1 0 -2 -2q-2 -2 -3 -1q-2 1 1 6v3q-1 1 -1.5 -1t-1.5 -2q-6 4 -8 14q0 13 4 18q17 24 23 29q9 8 18 10q1 1 2 0l2 -1q3 -2 15 -11q3 -3 2 -4q0 -2 2 -4q1 -1 1.5 -2.5t1 -3.5t0.5 -3q4 -9 -6 -24q-7 -10 -18 -12q-8 -2 -12 -7q-3 -3 -3 -1h-3
q-5 -3 -7 -2l-2 -1q-4 -3 -5 2z" />
    <glyph glyph-name="semicolon" unicode=";" horiz-adv-x="115" 
d="M37 126q-1 0 -2 -2t-3 -1t0 7v2q-1 1 -1.5 -1t-1.5 -2q-7 8 -8 16q-2 15 1 20q13 22 20 28q10 8 18 9q4 2 4 -1q3 -2 8.5 -5t8.5 -4q2 -2 2 -5t2 -3q2 -2 4 -10q4 -6 -3 -26q-6 -11 -16 -12q-7 -1 -12 -8q-2 -2 -4 -1h-3q-4 -2 -6 -1q-1 -1 -2 -1q-4 -3 -6 1zM56 17
q-3 -20 -11 -33q-18 -34 -23 -47q-2 -6 -5 -9q-4 -5 -16 -7q-3 0 -4 2q-2 4 -7 3q-2 0 -2 2q-11 16 -4 32q1 2 4 17q0 4 11 36q12 24 15 29q2 3 8 9q7 5 14 -1q1 -1 6.5 -5t7.5 -6q4 -4 5 -6q0 -1 1.5 -7.5t-0.5 -8.5z" />
    <glyph glyph-name="less" unicode="&#x3c;" horiz-adv-x="204" 
d="M78 273q3 -3 9 -7l6 -4q2 -1 8 -5l9 -6q3 -3 11 -7q5 -3 10.5 -7t12 -9t10.5 -8q4 -4 6 -7q10 -10 21 -30q1 -3 1 -9q3 -13 2 -16q-2 -19 -6 -25q-2 -2 -2 -6q-1 -4 -5 -4q-5 -2 -11 0l-1 1h-1q-12 15 -34 31q-7 6 -19 18q-5 6 -10 9q-27 18 -52 42q-8 8 -11 12
q-3 3 -9 7q-3 1 -7 7q-8 14 -5 29v4q1 22 20 34q4 2 18.5 11.5t22.5 14.5l8 4t8.5 4.5t7.5 3.5t11 5l12 6q3 2 9.5 6.5t10.5 6.5q1 0 1 0.5t1 0.5q4 0 13 7l2 1q1 0 1 1q2 3 10 7q5 3 6 8q0 4 4 2q1 -1 1 -2h3l2 -1q2 -6 1 -8v-1q3 0 5 4h2q2 0 0 -2q-1 -3 0 -7q1 -2 0 -6
t-1 -5q-2 0 -2 -1v-3q-2 -4 -3 -4q-3 0 -1 -2q1 -4 -2 -9q-6 -10 -11 -14q-29 -27 -51 -43q-6 -4 -18.5 -12.5t-18.5 -12.5q-1 -1 -2.5 -2t-2.5 -2z" />
    <glyph glyph-name="equal" unicode="=" horiz-adv-x="267" 
d="M-10 207q7 3 10 10q2 11 12 14q10 1 32 9q5 2 15 3t13 2q1 0 9.5 1.5t13.5 1.5l48 3q3 0 9.5 0.5t9.5 0.5q30 -2 45 -6q4 0 10 -4q5 -3 3 -9q-2 -4 1 -5q6 -6 9 -15q3 -8 -1 -13.5t-12 -4.5q-7 0 -10 1q-19 4 -40 1q-28 -3 -49 -2q-12 1 -36.5 0t-36.5 0q-7 0 -21 1.5
t-16 1.5h-1q-10 6 -17 9zM26 306q3 3 0 8q-5 5 1 8q2 1 2 4q-1 1 -1 4q-1 4 3 5l48 3q2 0 16 2q5 1 14.5 0t12.5 -1q22 0 25 1t9 1q8 0 24 2q22 4 43 -5q24 -11 21 -38q0 -6 -6 -9q-6 -4 -10 -1q-1 1 -6 1q-23 0 -34 1q-4 0 -9.5 0.5t-12 1.5t-10.5 1q-6 1 -19 1.5t-19 0.5
q-40 2 -58 4q-14 0 -27 3q-3 0 -7 2z" />
    <glyph glyph-name="greater" unicode="&#x3e;" horiz-adv-x="219" 
d="M126 273q-1 1 -2.5 2t-2.5 2q-6 4 -18.5 12.5t-18.5 12.5q-22 16 -51 43q-5 4 -11 14q-3 5 -2 9q2 2 -1 2q-2 -1 -2.5 0t-0.5 4v3q0 1 -2 1q0 1 -1 5t0 6q1 4 0 7q-2 2 0 2h2q2 -4 5 -4q1 0 0 1q-1 2 1 8q0 1 2 1h1.5h1.5q0 1 1 2q4 2 4 -2q1 -5 6 -8q8 -4 10 -7
q0 -1 1 -1l2 -1q9 -7 13 -7q1 0 1 -0.5t1 -0.5q4 -2 10.5 -6.5t9.5 -6.5l12 -6t11 -5t7.5 -3.5t8.5 -4.5l8 -4q8 -5 22.5 -14.5t18.5 -11.5q19 -12 20 -34v-4q3 -15 -5 -29q-4 -6 -7 -7q-6 -4 -9 -7q-3 -4 -11 -12q-25 -24 -52 -42q-5 -3 -10 -9q-12 -12 -19 -18
q-22 -16 -34 -31h-1l-1 -1q-6 -2 -11 0q-4 0 -5 4q0 4 -2 6q-4 6 -6 25q-1 3 2 16q0 6 1 9q11 20 21 30q2 3 6 7q4 3 10.5 8t12 9t10.5 7q8 4 11 7l9 6t8 5q1 1 4 3l6 4t5 4z" />
    <glyph glyph-name="question" unicode="?" horiz-adv-x="233" 
d="M89 93q1 1 1 2q0 2 1 3q0 1 -1 1q-4 -2 -4 3q1 3 -2 1q-4 0 -4 -3q-2 -4 -5 -8q-3 -2 1 -4l1 -1q-2 -2 0 -3q0 -2 2 0q2 0 2 2v-2t0.5 -1.5t2.5 -0.5q2 1 4 -2q0 -4 4 -6q0 -1 -2.5 -2.5t-1.5 -3.5q0 -1 -1 -1t-2 1l-2 4q0 1 -1 1q-3 -1 -3 2q0 1 -1.5 2t-1.5 2
q-1 0 -1 -2l-1.5 -3t-2.5 -1q-1 0 -1 -2q0 -1 1 -1l1 -2l-1 -2h-2q-1 3 -5 7t-5 6q-5 10 -5 19q-2 23 5 42q2 5 4.5 15l3.5 14q7 23 11 31q6 14 8 21q9 26 28 63q21 46 40 76q8 12 21 33t16 26l39 57q21 29 23 32q6 11 9 22q1 4 -4 11q-2 2 -8 2q-17 -4 -22 -5
q-10 -4 -13 -9q-9 -13 -29 -27q-13 -9 -19 -19q-3 -3 -3 -2h-13q-1 0 -3.5 0.5t-3.5 0.5q-5 0 -9 4.5t-3 9.5q0 2 -2 17q0 4 1 6q4 10 14 20q12 12 19 17q3 2 8 7l7 7q13 13 34 22q16 7 37 10q6 1 26 -6q11 -4 27 -22q8 -10 11 -15q11 -18 14 -37q1 -15 -9 -43l-7 -14
q-3 -6 -11 -16q-14 -17 -42 -53l-30 -42q-33 -41 -34 -43q-11 -11 -16 -21l-3 -6q-2 -2 -1 -4q6 8 20 26q0 -4 -5 -11q-2 -3 -5 -8t-5 -8q-13 -15 -18 -23l-3 -6q-1 0 -1 -0.5t-1 -0.5q-2 2 0 2q1 2 3 7t4 7q0 2 -1 2h-2q-1 -2 -4 -5.5t-4 -5.5q-3 -7 -11 -21q-1 -1 -4 -8
t-5 -11q-1 -2 1 -2q1 0 1 -1l6 -3l2 2q-1 0 -1 4q2 6 6 16l2 2q3 2 2 5q-2 5 3 5q3 0 6 5q6 11 13 19l4 4q2 2 4 1t-1 -4q-2 -2 -5 -6t-5 -6l-3 -3l-3 -6q1 0 3 2q1 2 3 2q-5 -17 -19 -36q0 -1 2 0t2 -1v-5l-15 -27l-2 -2l-2 -2q1 -1 2 0h2q3 0 1 -2q-3 -3 0 -6v-1l-1 -1
q-4 -4 -11 -17l-1 -2q2 -1 0 -5h-2q-1 -1 -3 -5.5t-4 -6.5q-1 -1 -1 -2q-3 -2 0 -4v-1q-1 -1 -1.5 -3t-0.5 -3v-1q5 -1 1 -5q-2 -4 -6 -4q-3 0 -4 -2q-4 -4 -5 2l-4 -4q-1 -4 2 -4q1 0 1 -2l-3 -6q0 -3 -2 -1v3l-3 -2q-3 -3 -5 -1zM129 163q5 5 5 10q-5 -7 -5 -11
q-3 0 -3 -5q-2 -1 -4 -3q-2 1 -2 5q-2 -1 -4 -6v-5q1 -1 2 0l1 1l1 1q3 -1 4 1q2 4 2 6q3 0 3 6zM121 172q4 2 6 10q0 2 1 1q1 0 2 1.5t2 0.5q0 -1 -1 -3.5t0 -3.5q9 10 12 24q-1 -1 -3 -2l-2 -2q1 -3 0.5 -3h-1.5h-1q-2 -2 -3 -1q0 1 1.5 3.5t2 4t-0.5 4.5q-6 -2 -6 -8v-4
q-4 -4 -8 -11q0 3 2 7t2 6l-1 -1q-1 -3 -5 -11l-6 -12q-4 -4 -4 -6q0 -1 -1.5 -3t-1.5 -4q-1 -1 0 -3q5 4 8 13q2 6 6 7v-4q-2 -2 -2 -4q2 1 2 4zM109 122q1 0 4 7q1 1 2.5 3t1.5 3t-1 2.5t0 3.5q2 2 -2 4q-4 -4 -7 -17q0 -2 1 -3t1 -3zM105 151l-2 -2t-1 -2q-2 -2 0 -2h2
q2 4 1 6zM150 224q3 2 3 5q-1 -1 -3 -5zM129 173h-2q-1 1 -1 0q0 -2 2 -2q1 1 1 2zM107 114q0 1 -1 1t-1 -1t1 -1zM44 -38q0 4 -2 12q-4 -1 -6 4q-1 2 -1.5 6.5t-0.5 5.5q-1 5 3 11q5 11 7 13q6 10 17 7q1 0 3.5 -0.5t3.5 -1.5q1 -3 6 -3q3 -1 7 -5q1 -1 1 -3q2 -3 4 -4
q0 -1 1 -2t2.5 -2t2.5 -2q2 0 2 -3q6 -17 1 -29q-1 -4 -3.5 -10.5t-3.5 -8.5q-3 -7 -11 -5q-2 0 -6.5 2t-7.5 2q-3 1 -8 8q-1 0 -1 2t-1 2q-1 1 -2 0q-7 -2 -7 4zM124 132q0 3 2 6.5t1 6.5h2q0 -8 -5 -13zM111 100l-1 1q0 1 2 2.5t2 2.5q1 -2 -3 -6zM89 93q3 -3 3 -4
q-1 0 -3 4z" />
    <glyph glyph-name="at" unicode="@" horiz-adv-x="425" 
d="M231 186q-7 -4 -10 -10h2v-1q-5 -3 -12 -10.5t-9 -8.5q-3 -7 -17 -14q-12 -6 -19 -4q-7 1 -13 0q-3 0 -4 1q-2 2 -5.5 4t-5.5 4q-9 6 -17 21q-9 16 -9 23q0 18 1 27q9 54 37 98q16 27 31 43q14 12 22 17q7 5 14 -2q2 -1 4 -1q2 1 4 1q11 4 24 -6q9 -6 20 -20q1 0 1 -2
q0 -4 3.5 -11t4.5 -10q2 3 4 7q6 12 20 36q6 10 15 18q8 7 17 0q5 -3 7 -9q4 -8 5 -13q4 -13 -3 -28q-13 -32 -16 -44q-2 -9 -10 -25q-3 -6 -10 -27q-1 -1 -2 -5t-1 -5q-2 -4 -3.5 -8.5t-3 -10t-2.5 -8.5q-2 -4 -7 -31q-2 -16 0 -24q13 4 17 10q2 2 6.5 6t6.5 7q11 13 13 19
l12 24q3 5 7 16t7 17q1 1 1 3q2 7 4.5 14.5l5.5 16.5t5 14l6 24q1 3 4 13q5 14 10 37q1 2 2 6.5t1 6.5q4 14 4 19q-1 5 2 25q2 23 1 29v6q0 19 -9 42q-1 2 -3 4.5t-3 3.5q-10 12 -25 26q-7 5 -13 4q-4 -1 -12 1q-4 2 -7 0h-2q-3 0 -9 -1t-9 -1q-1 0 -7 -3q-4 -2 -17 -10.5
t-21 -11.5q-4 -2 -12 -8q-17 -12 -38 -35q-8 -6 -16 -18q-2 -4 -7.5 -11t-7.5 -9q-21 -34 -23 -39q-9 -21 -24 -39q-9 -12 -10 -23q-1 -6 -10 -22q-4 -8 -4 -12q-1 -5 -10 -24q-2 -2 -4 -7t-4 -8q0 -2 -5 -11q-4 -10 -4 -16q-5 -21 -9 -26q0 -1 -1 -3.5t-1 -3.5
q-4 -12 -6 -17q-2 -8 -6 -22q-8 -30 -12 -46q-3 -17 -2 -30q0 -6 1 -18t1 -18q0 -12 7 -24q2 -3 6 -10t6 -10q1 -2 3.5 -5.5t3.5 -5.5q0 -1 11 -6q13 -5 26 -5q10 -1 23 2q18 5 32 12q18 11 33 24l11.5 11.5t14 13.5t11.5 12q10 10 23 18l6 3q6 2 6 -3q1 -2 4 -3l1 -1
q4 -3 3 -7q0 -4 -4 -8q-1 0 -1 -1q-2 -4 -7.5 -9.5t-7.5 -8.5l-3 -6q-1 -3 -2 -4q0 -2 -2 -4l-24 -24q-19 -17 -24 -20q-6 -4 -10 -8l-15 -9q-4 -2 -11.5 -5.5t-10.5 -4.5q-2 -2 -4 -2q-6 -2 -8 -4q-3 -3 -7 -2h-9q-14 -4 -35 2q-1 1 -3 1q-9 -2 -19 4q-4 2 -11.5 5.5
t-11.5 5.5q-13 6 -22 13q-7 6 -12 17l-9 12l-12 18l-6 18q0 4 -1 7.5t-2.5 8l-2.5 7.5q0 3 -2 3q-3 2 -3 7l-3 33q0 15 5 25q3 8 3 15v18q-2 7 4 13v2l1 2q2 7 6.5 19.5t6.5 18.5q4 10 8 28q1 6 5 18q10 31 13 38q10 22 17 33l1 1q0 2 1 2q5 14 13 25q16 24 24 37
q21 35 29 46q4 5 11.5 14.5t8.5 11.5q16 18 31 30l5 5q13 16 32 33q13 13 22 15q1 0 2.5 1.5t2.5 1.5q12 10 34 17q9 3 45 8q15 2 26 -2q3 -1 9.5 -2t9.5 -2q6 -1 12 -6l12 -6q8 -6 11 -9l15 -12q2 -2 10 -12q6 -11 16 -33q2 -5 4 -15q0 -3 3 -6q4 -5 4 -13q-2 -20 -2 -31
q-2 -8 0 -16q0 -17 -6 -51q-2 -7 -7 -21t-7 -21q-1 -3 -3.5 -8t-3.5 -8q-2 -4 -4 -12t-3 -11q-1 -5 -4 -15.5t-5 -15.5t-7 -18t-7 -20q-4 -16 -6 -23q-10 -22 -16 -32q-3 -5 -20 -24q-3 -5 -8 -6l-1 -1q-1 -1 -1 -2q-3 -3 -6 -4q-1 -1 -3.5 -3t-3.5 -3q0 -1 -2 -3
q-1 0 -7 -6l-1 -2l-1 -1q-20 -3 -24 -1h-4t-5 2q-1 0 -1 -2q0 -1 -2.5 0t-1.5 -2q0 -2 -2 0q-4 6 -10 7q-1 1 -3.5 3t-4.5 3.5t-3.5 4t-1.5 5.5q-1 2 -4 6l-3 4q-8 15 -7 29q1 3 1 9t1 9zM260 303v3t-1 3q-3 13 -3 14l-2 2q-9 -5 -10 -6q-6 -9 -15 -15q-9 -9 -12 -14
q-2 -3 -5.5 -9.5t-5.5 -9.5q-6 -9 -10 -17q-1 -3 -8 -17q-13 -31 -14 -39q0 -2 -1 -3l-3 -12q0 -6 5 -4q3 1 7.5 3.5t5.5 3.5q13 7 16 10q9 9 13 14q14 18 22 25q3 3 3 5q2 7 14 34q2 4 2 6q0 4 1 11.5t1 11.5z" />
    <glyph glyph-name="A" unicode="A" horiz-adv-x="437" 
d="M37 107q-7 1 -21 5q-10 2 -21 6q-3 1 -8.5 2.5t-7.5 2.5q-4 0 -8 4q-1 0 -2.5 1.5t-2.5 1.5q-2 1 -4 4l-2 4q-5 5 -5 16q0 2 2 4q8 5 11 6q12 4 44 2q4 0 13.5 -1t14.5 0q4 0 11 0.5t10 0.5q4 0 6 5q8 18 24.5 52t23.5 51q5 10 15.5 31.5t15.5 31.5q8 16 11 25q2 6 8 17
t8 15q18 38 22 46l42 75q2 3 12.5 18t16.5 23q4 5 16 22.5t20 26.5q6 9 20 25q6 6 10 7q1 0 16 9q20 13 37 6q17 -8 25 -18q11 -12 12 -28q2 -12 1 -18v-3q6 -16 3 -38q-1 -3 -2 -14.5t-3 -17.5q-1 -3 -2 -9.5t-1 -9.5q-1 -4 -1 -13l-3 -12t-2 -12q0 -1 -1 -11t-2 -15
q-1 -3 -1.5 -12t-2.5 -13q-1 -3 -1 -10q0 -1 -3 -28q-1 -10 -3 -28q0 -6 -2 -14q-3 -15 -3 -29q-2 -18 -2 -28q0 -3 -0.5 -8t-0.5 -8q0 -6 -2.5 -19.5t-2.5 -21.5q12 2 19 4q20 4 29 3q5 0 4 -3l5 -3q-1 -2 -1.5 -6t-2.5 -6l-3.5 -3.5t-3.5 -4.5h-1q-2 0 -3 -1
q-3 -2 -9.5 -4t-9.5 -4q-1 -1 -17 -6q-6 -2 -6 -5q-1 -1 -3 0q-1 1 -4 -2q0 -1 -1 -4t0 -5q0 -1 -1 -3t0 -4q-2 -9 -4.5 -25.5t-3.5 -21.5q-5 -23 -5 -44l-3 -57v-45q0 -8 -1 -11q-2 -9 -9 -9l-1 -3q0 -4 -2 -6l-1 -1q3 -5 -2 -5q-2 -1 -4 -3t-4 -4.5t-3 -3.5l-3 -3
q0 -4 -3 -2l-1 -1q0 -3 -6 -3q-1 -1 -0.5 -4t0.5 -4l-8 4q-2 -2 -2 -3q0 -5 -5 -5q-1 0 -4 -0.5t-4 -1.5q-3 0 -3 -3q-2 -9 -9 -6q-13 2 -17 12q-1 2 -5 11t-6 14q-1 3 -1 9q0 41 4 76q1 6 2 18t1 13q1 8 2.5 23t2.5 23l6 51q2 3 0 6q-2 0 -5 -0.5t-4 -0.5q-5 -1 -9 0
q-3 0 -7.5 -0.5t-6.5 -0.5q-8 -1 -23 -2t-22 -2q-34 -3 -35 -3h-6q-2 0 -5.5 -0.5t-4.5 -0.5q-5 -2 -14.5 -5t-14.5 -4q-14 -5 -26 -10q-3 -1 -4 -5q-3 -7 -7 -21v-2q-1 -2 -1 -3q-2 -4 -7 -14.5t-8 -15.5q-1 -1 -1 -2q-6 -20 -17 -37q-2 -3 -5.5 -9.5t-5.5 -9.5
q-14 -18 -25 -21q-12 -4 -20 4q-1 1 -3 3.5t-3 4.5q-3 3 -1 8q1 1 2.5 3.5t2.5 3.5q6 8 9 16q14 32 22 48q10 21 17 40q1 1 1 3zM337 581q-2 -1 -4 -4l-1 -1q-5 -6 -17 -25q-4 -6 -10 -18q-5 -12 -12 -19q-3 -5 -9.5 -15t-9.5 -15q-4 -6 -9.5 -16.5t-7.5 -14.5q-4 -8 -5 -12
q-7 -17 -15 -28q-1 -1 -3 -5q-3 -6 -9 -17t-8 -15q-4 -7 -12 -23q-4 -5 -10 -17q-2 -4 -8 -16.5t-10 -18.5l-9 -18t-10 -18q-9 -12 -10 -23q-4 -14 -8 -21q-9 -17 -19 -40q-3 -5 -2 -7l21 3q2 0 3 1q3 3 13 3q7 0 19 2q2 1 35 6q13 2 37.5 4t27.5 2q5 1 6 5q0 14 1 20
q1 10 3 30.5t3 30.5q1 15 5 50q3 20 7 60q1 10 5 30q6 25 9 46q1 14 5 40q1 8 11 43q1 4 3.5 14.5t3.5 16.5z" />
    <glyph glyph-name="B" unicode="B" horiz-adv-x="391" 
d="M242 320q2 1 5.5 2.5t6.5 2.5t6 1q17 5 43 3q20 -3 36 -19l6 -6q18 -13 25 -34q7 -22 8 -29q0 -22 -2 -28q-6 -20 -7 -31q0 -5 -3 -11q-10 -26 -17 -38l-4.5 -9t-5.5 -11.5t-5 -9.5t-4 -6.5t-3.5 -6.5l-3.5 -7t-4 -7q-13 -24 -16 -28q-4 -6 -13 -20t-15 -21
q-2 -3 -8.5 -14t-11.5 -16q-28 -35 -38 -45q-1 -1 -4.5 -5t-5.5 -6l-11 -11t-13 -12.5t-12 -9.5q-3 -2 -7.5 -6t-5.5 -5q-16 -12 -34 -7q-9 2 -15 -4h-2v3q3 4 1 7t-7 2h-3q-4 -3 -6 2q-2 4 -8 0q5 7 -1 17q-1 2 -4 6.5l-5 7.5q-3 3 -4 3q-4 0 -3 6q3 6 7 9q7 7 11 14
q5 9 16 18q19 17 31 32q23 26 65 78q34 42 48 66q16 26 21 35q7 13 19 41q12 29 12 31l3 12q0 12 -12 15q-6 1 -19 -1q-23 -2 -29 -4h-3q-4 -3 -13 -6.5t-14 -6.5q-15 -10 -47 -28q-21 -14 -42 -35q-2 -1 -5 -6q-8 -23 -10 -37q-8 -39 -20 -67l-9 -36q-16 -57 -19 -65
q-3 -7 -7 -21.5t-6 -19.5q-4 -11 -11 -12q-2 0 -2 -2q-1 -3 -5 -9.5t-5 -10.5q0 -3 -4 -3q-8 0 -9 -5q0 -2 -2.5 -1t-3.5 1q-1 -2 -1 -5v-5q0 -3 -3 -3q-2 0 -2 2q-2 4 -3 7q0 3 -3 3q-2 0 -2 -4q-1 -1 -1 -2q-5 2 -6 4q-4 4 -7 5q-5 2 -17 16q-2 3 -2 9q1 12 9 36
q12 42 21 84q1 4 15 58q5 17 11 51q3 14 13 50q5 16 13 50q9 45 22 86q2 7 5 20.5t5 20.5q2 9 8 29q-12 -8 -32 -28q-16 -18 -25 -27q-12 -14 -29 -9q-1 1 -6 1q-21 2 -25 19q-1 2 -3 4q-4 4 -6 13q-1 5 4 10q3 4 10.5 10t10.5 9q7 6 21.5 16t20.5 15q23 19 71 55l21 18
q3 2 8 17q2 16 11 24q12 10 23 8q18 -3 20 -4q1 -2 5 0t11.5 7t9.5 6q24 16 37 22q11 5 15 4h2q5 2 14.5 4.5t11.5 3.5q30 8 52 -1q18 -8 23 -31q4 -21 1 -36q-2 -11 -10 -31q-3 -8 -12 -26t-13 -29q-1 -5 -4.5 -13.5t-5.5 -12.5q-3 -7 -11 -19q-5 -8 -10.5 -17t-12 -20
t-10.5 -17q0 -1 -1 -1l-1 -2q-14 -18 -21 -28q-1 0 -1 -2zM301 555q-9 -3 -23 -5h-2l-2 -1q-27 -14 -30 -16q-16 -12 -26 -16q-1 -1 -3 -2t-3 -2q-11 -9 -11 -18q1 -17 -8 -45q-3 -13 -8 -29q-6 -19 -7 -22q-2 -3 -7 -21q-3 -11 -8 -26q-1 -3 -6 -25q2 2 3.5 4t2.5 3
q17 25 23 31q8 10 11 16q8 11 21.5 31t16.5 25q26 38 39 58q16 27 27 60z" />
    <glyph glyph-name="C" unicode="C" horiz-adv-x="374" 
d="M450 238q0 -2 -4 -11q0 -1 -4 -5.5t-6 -7.5q-3 -3 -3 -4q0 -4 -2 -7.5t-5.5 -8t-4.5 -6.5q-22 -28 -32 -42q-1 -2 -5 -7.5t-6 -8.5l-2 -2q0 -1 -2 -5q-2 0 -2 -2q-3 -4 -22 -34q-7 -10 -11 -12q-3 -1 -4 -4q0 -1 -5 -8q-3 -6 -4 -7t-3 -4t-3 -4q0 -2 -2 -4t-2 -4
q-1 -3 -4 -4q-1 -1 -6 -5.5t-7 -8.5q-1 -3 -7 -7q-4 -6 -5 -7q2 -3 -4 -9l-1 -1q0 -1 -1 -1q0 -1 -10 -14q-2 -7 -13 -16q-1 -1 -3 -4t-3 -4q0 -1 -3 -4q-5 -4 -15 -10q-8 -4 -23.5 -15.5t-25.5 -15.5q-7 -3 -16.5 -5t-20.5 -3t-16 -2q-13 -2 -35 4q-2 0 -4 0.5t-3 0.5
q-5 0 -7 1q-4 2 -11.5 4.5t-9.5 3.5q-10 3 -15 12q-6 9 -11 7q-14 9 -16 14q-4 11 -6 21q0 3 -2 9q-5 10 -9 34q-2 11 -6 16q-3 2 -3 10q-3 11 -3 23q1 6 1 17.5v16.5q1 6 -1 18q-3 15 -1 46q2 17 8 59q6 34 10 51q10 48 13 57q3 6 8 18.5t7 18.5q13 34 43 90q3 5 23 38
q24 37 31 45q5 6 14.5 19t11.5 16q9 11 17 13q2 0 3.5 1t3 2.5l2.5 2.5q3 4 11 12q6 8 16 6q17 -3 19 -4q2 -2 6 0q13 7 30 9q5 0 17 -2q15 -2 26 -14q6 -6 16 -11q2 -2 4 -2q8 -7 13 -18q5 -13 5 -25q0 -2 2 -8q1 -8 1 -23l3 -27q3 -27 -6 -53q-6 -22 -10 -33
q-6 -16 -13 -20q-1 -1 -2.5 -3t-2.5 -3l-17 -17q-4 -3 -12 -3q-3 0 -8 0.5t-7 0.5q-7 0 -5 8q0 3 2 9q1 2 2.5 5.5t2.5 5.5q12 20 25 75q3 14 8 66q0 14 -10 36q-4 8 -15 10q-7 1 -13 -6q-1 -3 -6 -6q-8 -5 -11 -14l-9 -12q-4 -7 -12 -13q-1 -1 -2 -2.5t-2 -3.5t-2 -3
q-2 -4 -7.5 -11.5t-8.5 -10.5t-18 -29q-3 -4 -16 -28q-19 -33 -33 -64l-5.5 -11t-5.5 -10t-2 -9q-2 -7 -6.5 -17.5t-6.5 -15.5q-17 -54 -20 -67q-1 -7 -3.5 -23t-4.5 -23q0 -4 -1 -6v-12q1 -3 0 -8.5t-1 -8.5v-6.5t2 -8.5q1 -1 1 -6t-1.5 -16.5t-1.5 -12.5v-5q4 -18 1 -38
q0 -2 0.5 -4.5t0.5 -3.5q2 -5 4 -14.5t2 -11.5q4 -12 5 -17l2 -4q4 -3 12 -11.5t13 -12.5q4 -3 9 -3q11 -3 37 4q18 5 34 14.5t24.5 18t23.5 25.5t24 26q16 16 46 48q2 3 5.5 8t4.5 7q19 27 52 59q11 10 27 30q5 5 11 5q1 0 4 3q1 1 2.5 2t2.5 2.5t2 2.5q6 6 11 2z" />
    <glyph glyph-name="D" unicode="D" horiz-adv-x="377" 
d="M-11 -146q-2 6 -3 7v-1q0 -3 -3 -7.5t-3 -7.5t-10 -6l-4 -2q-7 -2 -11 5q-3 8 -3 16q-2 24 2 40q2 10 6 31t5 32q4 18 8 56q3 42 10 74q8 50 10 76l9 51q1 9 5.5 31t5.5 34q2 11 4 35q8 53 9 58t18 119q7 41 10 56q2 11 8 41q1 3 2.5 7t1.5 6q3 12 14 7q1 0 2.5 -0.5
t2.5 -0.5q8 2 10 -4q2 -2 3 -2q8 -1 13 -12q1 -5 3.5 -13t3.5 -10q6 -23 2 -46q-2 -9 4 -15q1 -2 1 -6q1 -6 -1 -31l-6 -45q-1 -5 -2 -14.5t-2 -14.5q-2 -4 0 -6q1 2 3 6.5t3 6.5q11 24 29 48q21 32 55 70q17 19 34 28q1 1 5 3q3 0 22 10q24 12 37 12q23 2 31 -1
q31 -11 38 -40q1 -5 8 -28q2 -4 3 -12.5t2 -11.5q4 -18 3 -27q-1 -6 -2 -17t-2 -17q-1 -4 -1.5 -10.5t-1.5 -12t-3 -10.5q-1 -5 -3.5 -15.5t-3.5 -15.5q-2 -10 -3 -16q-2 -8 -4.5 -16.5t-5.5 -18.5t-5 -16q-8 -27 -10 -43q-1 -5 -2.5 -16t-3.5 -16q-3 -18 -11 -38
q-19 -51 -21 -58q-9 -25 -31 -62q-8 -12 -22 -34q-12 -19 -25 -34q-4 -4 -10.5 -12.5t-9.5 -12.5q-18 -22 -37 -32h-1q-2 -1 -9 -8q-1 -1 -5.5 -1t-6.5 -2q-3 -3 -6 -2q-2 0 -2 -1q0 -3 -1 -4t-3.5 0t-3.5 1q-11 2 -15 6l-2 1q-12 1 -18 9q-1 0 -1 1q-1 1 -8.5 11t-12.5 14
q-8 8 -8 22v4q-3 8 -8 36q-2 15 7 25q2 1 3 4.5t2 4.5l6 12q4 4 8 1q12 -5 9 -17q-6 -26 4 -49l15 -24q6 -10 17 -5q12 4 15 16q8 24 39 91q2 4 2 6q5 22 13 38q1 2 18 47q3 10 9.5 27t9.5 24q4 9 10 27q14 52 15 56l18 51q6 20 9 43q4 20 10 58q3 17 1 39q0 8 -8 11
q-5 3 -6 4q-5 5 -8 0q-3 -2 -20 -11q-13 -6 -23 -19q-4 -7 -31 -41q-12 -15 -26 -29q-4 -4 -4 -8q-3 -20 -11 -33q-2 -4 -6 -14q-2 -3 -7 -11t-7 -13l-6 -12t-7 -16q-1 -5 -5 -16t-5 -17l-6 -12q-2 -3 -4 -11v-2q-1 -2 -1 -3q-4 -7 -11 -23t-12 -24q-2 -4 -2 -5
q1 -11 -11 -39q-3 -10 -10 -27.5t-9 -24.5q-10 -34 -17 -50q-2 -8 1 -10v-4q-6 -27 -6 -29t-3 -19l-1 -2q0 -1 -1 -1q-3 0 -4.5 -1t-2.5 -4t-1 -4q-2 -9 -4 -11q-2 -1 -2 -8q-3 -12 -7.5 -35.5t-7.5 -35.5q-1 -4 -1 -12l-3 -9t-3 -10z" />
    <glyph glyph-name="E" unicode="E" horiz-adv-x="363" 
d="M94 -41q0 -1 -4 -3q-1 -1 -23 -6q-30 -5 -36 -5q-27 2 -47 17q-14 11 -16 34q0 3 0.5 10.5t0.5 10.5q0 1 9 31q3 9 9 26.5t8 26.5q4 13 13.5 40t13.5 40q3 11 13 37t14 40q2 7 27 73q18 48 29 71q4 8 9 24t6 19q1 2 2.5 7t2.5 8q2 5 -3 5q-16 3 -31 18q-1 1 -3 2
t-4.5 1.5t-3.5 1.5q0 1 1 1l1 1q2 0 2 1q0 2 -2 2l-1 1l1 1q1 4 -2 7l-1 1q-1 1 -2 1q-3 3 0 3q4 2 0 2q-3 3 -2 7q0 4 -2 6t2 6q1 1 5 3q2 0 29 6q8 2 16.5 3.5t18.5 3t16 2.5q50 8 53 9q23 4 68 11.5t67 11.5q58 8 88 12q7 1 22 1q2 0 14 -2q4 -1 6 -6q0 -2 -2 -3
q-4 -1 0 -5q2 -4 -2 -8l-5 -3q-5 -2 -7 -4q-2 -1 0 -2q1 -1 -1 -2q-7 -3 -14 -7l-1 -1q3 0 11 2q-1 -4 -6 -4q-11 0 -31 -6l-15 -3q-4 -1 -34.5 -6t-47.5 -9q-2 -1 -16 -1q-4 6 -12 1q-16 -10 -46 -14q-2 0 -4 -4q-5 -20 -14 -32q-1 -2 -1 -6q-1 -4 -4 -10t-4 -9
q-12 -28 -16 -42l-15 -45q-14 -38 -19 -47q-5 -11 -10 -28q-5 -10 -5 -12q1 -1 4 -1q39 14 117 30.5t101 22.5q6 1 19.5 3.5t20.5 4.5q7 1 21 1q2 0 2 -1q1 -1 -1 -3q-7 -4 -15 -6q-5 -1 -13 -5t-12 -5q2 -1 6 -0.5t6 0.5q-1 -5 -8 -5q-9 0 -10 -7q-1 -4 -8 -4q-6 -1 -17 -5
t-17 -5q3 -1 11 0q-3 -2 -13 -4q-40 -10 -43 -11v-2q0 -2 -1 -2l-18 -6q-26 -8 -39 -14q-5 -5 -7 -5q-26 -13 -32 -19q-6 -5 -24 -12q-4 -1 -8 -6t-7 -5q-1 -1 -11 -2t-12 -6q-3 -4 -8 -4q-13 2 -20 -14q-2 -6 -6.5 -18t-8 -21.5t-6.5 -17.5l-6 -12t-5 -12q-2 -4 -2 -6
q-2 -7 -7.5 -22t-8.5 -22q-4 -13 -11 -29q-2 -4 0 -6h5q6 1 16 4t15 4l78 19.5l90 22.5q12 4 34 8q12 2 19 -3q1 0 4 -1t4 -2q-7 -8 -15 -7q-4 0 -12 -2q-5 0 -5 -5q0 -3 -8 -11q-1 0 -1 -2q2 1 5 1h5q1 1 1.5 0.5t0.5 -2.5q0 -1 -2 -1q-6 0 -10 -7q-1 -1 -10 -4
q-8 0 -13 -5q-1 -1 -3.5 -1t-3.5 -1q-4 -1 -12.5 -5t-12.5 -5q-22 -8 -33 -10l-21 -6q-11 -4 -34.5 -10.5t-34.5 -9.5q-7 -2 -32 -11q-4 0 -5 -3q9 -2 25 4zM243 506q-6 -6 -6 -15q5 8 6 15zM237 37l1 -1q4 0 4 1v1h-3q-1 0 -1 -0.5t-1 -0.5zM316 60q-4 0 -4 -1l1 -1
q1 -1 2 0t1 2zM239 13q-3 0 -5 -2q3 0 5 2z" />
    <glyph glyph-name="F" unicode="F" horiz-adv-x="341" 
d="M72 430l-4 -2q-6 0 -21.5 -3t-23.5 -3q-7 0 -13 3q-3 2 -10.5 5.5t-10.5 5.5q-16 11 -26 29q-1 3 -3 11q0 3 -2 9q-4 8 1 15q7 9 15 6q12 -5 30 -1q13 2 66 21l36 12q19 7 57 19q5 1 37 12t49 16q16 5 50 15l45 9q31 7 64 6q2 0 6.5 0.5t6.5 0.5q17 3 34 -13q1 -1 4.5 -4
t5.5 -4q1 -1 1 -4t6 -7q2 -1 2 -5t3 -7l2.5 -5l3.5 -7l3 -6q2 -4 -1 -7l-3 9q0 -1 -2.5 -3t-2.5 -4q-1 1 -2 3t-3 3q2 -13 -3 -16q0 1 -2 6t-4 7q-2 -3 -2 -9.5t-1 -8.5q-1 2 -2.5 4.5t-2.5 4.5q-2 3 -4 1q-5 -5 -5 1q0 1 -5 14q-1 2 -5 6l-2 1q-2 -2 -9 0h-12
q-31 -6 -32 -6q-2 -1 -16 -5t-21 -7q-7 -2 -11 -6q-3 -1 -22 -7q-38 -8 -56 -18q-29 -16 -39 -24q-3 -2 -24 -13q-3 -1 -9.5 -5t-10.5 -5q-4 -2 -4 -5q-1 -10 -5 -30q-2 -10 -8 -30q-9 -25 -16 -59q-7 -31 -21 -50q-3 -6 -3 -7q0 -4 -2.5 -12.5t-2.5 -11.5t0.5 -4t3.5 0
q2 1 20 6q6 2 17.5 5.5t16.5 4.5q13 4 41 12q28 7 59 12q57 9 94 8h16.5t16.5 -1q1 0 4.5 0.5t5.5 -0.5q6 -2 7 -11q1 -8 -4 -13q-6 -8 -11 -9q-16 -5 -25 -13q-4 -3 -11 -3q-23 -5 -40 -15q-2 -1 -5.5 -3.5t-5.5 -3.5q-13 -8 -36 -10q-14 -2 -19 -2q-4 0 -12 -0.5t-12 -0.5
q-9 1 -21 -4q-16 -6 -23 -9q-12 -6 -34 -11q-3 -1 -8.5 -5t-9.5 -5t-10.5 -6t-10.5 -6q-4 -2 -19 -7q-6 -3 -7 -9q-1 -3 -2 -8.5t-2 -10t-2 -8.5q-2 -6 -4.5 -17t-3.5 -15q-2 -6 -5 -19t-5 -19l-6 -24q-1 -6 -3.5 -16t-4.5 -18.5t-4 -16.5q-2 -5 -4 -14t-3 -14
q-4 -11 -5 -14q0 -6 -6 -11q-4 -3 -6 -14q-2 -5 -6 -6h-10q-2 -1 -5.5 2.5t-3.5 6.5q0 10 -2 14v2q3 1 2 8.5t0 9.5v2q-3 3 -3.5 6t0.5 7t1 6q0 4 6 29q1 10 5 30q9 40 14 67l9 45q2 14 3 22q0 2 -3 4h-10q-3 -1 -19 -4q-4 -1 -9 2q-4 4 -11 4q-10 2 -20 16q1 3 -4 5
q-3 1 -7 7q-3 5 1 9q7 5 15 5q21 -2 41 9q5 3 27 8q6 1 6.5 2.5t2.5 8.5q2 12 5 35.5t4 34.5q5 28 15 82q1 13 6 28z" />
    <glyph glyph-name="G" unicode="G" horiz-adv-x="375" 
d="M296 -117q-2 1 -6.5 2t-6.5 1v-2q0 -3 -2 -4q0 -1 -1 0h-2q-1 -1 -2 0t-1 2q-1 1 -3 1q-1 1 -4 2.5t-4 4.5q-1 2 -7 4q-9 3 -9 13q0 2 -6 34q-3 15 -3 29q-1 19 1 59q0 8 1 23t1 22q1 13 5 39q0 2 0.5 8t0.5 9q0 4 -1 4t-3 -2q-3 -4 -9 -11.5t-9 -10.5q-2 -2 1 -3v-2
q0 -4 -5 -7q-3 -2 -11 -10t-13 -12l-7 -7q-2 -2 -1 -4q0 -1 -2 -3q-4 -3 -25 -21q-34 -32 -42 -38q-16 -12 -26 -14q-36 -9 -37 -9q-7 0 -13 -3q-5 -2 -9 1q-4 2 -6 2q-15 6 -25 16q-11 9 -20 20q-10 9 -10 29v17q0 2 -1 6t-1 7q0 23 6 47q1 7 4.5 21t4.5 17l6 27q1 2 3 8
t3 8q2 8 6.5 24t7.5 24q24 62 27 68q2 5 6 14.5t6 14.5q4 7 12 23q3 7 10 19.5t10 19.5q24 43 26 46q5 9 17 25q22 30 34 45q16 20 30 31q4 4 11.5 11t11.5 10q7 5 16 10h1q4 0 21 10q19 11 32 10q28 -2 40 -4q16 -4 24 -21q7 -18 11 -32q6 -29 -6 -54q-5 -9 -15 -25
q-10 -15 -21 -22q-4 -3 -10 -3q-4 -1 -12 -5q-2 -3 -5 -3h-2q0 4 -4 2t-16 5q-3 2 -3 5q0 1 2 5.5t0 5.5q1 3 5 9q3 3 7 9q6 7 11 15.5t11 21.5t9 18q7 12 2 34q-1 3 -4 3q-10 0 -17 -4q-6 -3 -17 -10.5t-16 -10.5l-3 -3q-4 -4 -24 -22l-9 -15q-6 -10 -9 -13q-7 -7 -14 -21
q-1 -1 -2.5 -3t-2.5 -3q-7 -7 -17 -29q-2 -6 -8 -17.5t-7 -14.5q-3 -5 -8 -15.5t-7 -15.5q-10 -20 -13 -30q-10 -24 -14 -36q-7 -19 -10 -24q-1 -2 -2 -6t-2 -6q-2 -7 -6 -20t-7 -20q-5 -21 -6 -23q-1 -3 -2.5 -8t-2.5 -8q-1 -8 -5 -22l-6 -21q0 -2 -0.5 -6t-0.5 -6
q-2 -34 -4 -41l-1 -1v-2q-2 -3 -2.5 -6.5t-0.5 -8v-6.5q0 -26 -2 -33q0 -5 2 -6q1 -1 3 -2l1 -1q8 -6 21 2q4 3 11.5 9t11.5 9q1 0 2.5 1t2.5 2q8 6 22 20q20 24 29 36q7 8 22 23q4 4 26 31q4 6 9.5 12.5t12.5 14.5t11 12q2 2 6.5 7t6.5 7t2 5q4 20 5 31q-7 -5 -11 -3h-1
q-14 -9 -33 -7q-7 1 -21 -5q-2 0 -2 -2q-4 -4 -8 -1q-2 1 -6 -1q-8 -5 -14 0q-4 2 -6 2q-11 3 -17 11q-9 11 4 15q8 4 14 3q12 0 36 8q6 2 17 5.5t20 6.5t17 6q23 8 51 23q3 2 9.5 5t9.5 4q1 1 2 1q5 1 23 8q6 2 8 3q18 8 27 11q10 4 15 -1q1 -1 2 -4.5t2 -4.5l-1 -2
q-7 -7 -10 -17q-4 -6 -8 -7q-12 -8 -17 -13q-3 -2 -7 -4q-9 -5 -10 -14q0 -2 -1 -3q-5 -13 -2 -25q0 -2 -2 -14q-3 -8 -13 -55q-1 -2 -2.5 -10t-3.5 -13l-3 -18q0 -9 -2 -27q0 -23 -4 -40q0 -3 -1 -7.5t-1 -6.5q0 -13 -2 -37q0 -20 -2 -30v-18t-1 -17q-1 -3 0 -7.5t1 -6.5
q1 -5 1 -14q0 -5 -3 -10q-1 -1 -1 -2q-1 -2 -1 -3q0 -5 -4 -5l-3 -5v-4q-2 -1 -7 -16v-3z" />
    <glyph glyph-name="H" unicode="H" horiz-adv-x="344" 
d="M178 -13q3 0 3 4q0 3 6 9q1 -2 -2 -7q-1 -3 -2 -9t-2 -9q0 -7 -1 -8t-1 -5q0 -1 2 -3q4 -2 1 -5q-1 -2 -1 -5q2 -4 -2 -4q-3 -1 -3 3q-2 6 0 8q3 3 -1 4q-1 0 -2.5 2t-3.5 3q7 5 0 12q-1 0 -4 -6l-1 -1q-1 -3 0 -5v-3q-2 -1 -4 -11q0 -3 -1 -3q-2 0 -2 4t-2 5
q-1 -2 -1 -6.5t-1 -6.5q-7 9 -11 11q-7 3 -7 15q0 4 2 12l24 96q10 29 22 73q15 52 23 73q1 1 0 4q-5 -1 -14 -2.5t-13 -2.5q-3 -1 -9.5 -2.5t-9.5 -2.5q-5 -1 -17 -3t-17 -3q-18 -4 -27 -5q-9 0 -10 -9q-6 -32 -12 -48q-1 -2 -9 -35q-2 -8 -5 -25.5t-5 -26.5
q-1 -4 -3.5 -17t-4.5 -20q-4 -14 -16 -33q-3 -5 -5 -12q-5 -7 -6 -8q-2 0 -2 -2q0 -3 -4 -3q-2 0 -10 -5q-1 1 -1 2q0 2 -1 3q-3 -4 -6 1q-2 3 -7 8.5t-7 8.5q-5 6 -5 17q-1 5 2 28q0 14 3 29q1 8 3.5 23t3.5 22q4 24 16 80q1 1 0 2q-9 0 -19 -5q-5 -2 -15 -4q-12 -4 -17 -6
q-6 -4 -12 -6q-3 0 -5 3q-1 1 -2 0q-4 -3 -7 0q-1 1 -3 1l-1 -1q0 5 -4 5q-3 0 -3 3q3 13 4 16q2 3 8.5 10.5t9.5 12.5q6 8 19 14q10 5 25 7q20 4 29 7q5 0 5 5q3 10 7 31t7 32l12 42q1 4 15 49q12 42 18 62q4 15 8 41q1 2 5 19.5t7 26.5q10 25 32 38q5 3 10 2h1l2 -1
q8 0 18 -8l-3 8q3 -8 11 -13q3 -3 3 -7l-3 -35q0 -8 -3 -15q-2 -5 -4 -19q-1 -4 -3 -10q-8 -24 -12 -35q-1 -3 -3.5 -14.5t-5 -21.5t-4.5 -11v-3q-1 -6 -4.5 -21t-5.5 -23q-10 -38 -14 -58q-2 -11 -8 -35h6q6 2 19 4.5t19 3.5t23.5 5t27.5 5q5 1 15 3.5t15 3.5q3 0 3 4
q8 20 11 30q2 7 4.5 14.5l5.5 16.5t5 14q12 30 21 60q2 6 4.5 12.5t5.5 14.5t5 12q2 5 5.5 17t5.5 18q4 8 10.5 25t9.5 26q8 20 15 28q2 2 6.5 8.5t7.5 9.5q4 2 7 3q8 0 8 -7q0 -3 1 -3l2 1l1 2q0 1 1 1l1 -1v-1l-1 -2q2 0 2 2q3 2 3 -1v-3q0 -4 3 -5q1 -1 1 -3q-2 -3 2 -7
l2 -2q0 -5 3 -14l4 -12q1 -9 -2 -19q-8 -26 -16 -43q-1 -3 -3.5 -9.5t-3.5 -9.5q-1 -5 -3.5 -13t-2.5 -10l-2.5 -7.5t-3 -8.5t-3.5 -8v-2q-2 -7 -8.5 -19.5t-8.5 -16.5l-7.5 -15t-7.5 -17q0 -1 1 -0.5l1 0.5q1 -3 0 -5q-4 -11 -5 -14l-6 -18v-4q4 -4 6 -4q6 0 17 1t16 1h15
q2 -2 3 0q8 2 12 -4q-2 -1 -7 -1q-4 -1 -11.5 -3t-11.5 -3q6 -2 10 -2q-2 -3 -8 -6q7 -1 19.5 1.5t17.5 2.5q-3 -3 -10 -4.5t-10 -3.5h21q-3 -1 -9.5 -3t-10.5 -4q4 0 12 2q-3 -2 -14 -5q-12 0 -20 -6q11 -1 35 5h10q-14 -4 -16 -5q-10 -2 -14 -6q0 -1 -2 -1t-2 -1
q-14 -4 -22 -6q-12 -4 -38 -10q-1 0 -3 -0.5t-3 -0.5l-2 -2q1 -7 -4 -16q-16 -34 -21 -43l-6 -9q-2 -4 0 -6q1 -1 -1 -7q-1 -2 -3 -8t1 -9l-1 -2q-7 -12 -8 -24q0 -1 -1 -2q-3 -5 -5 -17q0 -3 -2 -5q-1 -1 -4 -7q0 -5 -3.5 -13.5t-4.5 -10.5v-1q-1 0 -1 -1t-1 -2
q-2 -2 -6 -8q-1 3 1 7q7 16 5 23q1 2 2 6t2 6q3 8 5 10v3q0 2 2 9v5q-1 1 1 3l1 1q1 2 1 3q0 9 6 14q1 4 4.5 10.5t4.5 9.5v4l-5 -5q-2 7 0 11q2 8 4 14q1 2 1 8q-6 -6 -8 -19q-2 -8 -5 -12q-1 -1 -2 -3.5t-1 -4.5q-2 -8 -10 -22q-1 -2 -7 -17q0 -3 2 -2q1 0 1 -1t-1 -2
t-5 -7q-3 -5 -1 -10q-4 -2 -8 -13q-3 -5 -4 -11q-3 -7 -2 -9l-1 -1v-2q-2 -5 -6.5 -14t-5.5 -14q-5 -13 -5 -15q1 0 2 2.5t2 2.5q2 -6 -1 -10q-4 -10 -9 -12l-1 -1q0 -5 -3 -3q-1 1 -2 1l2 4l6 12q1 4 3.5 13t3.5 13q2 2 0 4q-3 3 0 9q0 1 2 2t2 2t-1 2.5t0 3.5q0 1 1 4
q1 2 3 4q1 2 -2 5q-2 -2 -2.5 -5.5t-1.5 -4.5q-1 -4 -4 -12t-4 -12t-2 -10t-2 -10q0 -3 -2 -5q-1 -3 -4 -13q-1 -2 1 -6q-5 -2 -3 -10q4 0 6 2q1 -1 1 -3l-2 -1q-1 -1 -1 -3l1 -1q2 1 2 3v2zM257 200q4 6 3 11q0 -1 -2 -5t-1 -6zM314 339q1 0 1 2l-1 -1q0 -1 -1 -1h1z
M223 36l-2 -4t-1.5 -3.5t-2 -4t-2.5 -4.5q1 0 2 0.5t2 0.5q-6 -14 -12 -19q7 26 16 34zM224 56q3 6 3 7l1 1q0 2 1 2q3 -1 1 -3q-3 -7 -9 -19q0 -3 -2 -1q0 6 5 13zM219 97l1 1h2q-2 -6 -2 -8q1 -2 -1.5 -2t-2.5 -1q0 2 2 5t1 5zM192 -39q0 1 -1 1l-1 2q2 1 4 -1t0 -3z
M206 -16l2 5q0 -4 -2 -5zM187 -24l-1 -1h-2q0 2 2 2zM262 154q1 -1 -1 -3q-2 2 1 3zM219 84q-1 0 -1 1t1 1q2 0 1 -1q0 -1 -1 -1zM203 43l1 -1l-1 -2q-1 0 -1 2q0 1 1 1z" />
    <glyph glyph-name="I" unicode="I" horiz-adv-x="258" 
d="M162 479q-3 -1 -10 -1t-10 -1q-3 0 -15.5 -2t-18.5 -2q-22 -1 -41 11q-3 3 -4 5q-9 13 -7 20v2q-1 5 -6 5q-4 2 -7 2q-3 2 -3 3q3 3 4 2q10 -4 20 3q4 3 13 1q3 -1 29 2q18 4 38 6q22 4 46 6q27 4 43 5l36 6q5 0 14.5 2t14.5 2t15.5 1.5t16.5 2.5l15 -3l1 -1q0 -2 1 -2
l-1 -2l-1 -2q2 -1 2 -3l1 -1v-2q-3 -1 0 -7q2 -3 -2 -3q-2 0 -7 -5q-1 -3 -5 -4q-1 -1 -9 -4.5t-11 -6.5q-1 -1 -3 -2.5t-3 -2.5q-4 -7 -18 -11q-22 -6 -38 -8q-9 -1 -10 -8q-1 -9 -10 -32q-4 -10 -7 -28q0 -1 -1.5 -5t-2.5 -6t-6 -23q-7 -31 -10 -41q-1 -3 -3 -8t-2 -8
q-1 -3 -3 -11t-3 -11t-2.5 -8.5t-2.5 -8.5q-1 -2 -1 -4t-1 -4l-9 -39l-3 -15t-3 -13q0 -2 -6 -37q-3 -13 -11 -39q-4 -20 -8 -28q-2 -5 -6 -18.5t-7 -20.5q0 -3 -2 -9t-2 -9t-4 -13l-3 -12q-3 -7 -3 -8q-1 -3 -4 -15l1 -2q2 -1 7 -1q10 0 28 -2q7 -1 14 -5l8 -2t8.5 -2
t7.5 -2h15q8 0 10 -6q0 -2 2 -2q2 -2 2 -3q-1 -1 -4 -1q-1 0 -2 -1q-4 -2 -4 -3q0 -2 -2 -2t-8 -1.5t-10 -0.5h-12.5t-15.5 -2q1 0 5 -1t6 0q-12 -2 -17 -1q-2 0 -6 0.5t-6 0.5q-3 -1 -21 0t-21 1q-27 -2 -31 -4h-2q-8 -4 -12 2q-1 1 -4 1q-4 0 -11.5 -2t-9.5 -2
q-3 -1 -10 -1q1 1 3 2t2 2t-2 1q-4 -2 -8 -2q-2 -1 -6 -1q-2 -1 -2 -3t-1 -2h-5q-2 3 -6 1q-5 -1 -9 2q-1 -6 -12 -8q-3 -1 -5 0l-2 1q-2 1 -2 2q0 2 4 2q3 1 4 4q-2 1 -5 0t-4 -1l-1 -1q-2 -1 -3 0l-5 4q1 2 0 4.5t-1 3.5q2 4 4 4l1 1q-1 4 3 4l3 1q19 8 37 12
q4 1 11.5 2.5t11.5 2.5q6 0 7 5q7 23 12 45q1 4 2.5 12.5t2.5 12.5q7 25 13 44q3 9 8.5 27t7.5 27q5 20 13 60q3 10 9 32q5 18 22 83l15 51q7 22 8 29q5 21 15 47q1 0 1 2zM9 -31q-10 0 -17 -6q3 1 8.5 3t8.5 3z" />
    <glyph glyph-name="J" unicode="J" horiz-adv-x="352" 
d="M15 457q-1 11 1 29q3 15 17 16q2 0 26 3q26 2 38 5q4 1 14.5 4.5l16.5 5.5q13 4 37.5 10.5t33.5 9.5q38 11 62 24l18 9q12 8 16 12q10 7 30 23q11 8 19 24q5 13 12 23q9 11 21 6h1q10 0 27 -15q2 -2 6 -4.5t7 -5t5 -5.5q4 -2 4 -6q0 -6 6 -18q0 -1 0.5 -3t0.5 -3
q-1 -3 -3.5 -15.5t-6.5 -18.5q-11 -19 -21 -56q-11 -39 -23 -65q-3 -9 -8 -27t-6 -23q-5 -18 -13 -52t-10 -43l-3 -9q-9 -15 -15 -49q-3 -17 -9 -32q-1 -3 -2 -9t-1 -7q-5 -27 -17 -59q-1 -3 -2 -8.5t-1 -6.5q-2 -4 -5 -11.5t-5.5 -13.5t-4.5 -11q-10 -22 -14 -27
q-4 -13 -18 -33.5t-17 -26.5q-15 -20 -19 -24q-2 -4 -4 -5q-6 -2 -15 -9t-15 -10q-10 -5 -18 -5q-4 0 -10.5 -2.5t-10.5 -2.5q-13 -3 -28 0q-9 3 -16 1h-4q-3 1 -9.5 2.5t-11.5 3t-9 3.5l-6 3q-16 4 -29 16q-3 3 -10 9t-12 11.5t-9 10.5q-29 42 -18 86q3 10 15 26q4 5 12 2
q14 -6 19 -20q3 -9 9 -25q2 -3 2.5 -10.5t1.5 -10.5q2 -8 6 -10q4 -1 20 -15q14 -14 44 -20q6 0 8 1q9 2 13 0t7 1q13 8 23 18q19 19 40 71q3 8 3 15q1 9 6 25t6 23q4 22 14 64.5t11 48.5l21 96q9 47 21 89q8 25 20 59q2 7 1 8t-7 -2q-10 -5 -30 -14t-30 -14
q-28 -10 -42 -13q-12 -3 -33 -10l-27 -9l-30 -9q-13 -6 -24 -4q-6 1 -9 -5l-3 -21l2 -5q2 -4 1 -6q-1 -5 2 -10q4 -7 -3 -10q-3 -2 -3 -3q-3 -8 -10 -4q-17 9 -23 23q-1 1 -1 2q-16 20 -13 49z" />
    <glyph glyph-name="K" unicode="K" horiz-adv-x="278" 
d="M129 579q1 0 2 -1h1q5 2 8 -1l4 -4q1 -4 7 -6q16 -4 19 -24q0 -9 4 -25q3 -17 -2 -31q-6 -19 -8 -45t-6 -51q-1 -5 -4.5 -14t-4.5 -13t-11 -19q-8 -11 -8 -24q0 -9 -1 -14q4 1 8 5l30 27q5 4 12.5 12.5t10.5 11.5l48 48q28 28 42 41q19 19 46 35q20 14 31 20q14 8 32 22
q1 1 3 0q-2 -5 -10 -11q-3 -3 -3 -6h3q0 -1 -2.5 -3t-2.5 -4q1 -1 3 1q2 3 4 3q1 1 2 0v-2q-3 -1 -1 -5l3 3q3 3 8 0q-4 -6 -4 -10l1 1q1 0 1.5 0.5t0.5 1.5q3 4 5 2l3 -6q0 -1 -1 -2q-3 -1 -5 -6q1 0 1 -1l2 -1q-13 -21 -37 -38q-11 -8 -31 -26l-30 -27q-7 -7 -23 -25
q-10 -12 -25 -26l-27 -27q-27 -27 -42 -39q-9 -7 -12 -8q-7 -4 -17 -16q-5 -7 -29 -26q-3 -2 -2 -4q4 -8 19 -50q2 -5 7.5 -18.5t8.5 -21.5q2 -5 8 -13q12 -17 16 -24q1 -2 4 -7t4 -8q2 -2 10 -25q1 -2 2.5 -7t1.5 -8q0 -2 2 -4.5t2 -3.5q9 -17 17 -28q14 -22 19 -34
q1 -4 -1 -11q-1 -1 -3 0l-1 1q-1 -2 -1 -7q-2 0 -4 1q-2 2 -3 2q-2 -1 -4 -10q-1 2 -3 2.5t-3 1.5q0 1 -2 1q-1 -1 0 -3q1 -1 1 -5t-3 -1h-2q-1 -2 -3 -8l-6 3q-3 1 -7 7q-4 8 -10 9q-2 0 -2 1q-30 43 -38 60q-3 7 -5 13q-6 13 -13 22q-6 6 -7 11q-2 6 -8 16.5t-8 16.5
q-1 2 -3 6.5t-3.5 8t-2.5 6.5l-9 18q-10 -19 -10 -22q-7 -26 -11 -44q-3 -15 -8 -37q-1 -5 -4.5 -21t-6.5 -24q-4 -11 -6 -13q-4 -10 -6 -16l-1 -3q-1 -3 -2 -4q-2 -4 -2 -5q1 -2 -1 -4t-1 -4l-1 1q-2 0 -2 -1q1 -4 -3 -4q-1 -1 -1 -2q1 -1 -1 -5q-2 -2 -3 1q-4 4 -7 -2v-1
q-1 0 -1 2l-1 1q-1 0 -1 2l-1 1q-4 -8 -7 -10v-5q-1 -1 -2 -1q-4 7 -10 1q0 -1 -1 -1q-5 -3 -5 -9v-5q-1 1 -1 3t-1 3q-1 0 -0.5 -2t-0.5 -2h-1q0 4 -5 6q-10 6 -8 22q1 5 9 53l18 90q1 5 3.5 19.5t4.5 22.5q3 16 11 46q4 15 8 43q8 36 11 54q6 41 6 43q6 46 11 71
q8 46 13 69q10 56 27 94q2 5 6 14.5t6 14.5q3 8 11 16q4 4 12 3q2 -2 1 -3t-1 -6q-2 -2 1 -3q2 0 2 2v8z" />
    <glyph glyph-name="L" unicode="L" horiz-adv-x="239" 
d="M274 51q0 -1 1 -1l1 -1l-2 -2h-1q-2 1 -21 -2q-3 -1 -8 -2t-7 -2q-3 -1 -8.5 -2.5t-7.5 -1.5q-1 -5 -7 -3l-2 -1q-2 -3 -6.5 -5.5t-6.5 -4.5q1 0 4 0.5t4 -0.5q-1 -2 -4 -2.5t-4 -1.5q4 -2 0 -2h-3q0 -1 -0.5 -2.5t-0.5 -2.5q-2 -7 -6 -8q-1 0 -4 -2t-5 -3q8 0 9 -3v0
q-1 0 -2.5 -0.5t-2.5 -1.5q-4 -4 -8 -3q-1 0 -2 -0.5l-3 -1.5t-3 -1q-5 -4 -13 -7q-1 -1 -7 -5q-1 -1 -11 -6q-2 -1 -22 -15q-1 -1 -3 -2t-3 -2q-4 -2 -4 -4q0 -1 -3 -1q-1 -1 -3 -1.5t-3.5 -1.5t-2.5 -3q-3 -1 -8 -2.5t-6 -1.5q-8 -3 -9 -4q-4 -1 -11.5 -5.5t-12.5 -6.5
q-7 0 -8 3q-1 4 -7 2q-1 0 -2.5 -0.5t-2.5 -0.5q-8 -2 -11 6q0 1 -0.5 3t-0.5 3q-2 5 -5 7q-5 3 -11 12q-1 2 -7 22v3q2 2 2 7v6q0 7 5 45q4 22 14 66q12 44 17 66l18 78q6 26 10 39q2 9 6.5 25.5t8 30t6.5 25.5q14 56 19 71q11 33 24 94q6 21 15 43q0 1 1 3t1 3q2 5 3 5
q16 13 23 10q5 -3 10 -2q2 0 4.5 -2t3.5 -2q5 -2 8 -6q3 -3 9 -5q9 -3 9 -15q2 -20 1 -30q-1 -16 -6 -34q-1 -5 -2.5 -14t-2.5 -13q-4 -16 -7 -24l-6 -18q-5 -19 -15 -52.5t-13 -45.5q-2 -9 -6.5 -27t-6.5 -27q-3 -11 -8.5 -33t-8.5 -33t-7 -33q-3 -11 -8 -33t-8 -33
q-2 -7 -6.5 -29t-7.5 -34q-7 -18 -10 -44q0 -3 3 -3t15 5q5 2 43 17q46 20 69 27q15 4 41 8q17 1 32 -6l1 -1q-2 -2 -5.5 -2.5t-4.5 -1.5zM185 7q2 0 6 2q-5 0 -6 -2zM194 14q0 2 -1 2t-1 -1v-2z" />
    <glyph glyph-name="M" unicode="M" horiz-adv-x="467" 
d="M293 172q0 1 2 7t4 9q1 1 1.5 4.5t0.5 4.5q1 4 6 17.5t7 20.5q2 6 3 10q-6 -6 -6 -11q0 -2 -2 -9q-5 -12 -8 -22l-6 -15l-21 -48q-2 -7 -6.5 -19.5t-6.5 -17.5q-6 -18 -10 -27q-7 -22 -16 -38q-19 -34 -27 -41v-1q-8 -11 -9 -11q1 -3 -4 -3h-2t0 -1q0 -1 -1.5 -4t-1.5 -4
q-1 0 -4 1.5t-5 0.5q-1 0 -1 2q-1 1 -2.5 3t-2.5 3q-2 1 -3 3.5t-2 2.5q-1 1 -4 1.5t-4 0.5q-4 2 -4 3t-2 1q-5 0 -6 4q0 1 -1 2l-2 2q-4 1 -4 7q-4 30 -2 41q1 8 3.5 22.5t3.5 20.5q0 4 12 64q2 10 5 31t5 31q3 14 8 34q4 27 12 54q4 17 14 51q2 6 2 9q-3 -2 -10 -14
q-4 -8 -14 -22q-2 -4 -11.5 -18.5t-13.5 -23.5q-3 -4 -8.5 -13t-7.5 -13q-19 -28 -32 -56q-2 -5 -6 -13q0 -2 -1 -2q-3 -2 -6 -7t-3 -6q-2 -2 -7 -13q-3 -5 -7 -15q-1 -2 -4 -5q-9 -11 -14 -29q-4 -12 -11 -26q-4 -8 -4 -11t-2 -4t-4 -7l-1 1q-1 3 -2 2q-2 -1 -2 -3
q0 -4 -5 -6q-5 -4 -2 -8h1l-3 -1q-1 0 -2 1t0 2l-2 2q-1 0 -1 -2q-1 -1 0 -2.5t0 -2.5q-5 -9 -10 -11q-4 -4 -5 2q0 2 -1 3t-2 -1q-1 -1 -3 0q-3 5 -10 7q-1 0 -3 2l-2.5 5t-2.5 5.5t-1 4.5q-1 6 1 20q4 12 6 24q1 4 3.5 13.5t3.5 14.5q5 24 7 28q1 4 2.5 12t2.5 12
q8 38 11 57q4 16 12 50q7 31 13 53q4 14 14 42q4 11 8 35q2 8 4.5 22t3.5 21v9q-1 3 -2 9.5t-1 9.5v1q0 10 -1 14q-2 10 10 14q1 1 4 1t5 1q3 0 4 -1q1 0 7.5 -4t8.5 -8q2 -2 2 -3q1 0 2 1v1q6 -10 10 -14q1 -2 5 -9t7 -10q7 -11 7 -27v-6.5v-7.5v-6q0 -26 -3 -38
q-9 -34 -13 -43q-6 -18 -8 -28q2 2 4 6q38 62 45 70q32 45 43 58q12 12 18 19q3 3 8 3q2 0 8 -1.5t9 -0.5q1 0 3 -2h1l2 -1q1 3 7.5 0.5t7.5 -2.5h1q17 -15 19 -19l1 -1v-1q7 -5 11 -17q5 -8 -1 -17q-5 -11 -9 -31q-1 -6 -2.5 -12.5t-3.5 -14.5l-3 -12q-2 -6 -5 -19t-5 -19
q-6 -18 -7 -28q-4 -17 -5 -28q0 -3 -2 -5q-1 -4 -3.5 -13.5t-3.5 -14.5t-2 -14t-2 -13q-1 -5 -3 -15.5t-3 -15.5q-1 -7 -4 -20t-4 -19q1 2 4 9q2 4 5.5 13t5.5 14q0 2 2 4t3 4q3 13 11 36.5t11 31.5q3 12 9 24q3 5 6.5 15.5l4.5 13.5q8 21 26 63q7 16 21 46q21 45 37 68
q16 25 31 46q10 14 15 19q7 7 17 5q4 0 6 1q9 1 15 -5q2 -2 6 -7.5t7 -7.5q2 -2 6 -7l6 -9q3 -3 3 -8q2 -17 -2 -29v-1q0 -6 -5 -31q-2 -7 -5 -21t-5 -21q-2 -5 -4.5 -16.5t-3.5 -17.5q-1 -4 -3 -13.5t-3 -14.5q-1 -6 -3 -20l-12 -54q-1 -5 -3.5 -13.5t-3.5 -11.5
q-2 -7 -7 -29q-4 -8 -4 -14q2 0 2 2q1 0 1 0.5t1 0.5v-1q-1 -5 -9 -26q-3 -10 -11 -30q-4 -12 -7 -17q0 -1 -1 -2.5t-1 -2.5q0 -4 -4 0q0 -4 -3 -11t-3 -10q0 -1 1.5 0.5t1.5 -0.5l1 1q1 2 3.5 6.5t3.5 6.5q1 1 2 2.5t1 2.5h3v-2q-2 -2 -4 -7t-3 -7q-4 -8 -4 -11l3 3t4 2
q1 -3 -1 -13q-2 -6 -6.5 -18t-7.5 -18q-1 -3 -2 -8t-2 -8q2 2 4.5 6t4.5 6q-4 -17 -7 -22q-2 -3 -3 -9t-3 -9q0 -1 -1 -3.5t-1 -3.5q-1 -1 -2 -1v2q0 1 0.5 4.5t0.5 6.5q-3 -6 -3 -9q-2 -2 -2 -4l-2 -2q1 -2 -0.5 -5.5t0.5 -5.5q0 -1 -1 -2.5t0 -2.5q2 -1 3.5 1t2.5 2
q0 -1 -1 -4.5t1 -5.5l1 2q0 1 1 1q-3 -14 -5 -16q1 3 -1 7h2q0 2 -1 2t-1 -1t1 -1q-2 -2 -2 -5.5t-1 -4.5h1h1q1 1 1 0q1 -1 0 -2l-1 -1q3 -3 -1 -4q0 -1 1 -2v-5q2 -2 -1 -2q-2 0 -6 -4q-3 -5 -7 -6q0 -1 -1 -1q-2 -5 -3 -5h-3q-2 0 -3 -1h-2q-1 1 -3 0q-2 -5 -5 0
q-2 3 -8 5q-6 3 -9 12q0 2 -1 3q-4 8 -4 20q-2 11 -1 16q0 1 3 32q3 17 4 19v1q0 4 8 51q2 14 4 21q0 1 2 13t4 18q1 6 3.5 20t4.5 21q1 6 3.5 17.5t3.5 16.5q3 20 14 74q1 6 4.5 20.5t5.5 22.5l15 72q0 3 1.5 9l2.5 10q-3 -1 -3 -5q-8 -18 -16 -31q-3 -4 -8 -13t-8 -14
q-1 -1 -1 -3q-3 -7 -11 -21q-3 -5 -5 -10q-3 -7 -9 -19t-8 -17q-4 -9 -10 -27q-1 -4 -4.5 -14.5l-5.5 -16.5l-9 -21q-5 -15 -10 -25q0 -2 -2 -2zM395 86q-3 -5 -8 -33q1 3 11 28q-2 -1 -3 -3t-2 -2q1 2 1 5t1 5zM381 12q5 14 7 17q1 1 1 4q0 2 -1 3q-1 0 -3 -2
q-2 -10 -3 -14q-2 -6 -1 -8zM384 39q0 1 1.5 2.5t1.5 3.5h-1q-2 -1 -2 -3v-3zM384 6q1 0 1 2q0 1 -2 1v-2q0 -1 1 -1zM320 255q-2 -1 -2 -5q2 4 2 5zM293 172q1 -2 -2 -10q-3 -5 -7 -17q-2 2 -1 3q2 4 5 12.5t4 9.5q0 2 1 2zM277 129q-1 -1 -1.5 -4t-2.5 -4q0 5 4 8z
M277 129q-1 3 3 7q-1 -3 -3 -7z" />
    <glyph glyph-name="N" unicode="N" horiz-adv-x="361" 
d="M479 605h1q-7 -21 -9 -24q-2 -2 -4 -6l-3 -4q-2 -6 -7.5 -21.5t-7.5 -23.5q-3 -11 -10 -30t-8 -23v-1q0 -4 -12 -36q-2 -5 -5.5 -14.5t-5.5 -14.5q-5 -11 -8 -21q-3 -6 -10 -28q-8 -25 -19 -51q-9 -24 -25 -72q-4 -12 -13.5 -35.5t-14.5 -34.5q-2 -7 -6.5 -20t-6.5 -19
q-3 -13 -19 -49q-1 -3 -5 -11.5t-7 -13.5q-5 -7 -9 -23t-8 -24q-1 -3 -4 -13q1 -2 3 -3h1.5t0.5 -1q-1 -3 -3 -1q-5 1 -6 -3q-9 -20 -23 -36q-2 -2 -6 -4.5t-6 -4.5q-2 -3 -3 0v3q-2 0 -2 -2q-2 -4 -5 -1t-7 1q-3 -1 -3.5 0t-1.5 5q-4 16 -4 41q0 7 -2 19q-1 6 -3.5 17.5
t-3.5 17.5q-4 20 -5 30q-4 24 -6 49q0 11 -2.5 37t-2.5 40q0 10 -5 60q0 3 -0.5 11t-0.5 12q1 24 -2 54q0 1 -0.5 4.5t-1.5 5.5q-5 -6 -6 -12t-18 -67q-1 -2 -2 -6t-2 -6q-2 -6 -4.5 -16.5t-3.5 -14.5q-12 -31 -16 -38q-1 -1 -4.5 -11t-5.5 -16q-7 -16 -16 -42
q-1 -5 -14 -27l-4 -8q-6 -20 -20 -60q-7 -19 -19 -39q-4 -5 -5 -11q-4 -16 -7 -20q-2 -2 -4 -7t-2 -6q-3 -8 -9 -5l-2 2q-1 -1 -2 -3.5t-3 -3.5q-3 -2 -3 -6q-3 -9 -6 -15q-3 -10 -9 -17q-2 -2 -6 -2t-6 -5t-4 -5q-6 -2 -9 2q-6 7 -4 12q3 8 1 12q-1 2 2 13q11 45 16 60
q4 10 13 47q8 31 26 93q4 14 16 50t18 56q3 7 15 52q7 25 23 75q4 13 13 39t13 38q15 43 19 51q1 0 1 1q4 7 9.5 19t6.5 14q8 17 22 18l12 3q15 -2 21 -12q5 -10 7 -16q2 -9 3 -10q8 -14 12 -42q3 -30 3 -31v-12q-2 -17 1 -29q0 -5 1 -16t2 -16q0 -6 2 -22t2 -25q1 -5 1 -15
t1 -15q1 -2 1 -6v-6q0 -4 0.5 -11.5t0.5 -12.5q0 -1 -2 -5q-3 -10 -2 -18q1 -7 1.5 -21t1.5 -21q0 -3 2.5 -14.5t1.5 -17.5q-1 -12 -1 -36q1 -5 1 -17v-18q1 -5 1 -16q2 4 4 11.5t2 8.5q1 4 4 12.5t4 12.5q10 28 14 42q5 18 19 54q1 2 3.5 8.5t3.5 8.5q3 9 7 17q2 3 7 18
l21 57q10 30 16 43q4 8 10.5 23t9.5 22q16 34 23 52q8 23 18 44l12 24q6 15 7 18q2 5 6 13.5t5 12.5q5 11 6 17q6 12 10 18q6 11 9 19q1 5 10 20q3 6 7 18q2 4 4 6q1 2 4 4.5t4 1.5q2 -2 2 -7q1 -1 1 -2v-2q2 -3 3 0q3 3 4 1l5 2q2 -1 0.5 -5t-1.5 -5v-11q1 -4 -1 -8
q-4 -6 -4 -8q0 -1 -5 -6q2 9 1 11q-5 -4 -1 -11zM224 43q1 1 1 3q0 1 -1 1q-1 -1 -1 -3v-2z" />
    <glyph glyph-name="O" unicode="O" 
d="M193 527q6 -1 9 5q1 2 3 4q2 1 8.5 5.5t11.5 5.5q2 1 29 15q18 9 32 9q12 0 18 1q9 1 19 -2q21 -4 38 -20q9 -9 16 -27q5 -10 9 -40q2 -13 2 -60l-3 -51q-4 -32 -12 -68q-15 -56 -26 -88q-16 -41 -41 -80q-26 -38 -32 -46q-25 -36 -57 -67q-24 -23 -64 -50
q-17 -12 -34 -18q-5 -2 -7 -1l-1 1q-2 -1 -16 5q-7 3 -13 9q-2 2 -6.5 5t-6.5 5l-2 2q-3 -1 -8 1t-7 2h-1q-3 3 -11 7.5t-11 7.5q-2 3 -6 7.5t-6 6.5l-6 6q-5 2 -9 10q-4 7 -16 41v5q0 4 -2 4q-1 1 -1 3v5q1 4 0.5 10.5t-0.5 9.5q0 5 -3 7q-3 1 -5 10v21q2 14 3 20
q5 17 6 34t8 35q6 18 9 28q1 2 2 6.5t1 7.5q5 19 15 38q2 4 6.5 11t5.5 9l3.5 7t4.5 7q7 12 10 15l6 9l12 18q2 7 6 7q1 2 4 6l3 4q2 4 8 11t8 11q4 5 4 6l2 2q4 0 4 3l8 11l2 2q1 4 11 16q6 10 12 16q3 3 5 8q1 2 5 4q1 1 2 0v-2q5 2 8 9q0 1 4 5q10 10 13 11q10 5 12 8
l1 1q1 1 1 2q-1 2 2 5q3 2 17 7q1 -1 -2 -4q-6 -4 -10 -8q-4 -2 -4 -5h-3v-2q0 -1 2 -1q1 1 0 2q1 1 1 2zM337 469v-6v6v1q0 2 -2 17q0 3 -2 1q-1 -6 3 -18zM311 489v-2q0 -2 -2 -2t-2 2q1 4 1 10q2 6 -1 10q-2 2 -2 3q0 2 -3 4q-9 4 -22 2h-4q-4 -1 -4 0q-3 1 -11 -2
q-1 -1 -2.5 -1.5t-3 -1.5t-2.5 -1q-14 -6 -31 -21q-7 -6 -37 -39q-23 -26 -38 -51q-2 -3 -27 -53q-4 -8 -12 -25t-13 -26q-7 -15 -11 -28l-12 -42q-5 -12 -7 -29q-2 -10 -6 -32t-5 -34q0 -36 1 -44q1 -10 5 -21q1 -4 6 -15q2 -4 4 -4q1 0 3.5 0.5t4.5 1t4 1.5q3 2 9 4t7 2
q3 1 7 3q2 1 7.5 4.5t8.5 4.5q12 6 17 10q21 14 43 40q2 3 10 12t12 15q4 5 11.5 15.5t11.5 15.5q13 17 27 46q2 4 4.5 10.5t5 12t5.5 10.5q2 4 2 5q6 14 13 34q9 25 9 28q1 3 3 11q1 3 3.5 11t3.5 13q1 3 9 34q2 12 5 16q2 3 7 20l2.5 7.5t2.5 8.5t1 8q0 1 1 2t1 5
q-1 2 -1 8q0 2 -3 14q-1 -1 -1 -2q-1 -2 -1 -3q-1 -5 -5 -15q-2 -5 -5 -3q-2 2 -2 -1l-1 -1q0 -2 -1 -2q-1 2 1 5q3 15 3 16q-1 3 0 6q2 4 -2 5q1 4 -2 5zM-1 46q0 19 -6 25q3 -20 6 -25zM331 483v4.5t1 4.5t-1 3q0 1 -1.5 0.5t-2.5 -0.5v-3q2 -6 4 -9zM326 525q0 7 -10 7
q3 -5 10 -7zM331 503q-1 2 -5 6q0 -4 5 -6zM314 508q1 -1 2 -3t3 -3q-3 5 -5 6z" />
    <glyph glyph-name="P" unicode="P" horiz-adv-x="292" 
d="M117 205l-3 -3q-4 -1 -4 -6q-2 -13 -11 -50q-2 -4 -4.5 -12.5t-3.5 -12.5q-2 -6 -4 -18q-1 -6 -7 -18l-3 -3q-4 4 -2 9q4 7 4 17q0 3 2.5 8.5t1.5 9.5q-7 -7 -7 -12q0 -6 -5 -9q-3 -1 0 -5v-2q-1 -9 -7 -23l-3.5 -7t-3.5 -8q-1 0 -1 -1t-1 -2q-2 0 -2 2q1 2 3 9.5t5 11.5
q1 2 3 7t4 7q-2 1 -3 -0.5t-2 -1.5q-1 1 0 3t1 3q-1 1 -2 0.5t-1 -1.5q-1 -3 -2.5 -6.5t-1.5 -5.5l-3 -9q0 -6 -3 -12q-4 -5 -7 -13q-1 0 -1 -2q0 -5 -10 -28q0 -1 -1 -3q0 -3 -2 -7.5t-2 -5.5q-1 -3 -3.5 -8t-2.5 -6q-1 -3 1 -9q-1 4 5 12q0 1 1 3q0 1 0.5 2.5t1.5 1.5
q2 1 4 7q5 8 10 7q-2 -5 -6.5 -16t-6.5 -17q-1 -2 -2.5 -6t-1.5 -7q-1 -4 4 -7q2 0 2 -1q0 -3 -2 -3q-1 0 -2.5 -1t-2.5 -2t-2 -1q-3 -2 -3 -3q-1 -7 -8 -6q-3 1 -3 -3q-3 -6 -8 -10q-1 0 -1 2t-1 2l-3 -8q-2 -4 -4 -4q-1 0 -2 -2t-2 -1t-4.5 2t-4.5 3q0 3 -1 3
q-12 7 -10 25v6q6 18 13 46q9 29 25 87q4 19 14 58t15 59q8 39 25 104q12 46 28 90q6 18 8 28q-5 -1 -13.5 1.5t-11.5 2.5q-10 1 -22 11q-3 3 -9 7q-7 2 -3 7q0 2 -1 2q-5 5 -7 26q-1 4 4.5 9t12.5 5q3 -1 8 2q42 23 52 26q18 8 28 11q5 3 4 7q-1 11 13 25q5 6 15 4
q17 -4 23 -9t14 -2q9 2 38 11q22 6 66 12q21 3 46 1q34 0 58 -24q17 -18 22 -38q6 -18 6 -36q0 -25 -9 -42q-3 -6 -8 -11q-11 -13 -22 -28q-4 -5 -6 -7q-2 -1 -3.5 -3t-3.5 -4l-3 -3q-6 -6 -16.5 -15.5t-14.5 -13.5q-10 -10 -44 -32q-22 -14 -25 -16q-5 -2 -6 -1q-2 2 -2 0
q-1 -1 -17 -6q-3 0 -5 -2q-4 -3 -12 -8.5t-12 -8.5q-26 -20 -41 -28h-1q-6 -1 -16 -7t-12 -7q-4 -2 -14 -7.5t-16 -7.5q-4 -2 -5 -4q0 -3 -4 -5q-8 -6 -10 -15q0 -3 -1 -5h3t2 -1zM34 41q2 1 3 3t1.5 3.5t1 4t1.5 3.5q-7 -7 -6 -15q-5 -3 -7 -14q4 4 6 15zM26 17q0 3 -1 4
q-4 -3 -6 -10q1 -1 5 3q1 -1 1 -3q4 6 4 8q-1 0 -3 -2zM357 493q-1 1 -2 1q-4 1 -13 -1q-30 -1 -67 -13q-27 -7 -59 -18q-10 -2 -12 -9q-3 -7 -8.5 -20t-8.5 -19q-12 -26 -17 -40q-9 -22 -20 -46q-3 -8 -2 -10l1 1q1 1 2 1q4 2 21.5 15t27.5 19q31 22 59 41t46 36q6 6 36 41
q2 3 7.5 10t8.5 11zM17 -6q3 0 3 2q1 1 2 5t2 5q0 1 -1 2q-2 0 -2 -2t-2 -6t-2 -6zM14 -7q-4 -3 -3 -9zM41 76q2 1 2 2q0 2 -1 2q-2 0 -3 -3q0 -1 2 -1zM3 -51q4 4 2 6q-3 -2 -2 -6zM61 32q-2 -3 -4 -9.5t-5 -10.5q0 3 1.5 7.5t1.5 6.5v2q4 2 4 9q0 3 2 2q1 0 1 -2
q0 -1 -0.5 -2.5t-0.5 -2.5zM117 205q0 1 0.5 2.5t1.5 2.5q2 2 3 1q1 0 1 -1q1 0 -1 -2q-1 0 -2.5 -1t-2.5 -2zM69 68q-1 2 1 7q2 -2 2 -3l-1 -2zM65 55q2 8 3 9q2 -4 -3 -9zM50 34q0 -3 -3 -4q0 4 3 4zM66 51q0 -2 -2 -3q-1 -1 -1 -2q-2 2 1 5h2zM59 58q-1 -1 -4 -1l1 1
q0 2 1 2q1 1 1.5 0.5t0.5 -2.5z" />
    <glyph glyph-name="Q" unicode="Q" horiz-adv-x="372" 
d="M175 147q2 0 4 -4q0 -5 3 -1l2 -1q0 -2 1.5 -4.5t1.5 -3.5q0 -2 2 -5l2 -2l8 -16q2 -6 5 -7q0 -3 1 -4q1 1 0 3l-1 1q5 1 8 6q12 18 36 70q38 87 42 97q19 49 28 81q2 7 7 23t7 25q6 26 6 41q0 6 1.5 16t1.5 16l1 1v2q0 6 -6 6q-20 -2 -32 -9q-6 -4 -13 -6
q-4 -2 -12 -6.5t-11 -6.5q-7 -5 -8 -5q-16 -9 -30 -28q-10 -10 -13 -16q-5 -5 -7 -4l-1 -1q-1 -3 -12 -7q-2 -1 -5 -4q-5 -8 -8 -9q-1 3 0 4q1 3 1 7q-2 5 -7 3q-5 -3 -7 -9q-3 9 2 15t11 18q7 17 26 38q4 6 30 31h1l1 1q0 2 2 3t2 2q-3 -1 -4 -5q-3 1 -7 -3
q-21 -19 -27 -26h-2q2 3 6.5 7.5t5.5 6.5q1 1 2.5 2t2.5 2.5t2 2.5q-4 -2 -11 -8.5t-12 -9.5q1 4 5 6q15 20 43 41q36 22 38 23q30 12 52 16q8 0 12 -1q1 -1 8 -3t10 -5q4 0 7 -2.5t6.5 -6.5t5.5 -5q2 -2 6 -6.5t6 -6.5q9 -9 9 -23q0 -3 1 -9t1 -10q2 -16 -4 -48
q0 -3 -0.5 -8.5t-1.5 -8.5q-1 -15 -8 -35q-3 -12 -8 -28q-10 -24 -16 -36q-11 -18 -15 -37q-5 -24 -7 -29l-3.5 -10.5t-4.5 -11.5q-3 -5 -7 -17l-9 -18l-9 -18l-1 -1v-2l1 1h2q0 -2 -2 -6q-11 -23 -25 -39l-18 -27q-14 -20 -37 -45q-8 -10 -4 -19q1 -1 1 -3t1 -3q2 0 2 2v2
q5 -5 1 -10v-3q5 -14 18 -33q10 -16 16 -23l1 -1q-1 -3 -1 -4t2 -2t2 -2q3 -3 0 -3q-2 0 -2 -5q2 -5 -2 -9q-3 -2 -8 0q-3 2 -8 4t-8.5 4.5t-6.5 6.5q-6 1 -17 18q-3 4 -9 15t-10 16v3q0 2 -1 3q-1 0 -4 -3q-1 -1 -5 -4.5t-7 -5.5q-2 0 -4 -3q-1 -1 -2 -3t-2 -2
q-27 -16 -30 -17q-8 -1 -22 -7q-23 -7 -40 -7q-25 0 -44 11q-4 3 -12 7.5t-12 6.5q-17 13 -30 32q-16 26 -19 58q-3 29 5 85q5 22 10 56q6 36 22 85q12 34 19 52q4 8 10 23t10 22q6 12 16.5 32t14.5 28q12 24 50 74q21 28 38 45q36 36 62 50l12 6q13 6 28 -2q11 -7 13 -22
l1 -1q3 -6 1 -17q0 -6 -4 -18t-16 -23q-22 -20 -32 -30q-11 -11 -31 -33q-12 -15 -34 -47q-4 -7 -13 -21t-13 -21q-9 -15 -19 -34q-9 -21 -11 -26q-3 -9 -10 -26t-10 -26q-1 -2 -3 -6.5t-3 -7.5q-14 -42 -16 -55l-12 -54q-1 -5 -2.5 -14t-2.5 -13q0 -1 -1 -4t-1 -4
q-2 -5 -4 -15q-4 -42 6 -64q9 -22 31 -29h1q17 -9 49 7q19 9 45 41q3 3 0 7q-1 2 -5 7.5t-6 7.5t-3.5 4.5t-2.5 3.5q-5 7 -7 7q-1 1 -2 3l-1 1q-17 24 -23 29q-5 5 -5 12t6 8q1 0 2.5 0.5t2.5 1.5q2 6 10 2v2q0 5 3 2l1 -1h2q2 -3 6.5 -4t6.5 -3q-1 3 -3 5t-2 3q2 -1 5 -4
t4 -3q1 -4 5 -4q1 -2 2 -1z" />
    <glyph glyph-name="R" unicode="R" horiz-adv-x="318" 
d="M138 376q1 0 6 8q9 19 39 66q9 13 29 39q23 27 28 33q20 19 50 32q23 10 38 14q27 6 53 -11q6 -4 19 -22q6 -9 13 -41q0 -10 -2 -15q-2 -9 -6 -29q-6 -21 -20 -40q-14 -20 -22 -29q-4 -4 -11.5 -12.5t-11.5 -12.5q-2 -1 -4 -5t-7.5 -10t-7.5 -9l-9 -9t-10 -12l-3 -3
q-4 -3 -11.5 -10t-11.5 -10q-30 -26 -46 -37q-13 -9 -39 -25l-16.5 -11t-15.5 -10q-3 -3 0 -5q3 -4 7 -13t6 -13t5.5 -12.5t5.5 -12.5q2 -6 8 -18q5 -8 11 -26q1 -3 12 -28l8.5 -17t7.5 -17q1 -3 5 -9q2 -3 6.5 -10.5t7.5 -11.5q15 -18 29 -22q8 -2 13 -7q-3 0 -9 2
q-4 -2 0 -7l3 -4q-2 0 -4 -0.5t-3 -0.5q-2 0 -2 -2t2 -2q1 0 4 -1.5l5 -2.5q-1 -1 -7 0t-7 1q1 -2 1 -7q-7 0 -21 6q-10 6 -15 8q-6 2 -11 9l-24 21q-21 26 -26 35q-1 3 -5 8.5t-5 8.5q-14 22 -24 57q-3 9 -18 50q-5 13 -8 23q0 2 -1 3q0 4 -3 2q-3 0 -4 -3t-2 -8.5t-1 -8.5
q-1 -5 -3 -15.5t-3 -15.5q-1 -8 -5 -25.5t-5 -25.5q0 -2 -2 -8t-2 -9q0 -2 -2 -4t-12 -31v-4q0 -5 -2 -6q-2 -2 -7 -15q-4 -8 -6 -13q-1 -1 -2 1l-1 1q-1 -2 -3.5 -5t-3.5 -5q-6 -8 -15 -1q0 -2 -1 -4.5t-1.5 -5t-0.5 -5.5l-1 -2h-8q-1 2 -3.5 2.5t-3.5 1.5q-1 2 -3 3l-3 1
q-1 1 -4 3t-5 4t-2 5v2q-6 4 -4 16q1 14 5 42q2 22 10 66q7 38 12 75q1 9 3.5 27t4.5 27l3 30l6 48q11 64 12 68q10 58 17 86q0 2 2.5 14t3.5 18q1 3 1 8t4 15q1 2 16 11h2l15 -3q6 -2 10 -4q2 -3 7 -7.5t8 -6.5q12 -11 17 -28q5 -14 3 -29q-1 -9 -7 -27v-6q4 -15 -1 -32
q-2 -4 -4.5 -13t-3.5 -13zM140 288l4 2q17 11 49 35q5 4 11 9t13 10.5t11 9.5q7 6 20.5 18.5t20.5 18.5q24 21 47 44q20 22 38 44q10 10 11 22q0 9 -7 13q-13 5 -24 1q-1 -1 -5 -2.5t-6 -2.5q-28 -12 -40 -23q-4 -4 -7 -6q-10 -5 -24 -23l-6 -9q-18 -20 -41 -54
q-2 -4 -5.5 -10t-5.5 -10q-1 -2 -17 -23q-10 -11 -19 -31q-6 -12 -9 -17q-1 -3 -4.5 -8t-4.5 -8z" />
    <glyph glyph-name="S" unicode="S" horiz-adv-x="324" 
d="M79 -74q-24 -1 -44 11q-4 3 -13 6t-13 6q-7 4 -10 13q-1 4 -3.5 10.5t-3.5 8.5q-5 20 0 40q6 25 15 38q36 49 70 71q8 5 23.5 16.5t22.5 16.5q5 4 2 11q-20 44 -33 65q-24 36 -50 100q-18 48 -13 90q2 17 9 22q2 1 4 10q8 29 36 61l54 51q18 16 48 24q19 5 20 6
q13 4 19 1h6q8 1 22 -3q12 -4 24 -16q3 -2 8 -7.5t7 -8.5q4 -4 4 -8q1 -9 5 -25.5t5 -24.5q2 -17 -4 -29q-12 -27 -30 -51q-20 -28 -39 -50q-2 -2 -6.5 -5t-6.5 -5q-1 -1 -3.5 -2.5t-3.5 -2.5q0 -1 -2 -3q-2 -1 -3 -1q-3 2 -10 -1t-11 1q-20 15 -22 25q-3 6 -1 14
q6 17 16 31q4 6 19 29t23 36q14 24 20 43q3 9 0 19q-3 11 -14 9q-35 -5 -60 -23q-5 -3 -14 -12q-2 -2 -4 -6q-1 -16 -17 -30q-9 -9 -10 -18q-1 -3 -5 -16q-3 -9 1 -31q0 -1 2 -9.5t1 -13.5q-1 -3 1 -7q12 -27 27 -54q4 -8 16 -26.5t17 -28.5q6 -11 18.5 -30.5t15.5 -24.5
q1 -1 6 -7t6 -10t5 -2q2 1 4.5 2t3.5 1q20 11 97 46q37 16 49 19q6 2 22.5 8t25.5 8q14 3 20 -8q1 -1 -1 -5q-4 -4 -8 -4q-7 -1 -12 -5q-2 -2 -8 -4q-7 -2 -34 -14q-21 -9 -28 -20q-2 -2 -6 -4q-3 -2 -9.5 -4.5t-9.5 -3.5q-14 -6 -20 -12q-3 -3 -10.5 -7.5t-9.5 -5.5
q-2 -2 -8 -5.5t-8 -5.5q-7 -8 -21 -17q-1 0 -2 -1q-1 -2 -4.5 -8.5t-4 -8.5t-1.5 -9t2 -10q5 -9 3 -19q0 -16 1 -24q1 -5 -1 -11t-4 -16.5t-2 -11.5q-6 -18 -21 -41q-8 -12 -11 -18q-5 -11 -24 -26q-26 -22 -41 -32l-6 -3q-41 -12 -43 -12q-6 -1 -19 -1zM158 82q1 10 -8 34
q-2 7 -9 4l-7 -3.5t-8 -3.5q-8 -1 -20 -11q-9 -9 -29 -25q-23 -18 -35 -39q-2 -4 -3 -5q-6 -6 -10 -20q-2 -8 2 -13l3 -6q1 -8 10 -17q4 -6 12 -4q17 4 23 5q11 0 27 10q2 1 5 3.5t4 3.5q19 14 37 45q2 4 2 8q1 5 4 34z" />
    <glyph glyph-name="T" unicode="T" horiz-adv-x="250" 
d="M73 -133q1 -3 -1 -10q0 8 1 10zM75 -128q0 1 2 1q3 2 4 3q2 -9 -4 -12q-2 7 -2 8zM59 -123q-1 6 5 13q0 -3 -5 -13zM58 -138q2 0 3 -1q2 -2 -1 -4q-1 -1 -2.5 -3.5t-3.5 -3.5v9q2 3 4 3zM61 -44q0 4 3 4t1 -4q-3 -12 -6 -13q2 10 2 13zM69 -12q1 -4 -1 -10l-3 -7
q-2 8 4 17zM287 540q-22 -60 -33 -91q-2 -5 -7.5 -20t-8.5 -23q-3 -9 -7.5 -26t-6.5 -23q-5 -19 -7 -22q0 -1 -6 -29q-3 -18 -13 -49q-4 -13 -11 -29q-2 -6 -2 -9q0 -4 -1 -4q-3 -2 -4 -4.5t-1.5 -6t-1.5 -4.5q-3 -9 0 -11q2 -1 -1 -6q-3 -10 -9 -28t-8 -28q-14 -52 -23 -77
q-1 -4 -2.5 -12.5t-2.5 -12.5q-1 -8 -8 -32q-3 -8 -4 -10q-2 10 -5 12q-1 1 -1 5q0 3 -2 3t-2 -3v-5q-2 2 -1.5 5t-0.5 4q-3 1 -3.5 -2.5t-1.5 -3.5t-0.5 2t-0.5 3l-2 -3q-2 -3 -4 -4q-1 0 -1 -3q4 -9 -4 -10q-1 0 -2 -2t-2 -2q-3 1 -3 7q0 3 0.5 5.5t1.5 6t1 5.5q0 1 0.5 4
t0.5 4q0 4 -1 4q-3 0 -3 -3q-1 -4 -2 -11.5t-1 -10.5v-2q-1 -1 -3 -2q0 4 1 9.5t1 8.5q0 4 -1 4q-3 0 -3 -3q1 -6 -8 -15q-5 -5 -5 -10t-3 -11q-13 -29 -14 -39q0 -6 5 -7q2 -1 3 1q0 3 3 3.5t4 -0.5q4 -3 6 3q1 16 6 31q0 3 2 4q1 -8 -2.5 -22t-3.5 -20q1 0 4 2.5t5 0.5
q1 -1 3 3q0 5 2 11h1v1q0 1 0.5 3t0.5 4q2 2 -1 2q-2 0 -2 -2q0 -1 0.5 -3.5t1.5 -3.5v-1h-1q-6 6 0 13q2 2 4 12q0 1 2 5v-5v-1l1 -2q8 -9 4 -18v-4q2 -1 4 2q1 1 1.5 5t2.5 6q0 -2 -0.5 -5.5t-0.5 -5.5q-2 -6 -6 -5q-3 1 -3.5 -0.5t-0.5 -4.5l3 -3q2 0 2 1v3q1 -1 2 -1
q7 -6 10 3v8q0 1 -1 3q-1 6 3 8q-3 3 -1 9q0 8 1.5 10t9.5 4q4 -5 2 -15q-1 -13 -7 -39q-1 -1 -2 -1q2 -5 -3 -10q1 4 3 10q-7 -2 -7 -12q-1 -6 -5 -18q-2 -4 4 -6q-5 -3 -5 -10q1 -1 0 -2t-2 0q-1 0 -1.5 1t0.5 2q2 2 -1 4t-3 3l-1 1q-4 -4 -7 -4l-2 1q-1 2 -3 1
q-4 -2 -5 -4l-3 -9q-2 2 -1 5t1 4q-1 2 0 5l1 4q-4 1 -4 7q-2 4 -4 4q-3 0 -3 -3q-2 -4 -2 -5q-2 -5 -5 -5l-1 -1q-1 -1 -2 0q-3 5 -1 6q4 1 4 14q-2 -3 -10 -9q-1 0 -2.5 2t-3.5 3q-8 1 -7 11q0 4 8 37q1 2 1.5 7t0.5 7q0 14 4 42q2 11 6.5 33.5t6.5 33.5q5 27 21 81
q2 8 6.5 24.5t6.5 24.5q9 33 10 42l2 7q3 -1 4 0t1 3.5t1 3.5q1 2 1 11q0 10 6 28q8 26 20 58q5 15 7 19l12 42q3 9 10 25t9 22q5 15 15.5 45t15.5 45q3 10 11 30q1 2 3 8q-4 1 -11 -1q-22 -6 -32 -13q-6 -4 -20 -8q-18 -5 -52 -21q-32 -13 -35 -15q-7 -3 -14.5 -7t-16.5 -9
t-14 -8q-22 -12 -28 -14q-5 -2 -10.5 -5t-12 -7t-10.5 -6q-14 -8 -22 -11q-4 -2 -39 -10h-2q-11 3 -27 -5q-18 -8 -31.5 -1t-19.5 23q-7 22 6 36q8 13 23 13q6 2 8 4q16 8 24 9q12 3 26 9q22 13 45 17q7 2 22 7.5t23 7.5q13 4 36.5 13t31.5 12q32 12 49 17q3 1 8.5 2.5
t8.5 2.5q10 2 23 10q6 3 55 21q7 3 21.5 9t21.5 9q4 1 5 5q6 14 6 16q2 6 22 33q4 5 11 2q11 -4 13 -8q2 -2 3 -2q8 -1 12 -11q2 -5 8 -3q10 4 35.5 13.5t39.5 14.5q15 5 43 16.5t40 15.5q8 2 22 7.5t22 8.5q30 8 56 11q-4 -3 -14 -5q-4 -2 -13 -4t-14 -3q-2 -1 -9.5 -5
t-11.5 -5t-7 -4t-6.5 -7t-5.5 -6t0 -5q2 -1 5 1q3 3 9.5 6.5t9.5 5.5q2 -1 1 -3.5t-1 -3.5q2 -1 4 1t4 1q-4 -3 1 -7q2 -4 -1 -4q-1 -1 -6 -4.5t-9 -3.5h-4q-2 1 -4 -2q0 -6 -9 -9q-2 -1 -3 -1q3 2 9 8q-24 -9 -30 -10q2 1 4.5 4.5t5.5 5.5t6 3t3 5v0q4 0 10 4q-2 0 -5 -2
t-5 -2v0q-3 -2 -8 -4t-7 -4q-1 -1 -3 2h1q2 4 4 4q3 0 4 4q-5 -1 -6 -1t-2 -2t0 -5h-1q-10 -2 -15 -5q-3 -1 -15 -4v1q3 2 2 4q-2 2 -4 0q-6 -2 -7 -7q2 2 6 2q2 1 3 1v-1q-5 -8 -9 -7q-5 1 -5 -9q10 3 12 4q2 0 2 -1v-3l-12 -6q5 -2 11 1t9 3q0 -6 -7 -6q-6 0 -10 -6v0h-3
q-2 -2 -2 -3q2 0 2 1q1 0 3 2v-1v1q4 -2 10 2q3 1 8.5 3.5t8.5 3.5q2 2 2 0q1 -1 -1 -3q-8 -5 -43 -19q-9 -3 -10 -7q-1 -1 -2 0l-2 1q-3 -3 -4 -3q-3 2 -10 -3q-5 -3 -15.5 -8t-13.5 -7q-37 -18 -49 -22q-14 -5 -18 -18q-1 -4 -3.5 -12t-3.5 -12q-2 -8 -17 -51zM522 744v-1
q2 -1 4 2q0 1 2 3t2 3q-3 -1 -7 -3q-2 -1 -1 -4zM508 746v2q0 2 -1 3q-3 -1 1 -5zM501 740q1 0 3 2q0 2 -1 2t-3 -2q0 -2 1 -2zM429 694q1 -2 3 0v2q-1 0 -3 -2zM43 -69l-2 -5q-2 -4 1 -5q3 5 1 10zM94 -88q3 1 1 5q-1 -1 -1.5 -2.5t0.5 -2.5zM89 -86q2 2 1.5 6t-0.5 5
q-1 -1 -1 -11zM66 -90q4 8 1 11q-3 -8 -1 -11zM60 -87q3 5 1 11q-3 -5 -1 -11zM130 123q2 4 2 8q-3 -5 -2 -8zM106 43q2 2 0 4l-1 -1q-1 -1 0 -2q0 -1 1 -1zM109 16l-1 1q-4 -3 -2 -6q4 2 3 5zM119 55q-7 -12 -7 -21q2 2 7 21zM119 148q4 10 1 15q-4 -8 -8 -27t-3 -23
q1 1 1 2t1 2q2 6 4.5 16.5t3.5 14.5zM134 55q-3 -2 -1 -8q-6 4 -8 3q-5 -4 -5 -11q-1 -2 1.5 -3.5t5.5 -1.5q2 10 6 13v0q-1 2 0 5zM125 70q5 11 4 19q-5 -9 -4 -19zM141 130q1 3 2.5 9t1.5 8q-1 1 -2 1q0 -2 -2 -9t0 -9v0q-4 -2 -4 -5q0 -4 -1 -6q-2 -4 -7 -23
q-1 -1 -0.5 -2t2.5 -1q5 19 9 23q3 3 1 3q-2 2 0 11v0zM101 -36q1 2 1.5 5t0.5 4l1 -1q0 -5 -1 -8h-2z" />
    <glyph glyph-name="U" unicode="U" horiz-adv-x="329" 
d="M52 -13v4h-3q-17 -3 -33.5 8t-22.5 27q-10 25 -7 58q0 10 2 32q1 4 4 24.5t5 31.5q10 55 33 132q11 37 29 78q32 68 44 89q12 20 21 27q13 13 21 15h10q1 -1 6 -2t7 -3t6 -4.5t7 -5t5 -5.5q8 -12 11 -24q5 -20 -6 -38q-8 -13 -16 -31q-2 -6 -7 -17t-7 -16q-1 -3 -4 -8.5
t-5 -8.5q-12 -26 -18 -40q-6 -12 -14 -35t-11 -31q-4 -7 -9 -20.5t-6 -16.5q-6 -16 -8 -24q-1 -7 -4 -19.5t-4 -19.5q-6 -36 -8 -58q-2 -26 -2 -40q0 -2 1 -4q1 1 13 16q28 46 32 52q3 5 9 15.5t9 16.5q5 9 15.5 26t15.5 26q18 34 28 50q6 11 17.5 32t17.5 31q3 5 15 36
q3 9 10 24.5t9 20.5q5 11 15 32.5t15 32.5l18 33q10 18 26 39q1 2 3 4q10 13 23 4q21 -13 31 -34q8 -14 5 -29q-2 -8 -9 -18q-14 -23 -17 -30q-7 -14 -21 -44q-11 -25 -12 -28t-4 -8.5t-4 -8.5q-8 -18 -8 -19q-14 -38 -21 -56q-16 -50 -23 -75q-4 -18 -14 -54
q-4 -15 -11 -50q-4 -17 -5 -23q-2 -20 -2 -30q-1 -7 -1 -21q0 -7 1 -10l3 -27q3 -13 -6 -28l-1 -1q1 -3 -4 -12q0 -1 -0.5 -3.5t-0.5 -4.5q0 -5 -4 -2l-1 1h-1q-5 0 -4 -3q0 -2 -2 -3q-2 -2 -2 -3q0 -3 -3 -8q-2 4 -7 2q-5 -1 -10 4q-10 10 -19 22q-5 5 -8 13q-7 21 -9 43
q-2 17 -2 51q1 27 8 60q2 10 6.5 30t5.5 25v8q-8 -14 -10 -16q-6 -10 -17.5 -31.5t-18.5 -32.5q-5 -7 -10 -16q-3 -3 -2 -8q1 -4 -2 -9q-12 -18 -19 -26q-2 -2 -6 -6.5t-6 -7.5q-3 -3 -6 -3q-4 -1 -10 -5q-2 -1 -17 -4q-1 -1 -1 -2q1 -1 3.5 0.5t3.5 -1.5q-3 -1 -7 -2t-7 -2
z" />
    <glyph glyph-name="V" unicode="V" horiz-adv-x="192" 
d="M302 518q3 6 2 7q0 3 1 3q2 2 13 21v1l-1 -2q-1 -2 -2 -2q-2 2 -1 2q2 4 9 17q1 1 4 7q1 0 3 -5v-4q-12 -22 -20 -36q-13 -23 -18 -37q-5 -5 -5 -11q0 -2 -2 -2q-4 -4 -4 -9l-5 -10q-7 -12 -11 -23q-6 -10 -14 -30q-4 -9 -12 -27.5t-12 -27.5q-9 -18 -25 -54
q-12 -22 -17 -36q-1 -2 -7 -13q-10 -21 -28 -63q-3 -8 -10.5 -23t-9.5 -21q-5 -9 -10 -22l-15 -33l-18 -39q-1 -3 -4 -8t-4 -7q-4 -5 -11 -19q-3 -7 -15 -19q-2 -1 -5 -5l-2 -3q-13 -8 -16 -5q-2 1 -8 -1q-4 -3 -6 0q-5 2 -10 5q-5 2 -11 12q-4 6 -2 20q-1 5 1 16l3 42
q1 5 2 14.5t1 10.5q0 7 0.5 15t1.5 17.5t1 14.5q1 12 1 35v35q0 8 1.5 24t2.5 24q0 28 1 42q1 11 2.5 32.5t2.5 32.5q1 12 1 35q1 12 3 34v23t1 22q0 15 3 28v6t1 6q3 20 22 23q13 0 20 -6q1 -2 7.5 -8t8.5 -12q6 -17 6 -19v-2q4 -10 2 -26l-3 -39q-2 -22 -2 -34
q0 -16 -2 -25v-5t-1 -5q-1 -17 -1 -48q0 -2 -0.5 -9.5t-1.5 -10.5v-4v-4q0 -3 -0.5 -13t-1.5 -16l-3 -24q-1 -5 -1 -15v-15t-0.5 -13.5t-0.5 -11.5v-38q0 -4 -0.5 -12t-0.5 -13v-4q1 -1 2 1l2 2l10 20q16 32 23 48q20 40 29 61q12 26 19 39q35 73 39 82q20 40 30 61
q2 4 6 11.5t7 14t6 12.5q4 9 13 25t14 25l7 7q14 22 20 32q1 1 2.5 3.5t2.5 3.5l2 -2q-5 -7 -13 -21.5t-12 -20.5q-7 -9 -7 -16q-3 -1 -3 -5q1 1 2 2.5t1 2.5q2 0 2 3q0 1 6 7v1q2 2 9 15l1 1q1 2 2 3h-1q0 -1 -3 -8q-1 -3 -5 -11l-6 -12q-3 -6 -8 -19t-8 -19v-1
q2 3 5.5 9.5t5.5 10.5q2 5 5 7q4 4 4 9l6 12q2 8 5 9q1 0 1 2q1 5 6 13t7 11q0 1 3 4.5t3 5.5q1 -2 -1 -8q-12 -22 -13 -24q-2 -5 -9 -17q-2 -4 -4 -10q2 2 4.5 7t4.5 7v-6l-3 -3q-1 -1 -1 -5q-4 -4 -3 -7q3 6 3 7q4 3 4 8q7 5 8 12zM170 286q1 2 3.5 7.5t3.5 8.5q1 1 1 4
l-8 -11q0 -2 -3 -6t-3 -7q5 3 6 4zM199 362q1 1 1 4l-1 -2q-1 -1 0 -2zM203 373v-3q1 0 1 -2t1 -2q0 2 4 6q1 1 1 3q-2 1 0 4q2 6 4 9q2 5 7 14.5t6 12.5q1 1 3 7q0 1 2 3t2 3l2 8q-1 2 1 4l2 1q0 1 0.5 1t0.5 1q0 7 5 15q0 1 1.5 4t1.5 5q-4 -6 -3 -9l-4 -2q-4 -10 -12 -28
q-4 -7 -10 -21q-1 -1 -1 -2q-3 -3 -3 -7q-3 -5 -7 -14t-5 -11zM204 348q-3 -4 -5 -12q4 8 5 12zM235 417q-4 -5 -4 -9q-3 -3 -4 -10q3 6 4 10q4 6 4 9zM252 451q2 9 6 16q1 1 0 1q-3 0 -5 -4q0 -1 -2.5 -7t-3.5 -10q-2 -1 -2 -3q-1 -3 -3 -7q0 -1 -1.5 -3.5t-1.5 -3.5
q-1 -3 1 -4q1 4 5 12q2 6 1 9q3 0 6 4zM241 417q1 1 3 7q-2 -3 -3 -7zM246 432q-2 -4 0 -6q4 10 10 24q-2 -1 -10 -18zM261 492l-3 -6q-2 -2 -2 -5q3 1 1 5q4 2 4 6zM262 485q0 -1 -0.5 -3.5t-1.5 -3.5v-2l2 2q3 6 2 7q2 0 2 2q0 1 1 2q-3 -1 -3 -3v-1h-2zM266 501v1l-1 -2
v-1q1 1 1 2zM279 481l-1 -1q0 -2 1 -1q1 0 1 1q-1 0 -1 1z" />
    <glyph glyph-name="W" unicode="W" horiz-adv-x="393" 
d="M263 93q1 2 2.5 7.5t2.5 8.5q16 52 23 77q10 32 11 40q0 3 1.5 10.5t2.5 11.5q1 8 7 20q4 6 5 10q9 35 13 46q17 58 27 82q5 13 19 39q10 19 20 31q7 9 16 13q2 1 6 1h4.5t5.5 -1q0 -6 4 -7l1 -1v-1q-1 -2 -1 -7t-1 -7v-3q3 -2 1 -8q-3 -8 -2 -9t-1 -3q-6 -9 -11 -19
q-8 -19 -11 -34q0 -5 -4 -13q-10 -25 -22 -61q-1 -5 -3.5 -14t-3.5 -12q-5 -22 -6 -23q-2 -10 -2 -14q-3 -14 -20 -73q-8 -24 -16 -40q-2 -4 -2 -8q-11 -43 -12 -47q-12 -36 -16 -46q-2 -8 -4 -11q-2 -2 -7 -15q-9 -35 -14 -48q-3 -12 -11 -20q-6 -8 -13 -8q-2 0 -5.5 -2
t-4.5 -2q-8 -3 -17 3q-2 2 -4 2q-5 2 -6 -2q0 -2 -2 -4q-2 0 -3 1q-2 4 -3 4q-7 2 -18 13l-1 1q-11 9 -9 27q1 8 1 24v55q0 33 3 66q0 11 1.5 34t2.5 35q1 6 1 18.5t1 18.5q0 20 -1 30q0 22 2 64q0 22 1 33v2l-2 -2q-1 -6 -5.5 -18t-5.5 -19q-1 -4 -10 -21q-17 -36 -20 -44
q-7 -16 -12 -35q0 -2 -3.5 -14.5t-5.5 -19.5t-8 -21q-2 -7 -8 -18t-8 -16q-4 -9 -19 -46q-2 -4 -9 -22t-12 -27q-4 -9 -9 -13q-8 -10 -20 -7q-7 2 -10 -3q-1 -1 -4.5 -1.5t-4.5 0.5q-4 4 -14 6q-13 5 -14 18q-3 25 -2 45q1 6 1.5 19t0.5 19q1 8 1 23t1 22v27q1 9 2 27.5
t1 27.5q0 6 0.5 17t1.5 17q0 9 2 26.5t2 26.5q2 14 4 42q1 8 3 24.5t3 24.5q3 19 7 52q3 27 9 54q2 9 4 23q0 12 11 15q3 1 9 1.5t8 0.5l1 -1h2q6 -4 10 -5q5 -3 10 -9q2 -4 4 -5q3 -2 12 -18q3 -7 1 -23q-1 -8 -4 -23t-4 -22q-1 -5 -1 -14q-2 -11 -2 -31.5v-25.5
q0 -7 -1 -10q-2 -8 -2 -23q0 -19 -1 -28v-36q-1 -5 -1 -16.5v-17.5q0 -34 -2 -51q0 -3 -1.5 -11t-0.5 -13q0 -3 1 -4q4 9 5 16q10 37 40 126q12 38 39 101q7 13 19.5 40.5t18.5 41.5q6 12 10 18q2 5 6 6q7 4 13 13q2 4 12 6q12 5 22 -2q18 -11 25 -24q10 -19 10 -41
q0 -7 -1 -10q-1 -5 -2.5 -16t-2.5 -16q0 -1 -3 -26q0 -4 -1 -11.5t-1.5 -13.5t-0.5 -11q-1 -4 -1 -13.5t-1 -14.5q-1 -10 -1 -61q0 -7 -1 -21.5t-2 -21.5q-1 -2 -1 -4.5v-3.5q0 -7 -0.5 -15t-1.5 -17.5t-1 -14.5q-2 -26 -4 -37q0 -4 -2 -14q-1 -2 -1.5 -4.5t-1 -5.5t-0.5 -5
q0 -5 -2 -15t-2 -15q0 -2 1 -3z" />
    <glyph glyph-name="X" unicode="X" horiz-adv-x="256" 
d="M381 563v-1l2 2t1 2q1 5 7 7q2 -3 1 -5q-1 -4 3 -4q5 -1 3 -4q-1 -1 -3.5 -5.5t-3.5 -7.5q-4 -8 -31 -37q-28 -33 -29 -35q-9 -12 -25.5 -35t-22.5 -31q-22 -30 -33 -44l-18 -24q-8 -14 -13 -21q-1 -1 -2.5 -4t-2.5 -4q-3 -4 -13.5 -19.5t-16.5 -23.5q-8 -11 -11 -13
q-6 -5 -19 -25q-8 -10 -17 -27q-1 -1 -1 -3q4 3 5 -1q5 -13 2 -25q0 -2 1 -3q1 0 1 2.5t2 3.5q2 -3 2.5 -10.5t1.5 -10.5q2 -3 0.5 -10t-1.5 -10q2 1 3 2.5t2 1.5q3 -9 1 -28q2 -1 3 1l1 1q1 -2 2 -6t1 -5q6 -30 9 -44q3 -10 7 -30l3 -12q2 -4 3.5 -12.5t3.5 -12.5
q1 -1 1.5 -3.5t1 -5.5t0.5 -4q1 -3 3 -7v-6q-4 -3 0 -8q1 -1 1 -2q1 -1 3 -4l-4 -2t-4 -1q3 -5 4 -11q1 -1 0 -2q-2 -2 -2 1l-3 9q-2 2 -6.5 2.5t-6.5 -1.5v-3q0 -1 1 -2.5t1.5 -3t0.5 -3.5q3 -5 -1 -7q0 -2 1 -3t1 -5q-9 1 -20 14q-5 7 -8 15q-1 4 -6 6q-6 1 -11 8
q-15 19 -23 48q-4 15 -16 45q-16 30 -22 54q-2 -1 -4.5 -4t-2.5 -4q-2 -3 -23 -32q-5 -8 -15 -24.5t-16 -24.5q-8 -14 -13 -20q-5 -7 -10 -16q-1 -2 -6 -9q2 6 2 9q-2 -4 -7.5 -12t-7.5 -12q-2 -5 -7 -15.5t-7 -15.5q-1 -2 -6 -6q-1 0 -8 -5v3q1 2 0 2q-1 1 -1 4q0 4 -2 5v3
q1 2 3 8q13 27 15 35q1 3 4.5 8.5t4.5 7.5q1 3 4.5 8t4.5 8q12 22 14 29q2 2 2 3q6 7 17 30q3 5 9.5 15t9.5 15q10 20 28 47v1q7 7 3 19q-3 13 -11 44.5t-12 47.5q-13 53 -17 100q-2 24 -4 37l-9 42q-4 20 -8 30q-1 3 -1.5 8t-0.5 6q0 6 5 9t10 -1q-1 8 12 17q2 3 4 1
q2 -1 7 -1.5t6 -0.5q2 -1 4 -2.5t4 -1.5q5 -2 10.5 -8t8.5 -8q13 -9 18 -28q0 -4 2 -11t3 -10q3 -7 3 -15q1 -4 3 -10t2 -9q2 -7 5.5 -22.5t5.5 -22.5q4 -22 12 -64q0 -4 1 -11t1 -10q0 -4 2 -5l6 9q5 9 15.5 26t15.5 26q4 7 32 53l11 16.5t10 15.5q2 2 11 14.5t14 19.5
q2 3 15 20t19 26q12 19 30 40q3 4 14 15t17 18q3 3 9.5 8.5t9.5 8.5q6 6 13 3q0 -3 -4 -7q-1 -1 0 -3.5t-1 -3.5q2 -1 3.5 -1.5t2.5 -0.5l-2 -4q0 -1 1 -1q0 -3 2 -1q0 1 1 2l2 2q1 4 5 2t5 2q2 2 3 2q-1 -4 -5 -6q-4 -3 -6 -10q-2 -4 1 -5q4 0 5 2v3zM172 12q0 -1 1 -5.5
t0 -6.5q0 -4 4 -5q-1 2 -2 8t-3 9q0 5 -1 7t-2.5 6t-1.5 5q-1 4 -3.5 17.5t-4.5 20.5v3q1 4 -1 8q-1 1 -2 4l-1 3q-1 2 -1 6.5v6.5q-2 5 -4 13q-4 21 -5 29q0 3 -1 3q-3 2 -3 9h-1v-2q0 -19 -1 -21l1 -2v-2q0 -2 2 -2q2 1 2 -2q-2 -13 2 -24q6 -14 7 -22q1 -3 2 -9t2 -9
q2 -16 6 -23q1 -3 0 -5q-2 -6 1 -9q4 -8 4 -12q2 3 4 3zM177 -15q1 1 1 2q0 3 -2 2t1 -4zM-8 -22q1 3 5 9q-1 -1 -2.5 -4.5t-2.5 -4.5zM-31 -52q2 4 2 6q3 -4 -2 -6zM-19 -30q0 3 2 5q0 -3 -2 -5z" />
    <glyph glyph-name="Y" unicode="Y" horiz-adv-x="358" 
d="M227 54q-2 2 -4 -1q-2 -8 -5 -11q-6 -7 -8 -22q0 -3 -2.5 -10t-3.5 -11q0 -1 -2 -3q-2 -4 -1 -6t0 -3q-1 -2 -2 -6t-2 -6l-2 -1q-2 -4 -3 -5q2 -3 1 -4q-2 -2 -3.5 -6.5t-3.5 -6.5q0 -4 -1.5 -12t-0.5 -13q0 -3 -2 -7q-3 -19 -7 -32q-2 -17 0 -25q0 -5 -1 -7q0 -2 -1 -5
t-1 -4q0 -5 -4 -8q-3 5 -3 9q0 3 -2 3q-3 0 -3 -2q0 -1 -1 -4t0 -5q-1 -3 -4 -3h-1q0 -1 1 -3t0 -3l-6 3q-1 0 -1 1t-1 2q-11 8 -13 29q-1 10 0 20q3 71 23 144q20 64 31 95q14 42 21 62q2 7 7 20.5t6 17.5t5 14.5t6 16.5v2q-2 -1 -3.5 -3.5t-2.5 -3.5q-20 -31 -45 -56
q-6 -7 -23 -31q-16 -26 -34 -45q-1 -2 -11 -12q-5 -3 -12 -12q-10 -11 -22 -16q-22 -10 -39 -10q-3 0 -11 2q-5 2 -6 -4l-9 9q-1 0 -1 0.5t-1 0.5q-5 0 -6 1q-1 0 -1 -2l-1 -2q-1 0 -1 1q-1 6 -8 11q-11 10 -13 27q-1 4 -1 24q1 16 5 39q13 63 39 122q28 60 52 106
q20 37 52 75q11 12 33 34q1 0 1 0.5t1 0.5q6 8 15 6q6 -1 16 -3q14 -1 19 -19q2 -7 5 -9q7 -7 7 -15q0 -1 0.5 -3t0.5 -3q4 -12 -5 -26q-9 -12 -17 -18q-2 -2 -3 -4q-8 -16 -11 -24q-1 -3 -11 -20q-5 -8 -15 -26q-2 -3 -6.5 -11t-7.5 -12q-5 -7 -13.5 -23t-9.5 -18
q-3 -5 -8 -15.5t-8 -15.5q-2 -5 -6 -14.5t-6 -13.5q-1 -3 -3 -7t-2 -7q-3 -7 -7.5 -21t-6.5 -18t-9 -34q5 2 11 8q19 17 37 39q6 8 17.5 23.5t17.5 23.5q3 5 18 20q2 2 6.5 6t6.5 7q0 1 26 29q4 5 13 16t13 17q36 42 57 62q6 4 9 11q16 26 48 76q4 6 12.5 17.5t9.5 13.5
q13 16 28 31q6 8 15 8h2q13 -6 18 -14q6 -12 11 -17q1 -1 1 -4q0 -2 3 -12.5t4 -16.5q1 -8 -2 -17q-5 -12 -18 -25q-16 -18 -25 -33q-1 -2 -3.5 -5.5t-3.5 -6.5q-6 -10 -18 -28t-16 -25q-24 -40 -27 -46l-4 -8t-4.5 -8.5t-3.5 -7.5l-12 -27l-6 -15q-7 -22 -18 -46
q-4 -10 -7 -15q-1 -1 -3 -1v-1q2 -6 -4 -6q0 -2 -1 -2q0 -1 1.5 -1.5t0.5 -1.5h-3q-2 0 -2 -2q0 -3 -2 -7q0 -2 1 -2q2 0 1 -2q-7 -5 -7 -9q-3 -2 -5 -9t-3 -8q-12 -21 -13 -22q-7 -10 -12 -25q-8 -22 -22 -68l-9 -36q-1 -3 -2.5 -8t-2.5 -7q-2 1 0 3q2 13 4 17v8
q1 4 2.5 11t2.5 10t4.5 15.5t4.5 18.5q4 14 7 18v2q0 2 -1 3q-1 -3 1 -5zM190 -84q0 -1 -2 -6t-4 -7q-1 3 0 5q1 4 2.5 12t2.5 12q0 2 1 3q4 7 2 13h2q2 -2 0 -4q-2 -5 -2.5 -15t-1.5 -13zM195 -26q2 -5 -3 -5q1 1 3 5z" />
    <glyph glyph-name="Z" unicode="Z" horiz-adv-x="240" 
d="M56 108q2 -2 0 -4q-4 -2 -8 -13q-1 -3 -3.5 -7.5t-3.5 -5.5q-3 -7 -16 -37q0 -3 -2 -1v2q2 6 2 8q-3 -4 -10 -22l14 3.5t16 4.5q13 4 30 4h17q16 1 16 0q4 0 11.5 -0.5t11.5 -1.5q7 0 20 -0.5t20 -1.5q37 -2 56 -6l24 -6l11 -8q-2 -2 -2 -5q1 -4 0 -5t-4 0l-12 3
q0 -3 3 -4.5t4 -2.5h-2q-11 2 -17 0q-2 -1 -6.5 -1h-6.5q-3 -1 -17 -1h-4q-5 -3 -14 -1q-23 5 -43 6q-11 1 -32 1q-3 0 -13 -2q-6 -1 -33 -8q-2 0 -4 -2q-5 -3 -14.5 -8t-14.5 -8q-6 -3 -20.5 -10t-22.5 -12q-1 -1 -3 -1.5t-4 -1.5l-4 -2q-5 -3 -6 -5l-2 2q-2 4 -4 4
q-3 -2 -3 1q-2 3 -6 1q-1 -1 -3 -5q-1 1 -3 3.5t-4 3.5q-1 0 -1 1t-1 2q-6 12 -2 30q1 15 15 60q6 22 24 62q13 32 32 71q10 21 32 61q3 5 32 55q16 27 37 59q28 41 34 50q2 3 29 38q0 1 3 4.5t4 5.5q-4 1 -7 -2q-5 -5 -22 -7q-9 -2 -14 1h-3q-7 -2 -21 -5.5t-16 -3.5
q-19 -5 -31 -4q-10 0 -14 -2q-7 -2 -15 0q-5 2 -6.5 0t-0.5 -7q0 -2 -0.5 -6t-0.5 -7l-6 -9q0 -1 -2 -1q-16 7 -20 21q-1 4 -1 23q2 16 4 25q1 7 6.5 10.5t11.5 1.5q11 -3 20 1l24 6q11 2 29 4q4 1 11.5 1.5t11.5 0.5q21 3 42 9l21 6q8 2 37 13q2 0 6 2t6 2t5 2t4 3
q11 3 19 -3q13 -11 16 -18q7 -16 6 -24q0 -4 2 -10q3 -11 -1 -19q-2 -3 -3 -4l-15 -21q-3 -3 -9 -11t-9 -11q-1 -1 -2 -3q-3 -4 -4 -6q-10 -19 -19 -30q-10 -13 -28 -39q-29 -45 -34 -53q-4 -7 -12.5 -20.5t-12.5 -20.5q-5 -9 -15.5 -24.5t-14.5 -21.5q-4 -7 -14 -19
q0 -1 -0.5 -1t-0.5 -1q-1 -3 -5.5 -8.5t-5.5 -8.5l-2.5 -5t-2.5 -5.5t-1 -4.5q0 -3 -2 -7l-3 -6t-3 -5.5t-3 -5.5q-2 2 -3 1q-3 -4 -3 -9q-1 0 -1 -1z" />
    <glyph glyph-name="bracketleft" unicode="[" horiz-adv-x="235" 
d="M38 -50q6 1 17 1.5t14 0.5h24h11q5 2 15 -2q5 -2 5 -4q1 -1 3 -1.5t2 -2.5h-1q-1 0 -1.5 -0.5t-0.5 -1.5h2q2 -1 3 -1q3 0 3 -2q0 -1 -1 -1.5t-2 0.5q-3 0 -5 -4q1 -1 4 -1t5 -2h-9q-2 0 -3 -2q-1 -4 -6 -4q-1 0 -26 -3q-22 -2 -34 -2q-2 0 -6 -0.5t-7 -0.5q3 -1 6 -1
q-5 -1 -15.5 -3.5t-15.5 -3.5q-1 0 -4 -0.5t-5 -0.5h-3q-3 -1 -4 -3q-1 1 -5 1t-5 2q-2 0 -2 1q-4 4 -10 7q-3 1 -5 8q-4 14 -2 23q1 6 5 20q11 45 29 102q12 35 22 76q1 5 4.5 17t5.5 19q2 11 8 34t9 35q11 37 12 41q4 14 11 31q6 17 31 102q4 13 10 39q1 3 2.5 10t2.5 10
q3 14 13 45q2 6 7 19t7 21q2 4 5.5 15t5.5 17q2 4 5.5 13.5t5.5 13.5q0 1 1.5 6t3.5 7q2 4 4 5q4 4 8 4q12 -2 18 -4q2 0 3 -1q4 -4 10 -2q6 1 37 1q10 0 15 -1q6 -2 8 -5l2 -2t2 -1q5 -2 7 -11q2 -6 -4 -8q-8 -3 -13 -7q-6 -2 -8 -2h-26q-5 2 -6 -3q0 -2 -2 -6q0 -7 -7 -26
q-6 -16 -8 -25q-3 -10 -9 -32q-1 -4 -4 -12.5t-5 -12.5q-2 -6 -5.5 -19t-5.5 -19t-4.5 -18t-3.5 -17q-2 -6 -2 -11q0 -1 -0.5 -3l-1 -4t-1.5 -3q-2 -3 -4 -13q-1 -6 -4.5 -18t-4.5 -14q-4 -19 -16 -57q-9 -25 -14 -44q-1 -4 -3.5 -13t-3.5 -14q-3 -13 -8 -31q-5 -17 -13 -51
q-9 -30 -16 -48q-5 -16 -6 -19l-1 -3q-5 -5 -15 -27q-1 -4 -5 -13.5t-5 -13.5l-12 -33q-1 -3 -3 -10.5t-3 -9.5q-2 -8 -3 -13z" />
    <glyph glyph-name="backslash" unicode="\" horiz-adv-x="409" 
d="M365 -25q-3 -6 1 -11q4 -4 -1 -5q-2 -1 0 -6q3 -4 -2 -6q-8 10 -13 17l-3 -6l-2 1q-3 3 -6 1t-6 1q-3 4 -7 4q-7 0 -11 4q-2 2 -3 2q-4 1 -6.5 4t-4 5t-4 6.5t-3.5 5.5q-6 12 -14.5 34t-11.5 30l-27 54q-3 6 -9 17.5t-9 17.5q-12 24 -18 37q-17 38 -49 116
q-2 4 -10.5 26.5t-13.5 34.5t-19 44.5t-22 50.5q-2 5 -19 47q-3 8 -17 41q-6 13 -13 31q-3 6 -9 17.5t-9 17.5q-31 61 -35 74q-2 4 -4 12.5t-2 10.5q-3 8 3 14.5t15 3.5q6 0 10 -5q0 -2 2 -2q5 -1 7.5 -3.5t5 -7.5l3.5 -7q4 -5 7.5 -11t7.5 -13.5t6 -11.5q14 -18 20 -27
q3 -5 10 -15.5t10 -15.5q16 -27 18 -31l24 -51q5 -9 13 -25q1 -4 4.5 -11.5t5.5 -11.5q0 -1 20 -43q4 -10 13 -28l11 -22q17 -34 20 -41q7 -20 23 -58q6 -15 20 -43q5 -9 13 -29q3 -8 23 -48q28 -54 34 -64q19 -36 27 -59q2 -5 10.5 -24t11.5 -30q2 -3 2 -11q0 -5 -5 -7
q-6 0 -8 3l-5 5q0 2 1 2q2 0 3 -1q3 0 3 2v1l-1 1q-3 3 -8 0q-1 -1 1 -5h1z" />
    <glyph glyph-name="bracketright" unicode="]" horiz-adv-x="235" 
d="M91 -23q-5 0 -5 -3l-3 -8q0 -4 -1 -5q0 -1 -1 -3.5t-1.5 -4.5t-0.5 -4q0 -1 -1 -3l-2 -2v-6q-5 -8 -6 -8l-1 -1q2 -3 -3 -5q-2 -2 -2 -4l-2 -1l-2 -1l-3 -3q-1 -1 -3 -1q-1 2 -5 0.5t-5 -1.5q-3 0 -3 -6q-3 3 -5 2v-4q-1 0 -3 2q-1 1 -3 1h-3t-3 1q-3 0 -4 -1q-2 -4 -2 1
q0 4 -6 4q-4 0 -10 0.5t-9 0.5t-8 1t-7 1h-6l-1 -1q-3 1 -8.5 2t-7.5 3q-4 1 -6 6q0 3 3 6q2 2 2 3l3 3q11 4 14 5h1q4 0 14 0.5t15 -0.5q2 -1 10 2l4 4q12 33 21 66q5 14 11 44q5 27 12 50q1 6 4 18.5t5 19.5q2 8 3 13q10 38 16 57q2 7 5.5 21t5.5 21t6 20t6 20t5.5 21.5
t5.5 21.5q8 28 13 41q2 6 5.5 19t5.5 20t6.5 21t7.5 21q4 11 13 34t13 35q3 7 3 14v2q2 3 4.5 10.5t4.5 10.5q4 6 7 18q-2 0 -14 -2q-18 -2 -27 0q-4 0 -5 4q0 2 -2 2q-8 4 -20 18q-4 6 2 12q4 2 12 2q20 -2 34 2q8 2 22 4q3 0 6.5 0.5t8 1.5t6.5 1q1 0 7 3q6 4 14 0
q4 -2 9.5 -7.5t6.5 -5.5l1 -1q2 -4 9 -14q3 -3 5 -4q6 -3 3 -7q0 -3 2 -3q2 -2 0 -4q-7 -16 -8 -20q-1 -5 -5 -14t-5 -13l-2 -2q-1 -2 -2.5 -7t-3.5 -7q0 -6 -3 -8l1 -1q1 0 0 -1q0 -4 -1 -6q-9 -14 -10 -28l-3 -6q-2 -3 -4 -12t-5 -13q0 -2 -2 -7t-2 -8q0 -2 -1 -3
q-3 -9 -3 -10q-2 -2 -3 -6t-2 -5q0 -1 -1 -2.5t-1 -2.5q-3 -11 -4 -14q-1 -1 -1 -3q0 -4 -2 -5v-1q1 -3 -1.5 -8t-2.5 -6q-3 -11 -4 -14t-2 -9t-2 -9t-3.5 -11t-4.5 -13q-4 -6 1 -10v-1q-1 -1 -0.5 -3t-0.5 -3q-2 -2 -3 -7t-2 -7q0 3 1 8.5t0 8.5q0 -2 -3 -9t-2 -11v-1
q-3 -6 -2 -7v-7q0 -4 -2 -3l-1 -1q1 -6 -2 -13q0 -1 -3 -14q0 -1 -0.5 -2.5t-1.5 -2.5t-6 -14q0 -5 -4 -8q-1 0 -1 -2q-1 -4 -3.5 -13t-3.5 -14l-4 -4q-2 -1 -2 -4q-1 -2 -1 -3q-2 -5 -3 -5v-2q0 -1 -3 -8q0 -1 -0.5 -1t-0.5 -1q0 -4 -3 -11.5t-3 -11.5q-2 -12 -4 -19
q-3 -9 -7 -27q-1 -4 -2.5 -10.5t-3 -12t-3.5 -10.5q-4 -8 -4 -14v-1q-3 -5 -5 -17l-3 -9l-1 -4q-1 -5 1 -5q0 -3 -1 -3q-2 -2 -3.5 -6.5t-3.5 -6.5q-3 -3 -1 -6z" />
    <glyph glyph-name="asciicircum" unicode="^" horiz-adv-x="256" 
d="M224 360q0 -1 0.5 -3.5t-0.5 -3.5q-1 0 -3.5 2t-4.5 3q0 -6 -2 -6t-2 -4q-1 -6 -6 -2h-1l-1 1q-5 -5 -6 -5q-6 0 -5 5t-4 9q-3 3 -4 5q-2 -1 -1.5 -3t-0.5 -3q-6 0 -6 6q0 1 -3 4.5t-1 6.5q-8 10 -11 26q-8 45 -10 65q-1 7 -2.5 19t-1.5 18q0 3 -1 4q-1 -2 -3 -4t-3 -4
q-5 -7 -15.5 -22t-15.5 -23q-4 -7 -24 -32q-3 -3 -12 -15.5t-15 -18.5q-1 -1 -6 -4.5t-7 -6.5q-3 0 -4 1q-2 2 -5 0.5t-2 -4.5q1 -4 -0.5 -4.5t-4.5 0.5h-3q-1 0 -3 -1q-5 -1 -6 3q0 1 -3 1q-2 -2 -8 0v1q1 6 -5 9q-1 0 -4.5 -0.5t-3.5 1.5q-3 5 -3 10q-3 8 3 17q2 3 5 9
t4 7q12 23 35 53q4 6 61 80q9 13 18 31q10 20 18 28q9 8 22 10q2 0 2 -1q3 -3 11.5 -6t12.5 -7q1 -1 2 -1q8 0 8 -7l1 -2q3 -3 5 -7t4 -9t3 -8q9 -19 12 -41q1 -6 1.5 -12.5t1 -15t0.5 -12.5q2 -17 4 -51q0 -4 0.5 -11t0.5 -10q1 -8 3.5 -22t3.5 -19v-7.5t1 -6.5q0 -2 -1 -2
q-4 -1 -2 -8q0 -4 -3 -2z" />
    <glyph glyph-name="underscore" unicode="_" horiz-adv-x="408" 
d="M-34 -66h-7q0 2 2 4t2 3q0 2 2 2q4 -1 10.5 2t8.5 3q65 10 74 10q6 0 18.5 0.5t18.5 0.5h14h16.5h13.5h37q40 0 48 1q18 3 35 3q7 0 19 0.5t19 0.5q22 0 33 -2q12 -4 17 -7q12 -5 22 -6q1 0 28 -3l4 -2q7 -3 13 -2q3 1 10 1l2 -1q-2 -4 2 -4l2 -1q2 -3 7 -4q7 -2 9 -13
q2 -12 -13 -14q-7 -2 -22 -2q-8 0 -24 -2q-33 -2 -43 -1h-5q-31 0 -46 1h-38t-38 1q-24 1 -74 3q-38 3 -76 3q-12 -1 -37.5 -2t-38.5 -1q-5 0 -14 0.5t-13 0.5q-6 1 -7 6q-2 6 -3 8q-2 6 4 7q5 1 8 6z" />
    <glyph glyph-name="grave" unicode="`" horiz-adv-x="86" 
d="M-3 791q-1 4 9 16q4 4 6 4q12 2 18 2t8 -5q2 -6 8 -18q8 -21 21 -72q2 -8 -3 -14q-2 -2 -3 -4q-5 -9 -14 -2q-3 3 -6 2t-5 4q-3 5 -7 6l-3 3l-7 14q-16 31 -18 43q0 2 -2 9t-2 12z" />
    <glyph glyph-name="a" unicode="a" horiz-adv-x="387" 
d="M499 267q-2 1 -6 1t-6 1q-2 -3 -1 -4l3 -3t2 -3q-1 -1 -9 -11t-13 -15q-7 -5 -23 -26q-5 -6 -10 -12.5t-11 -14.5l-9 -12q-7 -7 -19.5 -22.5t-18.5 -23.5q-4 -5 -13 -15.5t-14 -16.5q-1 0 -2 -2l-1 -2q-4 -7 -20 -23q-6 -5 -11 -15q-3 -5 -11 -13q-6 -4 -23 -21
q-22 -22 -49 -29q-28 -6 -52 10q-4 2 -10 8l-1 1h-1q-7 11 -8 15q0 3 -1 8t-1 7q-2 22 -4 32l4 2v12q0 5 -1 5q-4 1 -7 -2q-22 -30 -31 -47q-4 -7 -12 -14q-6 -4 -7 -8l-4 -6q-5 -6 -6 -10l-1 -1q-5 -3 -13.5 -10.5t-12.5 -9.5q-10 -4 -14 5q-2 6 -5 1q-4 -7 -14 -10
q-8 -4 -21.5 -0.5t-19.5 12.5q-1 2 -2.5 4t-3.5 4.5t-3 3.5q-8 8 -11 18q-1 3 -4 3q-8 65 41 154q2 4 7.5 10.5t8.5 9.5q8 10 22 32q41 62 83 107q13 13 39 37q6 6 24 15q5 3 14 -3q2 -1 9 -5t10 -7l3 -3q14 -13 4 -37q-2 -3 -17 -26q-4 -5 -13.5 -17.5t-14.5 -20.5
q-2 -3 -9 -10q-15 -11 -27 -31q-3 -5 -26 -39q-28 -41 -47 -78q-16 -27 -21 -47v-3q4 3 10 11q42 55 90 122q1 1 7.5 10.5t8.5 14.5q7 13 24.5 34.5t20.5 26.5q2 2 5.5 5t4.5 4q17 24 41 48q1 1 2.5 4t2.5 4q1 2 2.5 5.5t1.5 4.5q3 6 6 3q1 -1 -2 -6q0 -1 -3 -5q9 4 10 13
q7 -5 11 -5q6 0 9 -5q1 -3 7 -5q5 0 5 -4q0 -6 3 -12q2 -9 -4 -27q-2 -4 -5 -11.5t-5 -11.5q-4 -14 -15 -31q-5 -8 -7.5 -14t-4.5 -11.5t-3 -8.5q-12 -26 -18 -49q-9 -29 -11 -33q-11 -24 -17 -50q-6 -28 -1 -37v-1q2 -2 7 -2q10 10 15 16q9 9 15 8q-4 4 1 7q4 2 7 3
q1 1 3 6t4 8l2 2t2 1l1 -3q5 2 5 6l-4 -2q4 10 15 10q0 6 8 11q2 2 8 9q22 26 33 38l15 15t18 20q2 1 4 3t5.5 4.5t6 4t5 4.5t4.5 6q5 9 16 7q-1 5 8 14q11 11 18 16q5 5 8 5q6 2 12 12q2 3 5 5q5 1 9 5q4 5 13 -1q-2 -6 -3 -10z" />
    <glyph glyph-name="b" unicode="b" horiz-adv-x="359" 
d="M255 168v-17q0 -5 1 -5.5t6 -0.5q24 2 41 10q38 17 70 45q1 1 37 34l14 14q0 2 2 2q3 3 12 10t13 12q2 3 5 2t4 -5v-6q-7 -29 -15 -37q-12 -12 -14 -21q-2 -6 -4 -8q-5 -5 -13.5 -16.5t-13.5 -17.5l-12 -9q-12 -7 -25 -18q-17 -14 -39 -25l-1 -1h-2q-3 -1 -27 -8t-37 -8
q-8 0 -10 -8q-4 -25 -17 -52q-16 -39 -37 -68q-13 -21 -24 -26q-2 -2 -6 -8q-3 -5 -13 -11q-18 -8 -48 -12q-22 -1 -49 7q-41 11 -57 47q-9 18 -12 40q-2 18 -7 27q-5 11 -2 28q5 22 11 68q1 16 9 52q12 46 19 69q16 54 42 110q22 52 46 97q30 56 47 83q35 55 66 85
q15 15 33 19q1 1 4 1t4 1q17 6 51 0q15 -3 28 -22q13 -22 11 -55q-3 -30 -18 -54l-2 -4q-1 -8 -6 -21t-6 -18q-3 -9 -7 -17q-26 -46 -56 -84q-30 -34 -48 -49q-9 -8 -21 -26q-8 -9 -11 -12q-3 -1 -11.5 -7t-13.5 -8q-5 -1 -9 -7q-2 -2 -5.5 -5t-6.5 -5.5t-6 -4.5
q-13 -8 -17 -26q-9 -34 -11 -43q-1 -3 -3.5 -12.5t-3.5 -14.5q-2 -14 -1 -22q0 -8 -5 -16q-8 -15 -8 -42q-2 -34 0 -51v-3q-2 -4 -1.5 -11t1.5 -10t3.5 -10t3.5 -10q0 -1 5 -8q6 -6 14 -2q12 4 22 16q30 35 31 37q27 39 36 74q1 2 2 6.5t2 6.5q3 6 -3 9q-3 0 -5 2
q-15 8 -21 17q-2 4 -8 9t-9 9q-8 10 -10 26.5t4 27.5q13 25 36 42q16 11 32 5q23 -8 33 -19q11 -13 12 -24q5 -37 5 -39zM140 325q1 1 3.5 2.5t3.5 2.5q4 3 7.5 7t7.5 9t6 8q24 27 39 50q9 13 33 55q4 8 14 24l15 24q4 8 12.5 22.5t10.5 17.5q10 18 -1 31q-4 6 -10.5 6
t-10.5 -6t-7 -7q-6 -3 -12 -13q-3 -5 -13.5 -24t-18.5 -28q-5 -6 -6 -13q-8 -24 -17 -35q-2 -2 -4 -8q-4 -12 -12 -25q-4 -7 -8 -15t-8.5 -18t-7.5 -15q-5 -9 -9.5 -26t-7.5 -24q-1 -1 1 -2zM202 170v9t-1 8q0 3 -0.5 8.5t-1.5 8.5q-3 10 -13 10q-9 -2 -9 -12q0 -2 0.5 -6
t0.5 -7q-1 -10 9 -26q2 -3 8 -7q7 -2 7 4v10z" />
    <glyph glyph-name="c" unicode="c" horiz-adv-x="291" 
d="M357 182h1v1q1 1 2.5 3t3.5 4q6 -6 0 -10q-2 0 -2 -2q-2 -1 -1 -5q-3 -5 -5 -11q-1 -9 -17 -25q-5 -5 -15.5 -14t-14.5 -13q-3 -3 -39 -31q-21 -16 -24 -19q-4 -4 -12.5 -10.5t-10.5 -8.5q-2 -1 -13 -7q-16 -11 -37 -22q-31 -16 -51 -20q-3 -1 -10.5 -3t-11.5 -3
q-25 -7 -57 -2q-10 2 -11 3q-7 2 -9 8v-1q-11 3 -17 12l-5 5q-4 4 -6 11q-1 5 -4 14.5t-4 14.5l-3.5 10.5t-3.5 12.5v2q1 14 3 39t2 30q11 46 34 85q33 58 64 101q7 9 23 25q8 8 18 5q16 -5 17 -6q6 -4 10 -1q4 2 11 0q29 -14 37 -22q27 -29 17 -69q-1 -3 0 -7q0 -6 -6 -9
q-3 -1 -3 -9q0 -4 -1 -6q-2 -4 -4 -6q-1 -1 -1 -3q0 -1 -1 -4q-2 -8 -9 -3h-1q-3 -5 -8 -2q-2 1 -6 0h-7q-14 6 -12 18q1 4 -1 10q-1 3 -1.5 8.5t-0.5 7.5q-1 3 -1 9q-1 1 -1 3t-1 3l-17 -17q-24 -40 -35 -61q-14 -27 -15 -31q-6 -18 -9 -36q-3 -17 -9 -31q-3 -11 -3 -19
v-18q-2 -6 -0.5 -9.5t4 -4t8.5 -1.5h6q4 0 6 -2q1 -1 4 0q1 0 1 0.5t1 0.5q2 0 4 -1q5 -4 12 0q1 1 2.5 2t2.5 1q8 3 15 9q8 4 13 3q4 -1 12 3q30 16 39 20q4 2 11 7.5t8 5.5l54 39q12 9 38 23q5 3 13 9q2 1 5 4t5 4q7 5 14 4h2l3 3h1l1 1l1 1q5 3 8 0z" />
    <glyph glyph-name="d" unicode="d" horiz-adv-x="414" 
d="M284 123q4 -2 2 -5v-3v-1q-1 -5 -1 -33q1 -10 6 -19q3 2 7.5 7t6.5 8q19 19 32 36q16 22 35 44q4 4 11 12t12.5 14.5t9.5 12.5q1 1 29 32q14 14 25 16q2 0 5 3q1 1 2.5 2t2.5 2q8 6 13 8q7 2 11 0q3 -1 3.5 -5.5t-2.5 -8.5q-2 -4 -8 -10t-8 -9l-2 -4l-1 -2q-1 -2 -2 -3
q-6 -5 -14 -17q-2 -3 -5 -5q-5 -6 -13 -18q-1 -1 -2 -1t-2 -1t-2 -1q-16 -20 -25 -30q-2 -2 -9 -14q-2 -2 -2 -3v-2q-1 -5 -3 -7t-5.5 -7.5t-4.5 -6.5q-2 -3 -6 -8.5t-6 -7.5q-8 -8 -11 -12q2 0 4 1q-5 -10 -7 -12l-5 -5l-2 -4q-1 -4 -6 -6l-1 -1q-5 -4 -34 -21q-1 0 -3 -2
q-5 -5 -8 -6q-1 0 -2.5 -1t-2.5 -1q-14 -4 -21 -4q-4 0 -4 4l3 2h2l-1 -2h1l-1 -1h-2q-1 0 -3 -0.5t-3 -0.5q-4 0 -7 4h-1q-6 -1 -10 3q-15 15 -17 18l-5 5q-1 1 -7 9q-6 11 -9 21q-6 15 -6 33q-2 18 -2 27q0 3 0.5 11.5t1.5 13.5v1q1 0 1 -1l1 1q0 -2 -1 -2
q-10 -16 -16 -24q-1 -1 -7 -9t-9 -13q-2 -4 -8.5 -11.5t-9.5 -12.5q-7 -10 -14 -16q-1 -1 -4 -7q0 -1 -2 -3q-4 -5 -12 -13t-10 -11q-1 -1 -5.5 -5t-6.5 -6l-2 -1l-1 -1q-5 -2 -13 -8t-10 -7q-1 -1 -4 -1q-7 0 -10 -1q-2 0 -6 -1t-6 -1q-4 0 -14 4q-3 1 -7 3.5t-5 3.5
q-3 2 -7 4q-8 4 -16 18q-8 13 -12 25q-7 16 -6 30q0 16 -1 24v22q0 9 2 23q3 27 15 45q2 4 2 12q1 9 8 17q14 23 17 30q0 1 11 17q4 4 10.5 11.5t9.5 11.5q5 6 12 12q4 2 11 7.5t10 8.5q18 11 23 13q3 0 5 2q4 5 21 12q2 1 14 6q10 3 20 1l15 -3q9 -4 13 -9l6 -6q4 -4 7 -4
q4 -1 6 -8q2 -3 3 -4t2.5 -3.5t2.5 -3.5q1 1 1 4q0 2 0.5 4t0.5 3q1 5 3.5 15t4.5 15q4 20 7 29q8 26 11 38q5 19 7 25q4 16 7 24q2 6 5 17.5t5 17.5q1 4 4.5 12t5.5 12q3 9 11 27q1 2 6 13.5t8 17.5q6 14 9 22q2 5 8 17q12 20 20 38q6 12 10 17v1q1 1 1 2q6 18 26 38
q3 3 3 4q0 6 3 9q1 2 5 6q0 1 2 3v1q1 1 2 3.5t3 6.5q1 -4 1 -8q3 2 8 -3h1q12 8 18 9h2h9q9 1 9 0q3 0 11 -4l1 -1q1 -1 2 -1q1 -1 3 -1q10 0 2 -6q1 -1 3 -4q0 -1 1 -3v-2l4 -8q3 -3 4 -6q7 -22 8 -28v-4q1 -4 0 -4q0 -3 -1 -10t-1 -10q-6 -28 -8 -43q-2 -10 -4 -15
q0 -2 -2 -4q-5 -5 -9 -19q-1 -2 -3.5 -7.5t-3.5 -8.5q-1 -4 -24 -61q-5 -15 -14 -32q-12 -22 -19 -33q-8 -14 -13 -22q-2 -4 -17 -29q-5 -10 -17 -28q-2 -3 -5.5 -7.5t-5.5 -7.5q-8 -12 -12 -17q-1 -1 -6.5 -10t-9.5 -13q-6 -8 -8 -19q-1 -7 -3 -23q-4 -18 -7 -28
q-3 -15 -3 -17q-1 -6 -3.5 -20t-3.5 -20q-3 -18 -3 -19q0 -2 -3 -28q-1 -4 -1 -12v-12zM331 399q1 1 2.5 3.5t2.5 3.5q4 6 11.5 19.5t11.5 20.5q2 4 7 12.5t7 12.5q4 7 11.5 22t11.5 22q5 9 19 42q5 10 13 30q2 7 7 20t7 20q1 1 1 4q0 4 2 6q2 3 4 9t2 7q2 11 0 31
q0 9 -4 25l1 -1q-3 -3 -7 -10.5t-5 -9.5q-4 -5 -7 -13q-5 -11 -7 -13v-1l-1 -1v-5q-2 -2 -2 -4q-7 -12 -7 -17q0 -4 -2 -8q-4 -6 -8 -13q-7 -17 -12 -38q-2 -10 -4 -14t-5.5 -10.5t-4.5 -8.5q-7 -10 -8 -18q-2 -6 -5.5 -16t-4.5 -14q-1 -9 -5 -20q-1 -2 -2.5 -7t-2.5 -7
q-5 -13 -8 -23l-6 -24q-1 -4 -3 -14zM205 232q0 2 -0.5 6.5t-0.5 6.5q-1 8 -1 23q0 13 -3 25q-1 4 -4.5 11.5t-4.5 8.5q0 1 -2 1q-8 -3 -10 -2h-3v-1h-2q-4 -2 -16 -14l-2 -1q-3 -2 -5 -3q0 -1 -1 -2q-1 -2 -3 -5t-3 -5q-16 -21 -17 -23q-4 -9 -11 -17q-6 -8 -8 -13
q-3 -5 -5 -10q-7 -16 -8 -20q-3 -7 -7 -23q-1 -4 -12 -46q0 -1 -0.5 -3t-0.5 -4q-6 -15 -6 -30q-2 -19 1 -32q1 -2 2 -1q7 5 11 2v-1q1 0 1 1l1 1q2 2 12 13q6 6 20 22l24 30q32 37 38 46q8 11 16 25q11 19 13 21q0 2 -1 6.5t-2 6.5z" />
    <glyph glyph-name="e" unicode="e" horiz-adv-x="238" 
d="M269 183q11 0 6 -12q-1 -1 -7 -20q-1 -3 -3.5 -8.5t-3.5 -7.5q-7 -12 -8 -13q-1 -2 -4 -7.5t-4 -8.5q-5 -8 -11 -23q-1 -2 -2.5 -4t-1.5 -3q-2 -3 -13.5 -18.5t-17.5 -24.5q-3 -3 -7 -11t-6 -11q-12 -19 -38 -51q-14 -18 -28 -20q-2 0 -12 -8q-9 -7 -18 -7q-2 1 -6 1
t-6 1q-13 3 -16 2q-19 -3 -65 40q-20 18 -25 56q-6 40 4 85q15 63 48 137q19 42 53 93q20 30 45 50l6.5 6.5t7.5 6.5q18 16 38 25q7 3 11 2t11.5 -1t13.5 -1t11 -4q17 -9 20 -15l12 -18q4 -6 6 -20q0 -3 0.5 -11t1.5 -13t-2 -12q-1 -3 -2.5 -9t-2.5 -9q0 -2 -2 -4
q-7 -11 -27 -49l-2 -4q-11 -13 -14 -22q0 -1 -9 -13q-6 -7 -16 -20t-15 -20l-39 -42q-4 -4 -23 -16q-9 -5 -33 -25l-4 -2q-16 -1 -17 -16l-3 -43q1 -8 1 -24q0 -7 3 -15v-1q2 -2 6 -8q2 -2 2 -3l2 -1v-1q7 -7 15 -1q44 26 57 42q7 7 19 21q9 11 27 31q18 18 26 29
q24 30 36 46q6 8 14 21q4 6 11 6zM105 239q-7 -20 -11 -28q3 3 9.5 9t11.5 11t9 10q38 49 48 73q2 4 7.5 15.5t7.5 18.5q6 16 6 24h-3q-15 -13 -18 -16q-4 -5 -10.5 -15t-9.5 -14l-21 -30q-8 -9 -11 -22q-1 -6 -5 -16q-1 -4 -5 -10t-5 -10z" />
    <glyph glyph-name="f" unicode="f" horiz-adv-x="292" 
d="M390 309q-1 -1 -4 -5.5t-6 -5.5q-2 0 -4 -4q-4 -4 -12 -14.5t-13 -15.5q-6 -6 -11 -10q-7 -8 -22 -23l-22 -22q-4 -5 -4 -6q0 -2 -3 -2q-4 -3 -25 -24q-8 -8 -16 -13q-1 -1 -4 -3q-14 -13 -35 -24v-7v-3q1 -3 1.5 -7.5t0.5 -7.5q1 -3 1 -11q0 -2 -1 -3q-4 -20 -5 -29
q-3 -18 -6.5 -57.5t-7.5 -60.5q-6 -22 -8 -34q-2 -8 -6 -24.5t-6 -24.5q-3 -12 -11 -19q-1 -1 -2.5 -3t-1.5 -3q-6 -20 -29 -66q-4 -13 -9 -19q-1 -2 -6 -5q-2 -1 -3 -3t-2 -3q-5 -12 -12 -15q0 4 3 5h-1q-4 0 -5 -3q-3 -3 -5 -2q-6 0 -2 -4q2 -2 0 -2q-3 -1 -3.5 -4
t-1.5 -4l1 2q-1 7 -6 3h-4q0 3 -1 5q-3 -1 -5 -3t-3 -5t-2 -4l1 -1q2 -1 3 0q4 2 7 8q3 -5 8 -4l1 -1q-1 -2 0 -5t0 -5q-1 -1 -3 -4q1 -1 3 1q-1 -4 -1.5 -4.5t-4.5 -0.5q-6 0 -6 -7q1 0 2 1l1 2q3 -2 1 -4t-6.5 -7.5t-7.5 -7.5q0 4 -2 6q0 -6 -4 -2q-1 1 -2 1h-2h-1v-1
q0 -1 3 -7q0 -1 2 0h2q0 -1 -1 -3t2 -2q0 -1 -1 -2t-1 -2q-1 -2 -3 0q-1 1 -3 -1q-4 -6 -7 -10q5 2 6 3l1 -2q-3 -3 0 -6q2 -3 -2 -5q-1 -1 -6.5 -5.5t-7.5 -7.5q0 -3 -3 -6q-2 -5 1 -6v-8q-6 -2 -7 -3q-5 0 -5 -3q1 -5 -5 -5q-3 0 -8 -5q-10 -7 -13 -6l-2 -2q-3 -6 -6 -6
q-1 0 -1.5 -2.5t-3.5 -1.5q-2 1 -4.5 -1.5t-4.5 -2.5h-2q-6 1 -13 -2q-1 -1 -4 -1q-1 0 -1 2l1 3q-1 2 -6 2q-9 2 -12 7q-3 2 -8 6.5t-8 6.5q-18 12 -26 26q-3 4 -4 9q-11 37 -11 59q-1 33 11 93q4 25 16 73q7 36 16 61q2 6 5.5 20.5t5.5 21.5q4 13 11 35t13 40t14 34
q4 4 6 12q9 19 17.5 40.5t14 35t6.5 16.5v1l1 2q3 9 11 25.5t10 21.5q10 23 30 71q6 10 8 16q3 9 10 26t9 22q2 3 7 14.5t8 17.5q2 2 7 14q4 10 13.5 27.5t12.5 25.5q6 11 17 33.5t16 34.5q14 28 24 42q2 3 6.5 9.5t6.5 9.5q5 3 19 17q13 13 34 18q24 4 40 -11q4 -3 6 -11
q1 -8 8 -16q18 -17 17 -43q-3 -30 -3 -31q-2 -9 -4 -12q0 -1 -1 -2.5t-2 -2.5q0 -1 -2 -7t-4 -9q-3 -6 -3 -12q1 -8 -3 -17l-18 -33q-2 -2 -2 -3q-4 -15 -33 -64q-2 -10 -8 -18q-16 -23 -28 -37q-4 -5 -11.5 -15.5t-10.5 -14.5q-10 -15 -23 -24q-8 -8 -14 -9q0 -3 2 -3
q2 -1 19 -21q7 -3 9 -13v-3q1 -3 3 -7t2 -7q3 2 12.5 7.5t14.5 9.5q7 4 16 13q8 8 17 13q24 15 55 41q3 3 9 11q29 22 39 28q15 10 16 11q8 2 13 0zM128 55q3 17 3 51q1 1 1 2v2q0 4 -2 6q-1 0 -4.5 0.5t-5.5 0.5q-14 2 -27 8q-2 -4 -10 -22q-7 -17 -28.5 -58.5t-28.5 -65.5
q-8 -25 -10 -29q-1 -1 -2.5 -5t-2.5 -5l-9 -24q-1 -4 -5 -11.5t-5 -10.5q-9 -33 -10 -43t-5 -25q-7 -28 -17 -84q-3 -24 -1 -53l6 -24q1 -7 5 -14q2 -4 5 0l2 2q30 43 31 46q25 47 35 71q2 5 6 14t7 16.5t5 14.5t8 26t9 29q13 43 14 46q4 19 18.5 66t17.5 73zM14 -351v2
l-5 -5v-2q5 -1 5 5zM47 -333q-2 -1 -6.5 -4t-6.5 -4q-9 -7 -7 -12q1 -2 -2 -4q-3 5 -5 0h5h4q1 0 2 -1q-3 -4 -2 -5q2 1 5 4.5t6 4.5v3l-1 2q-4 0 -1 3q2 1 4 6t5 7zM33 -328q-4 -1 -5.5 -5.5t-3.5 -5.5q7 1 9 11zM79 -233q-1 1 -2 0q-4 -2 -5 -4q-2 -6 -6 -12q-2 -2 0 -5
q0 1 3 2.5t3 3.5q-1 4 6 11l1 1q1 2 0 3zM74 -251q-1 -2 -2.5 -4.5t-2.5 -5.5t-2 -4q3 3 7 14zM122 155l1 1h2q7 1 7 9q0 7 -7 23q-5 -3 -7 -6.5t-3 -10t-2 -8.5q-1 -6 0.5 -7.5t8.5 -0.5zM147 246q2 3 17.5 21.5t21.5 28.5l14 20q14 20 19 31q1 1 2 6t3 7q2 3 5 9t4 7
q5 10 7 12q5 5 13 19q10 21 20 34q1 1 2 4t2 5q2 10 8 27.5t8 25.5q6 28 5 41q0 9 -2 13q-10 -7 -24 -31q-1 -2 -3.5 -6.5t-3.5 -7.5q-3 -5 -8 -13.5t-8.5 -15.5t-6.5 -14q-10 -30 -17 -43q-3 -6 -8.5 -19t-9.5 -19q-7 -13 -7 -15q-1 -5 -14 -33q-1 -5 -6.5 -15t-7.5 -15
q-23 -54 -25 -59v-5z" />
    <glyph glyph-name="g" unicode="g" horiz-adv-x="341" 
d="M294 179v-12v-25q0 -2 -6 -31q-2 -22 -2 -27q1 -9 -6 -36q-11 -40 -19 -77q-1 -3 -3 -10.5t-3 -11.5q-9 -31 -11 -41q0 -3 -2 -9q-2 -7 -6 -20.5t-6 -18.5q-1 -4 -2.5 -11t-2.5 -10h-1l-3 -9q-2 -5 -11.5 -34.5t-15.5 -44.5q-4 -9 -11 -28.5t-11 -29.5q-3 -9 -18 -41
q-4 -8 -9.5 -22.5t-6.5 -16.5q-3 -5 -5 -10q-3 -7 -9.5 -21.5t-9.5 -21.5q-1 -3 -4 -8.5t-4 -7.5q-2 -5 -6 -13l-5 -10q-2 -3 -5.5 -8t-5.5 -8q-9 -14 -20 -29q-20 -20 -27 -32q-2 -4 -7.5 -11t-7.5 -9q-1 -1 -2.5 -3t-3 -4.5t-2.5 -3.5q-12 -14 -19 -21l2 -2
q-16 -13 -42 -33l-15 -12q-16 -11 -23 -14q-8 -7 -19 -13q-4 -3 -18 -5q-21 -6 -29 -7q-5 0 -8 -1t-8 -1q-2 0 -5 -3q2 1 3 3q-21 -1 -44 12q-11 7 -30 24q-1 2 -6 5l-3 6q-3 4 -11 12q-5 5 -21 37q-1 2 -2 6t-1 5q-6 23 -13 45q-8 30 -4 75q3 34 12 71q14 46 29 77
q5 9 15.5 31.5t16.5 34.5q17 30 20 35t12.5 20t14.5 23l23 26q-2 -6 -8.5 -13.5t-8.5 -11.5q-2 -5 -8 -13t-8 -13q4 0 7 3t5 6.5t5 5.5q0 -1 -2 -5t-1 -7q10 11 7 19q-1 2 2 5q4 5 10 17q3 4 9 10.5t8 9.5q-1 -4 -6 -12t-6 -13q2 2 8 9t12 10q-1 -2 -3.5 -5.5t-3.5 -5.5
q0 -1 1.5 -0.5t2.5 0.5q-2 -4 -6.5 -11.5t-7.5 -11.5q-1 -2 -4.5 -7t-5.5 -8q-3 -8 -9 -16q-3 -1 -3 -5v-3q1 -1 3 1q3 5 7 6q1 -1 1 -2v-3q1 0 2 2.5t3 2.5q3 -2 3 -8q2 1 2 5q0 5 6 4q1 0 1 -1q1 -2 -0.5 -3.5t-1.5 -2.5t2 -1q3 1 2 -2t2 -4q3 0 0 -3q0 -1 -1.5 -3
t-1.5 -3q-6 -8 -4 -13q4 4 10 13.5t9 12.5q2 -1 -1 -4q-7 -10 -8 -20q-1 -6 -6 -14q0 -3 -6 -1q-2 -2 -3 -7t-2 -6q-7 -16 -23 -44q-11 -16 -22 -50q-1 -5 -4 -14t-4 -13q0 -2 -2.5 -14t-3.5 -18q-2 -11 -4 -32t-2 -24t-0.5 -9t-0.5 -10v-42q0 -3 5 -31q0 -6 4 -10
q1 -2 6 -10t8 -11q2 -4 1 -6q0 -1 1 -4.5t1 -5.5q0 -6 3 -9q2 -1 6 -2.5t6 -2.5q20 -5 36 2q16 6 23 9q6 4 7 5q15 11 19 14q23 16 46 43l5 5q6 8 8 12q1 1 5 6.5t6 7.5q5 6 9.5 12.5t9.5 16.5t8 14q21 38 32 68q3 8 11 24.5t12 26.5q5 12 15 35.5t15 34.5q19 46 36 98
q2 6 8 22t8 25q2 7 5.5 19.5t3.5 14.5q5 16 19 67q8 30 10 45q14 70 17 105q0 3 3.5 17t3.5 22v10q0 18 4 54v4q-1 0 -12 -11q-3 -2 -7 -7t-6 -8q-3 -3 -3 -6q0 -6 -8 -14q-27 -27 -39 -43q-3 -3 -11 -12.5t-12 -15.5l-7 -7q-1 -1 -2.5 -2l-3 -2t-3 -2.5t-2 -3t-0.5 -3.5
q-4 -2 -9.5 -9t-10.5 -9q-6 -2 -8 -2q-3 -1 -21 -1q-5 0 -7 1q-2 3 -15 8q-8 4 -10 7q-1 1 -10 7q-6 4 -10 11q-1 1 -2 4l-2 2q-17 17 -10 41q5 16 6 19q2 8 2 22q0 10 8 30q13 37 50 98q16 25 49 58q18 20 34 33q12 10 30 16q16 6 28 -9q5 -5 13 -4q19 2 32 -13q5 -7 6 -11
q0 -6 3 -7q2 0 2 -4v-6v-7v-6q-1 -10 -10 -17.5t-18 -7.5q-9 2 -13 7q-11 8 -13 23q-4 0 -8 -6q-10 -17 -18 -38q-3 -5 -7.5 -15.5t-8.5 -18.5t-8 -14q-2 -4 -4.5 -11.5t-3.5 -9.5q-2 -4 -8.5 -16.5t-11.5 -19.5q-12 -19 -16 -37q4 5 20 21.5t24 26.5q6 9 28 31q4 4 12 13
t12 13q7 10 14 9q4 -1 10 5q6 4 9 5q5 2 7 0q3 -2 8 -4t7 -4q6 -8 13 -10q15 -7 31 -30q15 -20 10 -54zM-153 -248q-1 0 -1 -3l1 -1q1 0 1 3q0 1 -1 1zM-163 -231q-2 0 -2 -2t2 -2q0 1 1 1l1 2q0 1 -2 1zM-163 -174q0 -1 -1 -2t0 -3l1 1v4zM-66 -62q-3 4 1 8q5 2 7 7
q2 6 12 12q10 3 12 2l4 -3q-2 -6 0 -9q1 -2 -3 -8q-3 -3 0 -4q1 -1 2.5 0t1.5 3l2 3q2 3 4 4q2 -1 2.5 -4.5t1.5 -4.5q1 0 2.5 2t3.5 3v-3.5t1 -4t4 -2.5l-1 -2q-2 0 -2 -4q2 -4 -1 -4q-6 0 -4 -5q0 -3 -2 -1q-1 0 -4 -0.5t-4.5 0.5t-1.5 4q-2 0 -3 -1q-3 -3 -5 -4
q0 -5 -4 -1l-2 2q-1 0 -2 -1.5t-1.5 -1.5t-1.5 1t2 6q1 1 -1 7q-5 -3 -6 -4q-2 -5 -11 -7q0 3 4 5q4 4 5 7q2 3 1 4q-3 7 -2 9q-3 -1 -6.5 -5t-4.5 -5zM-135 -166q-1 -2 -6.5 -10t-9.5 -12q2 2 3.5 8t4.5 9.5t8 4.5zM-134 -132q0 3 4 9q9 12 20 23q5 5 7 0q0 -1 2 -1
q-4 -2 -5 -7q0 -5 -7 -10l-2 -4q-2 -4 -5 -5l-3 -1q-3 -2 -4 0q-1 1 -2 0l-2.5 -2.5t-2.5 -1.5zM-127 -179q0 -7 -6 -12q-1 7 6 12z" />
    <glyph glyph-name="h" unicode="h" horiz-adv-x="371" 
d="M329 312q12 -20 12 -32q0 -10 -4 -32q-2 -5 -3 -12t-2 -10q-1 -4 -4.5 -12t-5.5 -12q-1 -2 -2.5 -6.5t-2.5 -6.5q0 -2 -2 -8q-1 -5 -4.5 -17.5t-5.5 -19.5q0 -1 -13 -36q-2 -8 -4 -14q0 -3 -2 -9t-2 -9q-1 -3 -2 -8t-2 -8q-3 -30 -3 -33v-3t0.5 -3.5t0.5 -4.5
q2 2 7.5 5.5t7.5 5.5q12 11 16 -4q2 -8 -3 -14q-4 -5 -14 -15q0 -1 -2 -1q-4 -1 -11.5 -3.5t-8.5 -2.5h-3q-22 5 -37 18q-8 8 -13 22q-4 7 -7 19v2q0 4 -1 19.5t0 24.5q0 2 6 43q1 7 2.5 19.5t1.5 18.5q1 5 4 23q5 25 11 47q3 9 18 44q1 5 -3 5q-6 0 -9 -4q-6 -6 -13 -5
q-1 0 -7 -3q-1 -1 -3.5 -4t-5 -5t-4.5 -4q-14 -11 -18 -23q-3 -8 -8 -13q-3 -4 -10 -11q-2 -3 -5.5 -8t-5.5 -7l-14 -21q-1 -1 -8 -15q-12 -20 -18 -31q-2 -2 -4.5 -8.5t-3.5 -8.5q-1 -1 -3 -5t-3 -5l-5 -12.5t-4 -9.5q0 -1 -3 -14q-3 -11 -12 -22l-3 -6q-8 -14 -13 -19
q-6 -6 -14 -6h-6h-6l-12 6q-2 1 -10 4q-9 2 -9 10q0 1 -1 4q0 2 -1 3q-6 7 -8 25v32q3 23 4 30q1 10 3 28q2 10 4 17q1 7 4.5 23.5t5.5 25.5l9 42q2 10 2 14h-3q2 4 4 12q2 5 -3 6q-8 3 -24 11q-6 3 -6 10q3 6 9 6l18 3q8 1 17 5l1 1q2 8 4 13q7 30 10 40q1 4 2.5 9
t3.5 11.5t3 9.5q2 6 5 16t4 12q10 28 16 42q9 22 20 46q10 23 11 25q7 14 25 42q8 12 24 34q2 3 15 19q16 18 24 26q16 13 24 19q2 2 7 4t7 4q7 4 14 4q7 1 19 -7q14 -11 26 -27q5 -7 7 -15q7 -14 6 -25v-18q0 -5 -2 -15q0 -3 0.5 -7t0.5 -6q0 -5 -2 -5q-1 0 -1 -2
q-1 -3 -1 -11l6 -3q-2 -6 1 -8l-1 -2q-1 -3 -4.5 -8.5t-5.5 -8.5q-1 -2 -2.5 -7t-2.5 -7t-2 -6t-2 -6q-4 -8 -6 -11t-9 -10q-2 -3 -8 -9q-14 -20 -22 -30q-12 -15 -29 -37l-9 -9l-28 -28q-10 -9 -19 -19q-8 -8 -13 -12q-1 0 -4.5 -3t-5.5 -4q-8 -2 -11 -13q0 -1 -1 -3l-3 -9
q-1 -3 -2.5 -8t-2.5 -8q-1 -1 -1.5 -4t-0.5 -4q-1 -1 -1 -2t-0.5 -1.5t-0.5 -1.5q-2 -8 -4 -12q0 -1 -1 -2q-3 -13 -9 -37v-9q0 -3 -1 -9.5t-1 -9.5l-3 -18q1 0 1 -0.5t1 -0.5q0 1 2 3q15 25 28 42q18 25 23 31q15 18 41 35q5 3 15.5 8.5t12.5 6.5q8 6 11 10q7 7 19 9
q9 2 11 2q18 -5 22 -9q1 -2 6 -2q11 -3 20 -12q6 -6 9 -10zM175 447q-1 -3 -2.5 -8.5t-2.5 -7.5q0 -1 1 -1l3 3q16 17 24 25q12 11 30 37q1 2 20 26q2 4 3 7q2 5 6.5 15t6.5 15q1 3 5 11t6 13q2 6 4 20l3 15q0 7 -4 23q0 6 -6 3q-3 -2 -7 -8q-2 -3 -6 -11q-1 -1 -4 -11
q-3 -5 -8.5 -14.5t-8.5 -14.5q-5 -7 -13 -21q-10 -17 -11 -20q-5 -9 -8 -17q-1 -2 -2.5 -6.5t-3 -8t-3.5 -6.5q-6 -12 -8 -18q-5 -15 -10 -25q-2 -12 -4 -15z" />
    <glyph glyph-name="i" unicode="i" horiz-adv-x="173" 
d="M91 319q17 1 45 -21q10 -8 19 -24q4 -10 -2 -27q-5 -14 -13 -29q-5 -11 -17 -33q-2 -6 -7.5 -19t-8.5 -19q-19 -51 -22 -60q-8 -24 -26 -68l-18 -39q0 -1 -2 -3q-5 -1 -10.5 -6.5t-7.5 -6.5q-11 -6 -19 6q-4 6 -13 6q-9 2 -11 15q0 2 1.5 8t2.5 9q0 5 -1 6q-8 7 -8 30
q0 5 7 31q28 104 45 142q7 16 19.5 45.5t14.5 35.5q1 2 3 8q8 15 29 13zM153 359q-1 0 -1 -1q-8 2 -9 1t-1 -5q-2 0 -5 3q-1 2 -5 4l-6 3q-1 1 -2 -0.5t-2 -1.5q-4 6 -7 9q-7 7 -3 20q1 10 10 32q0 -9 7 6l6 13q1 1 1 3l1 2q6 9 16 7q2 0 6.5 -0.5t6.5 -0.5q15 -2 21 -6
q1 -1 5.5 -2.5t5.5 -2.5q22 -13 24 -28q1 -6 -5 -12q-3 -2 -7.5 -2t-9.5 -3q0 -1 -1 -1t-2 -1q-9 -1 -12 -9q-6 -11 -20 -17q-1 0 -1 -0.5t-1 -0.5q-8 -1 -10 -9z" />
    <glyph glyph-name="j" unicode="j" horiz-adv-x="198" 
d="M-130 -508h-6q-19 -5 -25 -2q-2 1 -5 0t-5 -1q-4 0 -20 12q-4 3 -12 11q-4 4 -7 5q-21 9 -28 37q-8 32 -8 71q0 4 1 6q2 21 5 31q7 37 25 79q1 3 3 10t4 10q8 27 23 44q4 6 6 8q19 29 45 51q7 7 21 25t35 36q18 16 30 26t52 41q5 3 5 9l9 51q1 12 3.5 36t4.5 36l9 45
q3 15 8 45.5t7 45.5q1 7 3 22.5t3 23.5q0 4 0.5 10.5t0.5 9.5q0 6 6 9q8 4 12 5q4 2 6 1q1 -1 8 -3t10 -5t12 -5q13 -4 16 -19q2 -6 3 -8q3 -5 5 -16q1 -5 -1 -24q-1 -4 -1 -12q-1 -9 -1 -28t-1 -29t-7 -30q0 -3 -1 -7t-2 -7v-2q-1 -4 0 -6q5 -16 -4 -39q-2 -5 -5 -14
l-4 -12q0 -1 0.5 -1t0.5 -1q3 2 8 6t9 7.5t7 7.5l36 42q7 8 21.5 25t22.5 26q3 3 9 8.5t9 8.5l27 27q23 25 46 32q2 0 20 8q1 -1 3 -2t3 -2q-1 -2 -2.5 -6t-2.5 -6q-1 -1 -2 -3t-2 -3l-12 -9q-12 -8 -15 -20v-1q-1 -1 -1 -2q-10 -8 -14 -20q-5 -12 -19 -24
q-5 -4 -12.5 -13.5t-9.5 -12.5q-5 -7 -17 -21q-1 -1 -5 -5.5t-6 -7.5q-24 -32 -39 -46q-7 -5 -17 -18q-2 -2 -4 -3q-6 -3 -11 -7.5t-10.5 -10.5t-8.5 -9q-8 -8 -17 -14q-5 -3 -6 -9l-6 -42q0 -4 -2 -8q-4 -14 -5 -20q0 -5 -1 -15t-1 -15q0 -1 -3 -16q-3 -8 -7 -23.5
t-7 -23.5q-1 -3 4 -8q-1 -3 -2 -7t-1 -7q-3 -3 -4 -2q-1 -1 -2.5 -3t-1.5 -3q-6 -26 -8 -35q-4 -28 -17 -56q-1 -3 -8 -22.5t-12 -29.5q-2 -5 -7.5 -22t-9.5 -26q-11 -20 -14 -22q-2 -2 -2 -4q-1 -12 -14 -23q-5 -3 -19 -20q-14 -16 -27 -23q-3 -2 -25 -15q-6 -3 -18 -7
q-6 -2 -7 -6zM-157 -460q26 11 35 22q3 4 9 11t7 8l2 4q4 9 13 26.5t13 25.5q17 29 30 82q3 12 7 19q10 27 10 32q0 8 1 12q2 16 8 40q6 34 10 51v4l-6 -6q-5 -6 -16 -18.5t-16 -18.5q-4 -4 -5 -9q-3 -10 -10 -15q-4 -4 -8 -10q-2 -3 -5.5 -9t-5.5 -9q-4 -5 -17 -26t-21 -31
q-4 -3 -5 -8l-15 -33l-3 -6q-11 -10 -15 -35q-1 -4 -2 -20.5t-3 -25.5q-1 -3 -1 -9.5t-1 -9.5q-3 -11 3 -29q1 -2 3.5 -5t3.5 -4zM81 458q-7 13 -4 19q-2 21 23 44q2 2 6 2q9 0 14 -1q22 -2 25 -25q0 -3 1 -4q5 -8 1 -20q-6 -16 -11 -23q-6 -9 -23 -15q-4 -1 -9 1
q-19 11 -23 22z" />
    <glyph glyph-name="k" unicode="k" horiz-adv-x="408" 
d="M498 244q-4 -6 -10 -20t-11 -20q-2 -3 -7 -9.5t-8 -9.5q0 -3 -4 -9q6 2 4 9q1 0 3 0.5t4 0.5q-6 -10 -10 -15q-1 -1 -4 -6t-5 -7v-1q-1 -1 -1 -2q0 -4 -1 -6.5t-4.5 -6l-4.5 -4.5q-18 -22 -26 -30l-31 -31q-16 -16 -23 -22q-20 -19 -49 -38q-15 -11 -59 -20h-11
q-14 0 -22 -1q-9 -1 -25 5q-16 5 -31 30l-6 12q-14 23 -16 60q-1 7 -2.5 21.5t-1.5 22.5q-6 0 -14 -6q-6 -8 -13 -12q-24 -24 -29 -32l-5 -5q-3 -5 -5 -10l-1 -2q-1 -2 -1 -3q-4 -3 -6 -14q0 -3 -0.5 -10t-0.5 -11q1 -15 -14 -30q-3 -3 -9.5 -8t-9.5 -8q-4 -4 -6 -5
q-3 -1 -13.5 -5t-16.5 -4h-2q-12 0 -13 1q-7 11 -7 16v29q1 9 2 18.5t2 21t2 17.5q1 5 3 13.5t3 11.5q2 17 8 43q3 23 9 50q5 29 21 84q26 89 78 199q14 28 30 57q16 28 21 35q20 30 31 41q1 1 3 4q7 13 31 42q12 14 24 13l3 1q2 2 13 2q1 -1 1 -5q4 -1 12 -1.5t12 -0.5
l9 -3q14 -9 22 -24t6 -38q-2 -25 -4 -30q-1 -11 -9 -24q-1 -4 -5 -12.5t-5 -13.5q-1 -11 -13 -35q-1 -3 -2.5 -6.5t-3.5 -8t-3 -6.5t-3.5 -6t-3.5 -6q-1 -1 -3 -4q-7 -15 -25 -35q-4 -4 -8.5 -12t-7.5 -11l-18 -24q-6 -6 -20 -16l-2.5 -2.5t-2.5 -2t-2 -2t-2 -2.5l-6 -12
l-3 -3q-5 -3 -13.5 -9t-13.5 -9q-7 -4 -10 -12t-11.5 -27t-13 -31t-9 -29t-4.5 -31q2 3 7 8t6 7q62 73 141 122q7 4 23 13t24 15q11 7 28 10q14 4 25 9q17 5 27 -2q22 -15 29 -28q13 -34 5 -57v-3q-13 -20 -32 -37q-3 -3 -10 -6.5t-10 -6.5q-4 -4 -23 -15q-2 -1 -12.5 -4.5
t-16.5 -4.5q-6 -2 -32 -17q-34 -18 -58 -25q-6 -2 -18 -4q-1 -1 -1 -9l12 -30q4 -20 8 -30q10 -24 26 -36q16 -13 40 -5q1 0 8 5q11 9 33 26.5t33 26.5q40 31 43 34q19 19 24 26q28 35 38 45q2 2 6 6.5t5 6.5q3 5 17 19q6 5 8 5t6 -7zM153 392q0 -2 -2 -9.5t-1 -12.5
q7 7 9 10q18 19 35 38q6 7 15.5 19.5t14.5 18.5l3 6q2 3 5.5 9t5.5 9q2 4 6 11.5t6 11.5q6 14 8 21q8 26 8 27q3 14 7 37q2 9 -4 27q-4 -5 -8 -8q-1 -2 -4 -6.5t-4 -6.5q-7 -7 -8 -10q-2 -3 -9.5 -13t-8.5 -16q-3 -3 -5 -6t-3.5 -7.5t-2.5 -6.5q-2 -7 -5 -9q-1 -2 -1 -4.5
v-3.5q-2 -3 -5.5 -8t-4.5 -8q-1 -2 -4 -6t-4 -6v-5q0 -7 -3 -10q-8 -6 -6 -13q1 -8 -6 -11q1 -1 1 -3v-3q-2 -1 -5 -4q-6 -4 -4 -9q3 -6 -4 -11q0 -6 1 -9q-1 0 -3.5 -1t-3.5 -1q0 -7 -4 -8q2 -6 3 -8q-1 0 -5 -2zM196 229q-2 -1 -3.5 -3.5t-2.5 -3.5q5 0 15 4q9 4 28 14
t29 15q7 4 14 7q20 7 39 23q23 18 30 28q0 12 -11 18q-3 -1 -8.5 -2t-8.5 -2t-8.5 -5t-8.5 -5q-3 -3 -24 -17.5t-30 -23.5q-8 -7 -16.5 -15t-18.5 -17.5t-15 -14.5z" />
    <glyph glyph-name="l" unicode="l" horiz-adv-x="198" 
d="M51 -33q-7 1 -18 10q-6 5 -10 6q-7 6 -10 9q-12 16 -21 42q-13 35 -13 61q1 13 -1 40q0 16 2 44q1 7 2.5 20t3 23.5t3.5 19.5q9 47 13 59q2 5 4.5 13.5t3.5 11.5q2 6 5.5 16t4.5 14q11 36 24 68q24 55 35 75q18 33 36 59q13 18 24 36q3 5 7 9.5t8.5 10t6.5 8.5
q3 4 10.5 12.5t10.5 12.5q6 11 13 11l6 3q13 9 27 9q16 0 24 -10q1 -1 4 -4.5t4 -5.5q14 -25 8 -48q-1 -5 -3.5 -15l-4.5 -18t-4 -15q-2 -6 -4.5 -12.5t-5.5 -14.5t-5 -12q-6 -12 -8 -19q-6 -18 -23 -45q-6 -10 -8 -16t-6 -6t-6 -6q0 -5 -13 -28q-8 -16 -14 -31
q-9 -23 -16 -36q-15 -27 -17 -32q-3 -5 -7.5 -14.5t-9 -17.5t-8.5 -15q-3 -5 -8 -15q-31 -50 -33 -53q-1 -2 -4 -5q-10 -7 -15 -25q-3 -11 -5 -48v-9q-1 -9 0 -9q5 -33 19 -58q4 -8 14 -11h3q12 -6 26 5q8 3 15 9q9 8 17 18q4 5 27 38q4 5 17 31q7 11 9 13q6 9 9 18
q8 18 14 25l2 4q2 4 20 30q13 16 27 26q6 6 8 3q2 -2 2 -11q-2 -5 -14 -29l-12.5 -25t-12.5 -30q-9 -28 -18 -44v-1q-2 -15 -18 -39q-2 -2 -5 -6.5t-5.5 -8t-4.5 -6.5q-1 -2 -4 -5l-4 -4q-6 -14 -24 -31q-3 -2 -11 -9t-13 -10q-18 -11 -38 -12q-3 -1 -34 2zM202 575
q-17 -25 -39 -67q-20 -37 -25 -44q-14 -18 -20 -41q-6 -24 -14 -37q-4 -4 -6 -9q-8 -18 -8 -27q-2 -10 -4 -18q-6 -16 -8 -24v-8q5 3 8 12q0 1 0.5 2.5t1.5 2.5q2 1 9 16q0 4 4 10q10 14 16 33l3 6q8 15 39 81q12 26 18 40q1 2 2.5 4.5t2.5 4.5q6 11 6 13q1 8 7 18
q1 4 5.5 15.5t6.5 18.5q-2 1 -5 -2z" />
    <glyph glyph-name="m" unicode="m" horiz-adv-x="469" 
d="M335 -21q19 13 32 29q4 5 9.5 10.5t12.5 12t11 10.5q5 5 13 15q25 34 46 57q20 22 32 31q3 2 8 7l8 8q5 5 9 5q2 0 4 2t4 1q0 -9 -2 -11q-4 -4 2 -6q4 0 5 -2q0 -6 -2 -9q-6 -9 -33 -39q-1 -3 -5 -7q-4 -6 -8 -5q-2 1 -4 -3q-3 -4 -10 -11t-10 -11q-1 -2 -5 -4t-5 -5
q-1 -7 -6 -13q-2 -5 -5.5 -9.5t-8.5 -9.5t-7 -8q-27 -31 -32 -39q-9 -9 -11 -14q-1 -4 -7 -11t-7 -12q-1 -3 -4 -4.5t-4 -2.5q-4 -5 -16 -11q-5 -2 -14.5 -6t-14.5 -6q-7 -4 -10 0q-2 3 -4 1q-3 -1 -4 -0.5t-2 3.5l-2 2q0 1 -3 8q-5 5 -7 2q-2 0 -2 1q0 2 -4 9q-6 6 -7 12
q-1 3 -4 8t-4 8q0 2 1.5 7.5t0.5 8.5q0 5 -1 7q-1 3 2.5 6t2.5 4q-5 7 -4 9q3 21 11 44q2 7 20 62q4 12 8.5 25t10 28.5t8.5 24.5q9 26 21 51q0 1 -2 6q-2 3 -5 1q-18 -13 -27 -29h-1q-12 -12 -40 -54q-8 -11 -22 -35q-3 -4 -8.5 -12t-7.5 -12q-4 -6 -10 -18q-3 -5 -11 -15
l-11 -19q-3 -6 -4 -7q-5 -10 -16 -21q-6 -7 -12 0q-1 0 -1 1t-1 2q-6 -1 -9 -8q0 7 -6 9q-4 1 -2 10q2 7 6 23t7 23q6 19 17 64q14 63 20 78q5 17 11 49q-3 0 -3 -3q-5 -10 -16.5 -25.5t-15.5 -21.5q-6 -8 -18 -24.5t-18 -24.5q-14 -20 -26 -34q-7 -8 -11 -17q-3 -7 -10 -20
t-9 -18t-9.5 -19.5t-10.5 -23.5q-1 -2 -4.5 -12.5t-4.5 -16.5q0 -7 3 -9q-12 -10 -13 -17q0 -1 -5 -3q-7 0 -16 7l-4 4q-3 5 -8 1q-8 -4 -10 6q-5 7 -2 37q6 57 26 141q4 17 10 51q7 38 20 85q3 11 10 30.5t9 27.5q3 9 12 12q17 5 30 -1q16 -5 24 -21q12 -21 4 -44
q-3 -9 -7.5 -27t-7.5 -27q-2 -4 -6 -19t-8 -22q1 -1 3 1q3 4 17 21t20 27q9 14 29 40q9 10 25 21q17 11 19 12q8 2 12 -2q1 -3 6 -5q15 -7 15 -22q2 -45 -4 -68q-1 -4 -1.5 -13.5t-2.5 -14.5q-4 -10 -8 -30q3 3 6.5 9t6.5 9q28 38 33 44q24 30 37 41q3 3 11 9.5t12 10.5
q18 18 20 21q4 6 12 6q1 0 26 3q26 2 33 -16q3 -8 10 -20.5t10 -18.5q6 -19 -2 -35q-5 -10 -17 -30q-2 -2 -4 -7t-2 -6q-8 -12 -16 -38q-2 -5 -4 -11l-4.5 -13.5t-3.5 -11.5q-13 -45 -24 -70q-2 -5 -6.5 -16t-6.5 -17q-9 -23 -24 -46q-1 -1 -2.5 -5t-3.5 -7zM310 -89
q-2 0 -4.5 1.5t-4.5 1.5q2 -5 9 -3z" />
    <glyph glyph-name="n" unicode="n" horiz-adv-x="426" 
d="M479 237v-1q0 -1 -1 -6.5t-4 -7.5q-3 -1 -10 -11q-2 -2 -5.5 -6t-5.5 -6q-5 -4 -7 -13q-1 -5 -6 -10q-2 -2 -8.5 -8t-9.5 -9q-16 -16 -29 -32q-17 -21 -41 -45l-8 -8q-11 -13 -37 -25q-1 -1 -2 -1t-2 -1q-8 -8 -24 -3q-8 2 -13 4q-24 10 -36 43q-2 5 -4 17q-2 9 0 27
q2 22 4 32q0 4 7 41v7q0 12 4 34q2 6 1 10q-8 -6 -19 -24q-9 -15 -21 -27l-21 -30q-17 -23 -19 -25q-10 -11 -15 -24t-27 -39q-4 -5 -13 -16t-13 -17q-12 -20 -19 -30q-18 -22 -28 -33q-7 -7 -20.5 -9.5t-22.5 2.5l-5 5q-3 5 -8 8q-11 6 -13 24q-3 17 2 36q14 72 15 74
q1 6 5 16.5t5 15.5l54 173q3 0 8 5q6 2 8 -1q0 -1 3.5 0t4.5 1q6 1 7.5 -0.5t0.5 -7.5q0 -5 6 -5q6 -1 8 -6q8 -14 15 -19q11 -6 9 -20q-1 -7 -2.5 -19t-3 -22t-3.5 -19v-3q7 5 13 16q25 38 52 64q3 2 15 17q8 8 19 16q12 9 30 9l24 3q18 3 32 -5q19 -11 25 -20q2 -4 4 -12
q2 -41 -7 -77q-8 -36 -12 -68q-1 -7 -3.5 -19t-3.5 -16q0 -1 -0.5 -3.5t-1.5 -7t-1 -7.5q1 0 7 2q8 3 19 10q7 5 20.5 16t20.5 16q11 7 27 23.5t22 21.5q5 5 17 14t17 14l6 6q9 10 18 1z" />
    <glyph glyph-name="o" unicode="o" horiz-adv-x="315" 
d="M408 310q3 -11 -5 -16l-5 -2.5l-5 -2.5q-1 -1 -3 -2.5t-3 -2.5q-2 -5 -5.5 -8.5t-10.5 -8.5t-8 -5q-11 -9 -36 -22t-28 -15q-37 -21 -61 -40q-18 -16 -34 -23q-4 -2 -6 -4q-4 -26 -18 -73q-3 -12 -12.5 -37t-13.5 -38q-2 -9 -8 -10q-4 0 -4 -4q-2 -12 -16 -24
q-19 -15 -37 -18q-3 -1 -25 2q-6 1 -12 3.5t-13 6l-11 5.5q-1 1 -7 4q-27 11 -36 37q-1 2 -3.5 6.5t-3.5 7.5q-15 26 -12 62v4q5 22 11.5 45.5t12.5 40.5t11.5 31t8.5 21l3 8v4q3 3 4 5q21 44 45 69q31 31 57 35q9 2 15 -2q5 -3 14 -7t13 -7q9 -5 13 -12t11.5 -20.5
t10.5 -20.5q7 -15 9 -32v-10v-27q8 4 21 12t16 10q20 10 29 15q5 3 103 46q20 7 25 11zM129 236q0 2 0.5 6.5t0.5 8.5t-1 7q-2 1 -4 -1q-16 -8 -26 -31q-18 -37 -23 -48q-1 -3 -5.5 -14t-5.5 -17t-4.5 -16.5t-4.5 -12.5q-2 -5 -4 -15t-4 -15q-1 -3 -1 -10q1 -17 6 -34
q4 -13 13 -4q4 3 22 26q9 14 10 20q0 5 4 15q2 4 2 7q-2 9 7 35q10 29 13 47q3 10 5 46z" />
    <glyph glyph-name="p" unicode="p" horiz-adv-x="308" 
d="M101 263q2 3 6.5 8.5t7.5 8.5q16 23 41 38q1 1 2 1q6 1 17 5.5t16 6.5q4 1 12 -1q17 -4 22 -7q1 -1 11 -8q5 -3 15 -11q2 -2 6 -7l6 -15q3 -4 3 -11q0 -3 0.5 -5.5t1.5 -6t1 -5.5v-28q-1 -14 -5 -37q0 -4 -1 -5q-2 -4 -5 -28q-1 -20 -17 -58q-17 -36 -17 -37t-1 -2.5
t-2 -2.5t-1 -2q-2 -2 -3.5 -7t-3.5 -8q-20 -34 -29 -44l-6 -3q-1 0 -5 -4q-13 -11 -16 -12q-2 -2 -3 -2q-4 0 -8 -1t-9 -4.5t-7 -4.5q0 4 -2 5.5t-6 2.5t-5 1q-4 2 -12 4q-10 4 -14 8q-4 5 -12 10q-9 7 -11 21q-3 15 4 29q3 8 14 8q1 -1 2 -1q2 -1 2.5 -3.5t1.5 -2.5
q4 0 4 -4l3 -9q3 -5 7 -8q14 -8 16 -10q11 17 19 37q14 31 17 38q12 34 18 71q6 32 8 52q4 22 4 34v16q0 8 -7 15q-6 6 -11 -1q-4 -4 -12 -14q-12 -17 -26 -35q-6 -7 -15 -21.5t-11 -18.5q-4 -6 -12 -18.5t-12 -18.5q-3 -3 -7.5 -11t-6.5 -11q-10 -15 -11 -19q-2 -6 -2 -8
q-1 -3 -3 -8.5t-3 -8.5q-2 -4 -4.5 -12.5t-3.5 -10.5l-9 -33q-3 -13 -11 -39l-12 -33q-9 -19 -15 -39t-11 -29q-5 -13 -7 -16q-1 -2 -5 -9t-5 -12l-27 -72q-1 -7 -7 -15q-2 -2 -2 -4l-12 -36q-2 -6 -3 -7q-6 -5 -8 -15q-1 -5 -9 -12q-1 0 -1 -2q-2 -3 -6 -1l-8 11q-2 8 -8 9
q-2 -1 -2 -3t-1 -3l-1 1q-4 14 -4 21q1 5 -4 14q-8 13 -10 30q0 4 3 4q1 1 1 2q-4 7 2 11q3 1 1 2q-3 2 0 6q1 2 1 9q2 11 10 31q4 12 42 127q3 12 11 36t11 36q6 21 18 65q6 22 22 64q1 4 3.5 12t3.5 12q5 22 12 41q3 7 21 62l5.5 16.5t4.5 14.5q5 14 4 24q0 7 1 10
q1 5 5 10.5t8 4.5q2 0 7.5 1t8.5 0q14 -4 18 -7q2 -2 7 -4q3 -1 13 -12q18 -18 12 -48q-6 -18 -8 -32v-3z" />
    <glyph glyph-name="q" unicode="q" horiz-adv-x="309" 
d="M342 -11q6 -3 3 -9q-2 -2 -4 -8q-3 -11 -14 -19q-4 -2 -12 -10q-2 -2 -11.5 -9t-15.5 -10q-17 -10 -24 -8q-4 0 -5 -1q-12 -4 -17 -4q-10 0 -9 -10q2 -6 0 -20q-2 -16 -4 -22q0 -2 -2 -5t-2 -4q-4 -14 -14 -42q-3 -7 -8.5 -22t-7.5 -23q-3 -7 -5 -10q-1 -1 -1 -4
q0 -2 -3 -11q-5 -12 -8 -14q-1 -1 -1 -3q1 -6 -8 -17q-10 -16 -14 -24l-1 -2q-3 -1 -6.5 -6t-5.5 -6q-8 -8 -11 -12q-2 -3 -10 -7q-1 -1 -4 0h-3t0 -3h-2q-2 1 -11 3.5t-13 4.5q-4 3 -13.5 8t-13.5 8q-14 10 -21 36q0 2 -3 31t1 54q3 31 10 53q6 25 20 75q4 15 14 45
q10 33 36 100q2 6 2 8q-6 -2 -14 -10q-3 -3 -29 -13q-2 -1 -6.5 -2t-6.5 -1h-22q-6 0 -12 2t-14 6.5t-11 5.5q-4 0 -4 3q-1 3 -12 16q-3 5 -8.5 14.5t-8.5 14.5q-3 6 -3 14q0 44 7 72q5 21 12 36q2 4 6.5 17t7.5 20q5 14 16 32q14 22 22 33q2 2 4.5 6.5t4.5 6.5q6 5 16 18
t16 19q11 9 15 10q14 8 16 10q4 3 14 3q13 0 39 -6q15 -3 28 -13q8 -5 14 -23q1 -7 6 -13q12 -15 14 -30q5 8 13 20q2 3 5.5 8t5.5 7q7 8 17 5q17 -6 31 -16q1 -1 4 -7q9 -13 9 -30q-2 -14 -7 -19q-10 -10 -10 -28q-1 -4 -3 -10q-3 -18 -19 -48q-1 -3 -12 -25t-15 -34
q-17 -42 -18 -44q-2 -5 -4 -13q-1 -2 -1.5 -6.5t-0.5 -5.5q-2 -4 -4 -11.5t-4 -11.5q-2 -5 -6 -16t-7 -16q-3 -8 -9 -22q-1 -1 -1 -2q-1 -2 -1 -3q-3 -7 4 -12q8 -4 14 -13q5 -7 15 -10q6 -1 18 -5q15 -6 34 1q6 2 12 5.5t13 8.5t11 7q10 6 23 16q6 2 8 1zM115 119
q19 24 41 40q4 3 6 8q3 7 8.5 20.5t7.5 20.5q3 7 9 19.5t10.5 23t7.5 20.5q5 9 -2 13l-1 1l-1 2q-1 1 -4.5 8t-8.5 9q-2 0 -2 3q-1 4 -7 12q-2 1 -2 6q-1 1 -2 3.5t-3 2.5q-9 0 -10 -2q-23 -28 -23 -29q-1 -1 -2.5 -4l-2.5 -5q-19 -29 -21 -34q-4 -6 -10.5 -19.5t-9.5 -20.5
l-3 -6q-6 -21 -19 -51q-6 -14 -9 -25q0 -1 -2 -9.5t-4 -12.5q-7 -19 -3 -33q0 -1 1 -2q27 3 47 24q2 2 4.5 5t5 6.5t4.5 5.5zM188 -113q1 6 0.5 20t-0.5 20q1 12 -13 24q-7 -12 -9 -20l-9 -30q-15 -49 -18 -58q-1 -4 -15 -53q-4 -15 -4 -32q1 -11 1 -33l3 -18q3 -3 4 -3l1 1
l1 2q5 9 12 27t9 22q5 14 13.5 39.5t10.5 30.5q7 21 13 61z" />
    <glyph glyph-name="r" unicode="r" horiz-adv-x="237" 
d="M343 376q5 -18 -4 -22q-5 -2 -10 -5.5t-11 -7.5t-10 -6q-23 -10 -28 -13q-12 -6 -18 -12q-2 -2 -8 -6q-4 -2 -17 -11t-21 -13q-7 -5 -18.5 -15.5t-14.5 -12.5q-2 -1 -4.5 -3.5l-3.5 -3.5q-11 -9 -13 -17q-1 -4 -4 -8t-7.5 -8.5l-6.5 -6.5q-4 -4 -5 -7q-2 -4 -7 -11t-6 -8
q-15 -23 -18 -26l-2 -4q-1 -6 -3.5 -12t-6 -13l-5.5 -11q-1 -2 -3.5 -6.5t-3.5 -6.5q-2 -6 -8 -15t-7 -11q-2 -5 -6.5 -13t-7.5 -13q-6 -12 -18 -30q-2 -3 -13 -5q-3 0 -5 2q-3 2 -15 2h-4q-12 12 -13 14q-2 6 -4 8q-7 9 -4 20q2 6 2 18q1 7 3.5 18.5t3.5 14.5q2 9 14 46
l3 9q5 14 33 102q14 44 22 67q3 9 20 47q0 1 1 3t1 3q2 8 16 14q1 1 1 0q27 -7 32 -15q1 -2 5 -4q14 -14 10 -33q-2 -8 -2 -11q0 -5 -1 -7q-3 -7 -7.5 -20t-6.5 -18q-1 -3 -2.5 -9.5t-2.5 -9.5q2 0 10 8q33 26 43 32t27.5 18t23.5 16q24 15 45 22q9 3 18 3q7 0 13 3
q3 2 26 7q10 2 13 -7z" />
    <glyph glyph-name="s" unicode="s" horiz-adv-x="293" 
d="M329 183q-15 -13 -20 -25q-17 -8 -32 -22q-6 -6 -16 -11q-4 -3 -34 -22q-11 -8 -16 -24q-7 -20 -12 -28q-1 -3 -3 -8t-4 -7l-15 -21q-3 -3 -7.5 -9.5t-6.5 -9.5q-1 -2 -3.5 -5.5t-3.5 -5.5q-3 -4 -8.5 -11t-8.5 -10q-12 -18 -20 -25q-17 -18 -22 -20q-19 -11 -21 -11
q-2 -1 -6 -1q-4 -1 -10 -5q-1 -2 -5.5 -0.5t-5.5 1.5v6q-1 -1 -4 -2t-4 -2q-10 6 -16 10q-7 5 -23 15q-6 5 -5 12q13 45 34 68q17 20 55 56q20 19 66 53q8 5 11 14q1 8 5 24q2 6 -7 9q-9 5 -31 5q-8 -1 -21.5 -4t-19.5 -4q-2 -1 -6 -2t-6 -2q-13 -5 -33 -1q-4 1 -12.5 2
t-12.5 2q-5 0 -9 3q-5 4 -14.5 11.5t-13.5 11.5q-9 9 -6 20q8 22 31 42q36 32 54 47q6 5 24.5 21t28.5 24q15 12 47 32q13 8 39 22q12 6 17 9q6 3 13 3q20 -2 28 -10q10 -8 13 -13q9 -18 -2 -33q-9 -13 -23 -14q-20 -4 -38 -14q-17 -9 -36 -23q-8 -6 -21.5 -18t-17.5 -16
q-5 -5 -16 -14.5t-20 -17t-18 -12.5q-2 -1 -6 -5q4 1 10 1q22 3 46 0q35 -4 54 -13q22 -12 33 -28q3 -3 7 -9q3 -3 6 -1q4 2 5 3q34 17 41 20q36 16 60 22q1 -2 2 -5t2 -5q1 -1 1 -5q-1 -1 -5.5 -6t-5.5 -9zM153 60q1 1 3 5l-2 1q-3 -2 -8.5 -6.5t-10 -8t-8.5 -6.5
q-24 -22 -35 -33q-2 -1 -4.5 -4t-3.5 -5q-8 -10 -12 -14q-3 -3 -7 -9q-4 -8 -6 -31q3 2 9 4q16 11 20 13q19 15 29 31q6 9 12 19.5t13 23.5t11 20z" />
    <glyph glyph-name="t" unicode="t" horiz-adv-x="164" 
d="M210 444q13 0 55 1t64 0q1 -2 0 -3t-1 -2t1 -1q8 1 24 -1.5t19 -2.5q22 -3 23 -3q4 -1 25 -1v-2h-17q-43 0 -64 -2h-1q-14 1 -27 -3q-7 -2 -22 -2q-2 0 -4.5 -1t-3.5 -1q8 -2 11 -3q-1 -2 -6 -2q-3 -1 -9.5 -1t-9.5 -1h-3.5t0.5 -3l-4 -2q-2 0 -8 -0.5t-8 -0.5
q-17 -1 -51 -9q-4 -1 -6 -7q-7 -18 -21 -52q-19 -47 -43 -112q-2 -7 -8 -24t-9 -26q-13 -54 -14 -60l-3 -27q-1 -8 -2 -23t-2 -22v-32q0 -1 0.5 -3t0.5 -3q-3 -20 11 -42q2 -3 7 -5q3 0 5 1q6 4 10 6q4 3 21 8q4 1 6 -3q0 -8 -2 -12q-8 -14 -33 -26q-12 -4 -19 -5
q-28 -6 -51 14q-17 17 -18 19q-8 12 -17 31q-10 25 -12 69q-1 49 11 99q8 32 25 83q4 10 11.5 30.5t10.5 30.5q9 27 24 51q4 6 5 10q-9 0 -25 -2q-50 -7 -60 -7q-22 0 -35 6q-11 5 -25 7q-27 5 -42 27q-10 14 -12 25q0 2 5 15q1 2 3 0q1 -1 2 0q4 3 9 1q2 -1 12.5 -5.5
t16.5 -6.5t20 -4q7 0 30 -1t36 0q25 2 39 6q15 4 45 4h5q8 0 11 5q2 3 3 5q35 52 43 62q10 14 15 22q13 19 25 24q2 2 3 2q6 7 15 2q13 -6 21 -19q2 -4 2 -6q-5 -16 -6 -17q-2 -1 -2 -5q3 -9 -4 -20q-4 -6 -10 -18t-9 -17t-2 -7z" />
    <glyph glyph-name="u" unicode="u" horiz-adv-x="381" 
d="M487 322q6 0 4 -9q-2 -8 -12 -27q-31 -54 -33 -58q-1 -2 -3 -4.5t-3 -5.5t0 -6q2 -2 -3 -5q-19 -28 -37 -52q-12 -18 -27 -36q-2 -4 -14 -18q-1 -1 -7 -10q-8 -19 -31 -47q-1 -1 -3 -2.5t-3 -2.5l-18 -12q-12 -6 -23 -3h-2q-6 0 -9 1q-1 0 -4.5 0.5t-4.5 0.5h-5h-1
q-19 1 -33 19l-21 27q-5 6 -11 0q-5 -3 -8 -8q-5 -8 -26 -26l-11 -11q-5 -7 -12 -11q-16 -11 -18 -13q-4 -5 -16 -5q-18 -4 -36 3q-1 1 -5.5 6t-9.5 5q-9 0 -17 5q-24 10 -26 12q-18 12 -23 34v19q-1 11 11 51q2 8 29 78q32 77 35 85q2 4 14 26q4 7 16 7q19 -2 29 -10
q2 -1 7 -6t8 -7v-1l1 -1q17 -34 7 -56q-2 -5 -4 -11l-4.5 -13.5t-3.5 -11.5q-5 -12 -14 -36.5t-13 -37.5q-7 -18 -7 -47q0 -6 3 -7q5 0 8 3q5 7 29 43q3 4 58 94q27 44 53 75q10 11 17 23q5 7 31 21q4 2 10 -2q10 -8 18 -8q5 0 9 -6q17 -25 19 -28q5 -8 2 -18q-3 -12 -9 -21
q-4 -4 -7 -10t-6 -13t-5 -11q-7 -13 -16.5 -38.5t-10.5 -28.5q-12 -28 -23 -46q-5 -8 -3 -26q0 -3 2 -3l21 24q12 15 40 41q26 26 38 41q11 12 33 35.5t32 35.5q25 25 39 45q6 9 11 12q4 4 8 4z" />
    <glyph glyph-name="v" unicode="v" horiz-adv-x="334" 
d="M404 197q6 -3 1 -8l-1 -2q-29 -31 -43 -38q-7 -4 -16 -4q-53 -6 -64 5q-4 4 -8 4q-7 1 -17 9q-7 7 -12 9q-3 0 -8 7q-5 5 -7 0q-5 -10 -17 -29.5t-17 -29.5q-29 -56 -70 -111q-3 -4 -11.5 -16t-14.5 -18q-9 -11 -31 -24l-2 -1h-2q-20 2 -24 4q-15 5 -15 25q-1 8 -1 26
q1 9 -1.5 24.5t-2.5 19.5l-3 30q-2 19 -2 89q1 21 -3 63q0 5 -1 16t-1 17h-1v15q0 15 4 47q0 5 7 17q0 1 2 2l2 1q12 5 22 4q6 -1 22.5 -2.5t23.5 -5t10 -13.5q0 -1 1 -3.5t2 -3.5q14 -17 9 -43q-1 -3 -1 -8q2 -18 2 -26q1 -11 -5 -42.5t-6 -34.5q0 -9 -3 -27t-4 -27
q-1 -8 -1 -24t-1 -24q0 -4 1 -5q1 0 5 4q42 68 62 102q6 9 14.5 26t12.5 24q15 26 44 45q7 5 17 0.5t12 -13.5q7 -25 8 -30q1 -10 7 -19q3 -8 14 -10q12 -3 22 -1q11 0 16 -2q1 0 1 1q19 8 25 13q16 12 24 14q3 1 23 -7q1 -1 -1 -5q-3 -4 2 -6z" />
    <glyph glyph-name="w" unicode="w" horiz-adv-x="381" 
d="M250 41q7 21 11 30q8 21 22 65q1 5 9 32t12 42q9 39 13 52q6 22 22 62q6 13 17.5 38t17.5 38q4 9 9 13q1 -1 0 -3t0 -3l1 1q1 4 6 6.5t6 3.5h1q2 -2 3 -2t1 -1t-1 -2l-3 -9q4 -1 6 4q1 1 2.5 4t2.5 4q4 4 4 3q1 0 1 -6t2 -8v-4q-2 -6 0 -16q0 -7 -3 -11q-14 -33 -17 -41
q-5 -12 -14.5 -35t-13.5 -34q-9 -19 -14 -35q-4 -10 -10 -32q-1 -7 -5 -14q-11 -25 -27 -77q-3 -12 -13 -36q-4 -8 -10 -24t-8 -20l-15 -39q0 -4 -4 -6l-3 -3q-3 -4 -4 -7q-1 -2 -3 -4q-6 -2 -16 -14v-1q-2 0 -6 -2t-6 -2.5t-7 1.5q-1 1 -3.5 2t-3.5 1q-11 1 -21 13
q-14 16 -18 35q-11 37 -13 64q-1 5 -1 14.5t-1 13.5q-1 26 1 77v2q-4 -6 -6 -12q-17 -43 -46 -96q-2 -3 -9 -15t-10 -19q-7 -14 -31 -38q-2 -2 -6 -4.5t-5 -2.5q-3 -1 -5 0q-1 1 -4 2t-5 3q-1 -1 -1 -3t-1 -3t-1 1q-4 5 -7 2l-1 -2q0 -3 -2 -2q-6 3 -6 4q-14 18 -19 34
q-3 15 -2 26q0 2 3 40q0 15 4 47q2 40 5 60q1 10 2.5 29.5t2.5 29.5q2 18 4 52q2 30 4 43q0 1 3 22q1 9 7 14t13 3q4 -2 6 2q0 2 2 1.5t3 -0.5q8 4 23 2q13 0 22 -10q21 -21 25 -29q4 -9 4 -22q0 -27 -12 -79q-2 -8 -5.5 -24t-5.5 -24q-1 -7 -5 -21q-2 -8 -2 -13
q-1 -6 -2 -17t-2 -20t-2 -17q0 -3 2 -5q12 26 14 32q5 12 14.5 34t11.5 27q17 41 37 76q2 3 4 11q2 16 8 46q1 3 4 7.5t3 6.5q1 1 2 1q1 -2 7 1q4 2 19 0q4 -2 6 -2t5 -2t5 -3q5 -2 20 -12q24 -12 18 -51q0 -5 -4 -15q-2 -5 -7 -34q-1 -3 -1.5 -9.5t-0.5 -8.5q-4 -61 -5 -95
q-3 -32 -2 -56q2 -14 4 -23z" />
    <glyph glyph-name="x" unicode="x" horiz-adv-x="307" 
d="M304 373q-4 -1 -6 -5q0 -1 -1 -2q2 -2 -2 -8l-5 -6q-4 -6 -5 -10q1 1 3 2.5t3 2.5q2 -2 0 -5q-6 -7 -19 -20q-2 -3 -13 -22q-4 -6 -5 -8q-15 -23 -47 -67q-8 -10 -24 -32l-3 -6q-8 -8 -1 -23q1 -3 6 -12.5t7 -15.5q5 -13 25 -53q6 -11 16 -18q4 -1 8 -7q5 -5 12 -3
q6 1 11 4q12 6 13 6t5 4q6 9 38 45q8 10 20 27q4 6 7 8q9 9 19 1q2 -2 2 -4q0 -6 -1 -9q-4 -6 -9 -17t-7 -15t-8 -10q-1 -1 -3.5 -5.5t-3.5 -7.5q-5 -11 -15 -17q-2 -1 -5 -4q-14 -17 -32 -29l-6 -6q-3 -7 -9 -10q-20 -11 -37 -10h-16q-11 2 -24 15q-7 7 -9 8q-9 4 -19 14
q-28 24 -43 55q-3 5 -7 0t-12 -17q-10 -16 -20 -24q-2 -2 -12 -17q-5 -8 -15.5 -21.5t-14.5 -18.5l-12 -12l-9 -9q-6 -4 -10 -4q-1 0 -7 -3q-7 -2 -11 4q-5 7 -11 9q-6 3 -16 13q-8 8 1 22q0 4 3 5q3 4 22.5 31.5t31.5 41.5q8 9 51 68q3 6 1 12q-4 8 -7 17.5t-6 21.5t-5 18
l-33 90l-6 9q-4 4 -1 11q5 12 15 16q25 10 45 -1q3 -2 10 -4.5t10 -4.5q14 -9 24 -29q1 -3 6 -12.5t8 -14.5q3 -4 5 -12.5t3 -10.5v-3q2 -6 5 -1q10 14 16 21q44 59 46 61q19 21 34 32q12 9 23 3q7 -3 11 1t16 6q2 0 2 -2l2 -2q7 -5 4 -9q-1 -1 3 -6z" />
    <glyph glyph-name="y" unicode="y" horiz-adv-x="369" 
d="M213 167q-12 -21 -12 -23t-6 -14q-5 -8 -14 -21t-11 -16q-12 -16 -17 -25q-9 -14 -21 -24q-8 -8 -12 -16q-4 -7 -11 -12q-1 -1 -6 -4t-7 -5q-8 -7 -26 -17q-8 -5 -23 -3q-22 4 -33 16l-13 13q-15 12 -17 32t4 37q8 40 13 60q10 43 32 87q7 14 19 42q11 27 21 45l24 42
q6 9 22 21q0 1 2 1l29 -3l3 -3q7 -10 7 -22q0 -5 1 -7q4 -4 2 -13q-4 -12 -7 -17q-3 -10 -10 -26.5t-9 -22.5l-6 -15q-13 -30 -16 -37q-2 -4 -8 -15t-8 -17q-4 -11 -14 -33q-5 -11 -12 -31.5t-10 -28.5q-2 -5 -4 -15t7 -25q3 -3 6 1l27 27q4 5 35 50q11 16 24 40l24 42
q14 24 19 36q7 18 18 33q5 10 7 22q0 8 4 26q4 16 3 25q-1 13 12 28q8 10 24 0q14 -8 23 -25q0 -1 2 -3q4 -4 6 -9t2.5 -9t1.5 -11t1 -10q1 -11 0 -21v-12q0 -8 -1 -23t-1 -23q0 -21 1 -31q0 -5 -2 -15q0 -8 -1 -22.5t-2 -21.5q-2 -16 -4 -25q-2 -5 -3 -15.5t-2 -13.5
q17 10 20 11q10 6 16 7q1 0 8 5q19 15 45 28q7 4 26 15t30 16q2 1 6 2.5t6 2.5q3 2 6 -1v-5q-5 -14 -15 -18q-3 -1 -7 -5q-1 -1 -22 -16q-23 -14 -29 -19q-1 0 -4.5 -3t-5.5 -4q-7 -4 -9 -8q-1 -2 -11 -10q-5 -3 -8 -8q-6 -8 -13 -12q-16 -10 -21 -15q-2 -2 -4 -2
q-6 -4 -11 -10q-3 -6 -8 -11q-12 -12 -13 -26q0 -5 -2 -12.5t-2 -9.5q-1 -4 -3.5 -18t-4.5 -22q-2 -6 -5 -17.5t-5 -16.5q-4 -17 -5 -23q-2 -15 -7 -26q-5 -14 -6 -17q-2 -5 -8 -13q-4 -5 -8 -19q-2 -10 -6 -15q-1 -1 -1 -2q-1 -2 -1 -3q-1 -5 -4.5 -13.5t-4.5 -11.5
t-3.5 -7t-3.5 -7q-2 -5 -5 -13t-5 -13q-1 -5 -10 -22q-2 -3 -14 -23q-2 -3 -9 -15.5t-12 -18.5q-2 -4 -7 -12t-8 -11l-1 -1q-5 -4 -12 -14.5t-11 -14.5q-5 -4 -9 -13t-12 -19q-1 -1 -8 -10t-12 -13q-7 -7 -8 -7q-2 -2 -2 -3q-8 -13 -19 -20l-4 -4q-3 -5 -7 -6q-5 -2 -13 -10
q-8 -7 -22 -14q-1 0 -3 -2t-3 -2q-17 -10 -23 -12q-16 -6 -25 -6q-3 0 -5 -1q-4 0 -10.5 -1t-11.5 -1.5t-10 -0.5h-4q-10 -4 -23 3q-10 5 -17 12l-6 6q-9 9 -18 27l-2 4q-2 2 -2 3q-4 7 0 28q1 4 4.5 14t4.5 16q0 6 5 14q12 22 19 34q2 3 6 8.5t5 8.5q7 11 19 33
q11 20 33 51q22 30 36 45l27 27q5 4 10 12q4 5 11.5 14.5t11.5 13.5q24 28 36 43q13 13 25 28q11 12 35 36l36 36q20 20 32 28q10 7 11 8q2 2 2 6q1 7 5 26t5 30q0 3 9 55q1 7 3.5 23t3.5 23zM169 -78q-1 -1 -3 -2l-1 -1q-12 -16 -19 -24q-6 -6 -9 -10q-8 -12 -26 -32
q-3 -4 -10 -10.5t-10 -9.5q-2 -3 -7.5 -8.5t-6.5 -7.5q-4 -5 -13.5 -12.5t-12.5 -10.5q-14 -16 -16 -23q-2 -3 -6 -7q0 -1 -5.5 -6.5t-7.5 -9.5q-4 -5 -11 -14.5t-8 -10.5q-20 -24 -27 -35q-16 -26 -36 -48q-2 -4 -3 -5q-1 -9 -9 -19q-7 -12 -8 -14q-5 -14 -19 -38l-2 -4
q1 -2 0 -5.5t-1 -4.5q0 -2 -2 -6.5t-2 -7.5q0 -7 -5 -15q-4 -4 1 -7q1 -1 3 -5l1 -3q2 -2 3 -4q6 -10 17 -5l12 6q17 9 34 26q16 14 23 23q16 22 27 32q1 1 3.5 4t3.5 5q2 3 19 28q18 26 20 29q17 32 20 38q4 8 12 22.5t12 21.5q4 4 5 8q3 8 11 24q3 8 14.5 32t16.5 37
q18 50 20 58q1 6 8 31z" />
    <glyph glyph-name="z" unicode="z" horiz-adv-x="214" 
d="M117 292q-10 -2 -28 -6q-39 -7 -65 -5q-8 0 -15 7q-12 12 -18 17q-6 6 -2 14q7 9 10 10q3 0 7.5 0.5t7.5 0.5q7 0 20 1t19 1q11 2 31 5t31 4q24 6 45 18l9 6q4 5 14 3q7 -2 11 -6q2 -2 3 -2q3 -2 16 -14q4 -4 4 -9q1 -10 7 -28q5 -16 -6 -31q-17 -20 -33 -47
q-2 -4 -6.5 -10.5t-6.5 -9.5q-4 -7 -9.5 -20t-7.5 -17q-6 -12 -16 -38q-6 -14 -14 -28q-2 -3 -3.5 -8t-2.5 -6q-4 -9 -13 -23t-13 -21q-5 -10 -19 -26q-6 -8 -7 -14h20q6 1 18 -1q3 -1 10.5 -1t11.5 -1q13 -3 37 -13q12 -5 28 -19q4 -2 4 -5q-1 -1 -2 0q-2 1 -2 0q0 -2 4 -6
q3 -3 4 -5q5 -6 -2 -9q-2 0 -2 -1q-4 -6 -7 -4q-11 6 -48 20q-18 6 -44 3q-1 0 -3 -2q-3 -2 -8 -2q-14 0 -28 -3q-10 -2 -16 -1q-6 0 -17 -3.5t-13 -3.5h-6q-1 1 -3 1.5l-4 1t-3 0.5q-9 2 -14 15v5q3 4 1 11q-1 13 0 26q2 15 14 43q18 44 28 65q16 33 52 95q11 16 18 33
q7 18 18 34q3 4 4 9z" />
    <glyph glyph-name="braceleft" unicode="{" horiz-adv-x="164" 
d="M81 249q0 -1 2 -3q9 -6 16 -19q7 -11 7 -20q0 -18 -4 -33q-6 -16 -16 -27q-3 -3 -6.5 -9t-5.5 -8q-10 -16 -20 -34q-14 -30 -19 -45q-8 -25 1 -45q4 -12 9 -19q11 -13 25 -21q3 -2 5 -9q0 -5 1 -7q4 -12 2 -19t-6 -8q-1 -1 -2 -1q-6 -9 -17 -5t-25 14q-6 6 -12 15
q-8 9 -17 22q-4 7 -8 21l-3 9q-4 9 -4 28q-1 10 3 26v4q0 4 4 16q3 6 9 20q3 6 5 7l2 2q6 10 10 14q4 5 10 17q3 4 9 12.5t9 13.5q1 1 5 7t7 9t8 10t8 10q2 2 2 3q-3 11 -5 12q-4 2 -10 8q-8 6 -10 6q-2 1 -5.5 4t-4.5 4q-4 2 -5 4q0 3 1 3q1 1 0 1t-1 2.5t-2 3.5
q-2 0 -1 2.5t1 3.5q1 0 6 5q5 4 17 10l24 15q3 1 3 4l4 8q2 3 4 10t3 10v9q-1 7 -1.5 20t-0.5 17q0 3 -2 9t-2 9q-1 5 -4 13.5t-4 12.5t-3.5 13.5t-3.5 14.5q-2 22 -2 32q0 14 1 20q0 9 4 27q4 15 14 43q8 20 15 28q3 3 3 5q2 3 15 19q8 9 17 17l2 2l2 2l2 2q14 14 26 22
q5 4 17 8q6 2 12 0h5q3 1 3 -2q1 -4 4 -2q2 3 5 1q4 0 4 1h3.5t3.5 -1t1 -5q-1 -11 -13 -18q-20 -12 -46 -40q-10 -11 -18 -26q-1 -1 -3 -5q-14 -18 -21 -45q-8 -26 -7 -40q0 -37 7 -66q4 -14 7 -21q8 -17 9 -36q0 -3 0.5 -8t0.5 -7q-1 -15 -8 -31q-2 -8 -9 -20
q-4 -7 -21 -20q-14 -11 -27 -18zM215 653l-1 -1q-2 -1 -2 -2v-1l3 3v1z" />
    <glyph glyph-name="bar" unicode="|" horiz-adv-x="158" 
d="M86 101q5 -5 0 -15q-1 -2 -3.5 -9t-4.5 -10q-4 -10 -7 -14q-2 -6 -1 -9q1 1 4 8t5 11q1 -1 0 -5l-1 -3q-2 -6 -3 -8q1 -1 5 -1v-6v-6q3 -4 -1 -10q-5 -15 -7 -19q-1 -1 -2 -6t-3 -7q-1 -1 -2 -3t-2 -3.5t-2 -2.5q-2 -2 -4 -8.5t-5 -9.5q-2 0 0 -2q0 -3 2 -5q1 -3 -1 -4
q-3 -3 -1 -7q0 -2 -2 -4q-1 1 -1 2.5t-1 1.5q-2 0 -2 -2q-1 1 -1 2v1v1q-5 3 -6 2q-6 -3 -6 -5l1 -1v-1q3 0 1 -4q0 -6 2 -7v-3l-1 -1q-4 -1 -4 -7q0 -2 -2 -9q2 0 2 3q0 1 1 3t1 3q0 3 2 1l1 -2q-2 -2 -2 -3q1 0 1 -0.5t1 -0.5q1 -1 1 1t1.5 5t1.5 4t1 3v1q1 2 2 1v-1
q1 1 1 3q-1 2 3 7q0 -2 1.5 -4.5t0.5 -4.5q0 -1 -1 -4t-1 -5q-3 -6 -3 -12q0 -1 -1 -2.5t-1 -2.5v-1q-2 -2 -1 -3q1 0 2 -2t2 -2t1 2t1 2q1 -1 1 -5q-3 -3 0 -5q0 -2 -1 -3q-2 0 -2 -2t2 -2l-1 -2q-3 0 -4 -3q-4 -8 -5 -13q0 -1 -1 -2t-3 0q-2 3 -4 1q-1 -1 -1 -4q2 -2 5 -1
q1 0 3 0.5t3 0.5q2 0 2 -1t-2 -1q-1 -1 -3 -1q0 1 -4 0.5t-5 -0.5q3 -1 5 -3q3 -2 1 -6q0 -3 -2 -2q-1 1 -6 -2q-3 -1 -5.5 -5.5t-3.5 -5.5q0 3 -3 4.5t-4 2.5q0 1 -1 1t-1 -1q-5 -7 -4 -9q-1 0 -2 1t-2 1q-2 -2 -2 -4v-3t-1 -3v-1q1 -1 0 -2l-3 1q0 3 -3 5t-4 4l2 -1
q2 0 2 1t-2 1q-2 6 -3 7q-1 -6 3 -6q0 -3 -2 -2q-4 -2 -4 2v7v5q0 7 2 10q2 0 0 4q-1 3 2 18q2 14 2 21q0 3 2 11q0 3 3 1q1 0 1 -1q-1 -3 -0.5 -9t-0.5 -9q1 0 3 4q0 3 2 7q3 11 3 20v2q-3 1 -3 3t1.5 4.5t1.5 3.5q2 12 2 17q0 2 3 29q2 11 4 33q2 5 -2 8v10q1 7 2 20t2 19
q1 5 1 15q2 19 10 50q2 11 4 29q2 20 8 58q4 25 5 35q1 5 2 14t2 13q0 5 1.5 15.5t2.5 16.5q0 10 4 32q1 12 4 34t4 34q5 45 7 55q1 7 2.5 20.5t2.5 19.5q0 1 1 6t2 7q2 7 3 21t2 18q2 20 7 28q5 9 12 11q16 4 25 -4q10 -10 11 -19q0 -4 3 -7q6 -10 6 -17q0 -3 1 -7.5
t1.5 -8.5t0.5 -8v-4q-2 -5 -2 -15l-1 -11q-1 -5 -2 -14.5t-2 -14.5t-3 -14.5t-2 -14.5v-5q0 -6 -1.5 -17.5t-1.5 -13.5q0 -12 -4 -40q-1 -4 -2 -13.5t-1 -14.5q-1 -3 -2 -14.5t-3 -17.5t-2 -10q0 -5 -1 -10.5t-2.5 -12t-2.5 -10.5q-6 -51 -6 -53q0 -10 -4 -28
q-1 -5 -2 -15.5t-2 -16.5q-2 -18 -7 -31q0 -1 -2 -3l-3.5 -7t-4.5 -7q1 -3 4 -4q-3 2 -5 0q-5 -7 -4 -12q3 4 4 8t5 4zM43 25l-3 3q-2 -1 -2 -3l-1 -2q-2 -5 0 -6q-5 -8 -3 -16q-1 0 -2 -1t-2 -1q2 8 3 11q0 4 -1 4q0 2 1.5 3t1.5 2q1 6 2.5 16t1.5 15q1 2 0 3q-3 2 -1 8
q0 5 4 17l1 4q-5 0 -3 3q1 1 1 2v5q-1 -1 -1 -3q-1 -3 -2.5 -8.5t-2.5 -8.5q-3 -21 -3 -22q0 -2 -0.5 -6t-0.5 -6v-2q-2 0 -5 -9q-5 -17 -5 -21h-1l-1 -1q-2 -4 -2 -14q-1 -1 2 -3q-1 -1 -4 -6q0 -6 -1 -9q0 -2 -3 -22q-1 -1 0 -1q1 -1 1 -6q-2 -12 -4 -16q4 0 4 3q2 5 4 13
q0 1 1 3.5t1.5 4.5t0.5 4t2 6q0 1 1 0q0 -1 1 -1q0 2 1 6.5t1 6.5q1 3 5 14q4 8 3 13q3 0 3 2q-1 2 1 2q1 -3 -1 -9t-1 -9q2 1 2 3q1 2 2 2q2 1 1 4q-1 2 -1 6q1 1 1 5q3 5 2 10q2 1 6 15q-2 -1 -3 -3.5t-2 -3.5zM30 -50l-1 -1q-1 0 0 -1q1 -2 -2 -4q-5 -1 -5 -7
q-1 -2 -1.5 -5t-0.5 -5q5 -2 5 3q1 4 3 10q4 6 2 10l1 1q1 0 1 2q-1 1 -1 0q-1 0 -1 -2v-1zM57 -4q3 -2 5 2q3 19 3 20q2 6 2 8q2 3 2 10q-3 -9 -2 -10l-2 -2q0 -3 -2 -3t-4 -5q0 -7 -3 -14q-2 -3 1 -6q1 -2 -0.5 -5.5t-1.5 -5.5q4 -1 5 3q1 2 -1 4.5t-2 3.5zM31 -45l1 1
q6 4 13 2q1 0 2 1q-1 1 -0.5 4.5t-1.5 4.5q-3 1 0 4q1 1 2.5 3.5t2.5 3.5q2 2 3 6.5t2 5.5q-3 1 -5.5 -0.5t-4.5 -1.5l-3 -6q0 -2 -2 -5t-1 -5q2 -2 -2 -2q-1 0 -3 -1q-1 4 2 11v1l1 2q-3 0 -3 -1l-2 -2q-1 -3 -2.5 -8t-1.5 -7q0 -1 -1.5 -4.5t-1.5 -5.5q4 1 5.5 5.5
t3.5 5.5q0 -1 1 -3t1 -3q-3 1 -4 -1t-1 -5zM23 -76q-1 -2 -6 -7q-1 -1 -3 -2l-1 -1q0 -1 -3 -10q-4 -6 0 -9q0 -1 -1 -2q-1 -2 1 -4q1 -1 4 2q0 2 2 2q3 -1 3 4q1 2 1 6t1 6q0 2 -1 2q-2 1 -1 3q4 2 4 10zM47 8h-1l-3 -9q0 -4 3 -4q4 -1 5 0t1 5v2q1 3 0 3.5t-4 -0.5h-1v3z
M54 54q-1 -1 -1 -2q-2 -2 -3 -1q0 1 -3 -2v-1l1 -2l1 -1h3q3 6 2 9zM59 70q-2 -4 -2 -8q0 -2 -1 -3l-1 -1l1 -1q2 0 2 2q0 1 1 5t0 6zM26 -80l2 1q3 2 2 4q0 2 -2 2q-2 -1 -2 -4v-3zM5 -79q1 1 3 1t2 2t-1 2q-3 2 -3 -2q0 -1 -1 -3zM3 -101q3 3 2 8q-1 -2 -1.5 -4.5
t-0.5 -3.5zM32 -100q-1 -1 -1 -2q-2 -2 -1 -3h1q1 0 1 3q1 1 0 2zM39 -87q2 1 2 5q-2 -4 -2 -5zM36 -99q3 5 2 5q-2 -2 -2 -5zM26 -86v2q0 2 -1 2q-1 -1 1 -4zM18 -69v2v-1v-2v1zM69 -39q-1 -2 -3.5 -8t-4.5 -9q-2 2 -2 3q-4 4 2 7q2 0 2 3l3 6q1 1 2 1q1 -1 1 -3zM55 -82
q0 12 8 15q0 -2 -8 -15zM47 -88q2 0 1 -1q0 -2 -1 -2l-1 1q0 2 1 2zM43 -95v1h1h1q0 -1 -1 -1h-1zM26 -1q-1 -5 -7 -11q-1 3 0.5 9.5t1.5 8.5q2 3 4.5 10t3.5 9v-9v-8zM18 -16q1 -1 -2 -6q0 1 1 3t1 3zM32 14q-1 -1 -1.5 -3t-0.5 -3q2 4 2 6zM29 3v5h1q0 -2 -1 -5zM38 -32
q0 1 1 3v-3q0 -1 -1 -1v1zM40 17q3 9 4 9q0 -1 -1.5 -4t-0.5 -5h-2zM39 10q1 0 1 -1v-2q-1 0 -1.5 -1.5t-1.5 -1.5q0 4 2 6z" />
    <glyph glyph-name="braceright" unicode="}" horiz-adv-x="212" 
d="M88 267q-14 14 -16 20q-3 11 -3 20q-2 21 0 31q1 2 3 7t2 8q9 24 19 36q2 4 6.5 11t6.5 10q10 19 25 66q3 10 3 40q0 27 -9 45q0 1 -0.5 2.5t-1.5 2.5q-6 18 -11 26q-15 26 -35 40q-9 7 -8 18q0 1 0.5 2.5t1.5 2.5q2 1 4 1h3q0 -1 4 -1q4 2 5 -1q2 -4 4 2q2 3 4 2h6
q5 1 11 0q12 -5 15 -8q10 -8 20 -22q1 -1 2 -3t2 -3q5 -5 13 -17q8 -17 9 -19q1 -1 1 -2.5t1 -2.5q6 -10 8 -28q2 -28 2 -43q0 -18 -3 -27q-1 -6 -5 -20q-2 -9 -10 -32q-2 -5 -7 -14.5t-7 -13.5t-7.5 -12.5t-8.5 -13.5q-1 -3 -4 -9t-4 -9q-1 -2 -5 -16t-7 -21l-3 -9
q0 -3 0.5 -10t1.5 -10q0 -2 0.5 -4.5t0.5 -3.5l2 -4l21 -15q10 -6 14 -10q1 -1 2 -3t2 -2q0 -1 0.5 -3.5t-1.5 -2.5q-1 -1 -2 -3t-3 -3v-1q2 -1 0 -3q-1 -1 -6 -4q-10 -8 -12 -8q-3 -1 -11 -6q-2 -1 -6.5 -4t-6.5 -4q-3 -1 -8 -12q0 -2 1 -3q3 -3 6 -10.5t5 -9.5q2 -3 4 -8
t4 -8q5 -12 10 -26q5 -16 6 -17t6 -14l1 -2q1 0 4 -7q2 -14 3 -20q2 -11 0 -16v-4q-1 -3 -2 -12t-3 -14q-6 -21 -11 -28q-4 -6 -5 -9q-2 -2 -4.5 -6.5t-5 -8t-5.5 -6.5l-22 -22q-11 -11 -17 -15q-15 -10 -28 -14q-12 -4 -16 5q-1 0 -2 1q-4 1 -4 8q1 9 8 19q2 4 3 7q2 6 7 9
q15 8 31 21q7 7 14 19q14 22 13 45q-1 20 -8 45q-2 13 -10 34q-6 15 -7 17q-7 10 -9 27q0 15 5 33q2 8 12 20q11 13 21 19l1 1q2 1 2 2q-11 7 -22 18zM85 652q0 -2 2 -3l1 1l-3 3v-1z" />
    <glyph glyph-name="asciitilde" unicode="~" horiz-adv-x="269" 
d="M2 195q-3 15 4 27q2 4 4 12q4 14 20 30q2 4 9 8l2 2q4 5 20 12q7 3 15 0q1 0 2 -1t2.5 -2t2.5 -2q3 -2 6 1q1 3 3 1q1 0 3 -2t6 -4.5t7 -5t5 -5.5l21 -21l3 -3q13 -14 28 -10q1 0 5 -0.5t6 0.5l2 1l2 1q-1 1 -2.5 0.5t-2.5 0.5q1 1 4 2l3 1q14 5 20 20q2 5 7 12.5t6 9.5
q1 0 1 1t1 2q2 0 4.5 2.5l3.5 3.5q1 -2 -1 -4.5t-2 -3.5q1 -1 3 -4v-4l-2 -6q2 -3 3 -2h4q6 -2 9 3q0 2 3 2h4q3 0 1 -2q0 -2 1 -2q2 0 2 -8v-2q2 -4 -2 -13q-2 -4 -5.5 -14t-5.5 -14q-13 -24 -24 -32q-7 -4 -21 -6q-4 0 -10 -0.5t-10 -0.5q-2 0 -3 2q-1 1 -2 1q-3 -3 -12 1
q-8 3 -28 21q-10 9 -28 29q-5 7 -17 13q-3 2 -10 -2q-6 -3 -10 -7q-4 -3 -12 -14q-2 -3 -12 -25q0 -2 -5 -6q-7 -6 -19 -1q-4 2 -7 4l-1 1q0 5 -3 3zM55 278q6 -4 11 4q-4 1 -11 -4zM51 276v-1h1z" />
    <glyph glyph-name="nbspace" unicode="&#xa0;" horiz-adv-x="248" 
 />
    <glyph glyph-name="exclamdown" unicode="&#xa1;" horiz-adv-x="179" 
d="M96 271q0 3 2 3q1 0 1 2q-1 1 0 2l1 2q0 -2 1 -2t3 3l-1 1q-1 0 -2 -1l-1 -1q0 2 2 4q1 4 5 2q1 -2 3 0q2 3 5 0q1 0 2 -1.5t2 -0.5q2 1 4 6q1 1 1 5q0 1 2 1t0 -2v-1l-1 -1q0 -2 2 -2q2 -2 2 1q0 2 3 5l1 1q1 1 0.5 3.5t1.5 3.5h2q2 1 3 3q4 -6 4 -7q-1 -1 1 -1
q7 -3 7 -9t-1 -9q-3 -8 -7.5 -22t-6.5 -22l-12 -42q-9 -37 -19 -65q-7 -26 -10 -34q-3 -14 -16 -50q-8 -22 -12 -43q-5 -19 -17 -55q-4 -10 -12 -32q-7 -21 -18 -43q-9 -17 -16 -43q-8 -24 -12 -35q-2 -4 -14 -26l-2 -2q-9 -20 -32 -11q-8 4 -16 15q-2 4 -4 6q-3 1 -3 6
q1 5 0 12.5t-1 9.5q0 11 4 19q7 13 14 34q2 4 4 14q1 6 8 28q2 6 7.5 18.5t8.5 18.5q1 2 6 17q5 14 12 27q6 12 9 24q6 18 8 27q2 6 7 26q1 3 5 12q10 26 18 51q7 21 10 26q4 8 8 22l3 12q4 14 6 20q1 4 5 12q2 6 8 16t7 13q1 2 3 4t2 4q7 8 10 20q1 0 2 -1q2 0 2 1
q0 3 -2 1zM132 359q-5 6 -12 3q0 6 1 7l1 4l1 1q2 0 4 2q1 3 -1 3t-3 1q1 0 1 2l1 1q3 0 3 3q1 3 4 4v2q-1 3 1 3q1 0 3 4q3 3 3 4q1 2 5 2q1 -1 5 -1q1 0 2 1t0 2l-1 1q-1 0 0 1q2 2 3 1t3.5 -0.5t3.5 -1.5q1 0 1 1q0 2 2 0q8 -4 13 -4q3 0 5 -5q3 -8 2 -10q-2 -20 -7 -26
q-6 -6 -14 -9h-7h-8q-11 0 -14 3zM113 296h2t2 -1q-7 0 -9 -2l-3 2q1 1 3 4q2 2 2 -1q3 0 3 -2zM120 305q0 -1 -3 -4q0 1 3 4zM126 299q-1 0 -1 2h1q1 0 1 -1zM137 307l-1 -1v1q-1 1 -1 2h1z" />
    <glyph glyph-name="cent" unicode="&#xa2;" horiz-adv-x="242" 
d="M238 405l-8 3l4.5 -4.5t3.5 -6.5l-2 2t-2 1q-10 11 -23 4q-5 -2 -13 -4q-5 0 -7 -5q-6 -14 -6 -16q-1 -7 -8 -29q0 -2 -2 -4q-3 -3 -6.5 -11t-4.5 -10q-2 -5 -1 -7q3 -5 -3 -11q-5 -5 -5 -12q-1 -5 -3.5 -13t-2.5 -12q-3 -15 -2 -18q1 -5 -3 -13q-4 -7 0 -12q3 1 21 9.5
t28 12.5q3 2 8.5 5.5t8.5 4.5q5 2 6 -2t5 -4q9 0 4 -7q-1 -2 -10 -22q-7 -16 -24 -25q-5 -3 -34 -19l-5 -5q-5 -6 -15 -8q-9 -3 -11 -13q-2 -9 -9 -10q-3 -2 -3 -5q-1 -4 -3 -11.5t-2 -10.5q-2 -10 -9 -16q-11 -9 -16 3q-5 9 -3 19q0 12 4 34q1 6 -4 6q-3 0 -29 8
q-11 3 -21 19q-11 19 -17 38q-9 26 -8 44q0 12 8 36q12 35 36 62q27 30 38 38q20 17 49 31q7 3 8 10q9 35 28 78l6 12q0 1 1.5 4.5t2.5 5.5q0 5 5 8q2 1 10 1q11 -2 16 -14q4 -12 11 -12q0 -4 -2 -4q-5 -6 -5 -18q0 -10 -3 -12q0 -5 -3 -15t-3 -14l-3 -15q13 1 34 -14
q2 -5 1 -7q-5 -3 1 -5l6 -3q4 0 3 -3t-4 -3q-1 1 -3 1.5t-3 0.5q1 -2 4.5 -4.5t4.5 -4.5q-1 -2 -6 -3t-6 -4zM121 345q-2 0 -5 -3q-9 -9 -23 -27q-10 -16 -13 -24q-8 -20 -13 -30t-5 -20q0 -9 3 -18q2 -13 3.5 -14t14.5 0q9 0 10.5 1t2.5 7q1 3 1 4q1 1 1 4q3 37 12 73
q3 15 11 47z" />
    <glyph glyph-name="sterling" unicode="&#xa3;" horiz-adv-x="336" 
d="M167 312q4 -1 19 2q13 1 59 11q9 0 11 -1q1 -2 7 -2h7q6 -1 7 -7v-2q1 -10 -6 -14q-1 -1 -17 -14q-1 -1 -6 -4q-11 -4 -26 -7q-38 -12 -41 -13q-5 -3 -5 -5t-3 -2l-7 -3.5t-8 -3.5q-11 -5 -13 -13q-5 -14 -13 -42q-1 -2 -2.5 -7.5t-2.5 -7.5q-2 -7 -6 -24.5t-7 -26.5
q-7 -30 -16 -48q0 -1 -1 -2.5t-1 -2.5v-3q3 -1 8 -2t6 -1q38 -8 56 -18q24 -16 28 -18q14 -8 21 -9h2q14 -6 38 4q2 1 3.5 3.5t2.5 3.5q3 3 3 -1q0 -1 3 -1q14 16 14 17q3 6 7 10q5 9 8 17q2 5 7 3t5.5 -3t0.5 -8v-11q-1 -4 -5 -12q-4 -5 -7 -13q-7 -17 -18 -30
q-12 -14 -18 -20q-8 -8 -17 -8t-13 -2q-6 -3 -11 3q-4 6 -8 4q-9 0 -25 8q-18 11 -35 19q-9 4 -17 11q-6 2 -9 2q-11 1 -33 -1q-20 -4 -30 -12q-2 -3 -7.5 -7t-8.5 -6q-5 -5 -10 -5q-10 -2 -15 -8q-5 -3 -10 -2q-8 0 -9 3h-1q-7 1 -6 7v3q0 1 -2 0t-2 2q0 5 -3 7q-1 1 -1 6
q-2 10 1 15q5 6 10.5 19t8.5 17q7 10 13 36l18 66q3 10 20 70q2 8 2 12q-3 1 -8 1q-13 0 -26 3q-1 1 -26 6q-8 2 -12 15q-1 1 -2 3.5t-1 3.5q-4 9 0 18q1 6 6 4q3 -1 20 -1h41h20q6 -1 7 5l6 21t5 21q18 82 31 121q15 49 27 75q11 26 27 43q33 31 47 38q17 10 31 10l21 3
q14 1 31 -12q11 -7 18 -17q2 -2 3 -7.5t2 -6.5q8 -17 7 -33v-5q-1 -2 -4 -17q-1 -4 -2.5 -11.5t-2.5 -11.5q-1 -5 -10 -18q-9 -16 -14 -21q-8 -8 -11 -13q-4 -6 -10 -2t-4 12l3 6q12 24 16 36q8 24 11 37q3 11 1 24q-2 15 -12 20q-3 2 -4 1q-2 -2 -15 -7q-11 -6 -22 -21
q-13 -20 -24 -44q-14 -31 -24 -63q-1 -3 -2.5 -10t-2.5 -10q-2 -5 -4.5 -14t-3.5 -14l-27 -90v-2q-1 -2 -1 -4z" />
    </font>
</defs>
</svg>
