<?xml version="1.0" standalone="no"?>
<!DOCTYPE svg PUBLIC "-//W3C//DTD SVG 1.1//EN" "http://www.w3.org/Graphics/SVG/1.1/DTD/svg11.dtd" >
<svg xmlns="http://www.w3.org/2000/svg" xmlns:xlink="http://www.w3.org/1999/xlink" version="1.1">
<metadata></metadata>
<defs>
<font id="voyagerregular" horiz-adv-x="1413" >
<font-face units-per-em="2048" ascent="1604" descent="-444" />
<missing-glyph horiz-adv-x="567" />
<glyph unicode="&#xfb01;" horiz-adv-x="1261" d="M96 438v191h99v682q0 125 87 212t212 87q86 0 156 -44t110 -120l-172 -86q-31 57 -84 57t-84 -31t-31 -75v-682h526v532h197v-1161h-197v438h-526v-438h-194v438h-99zM891 1487q0 51 36 87t87 36t87 -36t36 -87t-36 -87t-87 -36t-87 36t-36 87z" />
<glyph unicode="&#xfb02;" horiz-adv-x="1239" d="M96 438v191h99v682q0 125 87 212t212 87q84 0 154 -44t110 -120l-172 -86q-31 57 -83 57t-83 -31t-31 -75v-682h506v979h201v-1608h-201v438h-506v-438h-194v438h-99z" />
<glyph unicode="&#xfb03;" horiz-adv-x="1966" d="M96 438v191h99v682q0 125 88 212t213 87q84 0 154 -44t110 -120l-172 -86q-31 57 -83 57t-83 -31t-31 -75v-682h508v682q0 125 87 212t212 87q84 0 156 -44t110 -120l-174 -86q-31 57 -83 57t-83 -31t-30 -75v-682h526v532h197v-1161h-197v438h-526v-438h-197v438h-506 v-438h-196v438h-99zM1595 1487q0 51 36 87t87 36t87 -36t36 -87t-36 -87t-87 -36t-87 36t-36 87z" />
<glyph unicode="&#xfb04;" horiz-adv-x="1943" d="M96 438v191h99v682q0 125 87 212t212 87q86 0 156 -44t110 -120l-174 -86q-31 57 -83 57t-83 -31t-31 -75v-682h508v682q0 125 88 212t213 87q84 0 155 -44t109 -120l-172 -86q-31 57 -83 57t-83 -31t-30 -75v-682h503v979h203v-1608h-203v438h-503v-438h-197v438h-508 v-438h-194v438h-99z" />
<glyph horiz-adv-x="0" />
<glyph unicode="&#xd;" horiz-adv-x="681" />
<glyph unicode=" "  horiz-adv-x="567" />
<glyph unicode="&#x09;" horiz-adv-x="567" />
<glyph unicode="&#xa0;" horiz-adv-x="567" />
<glyph unicode="!" horiz-adv-x="555" d="M158 120q0 50 36 86t87 36t86 -36t35 -86t-36 -86q-34 -36 -85 -36t-87 36t-36 86zM182 389v1172h197v-1172h-197z" />
<glyph unicode="&#x22;" horiz-adv-x="968" d="M141 1174l197 389h182l-196 -389h-183zM444 1174l197 389h182l-196 -389h-183z" />
<glyph unicode="#" horiz-adv-x="1552" d="M115 -2l215 487h-156v197h244l84 195h-183v196h271l215 488h196l-215 -488h275l215 488h197l-216 -488h170v-196h-256l-86 -195h197v-197h-283l-215 -487h-196l215 487h-277l-215 -487h-196zM614 682h275l86 195h-275z" />
<glyph unicode="$" horiz-adv-x="1083" d="M86 242l184 82q70 -131 230 -142q116 0 198 77t82 177q0 195 -164 271l-247 114q-105 49 -169 143t-64 222q0 126 83 234q84 108 215 143v159h201v-159q156 -41 242 -183l-185 -84q-59 78 -147 78q-87 0 -149 -54t-62 -126t31 -122q31 -52 81 -75l265 -120 q165 -76 237 -246q33 -90 33 -172q0 -164 -97 -291t-249 -168v-164h-201v152q-113 18 -206 87t-142 167z" />
<glyph unicode="%" horiz-adv-x="1626" d="M125 1315q0 102 73 174t173 72t173 -72q72 -72 72 -174t-72 -174t-173 -72q-100 0 -173 72t-73 174zM288 1314q0 -32 24 -57t58 -25t58 24t23 59q1 35 -23 59t-58 23q-34 0 -58 -25q-24 -26 -24 -58zM371 -2l688 1563h196l-688 -1563h-196zM1010 244q0 100 72 173 q73 72 173 72q100 -1 173 -73t73 -172t-73 -173t-173 -73t-173 73t-72 173zM1174 244q0 -34 24 -59q24 -23 58 -23t58 24t23 58q1 34 -23 58t-59 24t-59 -24t-22 -58z" />
<glyph unicode="&#x26;" horiz-adv-x="1208" d="M102 470q0 186 102 316q102 131 261 175l-264 600h786v-197h-504l602 -1366h-495q-201 0 -344 143q-144 143 -144 329zM299 481q0 -115 85 -201t206 -85h213l-256 581q-106 -16 -177 -98t-71 -197z" />
<glyph unicode="'" horiz-adv-x="684" d="M141 1174l197 389h182l-196 -389h-183z" />
<glyph unicode="(" horiz-adv-x="774" d="M137 307v1034q1 201 143 345t343 143v-189q-123 0 -210 -88t-87 -211v-1034q0 -123 87 -211t210 -88v-188q-201 0 -343 143t-143 344z" />
<glyph unicode=")" horiz-adv-x="774" d="M137 8q123 0 210 88t87 211v1034q0 123 -87 211t-210 88v189q201 0 343 -143t143 -345v-1034q-1 -201 -143 -344t-343 -143v188z" />
<glyph unicode="*" horiz-adv-x="1040" d="M123 1071v199h221l-111 192l173 99l110 -191l111 191l172 -99l-111 -192h221v-199h-221l111 -190l-172 -101l-111 193l-110 -193l-173 101l111 190h-221z" />
<glyph unicode="+" horiz-adv-x="1150" d="M184 483v197h293v293h197v-293h293v-197h-293v-293h-197v293h-293z" />
<glyph unicode="," horiz-adv-x="552" d="M158 125q0 47 35 83t86 36t87 -36t36 -79t-23 -76l-100 -162h-99l70 113q-41 10 -67 42q-25 32 -25 79z" />
<glyph unicode="-" horiz-adv-x="1048" d="M133 483v193h782v-193h-782z" />
<glyph unicode="." horiz-adv-x="552" d="M158 122q0 50 35 86t86 36t87 -36t36 -86t-36 -86t-87 -36t-86 36t-35 86z" />
<glyph unicode="/" horiz-adv-x="1032" d="M61 0l691 1563h196l-690 -1563h-197z" />
<glyph unicode="0" horiz-adv-x="1269" d="M137 481v600q1 205 145 351t338 145q194 0 332 -115q176 -150 176 -381v-600q0 -207 -145 -352t-350 -145t-350 148t-146 349zM324 473l532 823q-94 94 -222 94t-219 -90q-91 -92 -91 -219v-608zM410 264l6 -4q90 -90 217 -90t218 91t91 220v609z" />
<glyph unicode="1" horiz-adv-x="663" d="M84 1380l68 181h325v-1561h-198v1380h-195z" />
<glyph unicode="2" horiz-adv-x="1239" d="M41 0l815 889q72 88 72 181t-38 165t-112 115t-157 43q-127 0 -217 -90t-89 -218q0 -89 47 -163t127 -113l-129 -139q-109 68 -169 178t-60 237q0 203 143 347t347 145q117 0 221 -53q104 -52 172 -144q98 -134 98 -308q0 -173 -125 -314l-528 -576h659v-182h-1077z" />
<glyph unicode="3" horiz-adv-x="1214" d="M111 467h184q4 -70 35 -133q49 -96 153 -141q55 -25 119 -25q127 0 217 90t90 204t-58 193q-58 80 -153 111q-49 16 -96 16h-88l225 596h-528v183h780l-233 -621q149 -50 242 -179q93 -130 94 -286q0 -203 -144 -347t-348 -144q-94 0 -184 36t-158 105q-145 139 -149 342 z" />
<glyph unicode="4" horiz-adv-x="1265" d="M61 207l517 1356h198l-446 -1176h467v207h180v-207h190v-180h-190v-207h-180v207h-736z" />
<glyph unicode="5" horiz-adv-x="1218" d="M100 467h185q4 -125 93 -212t215 -87t216 90t90 217t-90 217t-217 90h-387l295 779h487v-183h-373l-155 -411h133q203 -1 347 -145t144 -347t-144 -347t-347 -144q-123 0 -232 58q-108 58 -182 170t-78 255z" />
<glyph unicode="6" horiz-adv-x="1267" d="M137 475q0 88 31 168l346 918h184l-235 -623q101 29 166 29q203 -1 347 -145t144 -347t-144 -347t-344 -144t-347 143t-148 348zM322 475q0 -127 91 -217t217 -90t216 90t90 217t-90 217t-217 90t-217 -90t-90 -217z" />
<glyph unicode="7" horiz-adv-x="948" d="M72 0l520 1380h-426v181h692l-590 -1561h-196z" />
<glyph unicode="8" horiz-adv-x="1204" d="M102 479q0 125 59 233q58 108 161 179l8 4l-8 8q-117 113 -117 279q1 166 115 280t278 115q164 0 280 -116q116 -115 116 -279t-120 -279l-6 -8l9 -4q102 -73 159 -181t58 -231q0 -205 -146 -350t-350 -145q-205 0 -350 145t-146 350zM289 480q0 -128 91 -219t218 -91 t218 91t91 219t-91 218t-218 90t-218 -90t-91 -218zM392 1184q0 -86 60 -148t146 -61q86 0 147 61q61 62 61 148t-60 146q-62 60 -148 61q-86 -1 -146 -61t-60 -146z" />
<glyph unicode="9" horiz-adv-x="1257" d="M138 1086q0 204 144 348t345 143q201 0 347 -143t146 -349q0 -86 -30 -167l-347 -918h-184l238 625q-73 -30 -168 -29q-203 0 -347 143t-144 347zM322 1086q0 -126 90 -216t217 -90t217 89t90 216t-90 217t-217 91q-127 0 -217 -90q-90 -91 -90 -217z" />
<glyph unicode=":" horiz-adv-x="552" d="M158 122q0 50 35 86t86 36t87 -36t36 -86t-36 -86t-87 -36t-86 36t-35 86zM158 1048q0 50 35 86t86 35q51 1 87 -35t36 -86t-36 -86t-87 -36t-86 36t-35 86z" />
<glyph unicode=";" horiz-adv-x="552" d="M158 125q0 47 35 83t86 36t87 -36t36 -79t-23 -76l-100 -162h-99l70 113q-41 10 -67 42q-25 32 -25 79zM158 1042q0 51 35 86t86 35t87 -35t36 -86t-36 -87q-36 -35 -87 -35t-86 36t-35 86z" />
<glyph unicode="&#x3c;" horiz-adv-x="1595" d="M172 580l1204 505v-194l-737 -311l737 -310v-196z" />
<glyph unicode="=" horiz-adv-x="1183" d="M201 289v194h782v-194h-782zM201 676v194h782v-194h-782z" />
<glyph unicode="&#x3e;" horiz-adv-x="1595" d="M219 74v196l737 310l-737 311v194l1204 -505z" />
<glyph unicode="?" horiz-adv-x="1255" d="M133 1081q-1 205 145 351t338 145t330 -115q180 -150 180 -381q0 -190 -127 -329l-219 -242v-121h-200v199l278 303q70 83 70 197t-87 202t-210 88t-210 -87t-87 -193t49 -180t129 -109l-139 -152q-109 66 -174 179q-66 113 -66 245zM557 121q0 51 35 86t86 35t87 -35 t36 -86t-36 -87t-87 -36t-86 36t-35 87z" />
<glyph unicode="@" horiz-adv-x="1902" d="M152 709q0 231 119 432q120 201 321 319t430 117q309 0 519 -211t210 -516q0 -191 -82 -365q-41 -88 -116 -144t-163 -56t-154 46t-89 118q-135 -68 -229 -68q-156 0 -262 104q-105 104 -105 269q0 166 130 296t306 130q106 0 197 -56l2 29h200l-53 -594q1 -33 19 -53 t49 -21q66 0 107 119q42 119 42 227q0 229 -156 388q-158 157 -404 157t-441 -194t-195 -457q0 -229 156 -386t389 -157q156 0 301 78l107 -162q-197 -115 -424 -114q-311 0 -522 209q-210 209 -209 516zM752 768q0 -82 52 -134t135 -52t147 64t65 147q0 82 -52 134t-135 52 t-148 -65q-64 -64 -64 -146z" />
<glyph unicode="A" horiz-adv-x="1533" d="M59 0l709 1606l707 -1606h-201l-92 207h-830l-92 -207h-201zM444 414h648l-324 733z" />
<glyph unicode="B" horiz-adv-x="1468" d="M178 0v1563h496q162 0 276 -115t115 -277q-1 -114 -64 -210q156 -43 257 -175q102 -132 102 -316t-143 -327t-347 -143h-692zM375 197h495q121 0 207 86q86 87 86 207t-86 205t-207 85h-495v-583zM375 977h299q80 0 137 57t57 137q0 79 -57 137t-137 58h-299v-389z" />
<glyph unicode="C" horiz-adv-x="1576" d="M129 779q0 331 239 564t561 233t566 -216l-125 -164q-176 176 -427 176t-430 -172t-179 -420t178 -420t427 -172t431 177l125 -164q-245 -217 -567 -217t-560 232t-239 563z" />
<glyph unicode="D" horiz-adv-x="1480" d="M178 0v1563h400h3q322 0 549 -229q228 -230 230 -554q0 -324 -230 -552t-552 -228h-400zM375 197h203q242 0 414 171q171 171 171 411q0 245 -172 416t-413 171h-203v-1169z" />
<glyph unicode="E" horiz-adv-x="1302" d="M154 0v1563h1007v-197h-811v-389h608v-197h-608v-585h811v-195h-1007z" />
<glyph unicode="F" horiz-adv-x="1308" d="M182 0v1565h1010v-197h-813v-391h610v-197h-610v-780h-197z" />
<glyph unicode="G" horiz-adv-x="1660" d="M129 782q0 328 233 561t564 234q152 0 295 -57t247 -156l-122 -160q-176 172 -422 172t-420 -174t-174 -418t175 -422t416 -178t410 160v238h-401v198h602v-516q-106 -129 -268 -205q-160 -75 -333 -75h-5q-332 0 -565 235q-232 235 -232 563z" />
<glyph unicode="H" horiz-adv-x="1449" d="M178 0v1563h197v-588h702v588h197v-1563h-197v780h-702v-780h-197z" />
<glyph unicode="I" horiz-adv-x="919" d="M141 0v195h221v1173h-221v195h637v-195h-219v-1173h219v-195h-637z" />
<glyph unicode="J" horiz-adv-x="1003" d="M63 379h197v-4q0 -82 57 -138q57 -57 137 -57t138 58q57 58 57 137v991h-395v197h590v-1188q0 -162 -114 -277q-114 -114 -276 -114t-276 114q-115 114 -115 281z" />
<glyph unicode="K" horiz-adv-x="1312" d="M178 1561h197v-840l588 840h237l-450 -643l485 -918h-221l-389 741l-250 -352v-389h-195z" />
<glyph unicode="L" horiz-adv-x="1058" d="M141 0v1563h197v-1368h629v-195h-826z" />
<glyph unicode="M" horiz-adv-x="1841" d="M176 0v1606l752 -949l749 949v-1606h-194v1073l-555 -700l-557 700v-1073h-195z" />
<glyph unicode="N" horiz-adv-x="1480" d="M154 0v1608l991 -1133v1088h196v-1608l-991 1132v-1087h-196z" />
<glyph unicode="O" horiz-adv-x="1847" d="M127 783q0 328 233 561t561 233h2.5h3.5q328 0 560 -233q233 -234 233 -564t-233 -563t-563 -233t-564 233q-233 233 -233 566zM328 780q0 -248 174 -422t422 -174t422 174t174 422t-174 422t-422 174t-422 -174t-174 -422z" />
<glyph unicode="P" horiz-adv-x="1251" d="M178 0v1563h397q242 0 414 -172t172 -414t-171 -414t-415 -172h-200v-391h-197zM375 586h200h7q111 0 199 58q90 60 137 146t47 187q0 161 -114 275t-276 114h-200v-780z" />
<glyph unicode="Q" horiz-adv-x="1804" d="M127 780q0 330 233 563q234 233 564 233t563 -232q233 -234 233 -565t-235 -562l155 -231h-245l-72 106q-186 -108 -395 -108h-4q-330 0 -564 233q-233 233 -233 563zM328 780q0 -248 174 -422t422 -174q154 0 288 74l-219 324h246l131 -195q150 165 150 403t-174 412 t-422 174t-422 -174t-174 -422z" />
<glyph unicode="R" horiz-adv-x="1249" d="M143 0v1563h398q241 0 413 -172t172 -414q0 -152 -72 -282t-194 -210l307 -485h-235l-256 406q-70 -16 -135 -17h-201v-389h-197zM340 586h201q166 0 278 118q111 118 111 276t-115 272q-115 116 -274 116h-201v-782z" />
<glyph unicode="S" horiz-adv-x="1085" d="M86 242l184 84q30 -58 94 -100t136 -42q114 0 198 75t84 175t-44 170t-120 105l-249 114q-104 49 -169 143t-65 203q0 172 115 290t282 118q109 0 199 -52t146 -143l-185 -84q-63 78 -151 78q-87 0 -147 -58t-60 -147q0 -53 32 -101t83 -71l262 -120q127 -59 199 -177 t73 -262q0 -190 -141 -323t-336 -133q-135 0 -246 70t-174 188z" />
<glyph unicode="T" horiz-adv-x="1251" d="M141 1366v197h1012v-197h-408v-1366h-196v1366h-408z" />
<glyph unicode="U" horiz-adv-x="1339" d="M162 479v1086h196v-1086q0 -123 92 -210t220 -87q127 0 220 87t93 210v1086h197v-1086q0 -205 -150 -350t-360 -145t-360 145q-148 145 -148 350z" />
<glyph unicode="V" horiz-adv-x="1536" d="M59 1563h203l506 -1149l506 1149h203l-709 -1608z" />
<glyph unicode="W" horiz-adv-x="2162" d="M37 1565h209l520 -1151l209 458l-313 693h208l521 -1151l520 1151h209l-729 -1610l-314 688l-311 -688z" />
<glyph unicode="X" horiz-adv-x="1484" d="M86 0l555 823l-498 738h230l370 -547l367 547h231l-497 -738l555 -823h-232l-424 633l-428 -633h-229z" />
<glyph unicode="Y" horiz-adv-x="1398" d="M49 1563h207l442 -961l441 961h209l-549 -1192v-371h-203v371z" />
<glyph unicode="Z" horiz-adv-x="1220" d="M88 0l680 1368h-555v195h866l-678 -1368h699v-195h-1012z" />
<glyph unicode="[" horiz-adv-x="768" d="M186 -16v2009h404v-203h-201v-1604h201v-202h-404z" />
<glyph unicode="\" horiz-adv-x="1032" d="M61 1563h197l690 -1563h-196z" />
<glyph unicode="]" horiz-adv-x="768" d="M186 -16v202h201v1604h-201v203h404v-2009h-404z" />
<glyph unicode="^" horiz-adv-x="899" d="M145 1464l295 389l295 -389h-196l-99 129l-98 -129h-197z" />
<glyph unicode="_" horiz-adv-x="1863" d="M39 0v195h1786v-195h-1786z" />
<glyph unicode="`" horiz-adv-x="944" d="M233 2093h197l295 -389h-197z" />
<glyph unicode="a" horiz-adv-x="1445" d="M106 580q0 248 176 422t412 176q238 0 408 -152l6 -6v110h195v-1130h-195v139l-6 -6q-174 -151 -410 -151t-410 175q-175 175 -176 423zM301 580q0 -168 118 -286t284 -118q165 0 285 112t120 271v43q0 158 -120 270t-286 113q-166 0 -283 -119q-118 -118 -118 -286z" />
<glyph unicode="b" horiz-adv-x="1470" d="M156 0v1604h194v-584l6 6q170 152 408 152t413 -176t175 -422q0 -248 -175 -423t-411 -175t-410 151l-6 6v-139h-194zM350 559q8 -163 125 -273t282 -110t283 118q117 117 117 283q0 171 -118 289q-117 118 -283 119q-166 0 -286 -113t-120 -270v-43z" />
<glyph unicode="c" horiz-adv-x="1146" d="M111 580q0 140 60 265q60 124 173 210q43 31 102 63q125 59 263 60q195 0 352 -117l-117 -154q-102 78 -235 78q-66 0 -140 -24q-59 -23 -108 -62q-158 -119 -158 -317t158 -322q110 -84 245 -84q136 0 238 78l117 -156q-158 -116 -352 -116t-365 124q-113 86 -173 210 t-60 264z" />
<glyph unicode="d" horiz-adv-x="1460" d="M109 580q0 248 175 422q174 174 412 176q238 0 408 -152l6 -6v584h195v-1604h-195v139l-6 -6q-174 -151 -410 -151t-410 175q-175 175 -175 423zM303 580q0 -168 118 -286t284 -118q165 0 285 112t120 271v43q0 158 -120 270t-286 113q-166 0 -283 -119 q-118 -118 -118 -286z" />
<glyph unicode="e" d="M109 576q0 244 173 422t422 180q248 0 424 -178t177 -420q0 -66 -17 -138h-960q51 -126 152 -196q102 -70 230 -70t234 78l117 -156q-161 -116 -351 -116h-3q-248 0 -423 175t-175 419zM305 631h803q-20 152 -135 253t-267 101h-3q-150 0 -265 -103q-115 -104 -133 -251z " />
<glyph unicode="f" horiz-adv-x="749" d="M96 438v189h99v682q0 123 87 210t212 87q84 0 154 -44t110 -120l-172 -86q-31 57 -83 57t-83 -31t-31 -73v-682h193v-189h-193v-438h-194v438h-99z" />
<glyph unicode="g" horiz-adv-x="1462" d="M109 580q0 248 175 423q174 175 412 175t408 -152l6 -6v110h195v-995q-1 -250 -175 -424t-423 -174q-193 0 -355 117l117 153q106 -75 254 -75q147 0 261 108t126 277v22l-6 -6q-174 -151 -410 -151t-410 175q-175 175 -175 423zM303 580q0 -168 118 -286t282 -118 q163 0 285 110t122 275v41q0 158 -120 270t-286 113q-166 0 -283 -119q-118 -118 -118 -286z" />
<glyph unicode="h" horiz-adv-x="1280" d="M156 0v1604h198v-527q131 99 297 99q205 0 350 -146t146 -350v-680h-199v680q0 125 -87 211t-210 86t-210 -86t-87 -211v-680h-198z" />
<glyph unicode="i" horiz-adv-x="509" d="M139 1483q0 51 36 87t87 36t87 -36t36 -87t-36 -87t-87 -36t-87 36t-36 87zM164 0v1159h196v-1159h-196z" />
<glyph unicode="j" horiz-adv-x="534" d="M-186 -297l174 88q31 -57 84 -57t84 30q30 31 30 74v1321h195v-1321q0 -123 -88 -211t-211 -88q-86 0 -158 44t-110 120zM158 1487q0 51 36 87t87 36t87 -36t36 -87t-36 -87t-87 -36t-87 36t-36 87z" />
<glyph unicode="k" horiz-adv-x="1148" d="M156 0v1604h196v-957l398 512h243l-424 -547l541 -612h-244l-411 465l-103 -131v-334h-196z" />
<glyph unicode="l" horiz-adv-x="487" d="M143 0v1604h201v-1604h-201z" />
<glyph unicode="m" horiz-adv-x="1875" d="M158 0v1130h192v-32q117 78 252 78q213 0 344 -164h8q131 164 344 164q182 0 314 -130t131 -313v-733h-193v733q0 104 -73 178q-75 74 -179 74t-178 -74t-73 -178v-733h-193v733q0 104 -74 178t-178 74t-178 -74t-74 -178v-733h-192z" />
<glyph unicode="n" horiz-adv-x="1275" d="M143 0v1133h193v-58l6 6q133 99 297 99q205 0 349 -146t145 -350v-684h-191v684q0 125 -89 214t-215 89t-214 -88t-88 -215v-684h-193z" />
<glyph unicode="o" d="M109 582q0 248 175 423t423 175q249 0 423 -175t174 -423t-174 -423q-176 -175 -424 -175t-422 175q-175 175 -175 423zM301 582q0 -168 119 -286t287 -118q167 0 285 118t118 286t-118 286t-286 119q-168 0 -286 -119q-119 -118 -119 -286z" />
<glyph unicode="p" horiz-adv-x="1431" d="M156 -446v1579h194v-111l6 6q168 152 407 152t414 -175t175 -423t-175 -423t-413 -175t-408 151l-6 6v-587h-194zM360 565q0 -157 118 -265t278 -108t274 116t115 278q-1 162 -115 278q-113 115 -271 115h-3q-160 0 -278 -109t-118 -264v-41z" />
<glyph unicode="q" horiz-adv-x="1460" d="M109 582q0 248 175 423q174 175 412 175t406 -152l8 -6v111h195v-1579h-195v587l-8 -6q-170 -151 -406 -151t-412 175q-175 175 -175 423zM313 586q0 -164 116 -279t276 -115q161 0 277 110q116 108 116 263v41q-8 156 -121 264t-273 109q-160 0 -275 -115 q-116 -114 -116 -278z" />
<glyph unicode="r" horiz-adv-x="708" d="M143 0v1133h191v-58q139 104 301 105v-191q-125 -2 -213 -91t-88 -214v-684h-191z" />
<glyph unicode="s" horiz-adv-x="886" d="M96 166l174 86q54 -76 138 -76t136 53t52 127q0 115 -104 164l-216 101q-72 35 -114 107t-43 155q0 123 88 210t211 87q84 0 156 -44t110 -120l-174 -86q-31 57 -83 57t-83 -31t-31 -73q0 -68 64 -97l198 -92q95 -45 155 -137t61 -201q0 -154 -110 -264 q-108 -108 -258 -108h-5q-98 0 -184 49t-138 133z" />
<glyph unicode="t" horiz-adv-x="712" d="M92 963v200h103v443h202v-443h201v-200h-201v-963h-202v963h-103z" />
<glyph unicode="u" horiz-adv-x="1290" d="M150 477v686h190v-686q0 -125 89 -213t214 -88t213 88t88 213v686h191v-1163h-191v88l-6 -4q-131 -100 -295 -100q-205 0 -349 144t-144 349z" />
<glyph unicode="v" horiz-adv-x="1122" d="M61 1163h195l311 -737l310 737h196l-506 -1204z" />
<glyph unicode="w" horiz-adv-x="1830" d="M59 1159h205l328 -733l321 731l324 -731l326 733h204l-530 -1200l-324 731l-321 -731z" />
<glyph unicode="x" horiz-adv-x="1159" d="M66 0l401 614l-361 549h228l246 -377l247 377h228l-361 -549l402 -614h-226l-290 440l-289 -440h-225z" />
<glyph unicode="y" horiz-adv-x="1282" d="M61 1159h213l373 -831l371 831h213l-713 -1603h-213l236 532z" />
<glyph unicode="z" horiz-adv-x="968" d="M61 0l492 971l4 6h-379v186h684l-495 -977h516v-186h-822z" />
<glyph unicode="{" horiz-adv-x="1046" d="M119 723v203l309 137v278q0 201 143 345t344 143v-189q-125 0 -212 -88t-87 -211v-399l-268 -117l268 -118v-400q0 -123 87 -211t212 -88v-188q-201 0 -344 143t-143 344v281z" />
<glyph unicode="|" horiz-adv-x="735" d="M266 -57v2009h203v-2009h-203z" />
<glyph unicode="}" horiz-adv-x="1042" d="M127 8q123 0 211 88t88 211v400l268 118l-268 117v399q0 123 -88 211t-211 88v189q201 1 344 -143t143 -345v-278l310 -137v-203l-310 -135v-281q0 -201 -143 -344t-344 -143v188z" />
<glyph unicode="~" horiz-adv-x="1136" d="M174 483v193q82 -41 163 -41t227 41t229 41t163 -41v-193q-78 39 -161 39t-229 -40t-229 -40t-163 41z" />
<glyph unicode="&#xa1;" horiz-adv-x="579" d="M170 1440q0 51 36 86t87 35t86 -35t35 -86t-35 -87t-86 -36t-87 36t-36 87zM195 -2v1165h196v-1165h-196z" />
<glyph unicode="&#xa2;" horiz-adv-x="1196" d="M121 581q0 212 141 384t356 202v158h201v-158q135 -23 252 -106l-117 -154q-66 47 -135 64v-783q76 18 135 64l117 -154q-115 -84 -252 -108v-154h-201v154q-225 41 -361 210t-136 381zM313 584q0 -130 74 -238t193 -145q18 -10 38 -13v783q-139 -39 -222 -148t-83 -239z " />
<glyph unicode="&#xa3;" horiz-adv-x="1171" d="M139 440v191h97v563q0 158 118 270t277 111q106 0 196 -52t144 -141l-183 -82q-63 78 -148 78t-145 -54t-61 -136v-557h197v-191h-197v-252h346v191h191v-381h-735v442h-97z" />
<glyph unicode="&#xa5;" horiz-adv-x="1099" d="M49 1563h209l291 -664l293 664h209l-250 -568h239v-196h-325l-51 -117h376v-197h-393v-485h-196v485h-394v197h379l-51 117h-328v196h240z" />
<glyph unicode="&#xa8;" horiz-adv-x="972" d="M172 1827q0 51 36 87t87 36t87 -36t36 -87t-36 -87t-87 -36t-87 36t-36 87zM565 1827q0 51 36 87t87 36t87 -36t36 -87t-36 -87t-87 -36t-87 36t-36 87z" />
<glyph unicode="&#xa9;" horiz-adv-x="1847" d="M127 780q0 332 234 564q235 232 565 233t562 -233t232 -564t-233 -563t-562 -233t-564 232q-234 232 -234 564zM295 780q0 -264 183 -450q182 -186 446 -186t447 186t183 450t-184 452t-447 187q-263 0 -445 -187q-182 -188 -183 -452zM516 775q0 169 118 287t280 118 t270 -107l14 -12l-82 -107l-16 15q-78 78 -191 78t-187 -82q-74 -83 -73 -187q0 -104 77 -183q78 -79 192 -79t182 78l16 14l82 -106l-14 -13q-106 -106 -265 -106q-159 -1 -281 111t-122 281z" />
<glyph unicode="&#xad;" horiz-adv-x="1048" d="M133 483v193h782v-193h-782z" />
<glyph unicode="&#xae;" horiz-adv-x="1847" d="M127 780q0 332 234 564q235 232 565 233t562 -233t232 -564t-233 -563t-562 -233t-564 232q-234 232 -234 564zM295 780q0 -264 183 -450q182 -186 446 -186t447 186t183 450t-183 452t-447 187q-264 0 -446 -187q-182 -188 -183 -452zM698 395v774h205q123 0 209 -86 q86 -87 86 -223t-119 -221l154 -244h-156l-119 191q-29 -6 -55 -6h-76v-185h-129zM827 711h76q68 0 117 48q49 49 49 117t-48 116t-118 48h-76v-329z" />
<glyph unicode="&#xb4;" horiz-adv-x="1009" d="M297 1704l295 389h196l-294 -389h-197z" />
<glyph unicode="&#xb7;" horiz-adv-x="522" d="M131 580q0 50 35 86t86 36t87 -36t36 -86q0 -51 -36 -86t-87 -35t-86 35t-35 86z" />
<glyph unicode="&#xb8;" horiz-adv-x="970" d="M217 -537l62 164h249q33 0 58 25q24 26 24 58t-24 57q-25 25 -58 24h-188l80 207h196l-20 -51q78 -23 128 -89t50 -158q0 -93 -72 -165t-174 -72h-311z" />
<glyph unicode="&#xbf;" horiz-adv-x="1218" d="M111 479q0 190 127 330l219 242v112h200v-190l-278 -303q-70 -76 -70 -196t87 -206t210 -86t210 87t87 193t-49 180q-49 73 -131 108l139 153q108 -69 174 -181t66 -243q0 -205 -146 -350t-338 -145t-328 114q-179 150 -179 381zM436 1439q0 50 36 86t86 36t86 -36 t36 -86t-36 -86t-86 -36t-86 36t-36 86z" />
<glyph unicode="&#xc0;" horiz-adv-x="1536" d="M59 0l709 1606l709 -1606h-203l-90 207h-830l-92 -207h-203zM375 2095h198l295 -391h-196zM444 414h648l-324 733z" />
<glyph unicode="&#xc1;" horiz-adv-x="1536" d="M59 0l709 1606l709 -1606h-203l-90 207h-830l-92 -207h-203zM444 414h648l-324 733zM672 1704l295 391h196l-295 -391h-196z" />
<glyph unicode="&#xc2;" horiz-adv-x="1536" d="M59 0l709 1606l709 -1606h-203l-90 207h-830l-92 -207h-203zM444 414h648l-324 733zM473 1704l295 391l295 -391h-197l-98 131l-98 -131h-197z" />
<glyph unicode="&#xc3;" horiz-adv-x="1536" d="M59 0l709 1606l709 -1606h-203l-90 207h-830l-92 -207h-203zM375 1745v197q80 -41 163 -41t229 41t228 41t166 -41v-197q-80 41 -164 41t-230 -41t-231 -41t-161 41zM444 414h648l-324 733z" />
<glyph unicode="&#xc4;" horiz-adv-x="1536" d="M59 0l709 1606l709 -1606h-203l-90 207h-830l-92 -207h-203zM444 414h648l-324 733zM451 1827q0 51 35 87q36 36 87 36t87 -36t36 -87t-36 -87t-87 -36t-87 36t-35 87zM844 1827q0 51 36 87t87 36t87 -36t36 -87t-36 -87t-87 -36t-87 36t-36 87z" />
<glyph unicode="&#xc5;" horiz-adv-x="1536" d="M59 0l709 1606l709 -1606h-203l-90 207h-830l-92 -207h-203zM444 414h648l-324 733zM522 1950q0 102 73 174t173 71q100 1 173 -71t73 -174t-73 -174t-173 -72t-173 72t-73 174zM686 1950q0 -32 24 -58q24 -24 58 -24t58 24t24 58t-24 58t-58 24t-58 -25t-24 -57z" />
<glyph unicode="&#xc6;" horiz-adv-x="2158" d="M59 0l689 1563h1269v-197h-786v-389h590v-197h-590v-585h786v-195h-983v207h-682l-90 -207h-203zM444 414h590v952h-170z" />
<glyph unicode="&#xc7;" horiz-adv-x="1550" d="M129 780q0 332 236 564t551 233q315 0 552 -211l-122 -162q-178 174 -422 174t-419 -176t-175 -422t176 -421t420 -175q156 0 293 78q72 41 127 96l122 -161q-238 -211 -573 -211l-21 -56q80 -23 131 -88q50 -66 50 -160t-73 -167q-73 -74 -177 -74h-316l64 166h252 q35 1 59 25t25 59q0 35 -25 59t-59 25h-191l93 241q-252 66 -415 282t-163 482z" />
<glyph unicode="&#xc8;" horiz-adv-x="1302" d="M154 0v1563h1007v-197h-811v-389h608v-197h-608v-585h811v-195h-1007zM272 2095h197l295 -391h-197z" />
<glyph unicode="&#xc9;" horiz-adv-x="1302" d="M154 0v1563h1007v-197h-811v-389h608v-197h-608v-585h811v-195h-1007zM567 1704l295 391h197l-295 -391h-197z" />
<glyph unicode="&#xca;" horiz-adv-x="1302" d="M154 0v1563h1007v-197h-811v-389h608v-197h-608v-585h811v-195h-1007zM377 1704l295 391l295 -391h-197l-98 131l-99 -131h-196z" />
<glyph unicode="&#xcb;" horiz-adv-x="1302" d="M154 0v1563h1007v-197h-811v-389h608v-197h-608v-585h811v-195h-1007zM340 1827q0 51 36 87t87 36t87 -36t36 -87t-36 -87t-87 -36t-87 36t-36 87zM733 1827q0 51 36 87t87 36t87 -36t36 -87t-36 -87t-87 -36t-87 36t-36 87z" />
<glyph unicode="&#xcc;" horiz-adv-x="919" d="M49 2095h197l295 -391h-197zM141 0v195h221v1173h-221v195h637v-195h-219v-1173h219v-195h-637z" />
<glyph unicode="&#xcd;" horiz-adv-x="919" d="M141 0v195h221v1173h-221v195h637v-195h-219v-1173h219v-195h-637zM379 1704l295 391h196l-295 -391h-196z" />
<glyph unicode="&#xce;" horiz-adv-x="919" d="M141 0v195h221v1173h-221v195h637v-195h-219v-1173h219v-195h-637zM164 1704l297 391l295 -391h-197l-98 131l-99 -131h-198z" />
<glyph unicode="&#xcf;" horiz-adv-x="919" d="M141 0v195h221v1173h-221v195h637v-195h-219v-1173h219v-195h-637zM141 1827q0 51 36 87t87 36t87 -36t36 -87t-36 -87t-87 -36t-87 36t-36 87zM535 1827q0 51 35 87q36 36 87 36t87 -36t36 -87t-36 -87t-87 -36t-87 36t-35 87z" />
<glyph unicode="&#xd0;" horiz-adv-x="1478" d="M-18 682v195h196v684h400q324 1 552 -229t228 -552t-228 -551t-552 -229h-400v682h-196zM375 197h203q242 0 412 171q170 170 171 412q0 242 -171 413t-412 171h-203v-487h395v-195h-395v-485z" />
<glyph unicode="&#xd1;" horiz-adv-x="1480" d="M154 0v1608l991 -1133v1088h196v-1608l-991 1132v-1087h-196zM352 1745v194q76 -41 161 -41t231 41t230 41t165 -41v-194q-84 41 -166 41q-83 0 -229 -41t-229 -41t-163 41z" />
<glyph unicode="&#xd2;" horiz-adv-x="1847" d="M127 780q-1 330 233 564t564 233q330 1 563 -233t233 -564t-233 -563t-563 -233t-564 233q-233 233 -233 563zM328 780q0 -248 175 -422t422 -174t421 174t174 422t-174 422t-421 174t-422 -174t-175 -422zM530 2095h199l295 -391h-197z" />
<glyph unicode="&#xd3;" horiz-adv-x="1847" d="M127 780q-1 330 233 564t564 233q330 1 563 -233t233 -564t-233 -563t-563 -233t-564 233q-233 233 -233 563zM328 781q0 -247 174 -422t422 -175t423 175t175 422t-175 421t-423 174t-422 -174t-174 -421zM827 1704l295 391h197l-295 -391h-197z" />
<glyph unicode="&#xd4;" horiz-adv-x="1847" d="M127 780q-1 330 233 564t564 233q330 1 563 -233t233 -564t-233 -563t-563 -233t-564 233q-233 233 -233 563zM328 780q0 -248 174 -422t422 -174t422 174t174 422t-174 422t-422 174t-422 -174t-174 -422zM629 1704l295 391l295 -391h-197l-98 131l-99 -131h-196z" />
<glyph unicode="&#xd5;" horiz-adv-x="1847" d="M127 780q-1 330 233 564t564 233q330 1 563 -233t233 -564t-233 -563t-563 -233t-564 233q-233 233 -233 563zM328 780q0 -248 175 -422t422 -174t422 174t175 422t-175 422t-422 174t-422 -174t-175 -422zM530 1745v197q80 -41 163 -41t229 41t229 41q82 0 166 -41v-197 q-80 41 -164 41t-230 -41q-145 -41 -231 -41t-162 41z" />
<glyph unicode="&#xd6;" horiz-adv-x="1847" d="M127 780q-1 330 233 564t564 233q330 1 563 -233t233 -564t-233 -563t-563 -233t-564 233q-233 233 -233 563zM328 781q0 -247 175 -422t422 -175t422 175t175 422t-175 421t-422 174t-422 -174t-175 -421zM604 1827q0 51 36 87t87 36t87 -36t36 -87t-36 -87t-87 -36 t-87 36t-36 87zM997 1827q0 51 36 87t87 36t87 -36t36 -87t-36 -87t-87 -36t-87 36t-36 87z" />
<glyph unicode="&#xd7;" horiz-adv-x="1017" d="M180 373l209 207l-209 206l139 138l207 -207l207 207l137 -138l-206 -206l206 -207l-137 -140l-207 209l-207 -209z" />
<glyph unicode="&#xd8;" horiz-adv-x="1847" d="M127 780q0 330 233 563t564 234q215 0 401 -107l70 93h241l-159 -209q243 -232 243 -568t-233 -569t-563 -233q-211 0 -400 108l-69 -92h-240l156 209q-115 111 -180 259t-64 312zM328 786q0 -242 166 -417l708 940q-129 68 -278 67q-246 0 -421 -174t-175 -416zM645 254 q129 -70 279 -70q248 0 422 175t174 419t-164 414z" />
<glyph unicode="&#xd9;" horiz-adv-x="1339" d="M162 479v1086h196v-1086q0 -123 92 -210t220 -87q127 0 220 87t93 210v1086h197v-1086q0 -205 -150 -350t-360 -145t-360 145q-148 145 -148 350zM289 2095h196l295 -391h-196z" />
<glyph unicode="&#xda;" horiz-adv-x="1339" d="M162 479v1086h196v-1086q0 -123 92 -210t220 -87q127 0 220 87t93 210v1086h197v-1086q0 -205 -150 -350t-360 -145t-360 145q-148 145 -148 350zM580 1704l294 391h197l-295 -391h-196z" />
<glyph unicode="&#xdb;" horiz-adv-x="1339" d="M162 479v1086h196v-1086q0 -123 92 -210t220 -87q127 0 220 87t93 210v1086h197v-1086q0 -205 -150 -350t-360 -145t-360 145q-148 145 -148 350zM385 1704l295 391l295 -391h-197l-98 131l-98 -131h-197z" />
<glyph unicode="&#xdc;" horiz-adv-x="1339" d="M162 479v1086h196v-1086q0 -123 92 -210t220 -87q127 0 220 87t93 210v1086h197v-1086q0 -205 -150 -350t-360 -145t-360 145q-148 145 -148 350zM365 1827q0 51 35 87q36 36 87 36t87 -36t36 -87t-36 -87t-87 -36t-87 36t-35 87zM758 1827q0 51 36 87t87 36t87 -36 t36 -87t-36 -87t-87 -36t-87 36t-36 87z" />
<glyph unicode="&#xdd;" horiz-adv-x="1398" d="M49 1563h207l442 -961l441 961h209l-549 -1192v-371h-203v371zM598 1704l295 391h197l-295 -391h-197z" />
<glyph unicode="&#xde;" horiz-adv-x="1220" d="M156 0v1561h196v-398h398q162 -1 276 -115t115 -276q0 -162 -115 -276t-276 -113h-398v-383h-196zM352 578h398q45 -1 94 24q100 55 100 170q0 82 -57 138t-137 57h-398v-389z" />
<glyph unicode="&#xdf;" horiz-adv-x="1325" d="M158 -446v1658q0 188 118 293q119 105 290 105t288 -111t117 -257t-115 -265q154 -53 250 -182t96 -289q0 -215 -154 -368q-154 -152 -358 -152q-205 0 -342 118v-550h-190zM348 514q0 -136 98 -234t234 -98q137 0 234 94q98 94 98 230t-98 227q-98 92 -234 92h-141v179 h45q80 0 138 68t58 153q0 84 -60 137t-150 53t-156 -61t-66 -160v-680z" />
<glyph unicode="&#xe0;" horiz-adv-x="1445" d="M106 582q0 248 176 423t410 175q236 0 410 -152l6 -6v111h195v-1133h-195v141l-6 -6q-174 -151 -410 -151t-410 175q-175 175 -176 423zM301 582q0 -168 118 -286t284 -118q165 0 285 112t120 271v43q0 158 -120 270t-286 111q-166 0 -283 -118q-118 -117 -118 -285z M342 1610h197l262 -350h-197z" />
<glyph unicode="&#xe1;" horiz-adv-x="1445" d="M106 582q0 248 176 423t412 175q238 0 408 -152l6 -6v111h195v-1133h-195v141l-6 -6q-170 -151 -408 -151t-412 175q-175 175 -176 423zM299 582q0 -168 119 -286t285 -118q165 0 285 112t120 271v43q0 158 -120 270t-286 113q-166 0 -284 -119q-119 -118 -119 -286z M606 1260l264 348h197l-262 -348h-199z" />
<glyph unicode="&#xe2;" horiz-adv-x="1445" d="M106 582q0 248 176 423t410 175q236 0 410 -152l6 -6v111h195v-1133h-195v141l-6 -6q-174 -151 -410 -151t-410 175q-175 175 -176 423zM301 582q0 -168 118 -286t284 -118q165 0 285 112t120 271v43q0 158 -120 270t-286 111q-166 0 -283 -118q-118 -117 -118 -285z M410 1262l295 389l294 -389h-196l-98 129l-99 -129h-196z" />
<glyph unicode="&#xe3;" horiz-adv-x="1445" d="M106 582q0 248 176 423t412 175q238 0 408 -152l6 -6v111h195v-1133h-195v141l-6 -6q-170 -151 -408 -151t-412 175q-175 175 -176 423zM299 582q0 -168 119 -286t285 -118q165 0 285 112t120 271v43q0 158 -120 270t-286 113q-166 0 -284 -119q-119 -118 -119 -286z M311 1300v197q80 -41 163 -41t229 41q147 41 229 41t166 -41v-197q-80 41 -164 41t-230 -41q-146 -40 -232 -40q-85 0 -161 40z" />
<glyph unicode="&#xe4;" horiz-adv-x="1445" d="M106 582q0 248 176 423t412 175q238 0 408 -152l6 -6v111h195v-1133h-195v141l-6 -6q-170 -151 -408 -151t-412 175q-175 175 -176 423zM299 582q0 -168 119 -286t285 -118q165 0 285 112t120 271v43q0 158 -120 270t-286 113q-166 0 -284 -119q-119 -118 -119 -286z M387 1382q0 51 35 87t86 36t87 -36t36 -87t-36 -87q-36 -35 -87 -35t-86 36t-35 86zM780 1382q0 51 36 87t87 36t87 -36t36 -87t-36 -87q-36 -35 -87 -35t-87 36t-36 86z" />
<glyph unicode="&#xe5;" horiz-adv-x="1445" d="M106 582q0 248 176 423t412 175q238 0 408 -152l6 -6v111h195v-1133h-195v141l-6 -6q-174 -151 -410 -151t-410 175q-175 175 -176 423zM301 580q0 -166 119 -284t284 -118q166 0 284 111t118 270v43q0 158 -119 270t-283 111q-164 0 -284 -118q-119 -119 -119 -285z M459 1505q0 100 71 173q73 73 175 73t174 -73q71 -73 71 -173t-72 -173q-72 -72 -173 -72q-102 0 -175 72q-72 73 -71 173zM622 1506q0 -34 24 -58t59 -23q35 0 59 24q24 23 22 57q0 34 -24 58t-57 23q-33 1 -58 -23t-25 -58z" />
<glyph unicode="&#xe6;" horiz-adv-x="2422" d="M106 583q0 247 176 422t411 175q236 0 407 -152l6 -6v111h192v-125q198 172 430 172t409 -178t177 -420q0 -66 -16 -138h-959v-4l2 -4q38 -114 145 -185t235 -71t233 76l117 -154q-158 -117 -353 -116q-244 0 -420 172v-158h-192v143l-6 -6q-174 -151 -409 -151t-409 175 t-176 422zM299 582q0 -166 119 -284q120 -118 284 -118t284 112t120 269v43q0 160 -120 270t-285 111q-165 0 -283 -118q-118 -119 -119 -285zM1317 629h801v4q-18 150 -133 251t-269 101t-266 -101t-133 -251v-4z" />
<glyph unicode="&#xe7;" horiz-adv-x="1150" d="M111 582q0 242 175 420t425 178q199 0 354 -117l-117 -154q-106 78 -237 78q-174 0 -290 -122q-116 -123 -116 -285t117 -283t289 -121q131 0 237 78l117 -156q-150 -109 -328 -114l-24 -64q82 -22 133 -90t51 -163t-75 -169t-179 -73h-319l63 167h256q35 0 59 25t25 59 q0 34 -25 60q-25 25 -59 24h-192l92 246q-193 47 -313 213t-119 363z" />
<glyph unicode="&#xe8;" d="M109 578q0 244 175 422t421 180q247 0 423 -178t177 -420q0 -66 -17 -138h-960v-6l2 -2q38 -113 144 -186q108 -72 236 -72t234 76l117 -154q-162 -117 -354 -116q-248 0 -423 175t-175 419zM305 629h803v4q-20 152 -135 252t-269 100q-154 1 -268 -103 q-113 -104 -131 -249v-4zM342 1610h197l264 -350h-197z" />
<glyph unicode="&#xe9;" d="M109 579q0 245 173 423t421 178q249 0 425 -176t177 -422q0 -63 -17 -140h-962q2 0 2 -2t2 -4q38 -115 145 -187q107 -71 235 -71t234 76l117 -154q-162 -117 -354 -116q-248 0 -423 175t-175 420zM305 629h803v4q-18 150 -134 252t-270 102q-154 -1 -268 -105 q-113 -104 -131 -249v-4zM608 1260l264 348h197l-262 -348h-199z" />
<glyph unicode="&#xea;" d="M109 578q0 244 175 422t421 180q247 0 423 -178t177 -420q0 -66 -17 -138h-960v-6l2 -2q38 -113 144 -186q108 -72 236 -72t234 76l117 -154q-162 -117 -354 -116q-248 0 -423 175t-175 419zM305 629h803v4q-20 152 -135 252t-269 100q-154 1 -268 -103 q-113 -104 -131 -249v-4zM412 1260l295 391l294 -391h-196l-98 131l-99 -131h-196z" />
<glyph unicode="&#xeb;" d="M109 578q0 244 175 422t421 180q247 0 423 -178t177 -420q0 -66 -17 -138h-960v-6l2 -2q38 -113 144 -186q108 -72 236 -72t234 76l117 -154q-162 -117 -354 -116q-248 0 -423 175t-175 419zM305 629h803v4q-20 152 -135 252t-269 100q-154 1 -268 -103 q-113 -104 -131 -249v-4zM389 1384q0 51 35 87t86 36t87 -36t36 -87t-36 -87q-36 -35 -87 -35t-86 36t-35 86zM782 1384q0 51 36 87t87 36t87 -36t36 -87t-36 -87q-36 -35 -87 -35t-87 36t-36 86z" />
<glyph unicode="&#xec;" horiz-adv-x="485" d="M-102 1610h196l264 -350h-196zM164 0v1163h196v-1163h-196z" />
<glyph unicode="&#xed;" horiz-adv-x="509" d="M164 0v1163h196v-1163h-196zM164 1260l264 348h197l-265 -348h-196z" />
<glyph unicode="&#xee;" horiz-adv-x="509" d="M-33 1260l295 391l295 -391h-197l-98 131l-98 -131h-197zM164 0v1163h196v-1163h-196z" />
<glyph unicode="&#xef;" horiz-adv-x="509" d="M-57 1382q0 51 35 87q37 36 88 36t87 -36q35 -36 35 -87t-36 -87q-36 -35 -86 -35q-51 0 -88 35q-36 36 -35 87zM164 0v1163h196v-1163h-196zM336 1382q0 51 36 87t87 36t87 -36t36 -87t-36 -87q-36 -35 -87 -35t-87 36t-36 86z" />
<glyph unicode="&#xf1;" horiz-adv-x="1277" d="M143 0v1133h193v-58l6 6q133 99 297 99q205 0 350 -146t146 -350v-684h-193v684q0 127 -89 216t-214 89t-214 -89t-89 -216v-684h-193zM248 1300v195q80 -41 163 -41t229 41t228 41t166 -41v-195q-84 41 -165 41t-227 -41q-146 -40 -230 -40t-164 40z" />
<glyph unicode="&#xf2;" d="M109 582q0 248 175 423t423 175q249 0 423 -175t174 -423t-174 -423q-176 -175 -424 -175t-422 175q-175 175 -175 423zM303 582q0 -168 118 -286t286 -118q167 0 285 118t118 286t-118 286t-286 119q-168 0 -285 -119q-118 -118 -118 -286zM344 1608h197l264 -348h-199z " />
<glyph unicode="&#xf3;" d="M109 582q0 248 175 423t423 175q249 0 423 -175t174 -423t-174 -423q-176 -175 -424 -175t-422 175q-175 175 -175 423zM303 582q0 -168 118 -286t286 -118q167 0 285 118t118 286t-118 286t-286 119q-168 0 -285 -119q-118 -118 -118 -286zM610 1260l262 348h197 l-262 -348h-197z" />
<glyph unicode="&#xf4;" d="M109 582q0 248 175 423t423 175q249 0 423 -175t174 -423t-174 -423q-176 -175 -424 -175t-422 175q-175 175 -175 423zM303 582q0 -168 118 -286t286 -118q167 0 285 118t118 286t-118 286t-286 119q-168 0 -285 -119q-118 -118 -118 -286zM412 1260l295 391l297 -391 h-197l-100 131l-99 -131h-196z" />
<glyph unicode="&#xf5;" d="M109 582q0 248 175 423t423 175q249 0 423 -175t174 -423t-174 -423q-176 -175 -424 -175t-422 175q-175 175 -175 423zM303 582q0 -168 118 -286t286 -118q167 0 285 118t118 286t-118 286t-286 119q-168 0 -285 -119q-118 -118 -118 -286zM313 1300v197q80 -41 163 -41 q84 0 230 41t228 41t166 -41v-197q-80 41 -164 41t-230 -41q-146 -40 -232 -40t-161 40z" />
<glyph unicode="&#xf6;" d="M109 582q0 248 175 423t423 175q249 0 423 -175t174 -423t-174 -423q-176 -175 -424 -175t-422 175q-175 175 -175 423zM303 582q0 -168 118 -286t286 -118q167 0 285 118t118 286t-118 286t-286 119q-168 0 -285 -119q-118 -118 -118 -286zM391 1382q0 51 36 87t87 36 t86 -36t35 -87t-35 -87q-35 -35 -86 -35t-87 36t-36 86zM784 1382q0 51 36 87t87 36t87 -36t36 -87t-36 -87q-36 -35 -87 -35t-87 36t-36 86z" />
<glyph unicode="&#xf7;" horiz-adv-x="987" d="M104 489v195h785v-195h-785zM377 121q0 51 35 87t86 36t87 -36t36 -87t-36 -87t-87 -36t-86 36t-35 87zM377 1041q0 50 35 86t86 36t87 -36t36 -86t-36 -86q-36 -35 -87 -35t-86 36t-35 85z" />
<glyph unicode="&#xf8;" d="M109 585q0 245 175 420t423 175q152 0 286 -74l43 57h221l-124 -164q172 -173 172 -419q1 -246 -175 -421t-423 -175q-152 0 -287 73l-43 -57h-221l125 164q-172 176 -172 421zM303 590q0 -159 96 -268l475 628q-84 37 -167 37q-168 0 -286 -119t-118 -278zM539 215 q78 -37 168 -37q167 0 285 118t118 276t-94 272z" />
<glyph unicode="&#xf9;" horiz-adv-x="1294" d="M150 479v686h190v-686q0 -125 89 -214t214 -89t214 89t89 214v686h193v-1165h-193v88l-6 -4q-129 -98 -297 -98q-205 0 -349 144t-144 349zM281 1606h196l264 -349h-196z" />
<glyph unicode="&#xfa;" horiz-adv-x="1294" d="M150 479v686h190v-686q0 -125 89 -214t214 -89t214 89t89 214v686h193v-1165h-193v88l-6 -4q-129 -98 -297 -98q-205 0 -349 144t-144 349zM547 1260l264 346h197l-265 -346h-196z" />
<glyph unicode="&#xfb;" horiz-adv-x="1294" d="M150 479v686h190v-686q0 -125 89 -214t214 -89t214 89t89 214v686h193v-1165h-193v88l-6 -4q-129 -98 -297 -98q-205 0 -349 144t-144 349zM348 1260l295 389l295 -389h-197l-98 129l-98 -129h-197z" />
<glyph unicode="&#xfc;" horiz-adv-x="1294" d="M150 479v686h190v-686q0 -125 89 -214t214 -89t214 89t89 214v686h193v-1165h-193v88l-6 -4q-129 -98 -297 -98q-205 0 -349 144t-144 349zM328 1380q0 51 36 87t87 36t87 -36t36 -87t-36 -87t-87 -36t-87 36t-36 87zM721 1380q0 51 36 87t87 36t87 -36t36 -87t-36 -87 t-87 -36t-87 36t-36 87z" />
<glyph unicode="&#xfd;" horiz-adv-x="1282" d="M61 1159h213l373 -831l371 831h213l-713 -1603h-213l236 532zM559 1260l264 346h197l-264 -346h-197z" />
<glyph unicode="&#xfe;" horiz-adv-x="1429" d="M156 -446v2007h192v-539l8 6q168 152 406 152t413 -175t175 -423t-175 -423t-413 -175t-406 151l-8 6v-587h-192zM348 561q10 -163 126 -273t281 -110t283 118t119 286q-1 168 -119 286t-283 117q-165 0 -281 -111t-126 -272v-41z" />
<glyph unicode="&#xff;" horiz-adv-x="1282" d="M61 1159h213l373 -831l371 831h213l-713 -1603h-213l236 532zM338 1380q0 51 36 87t87 36t87 -36t36 -87t-36 -87t-87 -36t-87 36t-36 87zM731 1380q0 51 36 87t87 36t87 -36t36 -87t-36 -87t-87 -36t-87 36t-36 87z" />
<glyph unicode="&#x152;" horiz-adv-x="2666" d="M127 780q0 330 233 563t564 234q176 0 330 -71t266 -197v252h1005v-199h-805v-381h604v-201h-604v-581h805v-199h-1005v254q-111 -127 -267 -199t-329 -71q-330 0 -564 233q-233 233 -233 563zM328 780q0 -248 174 -422t422 -174t422 174t174 422t-174 423t-422 175 t-422 -175t-174 -423z" />
<glyph unicode="&#x153;" horiz-adv-x="2430" d="M109 582q0 248 175 423t423 175q157 0 291 -77t216 -206q84 135 222 209t288 74q248 0 423 -178t175 -420q0 -66 -16 -138h-963l5 -8h-2l4 -6q45 -116 147 -184t230 -68t235 76l117 -154q-161 -116 -337 -116t-310 76t-218 208q-80 -129 -215 -207t-292 -77 q-248 0 -423 175t-175 423zM301 582q0 -168 119 -286t286 -118q168 0 286 118t118 286t-119 286t-285 119q-166 0 -286 -119q-119 -118 -119 -286zM1321 629h805l-2 4q-18 152 -133 253t-271 101t-268 -104t-129 -250z" />
<glyph unicode="&#x178;" horiz-adv-x="1398" d="M49 1563h207l442 -961l441 961h209l-549 -1192v-371h-203v371zM373 1827q0 51 36 87t87 36t87 -36q35 -36 35 -87t-36 -87t-86 -36q-51 0 -87 36t-36 87zM766 1827q0 51 36 87t87 36t87 -36t36 -87t-36 -87t-87 -36t-87 36t-36 87z" />
<glyph unicode="&#x2c6;" horiz-adv-x="886" d="M145 1704l295 389l295 -389h-196l-99 129l-98 -129h-197z" />
<glyph unicode="&#x2dc;" horiz-adv-x="1040" d="M131 1745v194q80 -41 163 -41t229 41q147 41 229 41t166 -41v-194q-84 41 -166 41t-229 -41q-146 -41 -229 -41t-163 41z" />
<glyph unicode="&#x2000;" horiz-adv-x="1097" />
<glyph unicode="&#x2001;" horiz-adv-x="2195" />
<glyph unicode="&#x2002;" horiz-adv-x="1097" />
<glyph unicode="&#x2003;" horiz-adv-x="2195" />
<glyph unicode="&#x2004;" horiz-adv-x="731" />
<glyph unicode="&#x2005;" horiz-adv-x="548" />
<glyph unicode="&#x2006;" horiz-adv-x="365" />
<glyph unicode="&#x2007;" horiz-adv-x="365" />
<glyph unicode="&#x2008;" horiz-adv-x="274" />
<glyph unicode="&#x2009;" horiz-adv-x="439" />
<glyph unicode="&#x200a;" horiz-adv-x="121" />
<glyph unicode="&#x2010;" horiz-adv-x="1048" d="M133 483v193h782v-193h-782z" />
<glyph unicode="&#x2011;" horiz-adv-x="1048" d="M133 483v193h782v-193h-782z" />
<glyph unicode="&#x2012;" horiz-adv-x="1048" d="M133 483v193h782v-193h-782z" />
<glyph unicode="&#x2013;" horiz-adv-x="1595" d="M131 487v195h1339v-195h-1339z" />
<glyph unicode="&#x2014;" horiz-adv-x="2039" d="M131 487v195h1786v-195h-1786z" />
<glyph unicode="&#x2018;" horiz-adv-x="493" d="M119 1324q0 42 20 77l101 162h98l-70 -113q41 -10 68 -42q26 -32 26 -79t-36 -83t-86 -36q-51 0 -86 36t-35 78z" />
<glyph unicode="&#x2019;" horiz-adv-x="462" d="M127 1442q0 47 35 83t86 36t87 -36t36 -77t-23 -78l-100 -162h-98l69 113q-41 10 -67 42t-25 79z" />
<glyph unicode="&#x201a;" horiz-adv-x="552" d="M158 125q0 47 35 83t86 36t87 -36t36 -79t-23 -76l-100 -162h-99l70 113q-41 10 -67 42q-25 32 -25 79z" />
<glyph unicode="&#x201c;" horiz-adv-x="790" d="M139 1325q0 43 21 76l102 162h98l-69 -113q41 -10 67 -42t25 -79q0 -47 -35 -83t-86 -36t-87 36t-36 79zM506 1324q0 42 20 77l101 162h98l-70 -113q41 -10 68 -42t27 -79t-36 -83t-87 -36t-86 36t-35 78z" />
<glyph unicode="&#x201d;" horiz-adv-x="890" d="M135 1444q0 47 36 83t87 36t86 -36t35 -81t-21 -74l-100 -162h-98l69 113q-41 10 -67 42t-27 79zM502 1444q0 47 35 83t86 36t87 -36q61 -61 15 -155l-102 -162h-99l70 113q-41 10 -67 42q-25 32 -25 79z" />
<glyph unicode="&#x201e;" horiz-adv-x="888" d="M131 125q0 47 36 83t87 36t86 -36t35 -83t-21 -72l-100 -162h-98l69 113q-41 10 -67 42t-27 79zM498 125q0 47 34 83q35 36 86 36q52 0 88 -36t36 -79t-21 -76l-103 -162h-98l70 113q-41 10 -67 42q-25 32 -25 79z" />
<glyph unicode="&#x2022;" horiz-adv-x="643" d="M170 580q0 64 44 107q45 44 108 44t107 -44t44 -107q0 -64 -44 -108t-107 -44t-108 44q-44 44 -44 108z" />
<glyph unicode="&#x2026;" horiz-adv-x="1232" d="M131 123q0 51 36 86t87 35t87 -35t36 -86t-36 -87t-87 -36t-87 36t-36 87zM487 123q0 51 36 86t87 35t87 -35t36 -86t-36 -87t-87 -36t-87 36t-36 87zM844 123q0 51 36 86t87 35t87 -35t36 -86t-36 -87t-87 -36t-87 36t-36 87z" />
<glyph unicode="&#x202f;" horiz-adv-x="439" />
<glyph unicode="&#x205f;" horiz-adv-x="548" />
<glyph unicode="&#x20ac;" horiz-adv-x="1474" d="M115 479v201h192q-6 49 -6 99t6 100h-192v200h243q90 221 291 359t447 137q141 0 272 -47l-82 -185q-90 31 -190 31q-162 0 -299 -80t-215 -215h329v-200h-401q-10 -55 -10 -99t10 -100h401v-201h-329q78 -135 215 -216t299 -81q96 0 190 33l82 -184q-131 -47 -272 -47 q-246 0 -447 137t-291 358h-243z" />
<glyph unicode="&#x2122;" horiz-adv-x="1908" d="M139 774v119h566v-119h-222v-774h-121v774h-223zM942 0v938l410 -543l409 543v-938h-123v582l-286 -379l-287 379v-582h-123z" />
<glyph unicode="&#x25fc;" horiz-adv-x="1165" d="M0 0v1165h1165v-1165h-1165z" />
</font>
</defs>
</svg>
